  0
SECTION
  2
HEADER
  9
$ACADVER
  1
AC1014
  9
$ACADMAINTVER
 70
     9
  9
$DWGCODEPAGE
  3
ANSI_932
  9
$INSBASE
 10
0.0
 20
0.0
 30
0.0
  9
$EXTMIN
 10
-120.7563702881118
 20
-63.50013518994011
 30
-0.00000001
  9
$EXTMAX
 10
16.34145278241242
 20
7.999865810059754
 30
0.00000001
  9
$LIMMIN
 10
-130.2750731227956
 20
-77.83903276471363
  9
$LIMMAX
 10
24.62470453366051
 20
30.17967055819332
  9
$ORTHOMODE
 70
     0
  9
$REGENMODE
 70
     1
  9
$FILLMODE
 70
     1
  9
$QTEXTMODE
 70
     0
  9
$MIRRTEXT
 70
     0
  9
$DRAGMODE
 70
     2
  9
$LTSCALE
 40
1.0
  9
$OSMODE
 70
    55
  9
$ATTMODE
 70
     1
  9
$TEXTSIZE
 40
2.5
  9
$TRACEWID
 40
1.0
  9
$TEXTSTYLE
  7
STANDARD
  9
$CLAYER
  8
AM_0
  9
$CELTYPE
  6
BYLAYER
  9
$CECOLOR
 62
   256
  9
$CELTSCALE
 40
1.0
  9
$DELOBJ
 70
     1
  9
$DISPSILH
 70
     0
  9
$DIMSCALE
 40
1.0
  9
$DIMASZ
 40
2.5
  9
$DIMEXO
 40
1.0
  9
$DIMDLI
 40
12.0
  9
$DIMRND
 40
0.0
  9
$DIMDLE
 40
0.0
  9
$DIMEXE
 40
1.0
  9
$DIMTP
 40
0.1
  9
$DIMTM
 40
0.1
  9
$DIMTXT
 40
3.2
  9
$DIMCEN
 40
0.0
  9
$DIMTSZ
 40
0.0
  9
$DIMTOL
 70
     0
  9
$DIMLIM
 70
     0
  9
$DIMTIH
 70
     0
  9
$DIMTOH
 70
     0
  9
$DIMSE1
 70
     0
  9
$DIMSE2
 70
     0
  9
$DIMTAD
 70
     3
  9
$DIMZIN
 70
     8
  9
$DIMBLK
  1
OPEN30
  9
$DIMASO
 70
     1
  9
$DIMSHO
 70
     1
  9
$DIMPOST
  1

  9
$DIMAPOST
  1
"
  9
$DIMALT
 70
     0
  9
$DIMALTD
 70
     2
  9
$DIMALTF
 40
0.0393701
  9
$DIMLFAC
 40
1.0
  9
$DIMTOFL
 70
     1
  9
$DIMTVP
 40
0.0
  9
$DIMTIX
 70
     0
  9
$DIMSOXD
 70
     0
  9
$DIMSAH
 70
     0
  9
$DIMBLK1
  1

  9
$DIMBLK2
  1

  9
$DIMSTYLE
  2
AM_JIS
  9
$DIMCLRD
 70
   256
  9
$DIMCLRE
 70
   256
  9
$DIMCLRT
 70
     2
  9
$DIMTFAC
 40
0.71
  9
$DIMGAP
 40
1.5
  9
$DIMJUST
 70
     0
  9
$DIMSD1
 70
     0
  9
$DIMSD2
 70
     0
  9
$DIMTOLJ
 70
     0
  9
$DIMTZIN
 70
     0
  9
$DIMALTZ
 70
     0
  9
$DIMALTTZ
 70
     0
  9
$DIMFIT
 70
     3
  9
$DIMUPT
 70
     0
  9
$DIMUNIT
 70
     2
  9
$DIMDEC
 70
     3
  9
$DIMTDEC
 70
     3
  9
$DIMALTU
 70
     2
  9
$DIMALTTD
 70
     2
  9
$DIMTXSTY
  7
ASAMI
  9
$DIMAUNIT
 70
     0
  9
$LUNITS
 70
     2
  9
$LUPREC
 70
     2
  9
$SKETCHINC
 40
1.0
  9
$FILLETRAD
 40
2.5
  9
$AUNITS
 70
     0
  9
$AUPREC
 70
     0
  9
$MENU
  1
.
  9
$ELEVATION
 40
0.0
  9
$PELEVATION
 40
0.0
  9
$THICKNESS
 40
0.0
  9
$LIMCHECK
 70
     0
  9
$BLIPMODE
 70
     0
  9
$CHAMFERA
 40
0.5
  9
$CHAMFERB
 40
0.5
  9
$CHAMFERC
 40
20.0
  9
$CHAMFERD
 40
0.0
  9
$SKPOLY
 70
     0
  9
$TDCREATE
 40
2452838.430434386
  9
$TDUPDATE
 40
2453152.436613426
  9
$TDINDWG
 40
0.1733585069
  9
$TDUSRTIMER
 40
0.1733585069
  9
$USRTIMER
 70
     1
  9
$ANGBASE
 50
0.0
  9
$ANGDIR
 70
     0
  9
$PDMODE
 70
     0
  9
$PDSIZE
 40
0.0
  9
$PLINEWID
 40
0.0
  9
$COORDS
 70
     1
  9
$SPLFRAME
 70
     0
  9
$SPLINETYPE
 70
     6
  9
$SPLINESEGS
 70
     8
  9
$ATTDIA
 70
     1
  9
$ATTREQ
 70
     1
  9
$HANDLING
 70
 12289
  9
$HANDSEED
  5
5338
  9
$SURFTAB1
 70
     6
  9
$SURFTAB2
 70
     6
  9
$SURFTYPE
 70
     6
  9
$SURFU
 70
     6
  9
$SURFV
 70
     6
  9
$UCSNAME
  2

  9
$UCSORG
 10
0.0
 20
0.0
 30
0.0
  9
$UCSXDIR
 10
1.0
 20
0.0
 30
0.0
  9
$UCSYDIR
 10
0.0
 20
1.0
 30
0.0
  9
$PUCSNAME
  2

  9
$PUCSORG
 10
0.0
 20
0.0
 30
0.0
  9
$PUCSXDIR
 10
1.0
 20
0.0
 30
0.0
  9
$PUCSYDIR
 10
0.0
 20
1.0
 30
0.0
  9
$USERI1
 70
     0
  9
$USERI2
 70
     0
  9
$USERI3
 70
     0
  9
$USERI4
 70
     0
  9
$USERI5
 70
     0
  9
$USERR1
 40
0.0
  9
$USERR2
 40
0.0
  9
$USERR3
 40
0.0
  9
$USERR4
 40
0.0
  9
$USERR5
 40
0.0
  9
$WORLDVIEW
 70
     1
  9
$SHADEDGE
 70
     3
  9
$SHADEDIF
 70
    70
  9
$TILEMODE
 70
     1
  9
$MAXACTVP
 70
    64
  9
$PINSBASE
 10
0.0
 20
0.0
 30
0.0
  9
$PLIMCHECK
 70
     0
  9
$PEXTMIN
 10
1.000000000000000E+20
 20
1.000000000000000E+20
 30
1.000000000000000E+20
  9
$PEXTMAX
 10
-1.000000000000000E+20
 20
-1.000000000000000E+20
 30
-1.000000000000000E+20
  9
$PLIMMIN
 10
0.0
 20
0.0
  9
$PLIMMAX
 10
841.0
 20
594.0
  9
$UNITMODE
 70
     0
  9
$VISRETAIN
 70
     1
  9
$PLINEGEN
 70
     0
  9
$PSLTSCALE
 70
     0
  9
$TREEDEPTH
 70
  3020
  9
$PICKSTYLE
 70
     0
  9
$CMLSTYLE
  2
STANDARD
  9
$CMLJUST
 70
     0
  9
$CMLSCALE
 40
20.0
  9
$PROXYGRAPHICS
 70
     1
  9
$MEASUREMENT
 70
     1
  0
ENDSEC
  0
SECTION
  2
CLASSES
  0
CLASS
  1
ACDBDICTIONARYWDFLT
  2
AcDbDictionaryWithDefault
  3
AutoCAD 2000
 90
        0
280
     0
281
     0
  0
CLASS
  1
ACDBPLACEHOLDER
  2
AcDbPlaceHolder
  3
AutoCAD 2000
 90
        0
280
     0
281
     0
  0
CLASS
  1
LAYOUT
  2
AcDbLayout
  3
AutoCAD 2000
 90
        0
280
     0
281
     0
  0
CLASS
  1
AMGSETTINGSOBJ
  2
AmgSettingsObj
  3
"AcadM|Product Description: AutoCAD Mechanical 2000|Company: Autodesk"
 90
        0
280
     0
281
     0
  0
CLASS
  1
ACME_DOCUMENT
  2
AcMeDbDoc
  3
AcMeServices
 90
        0
280
     0
281
     0
  0
CLASS
  1
ACMESCOPE
  2
AcMeScope
  3
AcMeServices
 90
        0
280
     0
281
     0
  0
CLASS
  1
ACMECOMMANDHISTORY
  2
AcMeCommandHistory
  3
AcMeServices
 90
        0
280
     0
281
     0
  0
CLASS
  1
DICTIONARYVAR
  2
AcDbDictionaryVar
  3
AutoCAD 2000
 90
        0
280
     0
281
     0
  0
CLASS
  1
ACIMSYSVARMAN
  2
AcImSysVarManager
  3
AcMeServices
 90
        0
280
     0
281
     0
  0
CLASS
  1
ACIMREALSYSVAR
  2
AcImRealSysVar
  3
AcMeServices
 90
        0
280
     0
281
     0
  0
CLASS
  1
ACIMINTSYSVAR
  2
AcImIntSysVar
  3
AcMeServices
 90
        0
280
     0
281
     0
  0
CLASS
  1
ACMEDRAWINGMAN
  2
AcMeDrawingMan
  3
AcMeServices
 90
        0
280
     0
281
     0
  0
CLASS
  1
ACMEVIEW
  2
AcMeView
  3
AcMeServices
 90
        0
280
     0
281
     0
  0
CLASS
  1
ACDBENTITYCACHE
  2
AcMeEntityCache
  3
AcMeServices
 90
        0
280
     0
281
     0
  0
CLASS
  1
GSMANAGER
  2
AcMeGSManager
  3
AcMeServices
 90
        0
280
     0
281
     0
  0
CLASS
  1
AmdtInternalReactor
  2
AmdtInternalReactor
  3
AcMeServices
 90
        0
280
     0
281
     0
  0
CLASS
  1
ACMESTATEMGR
  2
AcMeStateMgr
  3
AcMeServices
 90
        0
280
     0
281
     0
  0
CLASS
  1
ACME_DATABASE
  2
AcMeDbDatabase
  3
AcMeServices
 90
        0
280
     0
281
     0
  0
CLASS
  1
ACRFINSADJUSTERMGR
  2
AcRfInsAdjusterMgr
  3
AcMeServices
 90
        0
280
     0
281
     0
  0
CLASS
  1
ACMDATADICTIONARY
  2
AcmDataDictionary
  3
"AcmSymBB|Product Description: AutoCAD Mechanical 2000|Company: Autodesk"
 90
        0
280
     0
281
     0
  0
CLASS
  1
ACMDATAENTRYBLOCK
  2
AcmDataEntryBlock
  3
"AcmSymBB|Product Description: AutoCAD Mechanical 2000|Company: Autodesk"
 90
        0
280
     0
281
     0
  0
CLASS
  1
AMGOBJPROPCFG
  2
AmgObjPropCfg
  3
"AmgLay|Product Description: AutoCAD Mechanical 2000|Company: Autodesk"
 90
        1
280
     0
281
     0
  0
CLASS
  1
ACAMGFILTERDAT
  2
AcAmgFilterDat
  3
"AcadM|Product Description: AutoCAD Mechanical 2000|Company: Autodesk"
 90
        0
280
     0
281
     0
  0
CLASS
  1
LAYER_INDEX
  2
AcDbLayerIndex
  3
AutoCAD 2000
 90
        0
280
     0
281
     0
  0
CLASS
  1
IDBUFFER
  2
AcDbIdBuffer
  3
AutoCAD 2000
 90
        0
280
     0
281
     0
  0
CLASS
  1
ACIMSTRSYSVAR
  2
AcImStrSysVar
  3
AcMeServices
 90
        0
280
     0
281
     0
  0
CLASS
  1
ACMSTANDARDJIS
  2
AcmStandardJIS
  3
"AcmSymBB|Product Description: AutoCAD Mechanical 2000|Company: Autodesk"
 90
        0
280
     0
281
     0
  0
CLASS
  1
ACMSURFSTANDARDJIS
  2
AcmSurfTextStdJIS
  3
"AcmSymBB|Product Description: AutoCAD Mechanical 2000|Company: Autodesk"
 90
        0
280
     0
281
     0
  0
CLASS
  1
ACMFCFSTANDARDJIS
  2
AcmFCFStdJIS
  3
"AcmSymBB|Product Description: AutoCAD Mechanical 2000|Company: Autodesk"
 90
        0
280
     0
281
     0
  0
CLASS
  1
ACMWELDSTANDARDJIS
  2
AcmWeldingStdJIS
  3
"AcmSymBB|Product Description: AutoCAD Mechanical 2000|Company: Autodesk"
 90
        0
280
     0
281
     0
  0
CLASS
  1
ACMIDSTANDARDJIS
  2
AcmIdStdJIS
  3
"AcmSymBB|Product Description: AutoCAD Mechanical 2000|Company: Autodesk"
 90
        0
280
     0
281
     0
  0
CLASS
  1
ACMDATUMSTANDARDJIS
  2
AcmDatumStdJIS
  3
"AcmSymBB|Product Description: AutoCAD Mechanical 2000|Company: Autodesk"
 90
        0
280
     0
281
     0
  0
CLASS
  1
ACMBOMSTANDARDJIS
  2
AcmBOMStdJIS
  3
"AcmSymBB|Product Description: AutoCAD Mechanical 2000|Company: Autodesk"
 90
        0
280
     0
281
     0
  0
CLASS
  1
ACMSTANDARDANSI
  2
AcmStandardANSI
  3
"AcmSymBB|Product Description: AutoCAD Mechanical 2000|Company: Autodesk"
 90
        0
280
     0
281
     0
  0
CLASS
  1
ACMSURFSTANDARDANSI
  2
AcmSurfTextStdANSI
  3
"AcmSymBB|Product Description: AutoCAD Mechanical 2000|Company: Autodesk"
 90
        0
280
     0
281
     0
  0
CLASS
  1
ACMFCFSTANDARDANSI
  2
AcmFCFStdANSI
  3
"AcmSymBB|Product Description: AutoCAD Mechanical 2000|Company: Autodesk"
 90
        0
280
     0
281
     0
  0
CLASS
  1
ACMWELDSTANDARDANSI
  2
AcmWeldingStdANSI
  3
"AcmSymBB|Product Description: AutoCAD Mechanical 2000|Company: Autodesk"
 90
        0
280
     0
281
     0
  0
CLASS
  1
ACMIDSTANDARDANSI
  2
AcmIdStdANSI
  3
"AcmSymBB|Product Description: AutoCAD Mechanical 2000|Company: Autodesk"
 90
        0
280
     0
281
     0
  0
CLASS
  1
ACMDATUMSTANDARDANSI
  2
AcmDatumStdANSI
  3
"AcmSymBB|Product Description: AutoCAD Mechanical 2000|Company: Autodesk"
 90
        0
280
     0
281
     0
  0
CLASS
  1
ACMBOMSTANDARDANSI
  2
AcmBOMStdANSI
  3
"AcmSymBB|Product Description: AutoCAD Mechanical 2000|Company: Autodesk"
 90
        0
280
     0
281
     0
  0
CLASS
  1
ACMSTANDARDBSI
  2
AcmStandardBSI
  3
"AcmSymBB|Product Description: AutoCAD Mechanical 2000|Company: Autodesk"
 90
        0
280
     0
281
     0
  0
CLASS
  1
ACMSURFSTANDARDBSI
  2
AcmSurfTextStdBSI
  3
"AcmSymBB|Product Description: AutoCAD Mechanical 2000|Company: Autodesk"
 90
        0
280
     0
281
     0
  0
CLASS
  1
ACMFCFSTANDARDBSI
  2
AcmFCFStdBSI
  3
"AcmSymBB|Product Description: AutoCAD Mechanical 2000|Company: Autodesk"
 90
        0
280
     0
281
     0
  0
CLASS
  1
ACMWELDSTANDARDBSI
  2
AcmWeldingStdBSI
  3
"AcmSymBB|Product Description: AutoCAD Mechanical 2000|Company: Autodesk"
 90
        0
280
     0
281
     0
  0
CLASS
  1
ACMIDSTANDARDBSI
  2
AcmIdStdBSI
  3
"AcmSymBB|Product Description: AutoCAD Mechanical 2000|Company: Autodesk"
 90
        0
280
     0
281
     0
  0
CLASS
  1
ACMDATUMSTANDARDBSI
  2
AcmDatumStdBSI
  3
"AcmSymBB|Product Description: AutoCAD Mechanical 2000|Company: Autodesk"
 90
        0
280
     0
281
     0
  0
CLASS
  1
ACMBOMSTANDARDBSI
  2
AcmBOMStdBSI
  3
"AcmSymBB|Product Description: AutoCAD Mechanical 2000|Company: Autodesk"
 90
        0
280
     0
281
     0
  0
CLASS
  1
LONG_TRANSACTION
  2
AcDbLongTransaction
  3
AutoCAD 2000
 90
        0
280
     0
281
     0
  0
CLASS
  1
LWPOLYLINE
  2
AcDbPolyline
  3
AutoCAD 2000
 90
        0
280
     0
281
     1
  0
CLASS
  1
HATCH
  2
AcDbHatch
  3
AutoCAD 2000
 90
        0
280
     0
281
     1
  0
CLASS
  1
XRECORD
  2
AcDbXrecord
  3
AutoCAD 2000
 90
        0
280
     0
281
     0
  0
ENDSEC
  0
SECTION
  2
TABLES
  0
TABLE
  2
VPORT
  5
8
330
0
100
AcDbSymbolTable
 70
     3
  0
VPORT
  5
5307
330
8
100
AcDbSymbolTableRecord
100
AcDbViewportTableRecord
  2
*ACTIVE
 70
     0
 10
0.0
 20
0.0
 11
1.0
 21
1.0
 12
-52.21065234459513
 22
-27.74835863876488
 13
0.0
 23
0.0
 14
2.5
 24
2.5
 15
10.0
 25
10.0
 16
0.0
 26
0.0
 36
1.0
 17
0.0
 27
0.0
 37
0.0
 40
87.91570108001948
 41
1.56570841889117
 42
50.0
 43
0.0
 44
0.0
 50
0.0
 51
0.0
 71
     0
 72
   100
 73
     1
 74
     3
 75
     0
 76
     0
 77
     0
 78
     0
  0
ENDTAB
  0
TABLE
  2
LTYPE
  5
5
330
0
100
AcDbSymbolTable
 70
    10
  0
LTYPE
  5
14
330
5
100
AcDbSymbolTableRecord
100
AcDbLinetypeTableRecord
  2
BYBLOCK
 70
     0
  3

 72
    65
 73
     0
 40
0.0
  0
LTYPE
  5
15
330
5
100
AcDbSymbolTableRecord
100
AcDbLinetypeTableRecord
  2
BYLAYER
 70
     0
  3

 72
    65
 73
     0
 40
0.0
  0
LTYPE
  5
16
330
5
100
AcDbSymbolTableRecord
100
AcDbLinetypeTableRecord
  2
CONTINUOUS
 70
     0
  3
Solid line
 72
    65
 73
     0
 40
0.0
  0
LTYPE
  5
4B
330
5
100
AcDbSymbolTableRecord
100
AcDbLinetypeTableRecord
  2
AM_ISO02W050
 70
     0
  3
__ __ __ __ __ __ __ __ __ __ __ __ __ __ __
 72
    65
 73
     2
 40
7.5
 49
6.0
 74
     0
 49
-1.5
 74
     0
  0
LTYPE
  5
4C
330
5
100
AcDbSymbolTableRecord
100
AcDbLinetypeTableRecord
  2
AM_ISO08W050
 70
     0
  3
____ . ____ . ____ . ____ . ____ . ____ . ____
 72
    65
 73
     4
 40
18.0
 49
12.0
 74
     0
 49
-1.5
 74
     0
 49
3.0
 74
     0
 49
-1.5
 74
     0
  0
LTYPE
  5
4D
330
5
100
AcDbSymbolTableRecord
100
AcDbLinetypeTableRecord
  2
AM_ISO09W050
 70
     0
  3
_____ . . _____ . . _____ . . ____ .. ____
 72
    65
 73
     6
 40
22.5
 49
12.0
 74
     0
 49
-1.5
 74
     0
 49
3.0
 74
     0
 49
-1.5
 74
     0
 49
3.0
 74
     0
 49
-1.5
 74
     0
  0
LTYPE
  5
4E
330
5
100
AcDbSymbolTableRecord
100
AcDbLinetypeTableRecord
  2
AMCONSTR
 70
     0
  3
_______________________
 72
    65
 73
     2
 40
9999.0
 49
9999.0
 74
     0
 49
0.0
 74
     0
  0
LTYPE
  5
4F
330
5
100
AcDbSymbolTableRecord
100
AcDbLinetypeTableRecord
  2
AM_ISO02W050X2
 70
     0
  3
 _ _ _ _ _ _ _ _ _ _ _ _
 72
    65
 73
     2
 40
3.75
 49
3.0
 74
     0
 49
-0.75
 74
     0
  0
LTYPE
  5
50
330
5
100
AcDbSymbolTableRecord
100
AcDbLinetypeTableRecord
  2
AM_ISO08W050X2
 70
     0
  3
__ . __ . __ . __ . __ . __
 72
    65
 73
     4
 40
9.0
 49
6.0
 74
     0
 49
-0.75
 74
     0
 49
1.5
 74
     0
 49
-0.75
 74
     0
  0
LTYPE
  5
53
330
5
100
AcDbSymbolTableRecord
100
AcDbLinetypeTableRecord
  2
AMZIGZAG
 70
     0
  3
/\/-/\/-/\/-/\/-/\/-/\/
 72
    65
 73
     2
 40
11.00009999999999
 49
0.0001
 74
     4
 75
   135
340
52
 46
0.04
 50
0.0
 44
0.0
 45
0.0
 49
-11.0
 74
     0
  0
LTYPE
  5
166
330
5
100
AcDbSymbolTableRecord
100
AcDbLinetypeTableRecord
  2
ACJISTGL
 70
     0
  3
_ _ _ _ _
 72
    65
 73
     2
 40
3.0
 49
2.0
 74
     0
 49
-1.0
 74
     0
  0
LTYPE
  5
26A
330
5
100
AcDbSymbolTableRecord
100
AcDbLinetypeTableRecord
  2
ACJISTGB
 70
     0
  3
__ . . __ . .
 72
    65
 73
     6
 40
9.0
 49
4.0
 74
     0
 49
-1.0
 74
     0
 49
1.0
 74
     0
 49
-1.0
 74
     0
 49
1.0
 74
     0
 49
-1.0
 74
     0
  0
ENDTAB
  0
TABLE
  2
LAYER
  5
2
330
0
100
AcDbSymbolTable
 70
     7
  0
LAYER
  5
10
330
2
100
AcDbSymbolTableRecord
100
AcDbLayerTableRecord
  2
0
 70
     0
 62
     7
  6
CONTINUOUS
  0
LAYER
  5
3F9
330
2
100
AcDbSymbolTableRecord
100
AcDbLayerTableRecord
  2
AM_0
 70
     0
 62
     7
  6
CONTINUOUS
  0
LAYER
  5
BDD
330
2
100
AcDbSymbolTableRecord
100
AcDbLayerTableRecord
  2
AM_11
 70
     0
 62
     3
  6
AM_ISO09W050
  0
LAYER
  5
BDE
330
2
100
AcDbSymbolTableRecord
100
AcDbLayerTableRecord
  2
AM_7
 70
     0
 62
     4
  6
AM_ISO08W050
  0
LAYER
  5
BDF
330
2
100
AcDbSymbolTableRecord
100
AcDbLayerTableRecord
  2
AM_5
 70
     0
 62
     3
  6
CONTINUOUS
  0
LAYER
  5
BE0
330
2
100
AcDbSymbolTableRecord
100
AcDbLayerTableRecord
  2
DEFPOINTS
 70
     0
 62
     7
  6
CONTINUOUS
  0
LAYER
  5
14FF
330
2
100
AcDbSymbolTableRecord
100
AcDbLayerTableRecord
  2
AM_6
 70
     0
 62
     2
  6
CONTINUOUS
  0
ENDTAB
  0
TABLE
  2
STYLE
  5
3
330
0
100
AcDbSymbolTable
 70
     5
  0
STYLE
  5
11
330
3
100
AcDbSymbolTableRecord
100
AcDbTextStyleTableRecord
  2
STANDARD
 70
     0
 40
0.0
 41
1.0
 50
0.0
 71
     0
 42
2.5
  3
simplex.shx
  4
EXTFONT.SHX
  0
STYLE
  5
52
330
3
100
AcDbSymbolTableRecord
100
AcDbTextStyleTableRecord
  2

 70
     1
 40
0.0
 41
1.0
 50
0.0
 71
     0
 42
2.5
  3
ltypeshp.shx
  4

  0
STYLE
  5
6B
330
3
100
AcDbSymbolTableRecord
100
AcDbTextStyleTableRecord
  2
ASAMI
 70
     0
 40
0.0
 41
1.0
 50
0.0
 71
     0
 42
2.5
  3
simplex.shx
  4
EXTFONT.SHX
  0
STYLE
  5
262
330
3
100
AcDbSymbolTableRecord
100
AcDbTextStyleTableRecord
  2
ACJISTS
 70
     0
 40
1.0
 41
1.0
 50
0.0
 71
     0
 42
2.5
  3
simplex.shx
  4
bigfont.shx
  0
STYLE
  5
269
330
3
100
AcDbSymbolTableRecord
100
AcDbTextStyleTableRecord
  2
ACJISGDT
 70
     0
 40
0.0
 41
1.0
 50
0.0
 71
     0
 42
2.5
  3
amgdtans.shx
  4

  0
ENDTAB
  0
TABLE
  2
VIEW
  5
6
330
0
100
AcDbSymbolTable
 70
     0
  0
ENDTAB
  0
TABLE
  2
UCS
  5
7
330
0
100
AcDbSymbolTable
 70
     0
  0
ENDTAB
  0
TABLE
  2
APPID
  5
9
330
0
100
AcDbSymbolTable
 70
    14
  0
APPID
  5
12
330
9
100
AcDbSymbolTableRecord
100
AcDbRegAppTableRecord
  2
ACAD
 70
     0
  0
APPID
  5
30
330
9
100
AcDbSymbolTableRecord
100
AcDbRegAppTableRecord
  2
MCAD_NO_VIS
 70
     0
  0
APPID
  5
31
330
9
100
AcDbSymbolTableRecord
100
AcDbRegAppTableRecord
  2
ACAD_TEMP_GRAPHIC
 70
     0
  0
APPID
  5
2C2
330
9
100
AcDbSymbolTableRecord
100
AcDbRegAppTableRecord
  2
GENIUS_GENDTOL_13
 70
     0
  0
APPID
  5
339
330
9
100
AcDbSymbolTableRecord
100
AcDbRegAppTableRecord
  2
GENIUS_GENODEF_13
 70
     0
  0
APPID
  5
33A
330
9
100
AcDbSymbolTableRecord
100
AcDbRegAppTableRecord
  2
GENIUS_GENOBJ-N-RSBK_13
 70
     0
  0
APPID
  5
33B
330
9
100
AcDbSymbolTableRecord
100
AcDbRegAppTableRecord
  2
GENIUS_GENOBJ-N-LIB_13
 70
     0
  0
APPID
  5
33C
330
9
100
AcDbSymbolTableRecord
100
AcDbRegAppTableRecord
  2
GENIUS_GENSCALE_13
 70
     0
  0
APPID
  5
378
330
9
100
AcDbSymbolTableRecord
100
AcDbRegAppTableRecord
  2
GENIUS_GENDIMSH_14
 70
     0
  0
APPID
  5
BE1
330
9
100
AcDbSymbolTableRecord
100
AcDbRegAppTableRecord
  2
GENIUS_GENFIL_13
 70
     0
  0
APPID
  5
BE2
330
9
100
AcDbSymbolTableRecord
100
AcDbRegAppTableRecord
  2
GENIUS_GENOBJ-N-CHA_13
 70
     0
  0
APPID
  5
151B
330
9
100
AcDbSymbolTableRecord
100
AcDbRegAppTableRecord
  2
DCO15
 70
     0
  0
APPID
  5
1860
330
9
100
AcDbSymbolTableRecord
100
AcDbRegAppTableRecord
  2
GENIUS_GENOBJ-N-CEN_13
 70
     0
  0
APPID
  5
359C
330
9
100
AcDbSymbolTableRecord
100
AcDbRegAppTableRecord
  2
GENIUS_GENOBJ-N-FIL_13
 70
     0
  0
ENDTAB
  0
TABLE
  2
DIMSTYLE
  5
A
330
0
100
AcDbSymbolTable
 70
     8
  0
DIMSTYLE
105
58
102
{ACAD_REACTORS
330
4047
330
412A
330
42F4
330
4D75
330
4F1E
102
}
330
A
100
AcDbSymbolTableRecord
100
AcDbDimStyleTableRecord
  2
AM_JIS
 70
     0
  3

  4
"
  5
OPEN30
  6

  7

 40
1.0
 41
2.5
 42
1.0
 43
12.0
 44
1.0
 45
0.0
 46
0.0
 47
0.1
 48
0.1
140
3.2
141
0.0
142
0.0
143
0.0393701
144
1.0
145
0.0
146
0.71
147
1.5
 71
     0
 72
     0
 73
     0
 74
     0
 75
     0
 76
     0
 77
     3
 78
     8
170
     0
171
     2
172
     1
173
     0
174
     0
175
     0
176
   256
177
   256
178
     2
270
     2
271
     3
272
     3
273
     2
274
     2
340
6B
275
     0
280
     0
281
     0
282
     0
283
     0
284
     0
285
     0
286
     0
287
     3
288
     0
  0
DIMSTYLE
105
5F
330
A
100
AcDbSymbolTableRecord
100
AcDbDimStyleTableRecord
  2
AM_JIS$3
 70
     0
  3

  4
"
  5
OPEN30
  6

  7

 40
1.0
 41
2.5
 42
1.0
 43
10.0
 44
1.0
 45
0.0
 46
0.0
 47
0.1
 48
0.1
140
3.2
141
0.0
142
0.0
143
0.0393701
144
1.0
145
0.0
146
0.71
147
1.5
 71
     0
 72
     0
 73
     0
 74
     1
 75
     0
 76
     0
 77
     3
 78
     8
170
     0
171
     2
172
     0
173
     0
174
     0
175
     0
176
   256
177
   256
178
     2
270
     2
271
     2
272
     3
273
     2
274
     2
340
6B
275
     0
280
     0
281
     0
282
     0
283
     0
284
     0
285
     0
286
     0
287
     0
288
     1
  0
DIMSTYLE
105
60
102
{ACAD_REACTORS
330
50E2
102
}
330
A
100
AcDbSymbolTableRecord
100
AcDbDimStyleTableRecord
  2
AM_JIS$4
 70
     0
  3

  4
"
  5
OPEN30
  6

  7

 40
1.0
 41
2.5
 42
1.0
 43
10.0
 44
1.0
 45
0.0
 46
0.0
 47
0.1
 48
0.1
140
3.2
141
0.0
142
0.0
143
0.0393701
144
1.0
145
0.0
146
0.71
147
1.5
 71
     0
 72
     0
 73
     0
 74
     1
 75
     0
 76
     0
 77
     3
 78
     8
170
     0
171
     2
172
     0
173
     0
174
     0
175
     0
176
   256
177
   256
178
     2
270
     2
271
     2
272
     3
273
     2
274
     2
340
6B
275
     0
280
     0
281
     0
282
     0
283
     0
284
     0
285
     0
286
     0
287
     0
288
     1
  0
DIMSTYLE
105
61
330
A
100
AcDbSymbolTableRecord
100
AcDbDimStyleTableRecord
  2
AM_JIS$6
 70
     0
  3

  4
"
  5
OPEN30
  6

  7

 40
1.0
 41
2.5
 42
1.0
 43
10.0
 44
1.0
 45
0.0
 46
0.0
 47
0.1
 48
0.1
140
3.2
141
0.0
142
0.0
143
0.0393701
144
1.0
145
0.0
146
0.71
147
1.5
 71
     0
 72
     0
 73
     0
 74
     0
 75
     0
 76
     0
 77
     0
 78
     8
170
     0
171
     2
172
     1
173
     0
174
     0
175
     0
176
   256
177
   256
178
     2
270
     2
271
     2
272
     2
273
     2
274
     2
340
6B
275
     0
280
     0
281
     0
282
     0
283
     0
284
     0
285
     0
286
     0
287
     3
288
     0
  0
DIMSTYLE
105
62
330
A
100
AcDbSymbolTableRecord
100
AcDbDimStyleTableRecord
  2
AM_JIS$7
 70
     0
  3

  4
"
  5
OPEN30
  6

  7

 40
1.0
 41
2.5
 42
1.0
 43
10.0
 44
1.0
 45
0.0
 46
0.0
 47
0.1
 48
0.1
140
3.2
141
0.0
142
0.0
143
0.0393701
144
1.0
145
0.0
146
0.71
147
1.5
 71
     0
 72
     0
 73
     0
 74
     0
 75
     0
 76
     0
 77
     3
 78
     8
170
     0
171
     2
172
     1
173
     0
174
     0
175
     0
176
   256
177
   256
178
     2
270
     2
271
     2
272
     3
273
     2
274
     2
340
6B
275
     0
280
     0
281
     0
282
     0
283
     0
284
     0
285
     0
286
     0
287
     3
288
     0
  0
DIMSTYLE
105
63
330
A
100
AcDbSymbolTableRecord
100
AcDbDimStyleTableRecord
  2
AM_JIS$SF
 70
     0
  3

  4
"
  5
OPEN30
  6

  7

 40
1.0
 41
2.5
 42
1.0
 43
10.0
 44
1.0
 45
0.0
 46
0.0
 47
0.1
 48
0.1
140
3.2
141
0.0
142
0.0
143
0.0393701
144
1.0
145
0.0
146
0.71
147
1.5
 71
     0
 72
     0
 73
     0
 74
     0
 75
     1
 76
     1
 77
     3
 78
     8
170
     0
171
     2
172
     1
173
     0
174
     0
175
     0
176
   256
177
   256
178
     2
270
     2
271
     2
272
     2
273
     2
274
     2
340
6B
275
     0
280
     0
281
     0
282
     0
283
     0
284
     0
285
     0
286
     0
287
     3
288
     0
  0
DIMSTYLE
105
68
330
A
100
AcDbSymbolTableRecord
100
AcDbDimStyleTableRecord
  2
AM_JIS$SH
 70
     0
  3

  4
"
  5

  6
GENAXEH
  7
OPEN30
 40
1.0
 41
2.5
 42
1.0
 43
10.0
 44
1.0
 45
0.0
 46
0.0
 47
0.1
 48
0.1
140
3.2
141
0.0
142
0.0
143
0.0393701
144
2.0
145
0.0
146
0.71
147
1.5
 71
     0
 72
     0
 73
     0
 74
     0
 75
     1
 76
     1
 77
     3
 78
     8
170
     0
171
     2
172
     1
173
     1
174
     0
175
     0
176
   256
177
   256
178
     2
270
     2
271
     2
272
     2
273
     2
274
     2
340
6B
275
     0
280
     0
281
     0
282
     0
283
     0
284
     0
285
     0
286
     0
287
     3
288
     0
  0
DIMSTYLE
105
B34
330
A
100
AcDbSymbolTableRecord
100
AcDbDimStyleTableRecord
  2
AM_JIS$2
 70
     0
  3

  4
"
  5
OPEN30
  6

  7

 40
1.0
 41
2.5
 42
1.0
 43
12.0
 44
1.0
 45
0.0
 46
0.0
 47
0.1
 48
0.1
140
3.2
141
0.0
142
0.0
143
0.0393701
144
1.0
145
0.0
146
0.71
147
1.5
 71
     0
 72
     0
 73
     0
 74
     0
 75
     0
 76
     0
 77
     3
 78
     8
170
     0
171
     2
172
     1
173
     0
174
     0
175
     0
176
   256
177
   256
178
     2
270
     2
271
     3
272
     3
273
     2
274
     2
340
6B
275
     0
280
     0
281
     0
282
     0
283
     0
284
     0
285
     0
286
     0
287
     3
288
     0
  0
ENDTAB
  0
TABLE
  2
BLOCK_RECORD
  5
1
330
0
100
AcDbSymbolTable
 70
    11
  0
BLOCK_RECORD
  5
1F
102
{ACAD_XDICTIONARY
360
74
102
}
330
1
100
AcDbSymbolTableRecord
100
AcDbBlockTableRecord
  2
*MODEL_SPACE
  0
BLOCK_RECORD
  5
101
102
{ACAD_XDICTIONARY
360
5330
102
}
330
1
100
AcDbSymbolTableRecord
100
AcDbBlockTableRecord
  2
*PAPER_SPACE
  0
BLOCK_RECORD
  5
59
330
1
100
AcDbSymbolTableRecord
100
AcDbBlockTableRecord
  2
_OPEN30
  0
BLOCK_RECORD
  5
64
330
1
100
AcDbSymbolTableRecord
100
AcDbBlockTableRecord
  2
GENAXEH
  0
BLOCK_RECORD
  5
4048
330
1
100
AcDbSymbolTableRecord
100
AcDbBlockTableRecord
  2
*D5
  0
BLOCK_RECORD
  5
412B
330
1
100
AcDbSymbolTableRecord
100
AcDbBlockTableRecord
  2
*D6
  0
BLOCK_RECORD
  5
42F5
330
1
100
AcDbSymbolTableRecord
100
AcDbBlockTableRecord
  2
*D7
  0
BLOCK_RECORD
  5
4D76
330
1
100
AcDbSymbolTableRecord
100
AcDbBlockTableRecord
  2
*D8
  0
BLOCK_RECORD
  5
4F1F
330
1
100
AcDbSymbolTableRecord
100
AcDbBlockTableRecord
  2
*D9
  0
BLOCK_RECORD
  5
50E3
330
1
100
AcDbSymbolTableRecord
100
AcDbBlockTableRecord
  2
*D10
  0
ENDTAB
  0
ENDSEC
  0
SECTION
  2
BLOCKS
  0
BLOCK
  5
20
330
1F
100
AcDbEntity
  8
0
100
AcDbBlockBegin
  2
*MODEL_SPACE
 70
     0
 10
0.0
 20
0.0
 30
0.0
  3
*MODEL_SPACE
  1

  0
ENDBLK
  5
21
330
1F
100
AcDbEntity
  8
0
100
AcDbBlockEnd
  0
BLOCK
  5
103
330
101
100
AcDbEntity
 67
     1
  8
0
100
AcDbBlockBegin
  2
*PAPER_SPACE
 70
     0
 10
0.0
 20
0.0
 30
0.0
  3
*PAPER_SPACE
  1

  0
ENDBLK
  5
104
330
101
100
AcDbEntity
 67
     1
  8
0
100
AcDbBlockEnd
  0
BLOCK
  5
5D
330
59
100
AcDbEntity
  8
0
100
AcDbBlockBegin
  2
_OPEN30
 70
     0
 10
0.0
 20
0.0
 30
0.0
  3
_OPEN30
  1

  0
LINE
  5
5A
330
59
100
AcDbEntity
  8
0
 62
     0
100
AcDbLine
 10
-1.0
 20
0.26794919
 30
0.0
 11
0.0
 21
0.0
 31
0.0
  0
LINE
  5
5B
330
59
100
AcDbEntity
  8
0
 62
     0
100
AcDbLine
 10
0.0
 20
0.0
 30
0.0
 11
-1.0
 21
-0.26794919
 31
0.0
  0
LINE
  5
5C
330
59
100
AcDbEntity
  8
0
 62
     0
100
AcDbLine
 10
0.0
 20
0.0
 30
0.0
 11
-1.0
 21
0.0
 31
0.0
  0
ENDBLK
  5
5E
330
59
100
AcDbEntity
  8
0
100
AcDbBlockEnd
  0
BLOCK
  5
66
330
64
100
AcDbEntity
  8
0
100
AcDbBlockBegin
  2
GENAXEH
 70
     0
 10
0.0
 20
0.0
 30
0.0
  3
GENAXEH
  1

  0
LINE
  5
65
330
64
100
AcDbEntity
  8
0
100
AcDbLine
 10
-1.0
 20
0.0
 30
0.0
 11
1.0
 21
0.0
 31
0.0
  0
ENDBLK
  5
67
330
64
100
AcDbEntity
  8
0
100
AcDbBlockEnd
  0
BLOCK
  5
4052
330
4048
100
AcDbEntity
  8
0
100
AcDbBlockBegin
  2
*D5
 70
     1
 10
0.0
 20
0.0
 30
0.0
  3
*D5
  1

  0
LINE
  5
51D6
330
4048
100
AcDbEntity
  8
AM_5
100
AcDbLine
 10
-100.0001751581522
 20
-3.500134189940184
 30
0.0
 11
-100.0001751581522
 21
-42.00013518994007
 31
0.0
  0
LINE
  5
51D7
330
4048
100
AcDbEntity
  8
AM_5
100
AcDbLine
 10
-0.000175158152334
 20
-1.000134189940116
 30
0.0
 11
-0.0001751581523365
 21
-42.00013518994007
 31
0.0
  0
LINE
  5
51D8
330
4048
100
AcDbEntity
  8
AM_5
100
AcDbLine
 10
-97.50017515815228
 20
-41.00013518994008
 30
0.0
 11
-2.500175158152336
 21
-41.00013518994008
 31
0.0
  0
INSERT
  5
51D9
330
4048
100
AcDbEntity
  8
AM_5
100
AcDbBlockReference
  2
_OPEN30
 10
-100.0001751581522
 20
-41.00013518994008
 30
0.0
 41
2.5
 42
2.5
 43
2.5
 50
180.0
  0
INSERT
  5
51DA
330
4048
100
AcDbEntity
  8
AM_5
100
AcDbBlockReference
  2
_OPEN30
 10
-0.0001751581523364
 20
-41.00013518994008
 30
0.0
 41
2.5
 42
2.5
 43
2.5
  0
MTEXT
  5
51DB
330
4048
100
AcDbEntity
  8
AM_5
 62
     2
100
AcDbMText
 10
-50.0001751581523
 20
-37.90013518994008
 30
0.0
 40
3.2
 41
0.0
 71
     5
 72
     1
  1
100
  7
ASAMI
1001
ACAD
1000
MTEXTBEGIN
1070
    73
1070
     1
1070
    44
1040
1.0
1070
    74
1070
     0
1000
MTEXTEND
  0
POINT
  5
51DC
330
4048
100
AcDbEntity
  8
DEFPOINTS
 62
     0
100
AcDbPoint
 10
-100.0001751581522
 20
-2.500134189940184
 30
0.0
  0
POINT
  5
51DD
330
4048
100
AcDbEntity
  8
DEFPOINTS
 62
     0
100
AcDbPoint
 10
-0.0001751581523339
 20
-0.0001341899401166
 30
0.0
  0
POINT
  5
51DE
330
4048
100
AcDbEntity
  8
DEFPOINTS
 62
     0
100
AcDbPoint
 10
-0.0001751581523364
 20
-41.00013518994008
 30
0.0
  0
ENDBLK
  5
4053
330
4048
100
AcDbEntity
  8
0
100
AcDbBlockEnd
  0
BLOCK
  5
4135
330
412B
100
AcDbEntity
  8
0
100
AcDbBlockBegin
  2
*D6
 70
     1
 10
0.0
 20
0.0
 30
0.0
  3
*D6
  1

  0
LINE
  5
51F9
330
412B
100
AcDbEntity
  8
AM_5
100
AcDbLine
 10
-0.0001751581523489
 20
-1.000134189940127
 30
0.0
 11
-0.0001751581523499
 21
-18.00013518994009
 31
0.0
  0
LINE
  5
51FA
330
412B
100
AcDbEntity
  8
AM_5
100
AcDbLine
 10
-4.0
 20
-2.500000000000014
 30
0.0
 11
-4.0
 21
-18.00013518994009
 31
0.0
  0
LINE
  5
51FB
330
412B
100
AcDbEntity
  8
AM_5
100
AcDbLine
 10
2.49982484184765
 20
-17.00013518994009
 30
0.0
 11
4.99982484184765
 21
-17.00013518994009
 31
0.0
  0
LINE
  5
51FC
330
412B
100
AcDbEntity
  8
AM_5
100
AcDbLine
 10
-6.5
 20
-17.00013518994009
 30
0.0
 11
-14.28571428571428
 21
-17.00013518994009
 31
0.0
  0
LINE
  5
51FD
330
412B
100
AcDbEntity
  8
AM_5
100
AcDbLine
 10
-0.0001751581523498
 20
-17.00013518994009
 30
0.0
 11
-4.0
 21
-17.00013518994009
 31
0.0
  0
INSERT
  5
51FE
330
412B
100
AcDbEntity
  8
AM_5
100
AcDbBlockReference
  2
_OPEN30
 10
-0.0001751581523498
 20
-17.00013518994009
 30
0.0
 41
2.5
 42
2.5
 43
2.5
 50
180.0
  0
INSERT
  5
51FF
330
412B
100
AcDbEntity
  8
AM_5
100
AcDbBlockReference
  2
_OPEN30
 10
-4.0
 20
-17.00013518994009
 30
0.0
 41
2.5
 42
2.5
 43
2.5
  0
MTEXT
  5
5200
330
412B
100
AcDbEntity
  8
AM_5
 62
     2
100
AcDbMText
 10
-11.64285714285714
 20
-13.90013518994009
 30
0.0
 40
3.2
 41
0.0
 71
     5
 72
     1
  1
4
  7
ASAMI
1001
ACAD
1000
MTEXTBEGIN
1070
    73
1070
     1
1070
    44
1040
1.0
1070
    74
1070
     0
1000
MTEXTEND
  0
POINT
  5
5201
330
412B
100
AcDbEntity
  8
DEFPOINTS
 62
     0
100
AcDbPoint
 10
-0.0001751581523488
 20
-0.0001341899401273
 30
0.0
  0
POINT
  5
5202
330
412B
100
AcDbEntity
  8
DEFPOINTS
 62
     0
100
AcDbPoint
 10
-4.0
 20
-1.500000000000014
 30
0.0
  0
POINT
  5
5203
330
412B
100
AcDbEntity
  8
DEFPOINTS
 62
     0
100
AcDbPoint
 10
-4.0
 20
-17.00013518994009
 30
0.0
  0
ENDBLK
  5
4136
330
412B
100
AcDbEntity
  8
0
100
AcDbBlockEnd
  0
BLOCK
  5
42FF
330
42F5
100
AcDbEntity
  8
0
100
AcDbBlockBegin
  2
*D7
 70
     1
 10
0.0
 20
0.0
 30
0.0
  3
*D7
  1

  0
LINE
  5
5204
330
42F5
100
AcDbEntity
  8
AM_5
100
AcDbLine
 10
-0.499999999999993
 20
1.499999999999999
 30
0.0
 11
16.34145278241242
 21
1.499999999999995
 31
0.0
  0
LINE
  5
5205
330
42F5
100
AcDbEntity
  8
AM_5
100
AcDbLine
 10
-0.4999999999999897
 20
-1.499999999999996
 30
0.0
 11
16.34145278241242
 21
-1.500000000000001
 31
0.0
  0
LINE
  5
5206
330
42F5
100
AcDbEntity
  8
AM_5
100
AcDbLine
 10
15.34145278241242
 20
3.999999999999995
 30
0.0
 11
15.34145278241242
 21
6.499999999999994
 31
0.0
  0
LINE
  5
5207
330
42F5
100
AcDbEntity
  8
AM_5
100
AcDbLine
 10
15.34145278241242
 20
-4.0
 30
0.0
 11
15.34145278241242
 21
-14.52857142857143
 31
0.0
  0
LINE
  5
5208
330
42F5
100
AcDbEntity
  8
AM_5
100
AcDbLine
 10
15.34145278241242
 20
1.499999999999995
 30
0.0
 11
15.34145278241242
 21
-1.500000000000001
 31
0.0
  0
INSERT
  5
5209
330
42F5
100
AcDbEntity
  8
AM_5
100
AcDbBlockReference
  2
_OPEN30
 10
15.34145278241242
 20
1.499999999999995
 30
0.0
 41
2.5
 42
2.5
 43
2.5
 50
270.0
  0
INSERT
  5
520A
330
42F5
100
AcDbEntity
  8
AM_5
100
AcDbBlockReference
  2
_OPEN30
 10
15.34145278241242
 20
-1.500000000000001
 30
0.0
 41
2.5
 42
2.5
 43
2.5
 50
90.0
  0
MTEXT
  5
520B
330
42F5
100
AcDbEntity
  8
AM_5
 62
     2
100
AcDbMText
 10
12.24145278241242
 20
-10.51428571428571
 30
0.0
 40
3.2
 41
0.0
 71
     5
 72
     1
  1
%%c3
  7
ASAMI
 11
0.0000000000000001
 21
1.0
 31
0.0
1001
ACAD
1000
MTEXTBEGIN
1070
    73
1070
     1
1070
    44
1040
1.0
1070
    74
1070
     0
1000
MTEXTEND
  0
POINT
  5
520C
330
42F5
100
AcDbEntity
  8
DEFPOINTS
 62
     0
100
AcDbPoint
 10
-1.499999999999993
 20
1.5
 30
0.0
  0
POINT
  5
520D
330
42F5
100
AcDbEntity
  8
DEFPOINTS
 62
     0
100
AcDbPoint
 10
-1.499999999999989
 20
-1.499999999999996
 30
0.0
  0
POINT
  5
520E
330
42F5
100
AcDbEntity
  8
DEFPOINTS
 62
     0
100
AcDbPoint
 10
15.34145278241242
 20
-1.500000000000001
 30
0.0
  0
ENDBLK
  5
4300
330
42F5
100
AcDbEntity
  8
0
100
AcDbBlockEnd
  0
BLOCK
  5
4D80
330
4D76
100
AcDbEntity
  8
0
100
AcDbBlockBegin
  2
*D8
 70
     1
 10
0.0
 20
0.0
 30
0.0
  3
*D8
  1

  0
LINE
  5
51F0
330
4D76
100
AcDbEntity
  8
AM_5
100
AcDbLine
 10
-0.0001751581523438
 20
-1.000134189940117
 30
0.0
 11
-0.0001751581523455
 21
-30.00013518994014
 31
0.0
  0
LINE
  5
51F1
330
4D76
100
AcDbEntity
  8
AM_5
100
AcDbLine
 10
-35.00017515815233
 20
-2.500000000000036
 30
0.0
 11
-35.00017515815233
 21
-30.00013518994014
 31
0.0
  0
LINE
  5
51F2
330
4D76
100
AcDbEntity
  8
AM_5
100
AcDbLine
 10
-2.500175158152345
 20
-29.00013518994015
 30
0.0
 11
-32.50017515815233
 21
-29.00013518994015
 31
0.0
  0
INSERT
  5
51F3
330
4D76
100
AcDbEntity
  8
AM_5
100
AcDbBlockReference
  2
_OPEN30
 10
-0.0001751581523455
 20
-29.00013518994015
 30
0.0
 41
2.5
 42
2.5
 43
2.5
  0
INSERT
  5
51F4
330
4D76
100
AcDbEntity
  8
AM_5
100
AcDbBlockReference
  2
_OPEN30
 10
-35.00017515815233
 20
-29.00013518994015
 30
0.0
 41
2.5
 42
2.5
 43
2.5
 50
180.0
  0
MTEXT
  5
51F5
330
4D76
100
AcDbEntity
  8
AM_5
 62
     2
100
AcDbMText
 10
-17.50017515815233
 20
-25.90013518994014
 30
0.0
 40
3.2
 41
0.0
 71
     5
 72
     1
  1
35
  7
ASAMI
1001
ACAD
1000
MTEXTBEGIN
1070
    73
1070
     1
1070
    44
1040
1.0
1070
    74
1070
     0
1000
MTEXTEND
  0
POINT
  5
51F6
330
4D76
100
AcDbEntity
  8
DEFPOINTS
 62
     0
100
AcDbPoint
 10
-0.0001751581523437
 20
-0.0001341899401171
 30
0.0
  0
POINT
  5
51F7
330
4D76
100
AcDbEntity
  8
DEFPOINTS
 62
     0
100
AcDbPoint
 10
-35.00017515815233
 20
-1.500000000000036
 30
0.0
  0
POINT
  5
51F8
330
4D76
100
AcDbEntity
  8
DEFPOINTS
 62
     0
100
AcDbPoint
 10
-35.00017515815233
 20
-29.00013518994015
 30
0.0
  0
ENDBLK
  5
4D81
330
4D76
100
AcDbEntity
  8
0
100
AcDbBlockEnd
  0
BLOCK
  5
4F2B
330
4F1F
100
AcDbEntity
  8
0
100
AcDbBlockBegin
  2
*D9
 70
     1
 10
0.0
 20
0.0
 30
0.0
  3
*D9
  1

  0
LINE
  5
51DF
330
4F1F
100
AcDbEntity
  8
AM_5
100
AcDbLine
 10
-100.5001751581522
 20
2.999865810059749
 30
0.0
 11
-117.0563702881118
 21
2.999865810059754
 31
0.0
  0
LINE
  5
51E0
330
4F1F
100
AcDbEntity
  8
AM_5
100
AcDbLine
 10
-100.5001751581522
 20
-3.000134189940184
 30
0.0
 11
-117.0563702881118
 21
-3.000134189940179
 31
0.0
  0
LINE
  5
51E1
330
4F1F
100
AcDbEntity
  8
AM_5
100
AcDbLine
 10
-116.0563702881118
 20
5.499865810059754
 30
0.0
 11
-116.0563702881118
 21
7.999865810059754
 31
0.0
  0
LINE
  5
51E2
330
4F1F
100
AcDbEntity
  8
AM_5
100
AcDbLine
 10
-116.0563702881118
 20
-5.500134189940179
 30
0.0
 11
-116.0563702881118
 21
-15.87632466613065
 31
0.0
  0
LINE
  5
51E3
330
4F1F
100
AcDbEntity
  8
AM_5
100
AcDbLine
 10
-116.0563702881118
 20
2.999865810059754
 30
0.0
 11
-116.0563702881118
 21
-3.000134189940179
 31
0.0
  0
INSERT
  5
51E4
330
4F1F
100
AcDbEntity
  8
AM_5
100
AcDbBlockReference
  2
_OPEN30
 10
-116.0563702881118
 20
2.999865810059754
 30
0.0
 41
2.5
 42
2.5
 43
2.5
 50
270.0
  0
INSERT
  5
51E5
330
4F1F
100
AcDbEntity
  8
AM_5
100
AcDbBlockReference
  2
_OPEN30
 10
-116.0563702881118
 20
-3.000134189940179
 30
0.0
 41
2.5
 42
2.5
 43
2.5
 50
90.0
  0
MTEXT
  5
51E6
330
4F1F
100
AcDbEntity
  8
AM_5
 62
     2
100
AcDbMText
 10
-119.1563702881118
 20
-11.93822942803543
 30
0.0
 40
3.2
 41
0.0
 71
     5
 72
     1
  1
%%c6
  7
ASAMI
 11
0.0000000000000001
 21
1.0
 31
0.0
1001
ACAD
1000
MTEXTBEGIN
1070
    73
1070
     1
1070
    44
1040
1.0
1070
    74
1070
     0
1000
MTEXTEND
  0
POINT
  5
51E7
330
4F1F
100
AcDbEntity
  8
DEFPOINTS
 62
     0
100
AcDbPoint
 10
-99.50017515815227
 20
2.999865810059749
 30
0.0
  0
POINT
  5
51E8
330
4F1F
100
AcDbEntity
  8
DEFPOINTS
 62
     0
100
AcDbPoint
 10
-99.50017515815225
 20
-3.000134189940184
 30
0.0
  0
POINT
  5
51E9
330
4F1F
100
AcDbEntity
  8
DEFPOINTS
 62
     0
100
AcDbPoint
 10
-116.0563702881118
 20
-3.000134189940179
 30
0.0
  0
ENDBLK
  5
4F2C
330
4F1F
100
AcDbEntity
  8
0
100
AcDbBlockEnd
  0
BLOCK
  5
50E9
330
50E3
100
AcDbEntity
  8
0
100
AcDbBlockBegin
  2
*D10
 70
     1
 10
0.0
 20
0.0
 30
0.0
  3
*D10
  1

  0
LINE
  5
5332
330
50E3
100
AcDbEntity
  8
AM_5
100
AcDbLine
 10
11.31311465427827
 20
-25.16773112341232
 30
0.0
 11
0.3134787943548585
 21
-3.542501892938063
 31
0.0
  0
MTEXT
  5
5333
330
50E3
100
AcDbEntity
  8
AM_5
 62
     2
100
AcDbMText
 10
11.28907041376989
 20
-18.28277347436705
 30
0.0
 40
3.2
 41
0.0
 71
     5
 72
     1
  1
R1.5
  7
ASAMI
 11
0.4533696985887487
 21
-0.8913225658545547
 31
0.0
  0
LINE
  5
5334
330
50E3
100
AcDbEntity
  8
AM_5
100
AcDbLine
 10
-1.500000000000137
 20
0.022788370480157
 30
0.0
 11
-0.8199454521170135
 21
-1.314195478301676
 31
0.0
  0
INSERT
  5
5335
330
50E3
100
AcDbEntity
  8
AM_5
100
AcDbBlockReference
  2
_OPEN30
 10
-0.8199454521170135
 20
-1.314195478301676
 30
0.0
 41
2.5
 42
2.5
 43
2.5
 50
116.9600867374965
  0
POINT
  5
5336
330
50E3
100
AcDbEntity
  8
DEFPOINTS
 62
     0
100
AcDbPoint
 10
-0.8199454521170135
 20
-1.314195478301676
 30
0.0
  0
POINT
  5
5337
330
50E3
100
AcDbEntity
  8
DEFPOINTS
 62
     0
100
AcDbPoint
 10
-1.500000000000137
 20
0.022788370480157
 30
0.0
  0
ENDBLK
  5
50EA
330
50E3
100
AcDbEntity
  8
0
100
AcDbBlockEnd
  0
ENDSEC
  0
SECTION
  2
ENTITIES
  0
TEXT
  5
1500
330
1F
100
AcDbEntity
  8
AM_6
100
AcDbText
 10
-68.09541325339037
 20
-63.50013518994008
 30
0.0
 40
5.0
  1
LSSB2030
 72
     4
 11
-50.00017515815228
 21
-61.00013518994008
 31
0.0
100
AcDbText
  0
LINE
  5
3EE8
330
1F
100
AcDbEntity
  8
AM_7
  6
AM_ISO08W050X2
100
AcDbLine
 10
1.34145178241243
 20
-0.0000000045984149
 30
0.0
 11
-102.0563692881118
 21
-0.0000000045985037
 31
0.0
1001
GENIUS_GENODEF_13
1002
{
1000
HIER
1070
     0
1002
}
1002
{
1000
MANEDIT
1070
     0
1002
}
1002
{
1000
NOSEL
1070
     0
1002
}
1002
{
1000
BEHIND
1070
     0
1002
}
1002
{
1000
REACTOR
1002
}
1001
GENIUS_GENOBJ-N-CEN_13
1002
{
1000
OWNER
1000
GEN
1002
}
  0
DIMENSION
  5
4047
330
1F
100
AcDbEntity
  8
AM_5
100
AcDbDimension
  2
*D5
 10
-0.0001751581523364
 20
-41.00013518994008
 30
0.0
 11
-50.0001751581523
 21
-37.90013518994008
 31
0.0
 70
    32
  1
<>
  3
AM_JIS
100
AcDbAlignedDimension
 13
-100.0001751581522
 23
-2.500134189940184
 33
0.0
 14
-0.0001751581523339
 24
-0.0001341899401166
 34
0.0
 50
0.0000000000001132
100
AcDbRotatedDimension
1001
GENIUS_GENDTOL_13
1000

1000
h7
1000

1040
0.0
  0
DIMENSION
  5
412A
330
1F
100
AcDbEntity
  8
AM_5
100
AcDbDimension
  2
*D6
 10
-4.0
 20
-17.00013518994009
 30
0.0
 11
-11.64285714285714
 21
-13.90013518994009
 31
0.0
 70
    32
  1
<>
  3
AM_JIS
100
AcDbAlignedDimension
 13
-0.0001751581523488
 23
-0.0001341899401273
 33
0.0
 14
-4.0
 24
-1.500000000000014
 34
0.0
 50
0.0000000000001132
100
AcDbRotatedDimension
1001
GENIUS_GENDTOL_13
1000

1000
h7
1000

1040
0.0
  0
DIMENSION
  5
42F4
330
1F
100
AcDbEntity
  8
AM_5
100
AcDbDimension
  2
*D7
 10
15.34145278241242
 20
-1.500000000000001
 30
0.0
 11
12.24145278241242
 21
-10.51428571428571
 31
0.0
 70
    32
  1
%%c<>
  3
AM_JIS
100
AcDbAlignedDimension
 13
-1.499999999999993
 23
1.5
 33
0.0
 14
-1.499999999999989
 24
-1.499999999999996
 34
0.0
 50
90.0
100
AcDbRotatedDimension
1001
GENIUS_GENDTOL_13
1000

1000
h7
1000

1040
0.0
  0
LINE
  5
4699
330
1F
100
AcDbEntity
  8
AM_0
100
AcDbLine
 10
-35.00017515815233
 20
1.499999999999942
 30
0.0
 11
-39.12102260350375
 21
2.999865810059773
 31
0.0
  0
LINE
  5
469B
330
1F
100
AcDbEntity
  8
AM_0
100
AcDbLine
 10
-35.00017515815233
 20
-1.500000000000039
 30
0.0
 11
-39.12175997116466
 21
-3.000134189940157
 31
0.0
  0
LINE
  5
4B66
330
1F
100
AcDbEntity
  8
AM_0
100
AcDbLine
 10
-6.653205517563113
 20
1.499999999999962
 30
0.0
 11
-35.00017515815233
 21
1.499999999999942
 31
0.0
  0
LINE
  5
4B67
330
1F
100
AcDbEntity
  8
AM_0
100
AcDbLine
 10
-5.708552638017048
 20
-1.500000000000017
 30
0.0
 11
-35.00017515815233
 21
-1.500000000000036
 31
0.0
  0
LINE
  5
4CB9
330
1F
100
AcDbEntity
  8
AM_0
100
AcDbLine
 10
-35.00017515815233
 20
1.49999999999994
 30
0.0
 11
-35.00017515815233
 21
-1.500000000000036
 31
0.0
  0
DIMENSION
  5
4D75
330
1F
100
AcDbEntity
  8
AM_5
100
AcDbDimension
  2
*D8
 10
-35.00017515815233
 20
-29.00013518994015
 30
0.0
 11
-17.50017515815233
 21
-25.90013518994014
 31
0.0
 70
    32
  1
<>
  3
AM_JIS
100
AcDbAlignedDimension
 13
-0.0001751581523437
 23
-0.0001341899401171
 33
0.0
 14
-35.00017515815233
 24
-1.500000000000036
 34
0.0
 50
0.0000000000001641
100
AcDbRotatedDimension
1001
GENIUS_GENDTOL_13
1000

1000
h7
1000

1040
0.0
  0
LINE
  5
4F19
330
1F
100
AcDbEntity
  8
AM_0
100
AcDbLine
 10
-39.12102260350373
 20
-3.000134189940158
 30
0.0
 11
-99.50017515815227
 21
-3.000134189940184
 31
0.0
  0
LINE
  5
4F1C
330
1F
100
AcDbEntity
  8
AM_0
100
AcDbLine
 10
-99.50017515815227
 20
2.999865810059749
 30
0.0
 11
-99.50017515815225
 21
-3.000134189940189
 31
0.0
  0
LINE
  5
4F1D
330
1F
100
AcDbEntity
  8
AM_0
100
AcDbLine
 10
-100.0001751581522
 20
2.499865810059749
 30
0.0
 11
-100.0001751581522
 21
-2.500134189940184
 31
0.0
  0
DIMENSION
  5
4F1E
330
1F
100
AcDbEntity
  8
AM_5
100
AcDbDimension
  2
*D9
 10
-116.0563702881118
 20
-3.000134189940179
 30
0.0
 11
-119.1563702881118
 21
-11.93822942803543
 31
0.0
 70
    32
  1
%%c<>
  3
AM_JIS
100
AcDbAlignedDimension
 13
-99.50017515815227
 23
2.999865810059749
 33
0.0
 14
-99.50017515815225
 24
-3.000134189940184
 34
0.0
 50
270.0
100
AcDbRotatedDimension
1001
GENIUS_GENDTOL_13
1000

1000
h7
1000

1040
0.0
  0
LINE
  5
4F2D
330
1F
100
AcDbEntity
  8
AM_0
100
AcDbLine
 10
-39.12102260350375
 20
2.999865810059773
 30
0.0
 11
-99.50017515815227
 21
2.999865810059749
 31
0.0
  0
LINE
  5
4F3B
330
1F
100
AcDbEntity
  8
AM_0
100
AcDbLine
 10
-100.0001751581522
 20
2.499865810059749
 30
0.0
 11
-99.50017515815227
 21
2.999865810059749
 31
0.0
1001
GENIUS_GENFIL_13
1070
     0
1040
0.5
1040
0.5
1040
20.0
1040
0.0
1002
{
1002
}
1001
GENIUS_GENODEF_13
1002
{
1000
HIER
1070
     0
1002
}
1002
{
1000
MANEDIT
1070
     0
1002
}
1002
{
1000
NOSEL
1070
     0
1002
}
1002
{
1000
BEHIND
1070
     0
1002
}
1002
{
1000
REACTOR
1002
}
1001
GENIUS_GENOBJ-N-CHA_13
1002
{
1000
OWNER
1000
GEN
1002
}
  0
LINE
  5
4F3E
330
1F
100
AcDbEntity
  8
AM_0
100
AcDbLine
 10
-100.0001751581522
 20
-2.500134189940184
 30
0.0
 11
-99.50017515815227
 21
-3.000134189940184
 31
0.0
1001
GENIUS_GENFIL_13
1070
     0
1040
0.5
1040
0.5
1040
20.0
1040
0.0
1002
{
1002
}
1001
GENIUS_GENODEF_13
1002
{
1000
HIER
1070
     0
1002
}
1002
{
1000
MANEDIT
1070
     0
1002
}
1002
{
1000
NOSEL
1070
     0
1002
}
1002
{
1000
BEHIND
1070
     0
1002
}
1002
{
1000
REACTOR
1002
}
1001
GENIUS_GENOBJ-N-CHA_13
1002
{
1000
OWNER
1000
GEN
1002
}
  0
LINE
  5
4F7E
330
1F
100
AcDbEntity
  8
AM_0
100
AcDbLine
 10
-39.12102260350375
 20
2.999865810059773
 30
0.0
 11
-39.12102260350374
 21
-3.000134189940158
 31
0.0
  0
SPLINE
  5
507F
330
1F
100
AcDbEntity
  8
AM_0
100
AcDbSpline
210
0.0
220
0.0
230
1.0
 70
     8
 71
     3
 72
     8
 73
     4
 74
     0
 42
0.0000000001
 43
0.0000000001
 40
1.794922859428793
 40
1.794922859428793
 40
1.794922859428793
 40
1.794922859428793
 40
10.42710976687388
 40
10.42710976687388
 40
10.42710976687388
 40
10.42710976687388
 10
-1.499999999999048
 20
-1.477211629518407
 30
0.0
 10
-2.352764928843406
 20
-1.405439732175484
 30
0.0
 10
-3.181749115479256
 20
-1.170397520773942
 30
0.0
 10
-4.000000000000127
 20
-0.8616641860324811
 30
0.0
  0
SPLINE
  5
5080
330
1F
100
AcDbEntity
  8
AM_0
100
AcDbSpline
210
0.0
220
0.0
230
1.0
 70
     8
 71
     3
 72
     8
 73
     4
 74
     0
 42
0.0000000001
 43
0.0000000001
 40
3.732786119440464
 40
3.732786119440464
 40
3.732786119440464
 40
3.732786119440464
 40
12.64635230762074
 40
12.64635230762074
 40
12.64635230762074
 40
12.64635230762074
 10
-1.435425893361163
 20
-1.362692883285625
 30
0.0
 10
-2.306774262496766
 20
-1.221255930468316
 30
0.0
 10
-3.157088135967207
 20
-0.9311275619518681
 30
0.0
 10
-4.000000000000127
 20
-0.588674893399876
 30
0.0
  0
SPLINE
  5
5081
330
1F
100
AcDbEntity
  8
AM_0
100
AcDbSpline
210
0.0
220
0.0
230
1.0
 70
     8
 71
     3
 72
     8
 73
     4
 74
     0
 42
0.0000000001
 43
0.0000000001
 40
6.513172597598655
 40
6.513172597598655
 40
6.513172597598655
 40
6.513172597598655
 40
17.00040327533524
 40
17.00040327533524
 40
17.00040327533524
 40
17.00040327533524
 10
-1.5
 20
-1.132606378307965
 30
0.0
 10
-2.514444539837626
 20
-0.878873200735903
 30
0.0
 10
-3.507635438113133
 20
-0.4678183896754114
 30
0.0
 10
-4.5
 20
-0.0506469519608501
 30
0.0
  0
SPLINE
  5
5082
330
1F
100
AcDbEntity
  8
AM_0
100
AcDbSpline
210
0.0
220
0.0
230
1.0
 70
     8
 71
     3
 72
     8
 73
     4
 74
     0
 42
0.0000000001
 43
0.0000000001
 40
1.794922859432252
 40
1.794922859432252
 40
1.794922859432252
 40
1.794922859432252
 40
8.217791785374707
 40
8.217791785374707
 40
8.217791785374707
 40
8.217791785374707
 10
-1.5
 20
1.477211629518244
 30
0.0
 10
-2.134508661748853
 20
1.423808998858923
 30
0.0
 10
-2.755851687213727
 20
1.280015683502384
 30
0.0
 10
-3.36940372386357
 20
1.082732145699278
 30
0.0
  0
SPLINE
  5
5083
330
1F
100
AcDbEntity
  8
AM_0
100
AcDbSpline
210
0.0
220
0.0
230
1.0
 70
     8
 71
     3
 72
     8
 73
     4
 74
     2
 42
0.0000000001
 43
0.0000000001
 44
0.0000000001
 12
-0.8789112757303591
 22
0.4769852926391262
 32
0.0
 13
0.9988106394578339
 23
0.0487576302319218
 33
0.0
 40
0.0
 40
0.0
 40
0.0
 40
0.0
 40
0.6472349580988204
 40
0.6472349580988204
 40
0.6472349580988204
 40
0.6472349580988204
 10
-1.568334408203782
 20
0.4166554946547443
 30
0.0
 10
-1.757955109110422
 20
0.5195626799530904
 30
0.0
 10
-1.996157165665176
 20
1.017550384181301
 30
0.0
 10
-1.780668778205793
 20
1.028069598434687
 30
0.0
 11
-1.568334408203782
 21
0.4166554946547443
 31
0.0
 11
-1.780668778205793
 21
1.028069598434687
 31
0.0
  0
SPLINE
  5
5084
330
1F
100
AcDbEntity
  8
AM_0
100
AcDbSpline
210
0.0
220
0.0
230
1.0
 70
     8
 71
     3
 72
     8
 73
     4
 74
     2
 42
0.0000000001
 43
0.0000000001
 44
0.0000000001
 12
0.4216926876958761
 22
-0.9067388141818065
 32
0.0
 13
-0.9928045895078733
 23
-0.1197457600589821
 33
0.0
 40
0.0
 40
0.0
 40
0.0
 40
0.0
 40
0.5296258369398882
 40
0.5296258369398882
 40
0.5296258369398882
 40
0.5296258369398882
 10
-1.5
 20
1.477211629518244
 30
0.0
 10
-1.425553552449213
 20
1.31713419506927
 30
0.0
 10
-1.6053971243419
 20
1.049209747897752
 30
0.0
 10
-1.780668778220523
 20
1.028069598434004
 30
0.0
 11
-1.5
 21
1.477211629518244
 31
0.0
 11
-1.780668778220523
 21
1.028069598434004
 31
0.0
  0
SPLINE
  5
5085
330
1F
100
AcDbEntity
  8
AM_0
100
AcDbSpline
210
0.0
220
0.0
230
1.0
 70
     8
 71
     3
 72
     9
 73
     5
 74
     3
 42
0.0000000001
 43
0.0000000001
 44
0.0000000001
 12
0.5867325161912575
 22
-0.8097808064185493
 32
0.0
 13
-0.8994987856269101
 23
0.4369232594583562
 33
0.0
 40
0.0
 40
0.0
 40
0.0
 40
0.0
 40
0.1344039549296863
 40
0.4003987145404923
 40
0.4003987145404923
 40
0.4003987145404923
 40
0.4003987145404923
 10
-1.315924172245061
 20
-0.9127797508135451
 30
0.0
 10
-1.289637782024411
 20
-0.9490589984831462
 30
0.0
 10
-1.176248190363074
 20
-1.078768945262394
 30
0.0
 10
-1.420246012248986
 20
-1.171346144097297
 30
0.0
 10
-1.5
 20
-1.132606378307965
 30
0.0
 11
-1.315924172245061
 21
-0.9127797508135451
 31
0.0
 11
-1.253783277264894
 21
-1.031955806595757
 31
0.0
 11
-1.5
 21
-1.132606378307965
 31
0.0
  0
POLYLINE
  5
5086
330
1F
100
AcDbEntity
  8
AM_0
100
AcDb2dPolyline
 66
     1
 10
0.0
 20
0.0
 30
0.0
  0
VERTEX
  5
5087
330
5086
100
AcDbEntity
  8
AM_0
100
AcDbVertex
100
AcDb2dVertex
 10
-4.000000000000127
 20
-0.8616641860324811
 30
0.0
 42
0.0168106360887414
  0
VERTEX
  5
5088
330
5086
100
AcDbEntity
  8
AM_0
100
AcDbVertex
100
AcDb2dVertex
 10
-4.342441952471901
 20
-0.8845290903287938
 30
0.0
 42
0.0261639798046327
  0
VERTEX
  5
5089
330
5086
100
AcDbEntity
  8
AM_0
100
AcDbVertex
100
AcDb2dVertex
 10
-4.562500000000127
 20
-0.8999402854532689
 30
0.0
 42
0.0131848373452745
  0
VERTEX
  5
508A
330
5086
100
AcDbEntity
  8
AM_0
100
AcDbVertex
100
AcDb2dVertex
 10
-5.074366902874679
 20
-0.9856155406775002
 30
0.0
 42
0.0326388953781848
  0
VERTEX
  5
508B
330
5086
100
AcDbEntity
  8
AM_0
100
AcDbVertex
100
AcDb2dVertex
 10
-5.273433161923833
 20
-1.051970187360108
 30
0.0
 42
0.066302819305777
  0
VERTEX
  5
508C
330
5086
100
AcDbEntity
  8
AM_0
100
AcDbVertex
100
AcDb2dVertex
 10
-5.412195495757984
 20
-1.137225178806801
 30
0.0
 42
0.141835538265495
  0
VERTEX
  5
508D
330
5086
100
AcDbEntity
  8
AM_0
100
AcDbVertex
100
AcDb2dVertex
 10
-5.456215361681394
 20
-1.200794363060488
 30
0.0
 42
0.3019338394559296
  0
VERTEX
  5
508E
330
5086
100
AcDbEntity
  8
AM_0
100
AcDbVertex
100
AcDb2dVertex
 10
-5.432036288067472
 20
-1.290745234484042
 30
0.0
 42
0.1448123473042558
  0
VERTEX
  5
508F
330
5086
100
AcDbEntity
  8
AM_0
100
AcDbVertex
100
AcDb2dVertex
 10
-5.267179338784103
 20
-1.367174750737643
 30
0.0
 42
0.0233293908839008
  0
VERTEX
  5
5090
330
5086
100
AcDbEntity
  8
AM_0
100
AcDbVertex
100
AcDb2dVertex
 10
-5.121865559712823
 20
-1.381731209329227
 30
0.0
 42
0.0065058132401841
  0
VERTEX
  5
5091
330
5086
100
AcDbEntity
  8
AM_0
100
AcDbVertex
100
AcDb2dVertex
 10
-4.598857753393176
 20
-1.402755813439235
 30
0.0
 42
0.0093933844226459
  0
VERTEX
  5
5092
330
5086
100
AcDbEntity
  8
AM_0
100
AcDbVertex
100
AcDb2dVertex
 10
-4.332778646014205
 20
-1.404985639316258
 30
0.0
 42
0.0062748085672631
  0
VERTEX
  5
5093
330
5086
100
AcDbEntity
  8
AM_0
100
AcDbVertex
100
AcDb2dVertex
 10
-4.054646776542043
 20
-1.398599846684255
 30
0.0
  0
SEQEND
  5
5094
330
5086
100
AcDbEntity
  8
AM_0
  0
ARC
  5
5095
330
1F
100
AcDbEntity
  8
AM_0
100
AcDbCircle
 10
-2.987982316679492
 20
3.00323371019369
 30
0.0
 40
3.407694906143377
100
AcDbArc
 50
207.6178507934591
 51
243.6593648755324
  0
ARC
  5
5096
330
1F
100
AcDbEntity
  8
AM_0
100
AcDbCircle
 10
-7.942843020263005
 20
-12.15490837639098
 30
0.0
 40
13.71567306609492
100
AcDbArc
 50
75.4624027853241
 51
84.60470520851831
  0
ARC
  5
5097
330
1F
100
AcDbEntity
  8
AM_0
100
AcDbCircle
 10
-5.6094484577414
 20
10.42241106813403
 30
0.0
 40
11.92282295918686
100
AcDbArc
 50
269.5237439430223
 51
282.8063407884853
  0
LINE
  5
5098
330
1F
100
AcDbEntity
  8
AM_11
100
AcDbLine
 10
-4.0
 20
-1.499999999999996
 30
0.0
 11
-4.0
 21
1.499999999999968
 31
0.0
  0
ARC
  5
509A
330
1F
100
AcDbEntity
  8
AM_0
100
AcDbCircle
 10
-1.5
 20
-0.0227883704817273
 30
0.0
 40
1.5
100
AcDbArc
 50
0.8704851212057665
 51
90.0
  0
ARC
  5
509B
330
1F
100
AcDbEntity
  8
AM_11
100
AcDbCircle
 10
-1.5
 20
0.0
 30
0.0
 40
1.5
100
AcDbArc
 50
270.0
 51
90.0
  0
LINE
  5
509C
330
1F
100
AcDbEntity
  8
AM_0
100
AcDbLine
 10
-0.0000000000000002
 20
0.0
 30
0.0
 11
-1.780668778205793
 21
1.028069598434687
 31
0.0
  0
ARC
  5
509D
330
1F
100
AcDbEntity
  8
AM_0
100
AcDbCircle
 10
-0.0615422738522329
 20
0.0140599239361805
 30
0.0
 40
1.559649232906561
100
AcDbArc
 50
165.0407421323769
 51
216.4600123166024
  0
LINE
  5
509E
330
1F
100
AcDbEntity
  8
AM_11
100
AcDbLine
 10
-4.0
 20
-1.500000000000014
 30
0.0
 11
-1.5
 21
-1.499999999999996
 31
0.0
  0
LINE
  5
509F
330
1F
100
AcDbEntity
  8
AM_0
100
AcDbLine
 10
-4.000000000000127
 20
-0.2595347141055839
 30
0.0
 11
-4.000000000000127
 21
-0.8729783075185224
 31
0.0
  0
ARC
  5
50A0
330
1F
100
AcDbEntity
  8
AM_0
100
AcDbCircle
 10
-1.500000000000135
 20
0.022788370480157
 30
0.0
 40
1.5
100
AcDbArc
 50
270.0000000000781
 51
359.1295148788724
  0
ARC
  5
50A1
330
1F
100
AcDbEntity
  8
AM_0
100
AcDbCircle
 10
-1.541056343038285
 20
0.1151501257421188
 30
0.0
 40
1.481613225923371
100
AcDbArc
 50
274.0883259404363
 51
353.4887846299624
  0
LINE
  5
50A2
330
1F
100
AcDbEntity
  8
AM_0
100
AcDbLine
 10
-1.435425893361163
 20
-1.362692883285554
 30
0.0
 11
-1.500000000000135
 21
-1.132606378307965
 31
0.0
  0
LINE
  5
50A3
330
1F
100
AcDbEntity
  8
AM_0
100
AcDbLine
 10
-1.49999999998186
 20
-1.477211629519839
 30
0.0
 11
-1.435425893361163
 21
-1.362692883285554
 31
0.0
  0
LINE
  5
50A4
330
1F
100
AcDbEntity
  8
AM_0
100
AcDbLine
 10
-0.0000000000000002
 20
0.0
 30
0.0
 11
-0.06900000000001
 21
-0.0528614040765199
 31
0.0
  0
ARC
  5
50A5
330
1F
100
AcDbEntity
  8
AM_0
100
AcDbCircle
 10
-1.451719664672374
 20
0.402977077443417
 30
0.0
 40
1.322745798280388
100
AcDbArc
 50
275.8924707062756
 51
339.8416840647174
  0
LINE
  5
50A6
330
1F
100
AcDbEntity
  8
AM_0
100
AcDbLine
 10
-0.2100000000000863
 20
-0.0528614040765163
 30
0.0
 11
-1.568334408203782
 21
0.4166554946547443
 31
0.0
  0
LINE
  5
50A7
330
1F
100
AcDbEntity
  8
AM_0
100
AcDbLine
 10
-0.06900000000001
 20
-0.0528614040765199
 30
0.0
 11
-0.2100000000000863
 21
-0.0528614040765163
 31
0.0
  0
LINE
  5
50A8
330
1F
100
AcDbEntity
  8
AM_11
100
AcDbLine
 10
-1.5
 20
1.499999999999968
 30
0.0
 11
-4.0
 21
1.499999999999968
 31
0.0
  0
LINE
  5
50A9
330
1F
100
AcDbEntity
  8
AM_0
100
AcDbLine
 10
-4.500000000000056
 20
1.121631820280306
 30
0.0
 11
-1.780668778205928
 21
1.028069598434687
 31
0.0
  0
DIMENSION
  5
50E2
330
1F
100
AcDbEntity
  8
AM_5
100
AcDbDimension
  2
*D10
 10
-1.500000000000137
 20
0.022788370480157
 30
0.0
 11
8.525970459620774
 21
-19.68821953999217
 31
0.0
 70
   164
  1
<>
  3
AM_JIS$4
100
AcDbRadialDimension
 15
-0.8199454521170135
 25
-1.314195478301676
 35
0.0
 40
0.0
1001
GENIUS_GENDTOL_13
1000

1000
h7
1000

1040
0.0
1001
ACAD
1000
DSTYLE
1002
{
1070
   287
1070
     3
1070
   271
1070
     3
1070
   288
1070
     1
1070
   289
1070
     3
1070
   172
1070
     1
1070
    74
1070
     0
1002
}
  0
VIEWPORT
  5
110
330
101
100
AcDbEntity
 67
     1
  8
0
100
AcDbViewport
 10
420.5
 20
297.0
 30
0.0
 40
948.9782706766916
 41
628.452
 68
     1
 69
     1
1001
ACAD
1000
MVIEW
1002
{
1070
    16
1010
0.0
1020
0.0
1030
0.0
1010
0.0
1020
0.0
1030
1.0
1040
0.0
1040
628.452
1040
420.5
1040
297.0
1040
50.0
1040
0.0
1040
0.0
1070
     0
1070
   100
1070
     1
1070
     1
1070
     0
1070
     0
1070
     0
1070
     0
1040
0.0
1040
0.0
1040
0.0
1040
10.0
1040
10.0
1040
10.0
1040
10.0
1070
     0
1002
{
1002
}
1002
}
  0
ENDSEC
  0
SECTION
  2
OBJECTS
  0
DICTIONARY
  5
C
330
0
100
AcDbDictionary
  3
ACAD_GROUP
350
D
  3
ACAD_LAYOUT
350
1A
  3
ACAD_MLINESTYLE
350
17
  3
ACAD_PLOTSETTINGS
350
19
  3
ACAD_PLOTSTYLENAME
350
E
  3
ACDBVARIABLEDICTIONARY
350
34
  3
ACMDICTIONARY
350
43
  3
AMG
350
2B
  3
AMGSNAPSETTINGS
350
6E
  3
ASE_INDEX_DICTIONARY
350
151A
  3
DWGPROPS
350
52FC
  3
ACDBHEADERROUNDTRIPXREC
350
5308
  0
DICTIONARY
  5
74
330
1F
100
AcDbDictionary
280
     1
  3
ACAD_INDEX
360
52FE
  3
ACAD_LAYOUTSELFREF
360
532B
  0
DICTIONARY
  5
5330
330
101
100
AcDbDictionary
280
     1
  3
ACAD_LAYOUTSELFREF
360
5331
  0
DICTIONARY
  5
D
102
{ACAD_REACTORS
330
C
102
}
330
C
100
AcDbDictionary
  0
DICTIONARY
  5
1A
102
{ACAD_REACTORS
330
C
102
}
330
C
100
AcDbDictionary
  0
DICTIONARY
  5
17
102
{ACAD_REACTORS
330
C
102
}
330
C
100
AcDbDictionary
  3
STANDARD
350
18
  0
DICTIONARY
  5
19
102
{ACAD_REACTORS
330
C
102
}
330
C
100
AcDbDictionary
  0
ACDBDICTIONARYWDFLT
  5
E
102
{ACAD_REACTORS
330
C
102
}
330
C
100
AcDbDictionary
281
     1
  3
Normal
350
F
100
AcDbDictionaryWithDefault
340
F
  0
DICTIONARY
  5
34
102
{ACAD_REACTORS
330
C
102
}
330
C
100
AcDbDictionary
  3
INDEXCTL
350
35
  3
SORTENTS
350
B5E
  0
DICTIONARY
  5
43
102
{ACAD_REACTORS
330
C
102
}
330
C
100
AcDbDictionary
  3
ACMSTDDICTIONARY
350
260
  0
DICTIONARY
  5
2B
102
{ACAD_REACTORS
330
C
102
}
330
C
100
AcDbDictionary
  3
ACMGSETTINGS
350
2C
  0
DICTIONARY
  5
6E
102
{ACAD_REACTORS
330
C
102
}
330
C
100
AcDbDictionary
  0
DICTIONARY
  5
151A
102
{ACAD_REACTORS
330
C
102
}
330
C
100
AcDbDictionary
  3
ASEBLOCKHIERARCHYINDEXRECORD
350
151C
1001
DCO15
1040
1471862535.906
  0
XRECORD
  5
52FC
102
{ACAD_REACTORS
330
C
102
}
330
C
100
AcDbXrecord
  1
DWGPROPS COOKIE
  2

  3

  4

  6

  7

  8

  9

300
AmdtFileType=82
301
=
302
=
303
=
304
=
305
=
306
=
307
=
308
=
309
=
 40
0.173240775462963
 41
2452838.430434386
 42
2452871.580871932
  1

 90
        1
  0
DICTIONARY
  5
5308
102
{ACAD_REACTORS
330
C
102
}
330
C
100
AcDbDictionary
  3
TSTACKALIGN
350
5309
  3
TSTACKSIZE
350
530A
  3
HYPERLINKBASE
350
530B
  3
STYLESHEET
350
530C
  3
LAYOUTDICT
350
530D
  3
PLOTSETDICT
350
530E
  3
PLOTSTYLNAMDICT
350
530F
  3
LWETCUNION
350
5310
  3
INSUNITS
350
5311
  3
CEPSNTYPE
350
5312
  3
FINGERPRINTGUID
350
5313
  3
VERSIONGUID
350
5314
  3
PSVPSCALE
350
5315
  3
DIMSTYLEDATA
350
5316
  3
PUCSORTHOREF
350
5317
  3
PUCSORTHOVIEW
350
5318
  3
PUCSBASE
350
5319
  3
PUCSORGTOP
350
531A
  3
PUCSORGBOTTOM
350
531B
  3
PUCSORGLEFT
350
531C
  3
PUCSORGRIGHT
350
531D
  3
PUCSORGFRONT
350
531E
  3
PUCSORGBACK
350
531F
  3
UCSORTHOREF
350
5320
  3
UCSORTHOVIEW
350
5321
  3
UCSBASE
350
5322
  3
UCSORGTOP
350
5323
  3
UCSORGBOTTOM
350
5324
  3
UCSORGLEFT
350
5325
  3
UCSORGRIGHT
350
5326
  3
UCSORGFRONT
350
5327
  3
UCSORGBACK
350
5328
  0
DICTIONARY
  5
52FE
102
{ACAD_REACTORS
330
74
102
}
330
74
100
AcDbDictionary
  3
*A1
350
52FF
  0
XRECORD
  5
532B
102
{ACAD_REACTORS
330
74
102
}
330
74
100
AcDbXrecord
340
1F
  0
XRECORD
  5
5331
102
{ACAD_REACTORS
330
5330
102
}
330
5330
100
AcDbXrecord
340
101
  0
MLINESTYLE
  5
18
102
{ACAD_REACTORS
330
17
102
}
330
17
100
AcDbMlineStyle
  2
STANDARD
 70
     0
  3

 62
   256
 51
90.0
 52
90.0
 71
     2
 49
0.5
 62
   256
  6
BYLAYER
 49
-0.5
 62
   256
  6
BYLAYER
  0
ACDBPLACEHOLDER
  5
F
102
{ACAD_REACTORS
330
E
102
}
330
E
100
AcDbPlaceHolder
280
     0
  0
DICTIONARYVAR
  5
35
102
{ACAD_REACTORS
330
34
102
}
330
34
100
DictionaryVariables
280
     0
  1
1
  0
DICTIONARYVAR
  5
B5E
102
{ACAD_REACTORS
330
34
102
}
330
34
100
DictionaryVariables
280
     0
  1
96
  0
DICTIONARY
  5
260
102
{ACAD_REACTORS
330
43
102
}
330
43
100
AcDbDictionary
  0
DICTIONARY
  5
2C
102
{ACAD_REACTORS
330
2B
102
}
330
2B
100
AcDbDictionary
  3
DWGSETTINGS
350
2D
  0
XRECORD
  5
151C
102
{ACAD_REACTORS
330
151A
102
}
330
151A
100
AcDbXrecord
330
0
330
0
330
0
330
0
330
0
330
0
330
0
330
0
  0
XRECORD
  5
5309
102
{ACAD_REACTORS
330
5308
102
}
330
5308
100
AcDbXrecord
 90
        1
  0
XRECORD
  5
530A
102
{ACAD_REACTORS
330
5308
102
}
330
5308
100
AcDbXrecord
 90
       70
  0
XRECORD
  5
530B
102
{ACAD_REACTORS
330
5308
102
}
330
5308
100
AcDbXrecord
  1

  0
XRECORD
  5
530C
102
{ACAD_REACTORS
330
5308
102
}
330
5308
100
AcDbXrecord
  1
ASAMI.ctb
  0
XRECORD
  5
530D
102
{ACAD_REACTORS
330
5308
102
}
330
5308
100
AcDbXrecord
340
1A
  0
XRECORD
  5
530E
102
{ACAD_REACTORS
330
5308
102
}
330
5308
100
AcDbXrecord
340
19
  0
XRECORD
  5
530F
102
{ACAD_REACTORS
330
5308
102
}
330
5308
100
AcDbXrecord
340
E
  0
XRECORD
  5
5310
102
{ACAD_REACTORS
330
5308
102
}
330
5308
100
AcDbXrecord
 90
    10781
  0
XRECORD
  5
5311
102
{ACAD_REACTORS
330
5308
102
}
330
5308
100
AcDbXrecord
 90
        4
  0
XRECORD
  5
5312
102
{ACAD_REACTORS
330
5308
102
}
330
5308
100
AcDbXrecord
 90
        0
  0
XRECORD
  5
5313
102
{ACAD_REACTORS
330
5308
102
}
330
5308
100
AcDbXrecord
  1
{AFB28963-8C59-40AE-9337-C84526B81ACE}
  0
XRECORD
  5
5314
102
{ACAD_REACTORS
330
5308
102
}
330
5308
100
AcDbXrecord
  1
{891819D7-5EAD-4C8E-B479-D240E5494DAD}
  0
XRECORD
  5
5315
102
{ACAD_REACTORS
330
5308
102
}
330
5308
100
AcDbXrecord
 40
0.0
  0
XRECORD
  5
5316
102
{ACAD_REACTORS
330
5308
102
}
330
5308
100
AcDbXrecord
1000
DSTYLE
1002
{
1070
    79
 70
     2
1070
   341
340
59
1070
   342
340
59
1070
   371
 70
    -1
1070
   372
 70
    -1
1002
}
  0
XRECORD
  5
5317
102
{ACAD_REACTORS
330
5308
102
}
330
5308
100
AcDbXrecord
340
0
  0
XRECORD
  5
5318
102
{ACAD_REACTORS
330
5308
102
}
330
5308
100
AcDbXrecord
 70
     0
  0
XRECORD
  5
5319
102
{ACAD_REACTORS
330
5308
102
}
330
5308
100
AcDbXrecord
340
0
  0
XRECORD
  5
531A
102
{ACAD_REACTORS
330
5308
102
}
330
5308
100
AcDbXrecord
 10
0.0
 20
0.0
 30
0.0
  0
XRECORD
  5
531B
102
{ACAD_REACTORS
330
5308
102
}
330
5308
100
AcDbXrecord
 10
0.0
 20
0.0
 30
0.0
  0
XRECORD
  5
531C
102
{ACAD_REACTORS
330
5308
102
}
330
5308
100
AcDbXrecord
 10
0.0
 20
0.0
 30
0.0
  0
XRECORD
  5
531D
102
{ACAD_REACTORS
330
5308
102
}
330
5308
100
AcDbXrecord
 10
0.0
 20
0.0
 30
0.0
  0
XRECORD
  5
531E
102
{ACAD_REACTORS
330
5308
102
}
330
5308
100
AcDbXrecord
 10
0.0
 20
0.0
 30
0.0
  0
XRECORD
  5
531F
102
{ACAD_REACTORS
330
5308
102
}
330
5308
100
AcDbXrecord
 10
0.0
 20
0.0
 30
0.0
  0
XRECORD
  5
5320
102
{ACAD_REACTORS
330
5308
102
}
330
5308
100
AcDbXrecord
340
0
  0
XRECORD
  5
5321
102
{ACAD_REACTORS
330
5308
102
}
330
5308
100
AcDbXrecord
 70
     0
  0
XRECORD
  5
5322
102
{ACAD_REACTORS
330
5308
102
}
330
5308
100
AcDbXrecord
340
0
  0
XRECORD
  5
5323
102
{ACAD_REACTORS
330
5308
102
}
330
5308
100
AcDbXrecord
 10
0.0
 20
0.0
 30
0.0
  0
XRECORD
  5
5324
102
{ACAD_REACTORS
330
5308
102
}
330
5308
100
AcDbXrecord
 10
0.0
 20
0.0
 30
0.0
  0
XRECORD
  5
5325
102
{ACAD_REACTORS
330
5308
102
}
330
5308
100
AcDbXrecord
 10
0.0
 20
0.0
 30
0.0
  0
XRECORD
  5
5326
102
{ACAD_REACTORS
330
5308
102
}
330
5308
100
AcDbXrecord
 10
0.0
 20
0.0
 30
0.0
  0
XRECORD
  5
5327
102
{ACAD_REACTORS
330
5308
102
}
330
5308
100
AcDbXrecord
 10
0.0
 20
0.0
 30
0.0
  0
XRECORD
  5
5328
102
{ACAD_REACTORS
330
5308
102
}
330
5308
100
AcDbXrecord
 10
0.0
 20
0.0
 30
0.0
  0
LAYER_INDEX
  5
52FF
102
{ACAD_REACTORS
330
52FE
102
}
330
52FE
100
AcDbIndex
 40
2453152.436613426
100
AcDbLayerIndex
  8
0
360
5300
 90
        0
  8
AM_0
360
5301
 90
       36
  8
AM_11
360
5302
 90
        4
  8
AM_7
360
5303
 90
        1
  8
AM_5
360
5304
 90
        6
  8
Defpoints
360
5305
 90
        0
  8
AM_6
360
5306
 90
        1
  0
XRECORD
  5
2D
102
{ACAD_REACTORS
330
2C
102
}
330
2C
100
AcDbXrecord
  1
VERSION
140
15.0
  1
PRODUCT
  2
AutoCAD Mechanical 2000
  0
IDBUFFER
  5
5300
330
0
100
AcDbIdBuffer
  0
IDBUFFER
  5
5301
330
0
100
AcDbIdBuffer
330
5083
330
5084
330
5085
330
5086
330
5095
330
5096
330
5097
330
509A
330
509C
330
509D
330
509F
330
50A0
330
50A1
330
50A2
330
50A3
330
50A4
330
50A5
330
50A6
330
50A7
330
50A9
330
4699
330
469B
330
4B66
330
4B67
330
4CB9
330
4F19
330
4F1C
330
4F1D
330
4F2D
330
4F3B
330
4F3E
330
4F7E
330
507F
330
5080
330
5081
330
5082
  0
IDBUFFER
  5
5302
330
0
100
AcDbIdBuffer
330
5098
330
509B
330
509E
330
50A8
  0
IDBUFFER
  5
5303
330
0
100
AcDbIdBuffer
330
3EE8
  0
IDBUFFER
  5
5304
330
0
100
AcDbIdBuffer
330
4047
330
412A
330
42F4
330
4D75
330
4F1E
330
50E2
  0
IDBUFFER
  5
5305
330
0
100
AcDbIdBuffer
  0
IDBUFFER
  5
5306
330
0
100
AcDbIdBuffer
330
1500
  0
ENDSEC
  0
EOF
