  0
SECTION
  2
HEADER
  9
$ACADVER
  1
AC1014
  9
$ACADMAINTVER
 70
     9
  9
$DWGCODEPAGE
  3
ANSI_932
  9
$INSBASE
 10
0.0
 20
0.0
 30
0.0
  9
$EXTMIN
 10
-135.7561951299595
 20
-64.50000099999996
 30
-0.00000001
  9
$EXTMAX
 10
16.34162794056475
 20
8.99999999999984
 30
0.00000001
  9
$LIMMIN
 10
-144.8096017080135
 20
-80.33665720887151
  9
$LIMMAX
 10
26.05925802989009
 20
31.67054313510885
  9
$ORTHOMODE
 70
     0
  9
$REGENMODE
 70
     1
  9
$FILLMODE
 70
     1
  9
$QTEXTMODE
 70
     0
  9
$MIRRTEXT
 70
     0
  9
$DRAGMODE
 70
     2
  9
$LTSCALE
 40
1.0
  9
$OSMODE
 70
    55
  9
$ATTMODE
 70
     1
  9
$TEXTSIZE
 40
2.5
  9
$TRACEWID
 40
1.0
  9
$TEXTSTYLE
  7
STANDARD
  9
$CLAYER
  8
AM_0
  9
$CELTYPE
  6
BYLAYER
  9
$CECOLOR
 62
   256
  9
$CELTSCALE
 40
1.0
  9
$DELOBJ
 70
     1
  9
$DISPSILH
 70
     0
  9
$DIMSCALE
 40
1.0
  9
$DIMASZ
 40
2.5
  9
$DIMEXO
 40
1.0
  9
$DIMDLI
 40
12.0
  9
$DIMRND
 40
0.0
  9
$DIMDLE
 40
0.0
  9
$DIMEXE
 40
1.0
  9
$DIMTP
 40
0.1
  9
$DIMTM
 40
0.1
  9
$DIMTXT
 40
3.2
  9
$DIMCEN
 40
0.0
  9
$DIMTSZ
 40
0.0
  9
$DIMTOL
 70
     0
  9
$DIMLIM
 70
     0
  9
$DIMTIH
 70
     0
  9
$DIMTOH
 70
     0
  9
$DIMSE1
 70
     0
  9
$DIMSE2
 70
     0
  9
$DIMTAD
 70
     3
  9
$DIMZIN
 70
     8
  9
$DIMBLK
  1
OPEN30
  9
$DIMASO
 70
     1
  9
$DIMSHO
 70
     1
  9
$DIMPOST
  1

  9
$DIMAPOST
  1
"
  9
$DIMALT
 70
     0
  9
$DIMALTD
 70
     2
  9
$DIMALTF
 40
0.0393701
  9
$DIMLFAC
 40
1.0
  9
$DIMTOFL
 70
     1
  9
$DIMTVP
 40
0.0
  9
$DIMTIX
 70
     0
  9
$DIMSOXD
 70
     0
  9
$DIMSAH
 70
     0
  9
$DIMBLK1
  1

  9
$DIMBLK2
  1

  9
$DIMSTYLE
  2
AM_JIS
  9
$DIMCLRD
 70
   256
  9
$DIMCLRE
 70
   256
  9
$DIMCLRT
 70
     2
  9
$DIMTFAC
 40
0.71
  9
$DIMGAP
 40
1.5
  9
$DIMJUST
 70
     0
  9
$DIMSD1
 70
     0
  9
$DIMSD2
 70
     0
  9
$DIMTOLJ
 70
     0
  9
$DIMTZIN
 70
     0
  9
$DIMALTZ
 70
     0
  9
$DIMALTTZ
 70
     0
  9
$DIMFIT
 70
     3
  9
$DIMUPT
 70
     0
  9
$DIMUNIT
 70
     2
  9
$DIMDEC
 70
     3
  9
$DIMTDEC
 70
     3
  9
$DIMALTU
 70
     2
  9
$DIMALTTD
 70
     2
  9
$DIMTXSTY
  7
ASAMI
  9
$DIMAUNIT
 70
     0
  9
$LUNITS
 70
     2
  9
$LUPREC
 70
     2
  9
$SKETCHINC
 40
1.0
  9
$FILLETRAD
 40
2.5
  9
$AUNITS
 70
     0
  9
$AUPREC
 70
     0
  9
$MENU
  1
.
  9
$ELEVATION
 40
0.0
  9
$PELEVATION
 40
0.0
  9
$THICKNESS
 40
0.0
  9
$LIMCHECK
 70
     0
  9
$BLIPMODE
 70
     0
  9
$CHAMFERA
 40
0.75
  9
$CHAMFERB
 40
0.75
  9
$CHAMFERC
 40
20.0
  9
$CHAMFERD
 40
0.0
  9
$SKPOLY
 70
     0
  9
$TDCREATE
 40
2452838.430434386
  9
$TDUPDATE
 40
2453152.436913090
  9
$TDINDWG
 40
0.1740509606
  9
$TDUSRTIMER
 40
0.1740509606
  9
$USRTIMER
 70
     1
  9
$ANGBASE
 50
0.0
  9
$ANGDIR
 70
     0
  9
$PDMODE
 70
     0
  9
$PDSIZE
 40
0.0
  9
$PLINEWID
 40
0.0
  9
$COORDS
 70
     1
  9
$SPLFRAME
 70
     0
  9
$SPLINETYPE
 70
     6
  9
$SPLINESEGS
 70
     8
  9
$ATTDIA
 70
     1
  9
$ATTREQ
 70
     1
  9
$HANDLING
 70
 12289
  9
$HANDSEED
  5
5313
  9
$SURFTAB1
 70
     6
  9
$SURFTAB2
 70
     6
  9
$SURFTYPE
 70
     6
  9
$SURFU
 70
     6
  9
$SURFV
 70
     6
  9
$UCSNAME
  2

  9
$UCSORG
 10
0.0
 20
0.0
 30
0.0
  9
$UCSXDIR
 10
1.0
 20
0.0
 30
0.0
  9
$UCSYDIR
 10
0.0
 20
1.0
 30
0.0
  9
$PUCSNAME
  2

  9
$PUCSORG
 10
0.0
 20
0.0
 30
0.0
  9
$PUCSXDIR
 10
1.0
 20
0.0
 30
0.0
  9
$PUCSYDIR
 10
0.0
 20
1.0
 30
0.0
  9
$USERI1
 70
     0
  9
$USERI2
 70
     0
  9
$USERI3
 70
     0
  9
$USERI4
 70
     0
  9
$USERI5
 70
     0
  9
$USERR1
 40
0.0
  9
$USERR2
 40
0.0
  9
$USERR3
 40
0.0
  9
$USERR4
 40
0.0
  9
$USERR5
 40
0.0
  9
$WORLDVIEW
 70
     1
  9
$SHADEDGE
 70
     3
  9
$SHADEDIF
 70
    70
  9
$TILEMODE
 70
     1
  9
$MAXACTVP
 70
    64
  9
$PINSBASE
 10
0.0
 20
0.0
 30
0.0
  9
$PLIMCHECK
 70
     0
  9
$PEXTMIN
 10
1.000000000000000E+20
 20
1.000000000000000E+20
 30
1.000000000000000E+20
  9
$PEXTMAX
 10
-1.000000000000000E+20
 20
-1.000000000000000E+20
 30
-1.000000000000000E+20
  9
$PLIMMIN
 10
0.0
 20
0.0
  9
$PLIMMAX
 10
841.0
 20
594.0
  9
$UNITMODE
 70
     0
  9
$VISRETAIN
 70
     1
  9
$PLINEGEN
 70
     0
  9
$PSLTSCALE
 70
     0
  9
$TREEDEPTH
 70
  3020
  9
$PICKSTYLE
 70
     0
  9
$CMLSTYLE
  2
STANDARD
  9
$CMLJUST
 70
     0
  9
$CMLSCALE
 40
20.0
  9
$PROXYGRAPHICS
 70
     1
  9
$MEASUREMENT
 70
     1
  0
ENDSEC
  0
SECTION
  2
CLASSES
  0
CLASS
  1
ACDBDICTIONARYWDFLT
  2
AcDbDictionaryWithDefault
  3
AutoCAD 2000
 90
        0
280
     0
281
     0
  0
CLASS
  1
ACDBPLACEHOLDER
  2
AcDbPlaceHolder
  3
AutoCAD 2000
 90
        0
280
     0
281
     0
  0
CLASS
  1
LAYOUT
  2
AcDbLayout
  3
AutoCAD 2000
 90
        0
280
     0
281
     0
  0
CLASS
  1
AMGSETTINGSOBJ
  2
AmgSettingsObj
  3
"AcadM|Product Description: AutoCAD Mechanical 2000|Company: Autodesk"
 90
        0
280
     0
281
     0
  0
CLASS
  1
ACME_DOCUMENT
  2
AcMeDbDoc
  3
AcMeServices
 90
        0
280
     0
281
     0
  0
CLASS
  1
ACMESCOPE
  2
AcMeScope
  3
AcMeServices
 90
        0
280
     0
281
     0
  0
CLASS
  1
ACMECOMMANDHISTORY
  2
AcMeCommandHistory
  3
AcMeServices
 90
        0
280
     0
281
     0
  0
CLASS
  1
DICTIONARYVAR
  2
AcDbDictionaryVar
  3
AutoCAD 2000
 90
        0
280
     0
281
     0
  0
CLASS
  1
ACIMSYSVARMAN
  2
AcImSysVarManager
  3
AcMeServices
 90
        0
280
     0
281
     0
  0
CLASS
  1
ACIMREALSYSVAR
  2
AcImRealSysVar
  3
AcMeServices
 90
        0
280
     0
281
     0
  0
CLASS
  1
ACIMINTSYSVAR
  2
AcImIntSysVar
  3
AcMeServices
 90
        0
280
     0
281
     0
  0
CLASS
  1
ACMEDRAWINGMAN
  2
AcMeDrawingMan
  3
AcMeServices
 90
        0
280
     0
281
     0
  0
CLASS
  1
ACMEVIEW
  2
AcMeView
  3
AcMeServices
 90
        0
280
     0
281
     0
  0
CLASS
  1
ACDBENTITYCACHE
  2
AcMeEntityCache
  3
AcMeServices
 90
        0
280
     0
281
     0
  0
CLASS
  1
GSMANAGER
  2
AcMeGSManager
  3
AcMeServices
 90
        0
280
     0
281
     0
  0
CLASS
  1
AmdtInternalReactor
  2
AmdtInternalReactor
  3
AcMeServices
 90
        0
280
     0
281
     0
  0
CLASS
  1
ACMESTATEMGR
  2
AcMeStateMgr
  3
AcMeServices
 90
        0
280
     0
281
     0
  0
CLASS
  1
ACME_DATABASE
  2
AcMeDbDatabase
  3
AcMeServices
 90
        0
280
     0
281
     0
  0
CLASS
  1
ACRFINSADJUSTERMGR
  2
AcRfInsAdjusterMgr
  3
AcMeServices
 90
        0
280
     0
281
     0
  0
CLASS
  1
ACMDATADICTIONARY
  2
AcmDataDictionary
  3
"AcmSymBB|Product Description: AutoCAD Mechanical 2000|Company: Autodesk"
 90
        0
280
     0
281
     0
  0
CLASS
  1
ACMDATAENTRYBLOCK
  2
AcmDataEntryBlock
  3
"AcmSymBB|Product Description: AutoCAD Mechanical 2000|Company: Autodesk"
 90
        0
280
     0
281
     0
  0
CLASS
  1
AMGOBJPROPCFG
  2
AmgObjPropCfg
  3
"AmgLay|Product Description: AutoCAD Mechanical 2000|Company: Autodesk"
 90
        1
280
     0
281
     0
  0
CLASS
  1
ACAMGFILTERDAT
  2
AcAmgFilterDat
  3
"AcadM|Product Description: AutoCAD Mechanical 2000|Company: Autodesk"
 90
        0
280
     0
281
     0
  0
CLASS
  1
LAYER_INDEX
  2
AcDbLayerIndex
  3
AutoCAD 2000
 90
        0
280
     0
281
     0
  0
CLASS
  1
IDBUFFER
  2
AcDbIdBuffer
  3
AutoCAD 2000
 90
        0
280
     0
281
     0
  0
CLASS
  1
ACIMSTRSYSVAR
  2
AcImStrSysVar
  3
AcMeServices
 90
        0
280
     0
281
     0
  0
CLASS
  1
ACMSTANDARDJIS
  2
AcmStandardJIS
  3
"AcmSymBB|Product Description: AutoCAD Mechanical 2000|Company: Autodesk"
 90
        0
280
     0
281
     0
  0
CLASS
  1
ACMSURFSTANDARDJIS
  2
AcmSurfTextStdJIS
  3
"AcmSymBB|Product Description: AutoCAD Mechanical 2000|Company: Autodesk"
 90
        0
280
     0
281
     0
  0
CLASS
  1
ACMFCFSTANDARDJIS
  2
AcmFCFStdJIS
  3
"AcmSymBB|Product Description: AutoCAD Mechanical 2000|Company: Autodesk"
 90
        0
280
     0
281
     0
  0
CLASS
  1
ACMWELDSTANDARDJIS
  2
AcmWeldingStdJIS
  3
"AcmSymBB|Product Description: AutoCAD Mechanical 2000|Company: Autodesk"
 90
        0
280
     0
281
     0
  0
CLASS
  1
ACMIDSTANDARDJIS
  2
AcmIdStdJIS
  3
"AcmSymBB|Product Description: AutoCAD Mechanical 2000|Company: Autodesk"
 90
        0
280
     0
281
     0
  0
CLASS
  1
ACMDATUMSTANDARDJIS
  2
AcmDatumStdJIS
  3
"AcmSymBB|Product Description: AutoCAD Mechanical 2000|Company: Autodesk"
 90
        0
280
     0
281
     0
  0
CLASS
  1
ACMBOMSTANDARDJIS
  2
AcmBOMStdJIS
  3
"AcmSymBB|Product Description: AutoCAD Mechanical 2000|Company: Autodesk"
 90
        0
280
     0
281
     0
  0
CLASS
  1
ACMSTANDARDANSI
  2
AcmStandardANSI
  3
"AcmSymBB|Product Description: AutoCAD Mechanical 2000|Company: Autodesk"
 90
        0
280
     0
281
     0
  0
CLASS
  1
ACMSURFSTANDARDANSI
  2
AcmSurfTextStdANSI
  3
"AcmSymBB|Product Description: AutoCAD Mechanical 2000|Company: Autodesk"
 90
        0
280
     0
281
     0
  0
CLASS
  1
ACMFCFSTANDARDANSI
  2
AcmFCFStdANSI
  3
"AcmSymBB|Product Description: AutoCAD Mechanical 2000|Company: Autodesk"
 90
        0
280
     0
281
     0
  0
CLASS
  1
ACMWELDSTANDARDANSI
  2
AcmWeldingStdANSI
  3
"AcmSymBB|Product Description: AutoCAD Mechanical 2000|Company: Autodesk"
 90
        0
280
     0
281
     0
  0
CLASS
  1
ACMIDSTANDARDANSI
  2
AcmIdStdANSI
  3
"AcmSymBB|Product Description: AutoCAD Mechanical 2000|Company: Autodesk"
 90
        0
280
     0
281
     0
  0
CLASS
  1
ACMDATUMSTANDARDANSI
  2
AcmDatumStdANSI
  3
"AcmSymBB|Product Description: AutoCAD Mechanical 2000|Company: Autodesk"
 90
        0
280
     0
281
     0
  0
CLASS
  1
ACMBOMSTANDARDANSI
  2
AcmBOMStdANSI
  3
"AcmSymBB|Product Description: AutoCAD Mechanical 2000|Company: Autodesk"
 90
        0
280
     0
281
     0
  0
CLASS
  1
ACMSTANDARDBSI
  2
AcmStandardBSI
  3
"AcmSymBB|Product Description: AutoCAD Mechanical 2000|Company: Autodesk"
 90
        0
280
     0
281
     0
  0
CLASS
  1
ACMSURFSTANDARDBSI
  2
AcmSurfTextStdBSI
  3
"AcmSymBB|Product Description: AutoCAD Mechanical 2000|Company: Autodesk"
 90
        0
280
     0
281
     0
  0
CLASS
  1
ACMFCFSTANDARDBSI
  2
AcmFCFStdBSI
  3
"AcmSymBB|Product Description: AutoCAD Mechanical 2000|Company: Autodesk"
 90
        0
280
     0
281
     0
  0
CLASS
  1
ACMWELDSTANDARDBSI
  2
AcmWeldingStdBSI
  3
"AcmSymBB|Product Description: AutoCAD Mechanical 2000|Company: Autodesk"
 90
        0
280
     0
281
     0
  0
CLASS
  1
ACMIDSTANDARDBSI
  2
AcmIdStdBSI
  3
"AcmSymBB|Product Description: AutoCAD Mechanical 2000|Company: Autodesk"
 90
        0
280
     0
281
     0
  0
CLASS
  1
ACMDATUMSTANDARDBSI
  2
AcmDatumStdBSI
  3
"AcmSymBB|Product Description: AutoCAD Mechanical 2000|Company: Autodesk"
 90
        0
280
     0
281
     0
  0
CLASS
  1
ACMBOMSTANDARDBSI
  2
AcmBOMStdBSI
  3
"AcmSymBB|Product Description: AutoCAD Mechanical 2000|Company: Autodesk"
 90
        0
280
     0
281
     0
  0
CLASS
  1
LONG_TRANSACTION
  2
AcDbLongTransaction
  3
AutoCAD 2000
 90
        0
280
     0
281
     0
  0
CLASS
  1
LWPOLYLINE
  2
AcDbPolyline
  3
AutoCAD 2000
 90
        0
280
     0
281
     1
  0
CLASS
  1
HATCH
  2
AcDbHatch
  3
AutoCAD 2000
 90
        0
280
     0
281
     1
  0
CLASS
  1
XRECORD
  2
AcDbXrecord
  3
AutoCAD 2000
 90
        0
280
     0
281
     0
  0
ENDSEC
  0
SECTION
  2
TABLES
  0
TABLE
  2
VPORT
  5
8
330
0
100
AcDbSymbolTable
 70
     3
  0
VPORT
  5
52E2
330
8
100
AcDbSymbolTableRecord
100
AcDbViewportTableRecord
  2
*ACTIVE
 70
     0
 10
0.0
 20
0.0
 11
1.0
 21
1.0
 12
-59.70759605734525
 22
-27.75124526713347
 13
0.0
 23
0.0
 14
2.5
 24
2.5
 15
10.0
 25
10.0
 16
0.0
 26
0.0
 36
1.0
 17
0.0
 27
0.0
 37
0.0
 40
97.53923594637671
 41
1.56570841889117
 42
50.0
 43
0.0
 44
0.0
 50
0.0
 51
0.0
 71
     0
 72
   100
 73
     1
 74
     3
 75
     0
 76
     0
 77
     0
 78
     0
  0
ENDTAB
  0
TABLE
  2
LTYPE
  5
5
330
0
100
AcDbSymbolTable
 70
    10
  0
LTYPE
  5
14
330
5
100
AcDbSymbolTableRecord
100
AcDbLinetypeTableRecord
  2
BYBLOCK
 70
     0
  3

 72
    65
 73
     0
 40
0.0
  0
LTYPE
  5
15
330
5
100
AcDbSymbolTableRecord
100
AcDbLinetypeTableRecord
  2
BYLAYER
 70
     0
  3

 72
    65
 73
     0
 40
0.0
  0
LTYPE
  5
16
330
5
100
AcDbSymbolTableRecord
100
AcDbLinetypeTableRecord
  2
CONTINUOUS
 70
     0
  3
Solid line
 72
    65
 73
     0
 40
0.0
  0
LTYPE
  5
4B
330
5
100
AcDbSymbolTableRecord
100
AcDbLinetypeTableRecord
  2
AM_ISO02W050
 70
     0
  3
__ __ __ __ __ __ __ __ __ __ __ __ __ __ __
 72
    65
 73
     2
 40
7.5
 49
6.0
 74
     0
 49
-1.5
 74
     0
  0
LTYPE
  5
4C
330
5
100
AcDbSymbolTableRecord
100
AcDbLinetypeTableRecord
  2
AM_ISO08W050
 70
     0
  3
____ . ____ . ____ . ____ . ____ . ____ . ____
 72
    65
 73
     4
 40
18.0
 49
12.0
 74
     0
 49
-1.5
 74
     0
 49
3.0
 74
     0
 49
-1.5
 74
     0
  0
LTYPE
  5
4D
330
5
100
AcDbSymbolTableRecord
100
AcDbLinetypeTableRecord
  2
AM_ISO09W050
 70
     0
  3
_____ . . _____ . . _____ . . ____ .. ____
 72
    65
 73
     6
 40
22.5
 49
12.0
 74
     0
 49
-1.5
 74
     0
 49
3.0
 74
     0
 49
-1.5
 74
     0
 49
3.0
 74
     0
 49
-1.5
 74
     0
  0
LTYPE
  5
4E
330
5
100
AcDbSymbolTableRecord
100
AcDbLinetypeTableRecord
  2
AMCONSTR
 70
     0
  3
_______________________
 72
    65
 73
     2
 40
9999.0
 49
9999.0
 74
     0
 49
0.0
 74
     0
  0
LTYPE
  5
4F
330
5
100
AcDbSymbolTableRecord
100
AcDbLinetypeTableRecord
  2
AM_ISO02W050X2
 70
     0
  3
 _ _ _ _ _ _ _ _ _ _ _ _
 72
    65
 73
     2
 40
3.75
 49
3.0
 74
     0
 49
-0.75
 74
     0
  0
LTYPE
  5
50
330
5
100
AcDbSymbolTableRecord
100
AcDbLinetypeTableRecord
  2
AM_ISO08W050X2
 70
     0
  3
__ . __ . __ . __ . __ . __
 72
    65
 73
     4
 40
9.0
 49
6.0
 74
     0
 49
-0.75
 74
     0
 49
1.5
 74
     0
 49
-0.75
 74
     0
  0
LTYPE
  5
53
330
5
100
AcDbSymbolTableRecord
100
AcDbLinetypeTableRecord
  2
AMZIGZAG
 70
     0
  3
/\/-/\/-/\/-/\/-/\/-/\/
 72
    65
 73
     2
 40
11.00009999999999
 49
0.0001
 74
     4
 75
   135
340
52
 46
0.04
 50
0.0
 44
0.0
 45
0.0
 49
-11.0
 74
     0
  0
LTYPE
  5
166
330
5
100
AcDbSymbolTableRecord
100
AcDbLinetypeTableRecord
  2
ACJISTGL
 70
     0
  3
_ _ _ _ _
 72
    65
 73
     2
 40
3.0
 49
2.0
 74
     0
 49
-1.0
 74
     0
  0
LTYPE
  5
26A
330
5
100
AcDbSymbolTableRecord
100
AcDbLinetypeTableRecord
  2
ACJISTGB
 70
     0
  3
__ . . __ . .
 72
    65
 73
     6
 40
9.0
 49
4.0
 74
     0
 49
-1.0
 74
     0
 49
1.0
 74
     0
 49
-1.0
 74
     0
 49
1.0
 74
     0
 49
-1.0
 74
     0
  0
ENDTAB
  0
TABLE
  2
LAYER
  5
2
330
0
100
AcDbSymbolTable
 70
     7
  0
LAYER
  5
10
330
2
100
AcDbSymbolTableRecord
100
AcDbLayerTableRecord
  2
0
 70
     0
 62
     7
  6
CONTINUOUS
  0
LAYER
  5
3F9
330
2
100
AcDbSymbolTableRecord
100
AcDbLayerTableRecord
  2
AM_0
 70
     0
 62
     7
  6
CONTINUOUS
  0
LAYER
  5
BDD
330
2
100
AcDbSymbolTableRecord
100
AcDbLayerTableRecord
  2
AM_11
 70
     0
 62
     3
  6
AM_ISO09W050
  0
LAYER
  5
BDE
330
2
100
AcDbSymbolTableRecord
100
AcDbLayerTableRecord
  2
AM_7
 70
     0
 62
     4
  6
AM_ISO08W050
  0
LAYER
  5
BDF
330
2
100
AcDbSymbolTableRecord
100
AcDbLayerTableRecord
  2
AM_5
 70
     0
 62
     3
  6
CONTINUOUS
  0
LAYER
  5
BE0
330
2
100
AcDbSymbolTableRecord
100
AcDbLayerTableRecord
  2
DEFPOINTS
 70
     0
 62
     7
  6
CONTINUOUS
  0
LAYER
  5
14FF
330
2
100
AcDbSymbolTableRecord
100
AcDbLayerTableRecord
  2
AM_6
 70
     0
 62
     2
  6
CONTINUOUS
  0
ENDTAB
  0
TABLE
  2
STYLE
  5
3
330
0
100
AcDbSymbolTable
 70
     5
  0
STYLE
  5
11
330
3
100
AcDbSymbolTableRecord
100
AcDbTextStyleTableRecord
  2
STANDARD
 70
     0
 40
0.0
 41
1.0
 50
0.0
 71
     0
 42
2.5
  3
simplex.shx
  4
EXTFONT.SHX
  0
STYLE
  5
52
330
3
100
AcDbSymbolTableRecord
100
AcDbTextStyleTableRecord
  2

 70
     1
 40
0.0
 41
1.0
 50
0.0
 71
     0
 42
2.5
  3
ltypeshp.shx
  4

  0
STYLE
  5
6B
330
3
100
AcDbSymbolTableRecord
100
AcDbTextStyleTableRecord
  2
ASAMI
 70
     0
 40
0.0
 41
1.0
 50
0.0
 71
     0
 42
2.5
  3
simplex.shx
  4
EXTFONT.SHX
  0
STYLE
  5
262
330
3
100
AcDbSymbolTableRecord
100
AcDbTextStyleTableRecord
  2
ACJISTS
 70
     0
 40
1.0
 41
1.0
 50
0.0
 71
     0
 42
2.5
  3
simplex.shx
  4
bigfont.shx
  0
STYLE
  5
269
330
3
100
AcDbSymbolTableRecord
100
AcDbTextStyleTableRecord
  2
ACJISGDT
 70
     0
 40
0.0
 41
1.0
 50
0.0
 71
     0
 42
2.5
  3
amgdtans.shx
  4

  0
ENDTAB
  0
TABLE
  2
VIEW
  5
6
330
0
100
AcDbSymbolTable
 70
     0
  0
ENDTAB
  0
TABLE
  2
UCS
  5
7
330
0
100
AcDbSymbolTable
 70
     0
  0
ENDTAB
  0
TABLE
  2
APPID
  5
9
330
0
100
AcDbSymbolTable
 70
    14
  0
APPID
  5
12
330
9
100
AcDbSymbolTableRecord
100
AcDbRegAppTableRecord
  2
ACAD
 70
     0
  0
APPID
  5
30
330
9
100
AcDbSymbolTableRecord
100
AcDbRegAppTableRecord
  2
MCAD_NO_VIS
 70
     0
  0
APPID
  5
31
330
9
100
AcDbSymbolTableRecord
100
AcDbRegAppTableRecord
  2
ACAD_TEMP_GRAPHIC
 70
     0
  0
APPID
  5
2C2
330
9
100
AcDbSymbolTableRecord
100
AcDbRegAppTableRecord
  2
GENIUS_GENDTOL_13
 70
     0
  0
APPID
  5
339
330
9
100
AcDbSymbolTableRecord
100
AcDbRegAppTableRecord
  2
GENIUS_GENODEF_13
 70
     0
  0
APPID
  5
33A
330
9
100
AcDbSymbolTableRecord
100
AcDbRegAppTableRecord
  2
GENIUS_GENOBJ-N-RSBK_13
 70
     0
  0
APPID
  5
33B
330
9
100
AcDbSymbolTableRecord
100
AcDbRegAppTableRecord
  2
GENIUS_GENOBJ-N-LIB_13
 70
     0
  0
APPID
  5
33C
330
9
100
AcDbSymbolTableRecord
100
AcDbRegAppTableRecord
  2
GENIUS_GENSCALE_13
 70
     0
  0
APPID
  5
378
330
9
100
AcDbSymbolTableRecord
100
AcDbRegAppTableRecord
  2
GENIUS_GENDIMSH_14
 70
     0
  0
APPID
  5
BE1
330
9
100
AcDbSymbolTableRecord
100
AcDbRegAppTableRecord
  2
GENIUS_GENFIL_13
 70
     0
  0
APPID
  5
BE2
330
9
100
AcDbSymbolTableRecord
100
AcDbRegAppTableRecord
  2
GENIUS_GENOBJ-N-CHA_13
 70
     0
  0
APPID
  5
151B
330
9
100
AcDbSymbolTableRecord
100
AcDbRegAppTableRecord
  2
DCO15
 70
     0
  0
APPID
  5
1860
330
9
100
AcDbSymbolTableRecord
100
AcDbRegAppTableRecord
  2
GENIUS_GENOBJ-N-CEN_13
 70
     0
  0
APPID
  5
359C
330
9
100
AcDbSymbolTableRecord
100
AcDbRegAppTableRecord
  2
GENIUS_GENOBJ-N-FIL_13
 70
     0
  0
ENDTAB
  0
TABLE
  2
DIMSTYLE
  5
A
330
0
100
AcDbSymbolTable
 70
     8
  0
DIMSTYLE
105
58
102
{ACAD_REACTORS
330
4047
330
412A
330
42F4
330
4D66
330
4E56
102
}
330
A
100
AcDbSymbolTableRecord
100
AcDbDimStyleTableRecord
  2
AM_JIS
 70
     0
  3

  4
"
  5
OPEN30
  6

  7

 40
1.0
 41
2.5
 42
1.0
 43
12.0
 44
1.0
 45
0.0
 46
0.0
 47
0.1
 48
0.1
140
3.2
141
0.0
142
0.0
143
0.0393701
144
1.0
145
0.0
146
0.71
147
1.5
 71
     0
 72
     0
 73
     0
 74
     0
 75
     0
 76
     0
 77
     3
 78
     8
170
     0
171
     2
172
     1
173
     0
174
     0
175
     0
176
   256
177
   256
178
     2
270
     2
271
     3
272
     3
273
     2
274
     2
340
6B
275
     0
280
     0
281
     0
282
     0
283
     0
284
     0
285
     0
286
     0
287
     3
288
     0
  0
DIMSTYLE
105
5F
330
A
100
AcDbSymbolTableRecord
100
AcDbDimStyleTableRecord
  2
AM_JIS$3
 70
     0
  3

  4
"
  5
OPEN30
  6

  7

 40
1.0
 41
2.5
 42
1.0
 43
10.0
 44
1.0
 45
0.0
 46
0.0
 47
0.1
 48
0.1
140
3.2
141
0.0
142
0.0
143
0.0393701
144
1.0
145
0.0
146
0.71
147
1.5
 71
     0
 72
     0
 73
     0
 74
     1
 75
     0
 76
     0
 77
     3
 78
     8
170
     0
171
     2
172
     0
173
     0
174
     0
175
     0
176
   256
177
   256
178
     2
270
     2
271
     2
272
     3
273
     2
274
     2
340
6B
275
     0
280
     0
281
     0
282
     0
283
     0
284
     0
285
     0
286
     0
287
     0
288
     1
  0
DIMSTYLE
105
60
102
{ACAD_REACTORS
330
5114
102
}
330
A
100
AcDbSymbolTableRecord
100
AcDbDimStyleTableRecord
  2
AM_JIS$4
 70
     0
  3

  4
"
  5
OPEN30
  6

  7

 40
1.0
 41
2.5
 42
1.0
 43
10.0
 44
1.0
 45
0.0
 46
0.0
 47
0.1
 48
0.1
140
3.2
141
0.0
142
0.0
143
0.0393701
144
1.0
145
0.0
146
0.71
147
1.5
 71
     0
 72
     0
 73
     0
 74
     1
 75
     0
 76
     0
 77
     3
 78
     8
170
     0
171
     2
172
     0
173
     0
174
     0
175
     0
176
   256
177
   256
178
     2
270
     2
271
     2
272
     3
273
     2
274
     2
340
6B
275
     0
280
     0
281
     0
282
     0
283
     0
284
     0
285
     0
286
     0
287
     0
288
     1
  0
DIMSTYLE
105
61
330
A
100
AcDbSymbolTableRecord
100
AcDbDimStyleTableRecord
  2
AM_JIS$6
 70
     0
  3

  4
"
  5
OPEN30
  6

  7

 40
1.0
 41
2.5
 42
1.0
 43
10.0
 44
1.0
 45
0.0
 46
0.0
 47
0.1
 48
0.1
140
3.2
141
0.0
142
0.0
143
0.0393701
144
1.0
145
0.0
146
0.71
147
1.5
 71
     0
 72
     0
 73
     0
 74
     0
 75
     0
 76
     0
 77
     0
 78
     8
170
     0
171
     2
172
     1
173
     0
174
     0
175
     0
176
   256
177
   256
178
     2
270
     2
271
     2
272
     2
273
     2
274
     2
340
6B
275
     0
280
     0
281
     0
282
     0
283
     0
284
     0
285
     0
286
     0
287
     3
288
     0
  0
DIMSTYLE
105
62
330
A
100
AcDbSymbolTableRecord
100
AcDbDimStyleTableRecord
  2
AM_JIS$7
 70
     0
  3

  4
"
  5
OPEN30
  6

  7

 40
1.0
 41
2.5
 42
1.0
 43
10.0
 44
1.0
 45
0.0
 46
0.0
 47
0.1
 48
0.1
140
3.2
141
0.0
142
0.0
143
0.0393701
144
1.0
145
0.0
146
0.71
147
1.5
 71
     0
 72
     0
 73
     0
 74
     0
 75
     0
 76
     0
 77
     3
 78
     8
170
     0
171
     2
172
     1
173
     0
174
     0
175
     0
176
   256
177
   256
178
     2
270
     2
271
     2
272
     3
273
     2
274
     2
340
6B
275
     0
280
     0
281
     0
282
     0
283
     0
284
     0
285
     0
286
     0
287
     3
288
     0
  0
DIMSTYLE
105
63
330
A
100
AcDbSymbolTableRecord
100
AcDbDimStyleTableRecord
  2
AM_JIS$SF
 70
     0
  3

  4
"
  5
OPEN30
  6

  7

 40
1.0
 41
2.5
 42
1.0
 43
10.0
 44
1.0
 45
0.0
 46
0.0
 47
0.1
 48
0.1
140
3.2
141
0.0
142
0.0
143
0.0393701
144
1.0
145
0.0
146
0.71
147
1.5
 71
     0
 72
     0
 73
     0
 74
     0
 75
     1
 76
     1
 77
     3
 78
     8
170
     0
171
     2
172
     1
173
     0
174
     0
175
     0
176
   256
177
   256
178
     2
270
     2
271
     2
272
     2
273
     2
274
     2
340
6B
275
     0
280
     0
281
     0
282
     0
283
     0
284
     0
285
     0
286
     0
287
     3
288
     0
  0
DIMSTYLE
105
68
330
A
100
AcDbSymbolTableRecord
100
AcDbDimStyleTableRecord
  2
AM_JIS$SH
 70
     0
  3

  4
"
  5

  6
GENAXEH
  7
OPEN30
 40
1.0
 41
2.5
 42
1.0
 43
10.0
 44
1.0
 45
0.0
 46
0.0
 47
0.1
 48
0.1
140
3.2
141
0.0
142
0.0
143
0.0393701
144
2.0
145
0.0
146
0.71
147
1.5
 71
     0
 72
     0
 73
     0
 74
     0
 75
     1
 76
     1
 77
     3
 78
     8
170
     0
171
     2
172
     1
173
     1
174
     0
175
     0
176
   256
177
   256
178
     2
270
     2
271
     2
272
     2
273
     2
274
     2
340
6B
275
     0
280
     0
281
     0
282
     0
283
     0
284
     0
285
     0
286
     0
287
     3
288
     0
  0
DIMSTYLE
105
B34
330
A
100
AcDbSymbolTableRecord
100
AcDbDimStyleTableRecord
  2
AM_JIS$2
 70
     0
  3

  4
"
  5
OPEN30
  6

  7

 40
1.0
 41
2.5
 42
1.0
 43
12.0
 44
1.0
 45
0.0
 46
0.0
 47
0.1
 48
0.1
140
3.2
141
0.0
142
0.0
143
0.0393701
144
1.0
145
0.0
146
0.71
147
1.5
 71
     0
 72
     0
 73
     0
 74
     0
 75
     0
 76
     0
 77
     3
 78
     8
170
     0
171
     2
172
     1
173
     0
174
     0
175
     0
176
   256
177
   256
178
     2
270
     2
271
     3
272
     3
273
     2
274
     2
340
6B
275
     0
280
     0
281
     0
282
     0
283
     0
284
     0
285
     0
286
     0
287
     3
288
     0
  0
ENDTAB
  0
TABLE
  2
BLOCK_RECORD
  5
1
330
0
100
AcDbSymbolTable
 70
    11
  0
BLOCK_RECORD
  5
1F
102
{ACAD_XDICTIONARY
360
74
102
}
330
1
100
AcDbSymbolTableRecord
100
AcDbBlockTableRecord
  2
*MODEL_SPACE
  0
BLOCK_RECORD
  5
101
102
{ACAD_XDICTIONARY
360
530B
102
}
330
1
100
AcDbSymbolTableRecord
100
AcDbBlockTableRecord
  2
*PAPER_SPACE
  0
BLOCK_RECORD
  5
59
330
1
100
AcDbSymbolTableRecord
100
AcDbBlockTableRecord
  2
_OPEN30
  0
BLOCK_RECORD
  5
64
330
1
100
AcDbSymbolTableRecord
100
AcDbBlockTableRecord
  2
GENAXEH
  0
BLOCK_RECORD
  5
4048
330
1
100
AcDbSymbolTableRecord
100
AcDbBlockTableRecord
  2
*D5
  0
BLOCK_RECORD
  5
412B
330
1
100
AcDbSymbolTableRecord
100
AcDbBlockTableRecord
  2
*D6
  0
BLOCK_RECORD
  5
42F5
330
1
100
AcDbSymbolTableRecord
100
AcDbBlockTableRecord
  2
*D7
  0
BLOCK_RECORD
  5
4D67
330
1
100
AcDbSymbolTableRecord
100
AcDbBlockTableRecord
  2
*D8
  0
BLOCK_RECORD
  5
4E57
330
1
100
AcDbSymbolTableRecord
100
AcDbBlockTableRecord
  2
*D9
  0
BLOCK_RECORD
  5
5115
330
1
100
AcDbSymbolTableRecord
100
AcDbBlockTableRecord
  2
*D10
  0
ENDTAB
  0
ENDSEC
  0
SECTION
  2
BLOCKS
  0
BLOCK
  5
20
330
1F
100
AcDbEntity
  8
0
100
AcDbBlockBegin
  2
*MODEL_SPACE
 70
     0
 10
0.0
 20
0.0
 30
0.0
  3
*MODEL_SPACE
  1

  0
ENDBLK
  5
21
330
1F
100
AcDbEntity
  8
0
100
AcDbBlockEnd
  0
BLOCK
  5
103
330
101
100
AcDbEntity
 67
     1
  8
0
100
AcDbBlockBegin
  2
*PAPER_SPACE
 70
     0
 10
0.0
 20
0.0
 30
0.0
  3
*PAPER_SPACE
  1

  0
ENDBLK
  5
104
330
101
100
AcDbEntity
 67
     1
  8
0
100
AcDbBlockEnd
  0
BLOCK
  5
5D
330
59
100
AcDbEntity
  8
0
100
AcDbBlockBegin
  2
_OPEN30
 70
     0
 10
0.0
 20
0.0
 30
0.0
  3
_OPEN30
  1

  0
LINE
  5
5A
330
59
100
AcDbEntity
  8
0
 62
     0
100
AcDbLine
 10
-1.0
 20
0.26794919
 30
0.0
 11
0.0
 21
0.0
 31
0.0
  0
LINE
  5
5B
330
59
100
AcDbEntity
  8
0
 62
     0
100
AcDbLine
 10
0.0
 20
0.0
 30
0.0
 11
-1.0
 21
-0.26794919
 31
0.0
  0
LINE
  5
5C
330
59
100
AcDbEntity
  8
0
 62
     0
100
AcDbLine
 10
0.0
 20
0.0
 30
0.0
 11
-1.0
 21
0.0
 31
0.0
  0
ENDBLK
  5
5E
330
59
100
AcDbEntity
  8
0
100
AcDbBlockEnd
  0
BLOCK
  5
66
330
64
100
AcDbEntity
  8
0
100
AcDbBlockBegin
  2
GENAXEH
 70
     0
 10
0.0
 20
0.0
 30
0.0
  3
GENAXEH
  1

  0
LINE
  5
65
330
64
100
AcDbEntity
  8
0
100
AcDbLine
 10
-1.0
 20
0.0
 30
0.0
 11
1.0
 21
0.0
 31
0.0
  0
ENDBLK
  5
67
330
64
100
AcDbEntity
  8
0
100
AcDbBlockEnd
  0
BLOCK
  5
4052
330
4048
100
AcDbEntity
  8
0
100
AcDbBlockBegin
  2
*D5
 70
     1
 10
0.0
 20
0.0
 30
0.0
  3
*D5
  1

  0
LINE
  5
505D
330
4048
100
AcDbEntity
  8
AM_5
100
AcDbLine
 10
-114.9999999999999
 20
-4.250000000000072
 30
0.0
 11
-114.9999999999999
 21
-43.00000099999992
 31
0.0
  0
LINE
  5
505E
330
4048
100
AcDbEntity
  8
AM_5
100
AcDbLine
 10
0.0000000000000006
 20
-1.0
 30
0.0
 11
-0.000000000000002
 21
-43.00000099999992
 31
0.0
  0
LINE
  5
505F
330
4048
100
AcDbEntity
  8
AM_5
100
AcDbLine
 10
-112.4999999999999
 20
-42.00000099999992
 30
0.0
 11
-2.500000000000001
 21
-42.00000099999992
 31
0.0
  0
INSERT
  5
5060
330
4048
100
AcDbEntity
  8
AM_5
100
AcDbBlockReference
  2
_OPEN30
 10
-114.9999999999999
 20
-42.00000099999992
 30
0.0
 41
2.5
 42
2.5
 43
2.5
 50
180.0
  0
INSERT
  5
5061
330
4048
100
AcDbEntity
  8
AM_5
100
AcDbBlockReference
  2
_OPEN30
 10
-0.0000000000000019
 20
-42.00000099999992
 30
0.0
 41
2.5
 42
2.5
 43
2.5
  0
MTEXT
  5
5062
330
4048
100
AcDbEntity
  8
AM_5
 62
     2
100
AcDbMText
 10
-57.49999999999998
 20
-38.90000099999991
 30
0.0
 40
3.2
 41
0.0
 71
     5
 72
     1
  1
115
  7
ASAMI
1001
ACAD
1000
MTEXTBEGIN
1070
    73
1070
     1
1070
    44
1040
1.0
1070
    74
1070
     0
1000
MTEXTEND
  0
POINT
  5
5063
330
4048
100
AcDbEntity
  8
DEFPOINTS
 62
     0
100
AcDbPoint
 10
-114.9999999999999
 20
-3.250000000000072
 30
0.0
  0
POINT
  5
5064
330
4048
100
AcDbEntity
  8
DEFPOINTS
 62
     0
100
AcDbPoint
 10
0.0000000000000007
 20
-0.0000000000000005
 30
0.0
  0
POINT
  5
5065
330
4048
100
AcDbEntity
  8
DEFPOINTS
 62
     0
100
AcDbPoint
 10
-0.0000000000000019
 20
-42.00000099999992
 30
0.0
  0
ENDBLK
  5
4053
330
4048
100
AcDbEntity
  8
0
100
AcDbBlockEnd
  0
BLOCK
  5
4135
330
412B
100
AcDbEntity
  8
0
100
AcDbBlockBegin
  2
*D6
 70
     1
 10
0.0
 20
0.0
 30
0.0
  3
*D6
  1

  0
LINE
  5
506F
330
412B
100
AcDbEntity
  8
AM_5
100
AcDbLine
 10
-0.0000000000000143
 20
-1.000000000000011
 30
0.0
 11
-0.0000000000000154
 21
-19.00000099999993
 31
0.0
  0
LINE
  5
5070
330
412B
100
AcDbEntity
  8
AM_5
100
AcDbLine
 10
-6.999999999999782
 20
-3.500000000000002
 30
0.0
 11
-6.999999999999783
 21
-19.00000099999993
 31
0.0
  0
LINE
  5
5071
330
412B
100
AcDbEntity
  8
AM_5
100
AcDbLine
 10
2.499999999999984
 20
-18.00000099999993
 30
0.0
 11
4.999999999999984
 21
-18.00000099999993
 31
0.0
  0
LINE
  5
5072
330
412B
100
AcDbEntity
  8
AM_5
100
AcDbLine
 10
-9.499999999999783
 20
-18.00000099999993
 30
0.0
 11
-11.99999999999978
 21
-18.00000099999993
 31
0.0
  0
LINE
  5
5073
330
412B
100
AcDbEntity
  8
AM_5
100
AcDbLine
 10
-0.0000000000000153
 20
-18.00000099999993
 30
0.0
 11
-6.999999999999783
 21
-18.00000099999993
 31
0.0
  0
INSERT
  5
5074
330
412B
100
AcDbEntity
  8
AM_5
100
AcDbBlockReference
  2
_OPEN30
 10
-0.0000000000000153
 20
-18.00000099999993
 30
0.0
 41
2.5
 42
2.5
 43
2.5
 50
180.0
  0
INSERT
  5
5075
330
412B
100
AcDbEntity
  8
AM_5
100
AcDbBlockReference
  2
_OPEN30
 10
-6.999999999999783
 20
-18.00000099999993
 30
0.0
 41
2.5
 42
2.5
 43
2.5
  0
MTEXT
  5
5076
330
412B
100
AcDbEntity
  8
AM_5
 62
     2
100
AcDbMText
 10
-3.499999999999899
 20
-14.90000099999993
 30
0.0
 40
3.2
 41
0.0
 71
     5
 72
     1
  1
7
  7
ASAMI
1001
ACAD
1000
MTEXTBEGIN
1070
    73
1070
     1
1070
    44
1040
1.0
1070
    74
1070
     0
1000
MTEXTEND
  0
POINT
  5
5077
330
412B
100
AcDbEntity
  8
DEFPOINTS
 62
     0
100
AcDbPoint
 10
-0.0000000000000142
 20
-0.0000000000000111
 30
0.0
  0
POINT
  5
5078
330
412B
100
AcDbEntity
  8
DEFPOINTS
 62
     0
100
AcDbPoint
 10
-6.999999999999782
 20
-2.500000000000002
 30
0.0
  0
POINT
  5
5079
330
412B
100
AcDbEntity
  8
DEFPOINTS
 62
     0
100
AcDbPoint
 10
-6.999999999999783
 20
-18.00000099999993
 30
0.0
  0
ENDBLK
  5
4136
330
412B
100
AcDbEntity
  8
0
100
AcDbBlockEnd
  0
BLOCK
  5
42FF
330
42F5
100
AcDbEntity
  8
0
100
AcDbBlockBegin
  2
*D7
 70
     1
 10
0.0
 20
0.0
 30
0.0
  3
*D7
  1

  0
LINE
  5
507A
330
42F5
100
AcDbEntity
  8
AM_5
100
AcDbLine
 10
-1.500000000000049
 20
2.500000000000025
 30
0.0
 11
16.34162794056475
 21
2.500000000000019
 31
0.0
  0
LINE
  5
507B
330
42F5
100
AcDbEntity
  8
AM_5
100
AcDbLine
 10
-1.500000000000036
 20
-2.499999999999975
 30
0.0
 11
16.34162794056475
 21
-2.49999999999998
 31
0.0
  0
LINE
  5
507C
330
42F5
100
AcDbEntity
  8
AM_5
100
AcDbLine
 10
15.34162794056475
 20
5.00000000000002
 30
0.0
 11
15.34162794056475
 21
7.50000000000002
 31
0.0
  0
LINE
  5
507D
330
42F5
100
AcDbEntity
  8
AM_5
100
AcDbLine
 10
15.34162794056475
 20
-4.99999999999998
 30
0.0
 11
15.34162794056475
 21
-15.5285714285714
 31
0.0
  0
LINE
  5
507E
330
42F5
100
AcDbEntity
  8
AM_5
100
AcDbLine
 10
15.34162794056475
 20
2.50000000000002
 30
0.0
 11
15.34162794056475
 21
-2.49999999999998
 31
0.0
  0
INSERT
  5
507F
330
42F5
100
AcDbEntity
  8
AM_5
100
AcDbBlockReference
  2
_OPEN30
 10
15.34162794056475
 20
2.50000000000002
 30
0.0
 41
2.5
 42
2.5
 43
2.5
 50
270.0
  0
INSERT
  5
5080
330
42F5
100
AcDbEntity
  8
AM_5
100
AcDbBlockReference
  2
_OPEN30
 10
15.34162794056475
 20
-2.49999999999998
 30
0.0
 41
2.5
 42
2.5
 43
2.5
 50
90.0
  0
MTEXT
  5
5081
330
42F5
100
AcDbEntity
  8
AM_5
 62
     2
100
AcDbMText
 10
12.24162794056475
 20
-11.51428571428569
 30
0.0
 40
3.2
 41
0.0
 71
     5
 72
     1
  1
%%c5
  7
ASAMI
 11
0.0000000000000001
 21
1.0
 31
0.0
1001
ACAD
1000
MTEXTBEGIN
1070
    73
1070
     1
1070
    44
1040
1.0
1070
    74
1070
     0
1000
MTEXTEND
  0
POINT
  5
5082
330
42F5
100
AcDbEntity
  8
DEFPOINTS
 62
     0
100
AcDbPoint
 10
-2.50000000000005
 20
2.500000000000025
 30
0.0
  0
POINT
  5
5083
330
42F5
100
AcDbEntity
  8
DEFPOINTS
 62
     0
100
AcDbPoint
 10
-2.500000000000036
 20
-2.499999999999975
 30
0.0
  0
POINT
  5
5084
330
42F5
100
AcDbEntity
  8
DEFPOINTS
 62
     0
100
AcDbPoint
 10
15.34162794056475
 20
-2.49999999999998
 30
0.0
  0
ENDBLK
  5
4300
330
42F5
100
AcDbEntity
  8
0
100
AcDbBlockEnd
  0
BLOCK
  5
4D71
330
4D67
100
AcDbEntity
  8
0
100
AcDbBlockBegin
  2
*D8
 70
     1
 10
0.0
 20
0.0
 30
0.0
  3
*D8
  1

  0
LINE
  5
5066
330
4D67
100
AcDbEntity
  8
AM_5
100
AcDbLine
 10
-0.0000000000000092
 20
-1.0
 30
0.0
 11
-0.000000000000011
 21
-31.00000099999999
 31
0.0
  0
LINE
  5
5067
330
4D67
100
AcDbEntity
  8
AM_5
100
AcDbLine
 10
-39.99999999999998
 20
-3.500000000000013
 30
0.0
 11
-39.99999999999998
 21
-31.00000099999999
 31
0.0
  0
LINE
  5
5068
330
4D67
100
AcDbEntity
  8
AM_5
100
AcDbLine
 10
-2.500000000000011
 20
-30.00000099999999
 30
0.0
 11
-37.49999999999998
 21
-30.00000099999999
 31
0.0
  0
INSERT
  5
5069
330
4D67
100
AcDbEntity
  8
AM_5
100
AcDbBlockReference
  2
_OPEN30
 10
-0.0000000000000109
 20
-30.00000099999999
 30
0.0
 41
2.5
 42
2.5
 43
2.5
  0
INSERT
  5
506A
330
4D67
100
AcDbEntity
  8
AM_5
100
AcDbBlockReference
  2
_OPEN30
 10
-39.99999999999998
 20
-30.00000099999999
 30
0.0
 41
2.5
 42
2.5
 43
2.5
 50
180.0
  0
MTEXT
  5
506B
330
4D67
100
AcDbEntity
  8
AM_5
 62
     2
100
AcDbMText
 10
-20.0
 20
-26.90000099999999
 30
0.0
 40
3.2
 41
0.0
 71
     5
 72
     1
  1
40
  7
ASAMI
1001
ACAD
1000
MTEXTBEGIN
1070
    73
1070
     1
1070
    44
1040
1.0
1070
    74
1070
     0
1000
MTEXTEND
  0
POINT
  5
506C
330
4D67
100
AcDbEntity
  8
DEFPOINTS
 62
     0
100
AcDbPoint
 10
-0.0000000000000091
 20
-0.0000000000000009
 30
0.0
  0
POINT
  5
506D
330
4D67
100
AcDbEntity
  8
DEFPOINTS
 62
     0
100
AcDbPoint
 10
-39.99999999999998
 20
-2.500000000000013
 30
0.0
  0
POINT
  5
506E
330
4D67
100
AcDbEntity
  8
DEFPOINTS
 62
     0
100
AcDbPoint
 10
-39.99999999999998
 20
-30.00000099999999
 30
0.0
  0
ENDBLK
  5
4D72
330
4D67
100
AcDbEntity
  8
0
100
AcDbBlockEnd
  0
BLOCK
  5
4E63
330
4E57
100
AcDbEntity
  8
0
100
AcDbBlockBegin
  2
*D9
 70
     1
 10
0.0
 20
0.0
 30
0.0
  3
*D9
  1

  0
LINE
  5
4E66
330
4E57
100
AcDbEntity
  8
AM_5
100
AcDbLine
 10
-115.2499999999999
 20
3.999999999999836
 30
0.0
 11
-132.0561951299595
 21
3.999999999999841
 31
0.0
  0
LINE
  5
4E67
330
4E57
100
AcDbEntity
  8
AM_5
100
AcDbLine
 10
-115.2499999999999
 20
-4.000000000000085
 30
0.0
 11
-132.0561951299595
 21
-4.00000000000008
 31
0.0
  0
LINE
  5
4E68
330
4E57
100
AcDbEntity
  8
AM_5
100
AcDbLine
 10
-131.0561951299595
 20
6.499999999999841
 30
0.0
 11
-131.0561951299595
 21
8.99999999999984
 31
0.0
  0
LINE
  5
4E69
330
4E57
100
AcDbEntity
  8
AM_5
100
AcDbLine
 10
-131.0561951299595
 20
-6.50000000000008
 30
0.0
 11
-131.0561951299595
 21
-17.02857142857151
 31
0.0
  0
LINE
  5
4E6A
330
4E57
100
AcDbEntity
  8
AM_5
100
AcDbLine
 10
-131.0561951299595
 20
3.999999999999841
 30
0.0
 11
-131.0561951299595
 21
-4.00000000000008
 31
0.0
  0
INSERT
  5
4E6B
330
4E57
100
AcDbEntity
  8
AM_5
100
AcDbBlockReference
  2
_OPEN30
 10
-131.0561951299595
 20
3.999999999999841
 30
0.0
 41
2.5
 42
2.5
 43
2.5
 50
270.0
  0
INSERT
  5
4E6C
330
4E57
100
AcDbEntity
  8
AM_5
100
AcDbBlockReference
  2
_OPEN30
 10
-131.0561951299595
 20
-4.00000000000008
 30
0.0
 41
2.5
 42
2.5
 43
2.5
 50
90.0
  0
MTEXT
  5
4E6D
330
4E57
100
AcDbEntity
  8
AM_5
 62
     2
100
AcDbMText
 10
-134.1561951299595
 20
-13.01428571428581
 30
0.0
 40
3.2
 41
0.0
 71
     5
 72
     1
  1
%%c8
  7
ASAMI
 11
0.0000000000000001
 21
1.0
 31
0.0
1001
ACAD
1000
MTEXTBEGIN
1070
    73
1070
     1
1070
    44
1040
1.0
1070
    74
1070
     0
1000
MTEXTEND
  0
POINT
  5
4E6E
330
4E57
100
AcDbEntity
  8
DEFPOINTS
 62
     0
100
AcDbPoint
 10
-114.2499999999999
 20
3.999999999999836
 30
0.0
  0
POINT
  5
4E6F
330
4E57
100
AcDbEntity
  8
DEFPOINTS
 62
     0
100
AcDbPoint
 10
-114.2499999999999
 20
-4.000000000000085
 30
0.0
  0
POINT
  5
4E70
330
4E57
100
AcDbEntity
  8
DEFPOINTS
 62
     0
100
AcDbPoint
 10
-131.0561951299595
 20
-4.00000000000008
 30
0.0
  0
ENDBLK
  5
4E64
330
4E57
100
AcDbEntity
  8
0
100
AcDbBlockEnd
  0
BLOCK
  5
511B
330
5115
100
AcDbEntity
  8
0
100
AcDbBlockBegin
  2
*D10
 70
     1
 10
0.0
 20
0.0
 30
0.0
  3
*D10
  1

  0
LINE
  5
530D
330
5115
100
AcDbEntity
  8
AM_5
100
AcDbLine
 10
12.43513297425752
 20
-27.3651627404674
 30
0.0
 11
-0.1072256427120459
 21
-4.352307627637678
 31
0.0
  0
MTEXT
  5
530E
330
5115
100
AcDbEntity
  8
AM_5
 62
     2
100
AcDbMText
 10
12.06929334895997
 20
-20.21608018931367
 30
0.0
 40
3.2
 41
0.0
 71
     5
 72
     1
  1
R2.5
  7
ASAMI
 11
0.4785548714576461
 21
-0.8780576490209261
 31
0.0
  0
LINE
  5
530F
330
5115
100
AcDbEntity
  8
AM_5
100
AcDbLine
 10
-2.500000000000277
 20
0.0379806174669533
 30
0.0
 11
-1.303612821356161
 21
-2.157163505085362
 31
0.0
  0
INSERT
  5
5310
330
5115
100
AcDbEntity
  8
AM_5
100
AcDbBlockReference
  2
_OPEN30
 10
-1.303612821356161
 20
-2.157163505085362
 30
0.0
 41
2.5
 42
2.5
 43
2.5
 50
118.5910608590726
  0
POINT
  5
5311
330
5115
100
AcDbEntity
  8
DEFPOINTS
 62
     0
100
AcDbPoint
 10
-1.303612821356161
 20
-2.157163505085362
 30
0.0
  0
POINT
  5
5312
330
5115
100
AcDbEntity
  8
DEFPOINTS
 62
     0
100
AcDbPoint
 10
-2.500000000000277
 20
0.0379806174669533
 30
0.0
  0
ENDBLK
  5
511C
330
5115
100
AcDbEntity
  8
0
100
AcDbBlockEnd
  0
ENDSEC
  0
SECTION
  2
ENTITIES
  0
TEXT
  5
1500
330
1F
100
AcDbEntity
  8
AM_6
100
AcDbText
 10
-75.59523809523806
 20
-64.50000099999991
 30
0.0
 40
5.0
  1
LSSB2050
 72
     4
 11
-57.49999999999996
 21
-62.00000099999992
 31
0.0
100
AcDbText
  0
LINE
  5
3EE8
330
1F
100
AcDbEntity
  8
AM_7
  6
AM_ISO08W050X2
100
AcDbLine
 10
1.341626940564765
 20
0.0
 30
0.0
 11
-117.0561941299595
 21
-0.0000000000000888
 31
0.0
1001
GENIUS_GENODEF_13
1002
{
1000
HIER
1070
     0
1002
}
1002
{
1000
MANEDIT
1070
     0
1002
}
1002
{
1000
NOSEL
1070
     0
1002
}
1002
{
1000
BEHIND
1070
     0
1002
}
1002
{
1000
REACTOR
1002
}
1001
GENIUS_GENOBJ-N-CEN_13
1002
{
1000
OWNER
1000
GEN
1002
}
  0
DIMENSION
  5
4047
330
1F
100
AcDbEntity
  8
AM_5
100
AcDbDimension
  2
*D5
 10
-0.0000000000000019
 20
-42.00000099999992
 30
0.0
 11
-57.49999999999998
 21
-38.90000099999991
 31
0.0
 70
    32
  1
<>
  3
AM_JIS
100
AcDbAlignedDimension
 13
-114.9999999999999
 23
-3.250000000000072
 33
0.0
 14
0.0000000000000007
 24
-0.0000000000000005
 34
0.0
 50
0.0000000000001132
100
AcDbRotatedDimension
1001
GENIUS_GENDTOL_13
1000

1000
h7
1000

1040
0.0
  0
DIMENSION
  5
412A
330
1F
100
AcDbEntity
  8
AM_5
100
AcDbDimension
  2
*D6
 10
-6.999999999999783
 20
-18.00000099999993
 30
0.0
 11
-3.499999999999899
 21
-14.90000099999993
 31
0.0
 70
    32
  1
<>
  3
AM_JIS
100
AcDbAlignedDimension
 13
-0.0000000000000142
 23
-0.0000000000000111
 33
0.0
 14
-6.999999999999782
 24
-2.500000000000002
 34
0.0
 50
0.0000000000001132
100
AcDbRotatedDimension
1001
GENIUS_GENDTOL_13
1000

1000
h7
1000

1040
0.0
  0
DIMENSION
  5
42F4
330
1F
100
AcDbEntity
  8
AM_5
100
AcDbDimension
  2
*D7
 10
15.34162794056475
 20
-2.49999999999998
 30
0.0
 11
12.24162794056475
 21
-11.51428571428569
 31
0.0
 70
    32
  1
%%c<>
  3
AM_JIS
100
AcDbAlignedDimension
 13
-2.50000000000005
 23
2.500000000000025
 33
0.0
 14
-2.500000000000036
 24
-2.499999999999975
 34
0.0
 50
90.0
100
AcDbRotatedDimension
1001
GENIUS_GENDTOL_13
1000

1000
h7
1000

1040
0.0
  0
LINE
  5
4699
330
1F
100
AcDbEntity
  8
AM_0
100
AcDbLine
 10
-39.99999999999963
 20
2.499999999999808
 30
0.0
 11
-44.12121612918182
 21
3.999999999999901
 31
0.0
  0
LINE
  5
469B
330
1F
100
AcDbEntity
  8
AM_0
100
AcDbLine
 10
-40.0
 20
-2.500000000000015
 30
0.0
 11
-44.1212161291819
 21
-4.000000000000007
 31
0.0
  0
SPLINE
  5
499C
330
1F
100
AcDbEntity
  8
AM_0
100
AcDbSpline
210
0.0
220
0.0
230
1.0
 70
     8
 71
     3
 72
     9
 73
     5
 74
     3
 42
0.0000000001
 43
0.0000000001
 44
0.0000000001
 12
0.5867325161912577
 22
-0.8097808064185491
 32
0.0
 13
-0.8994987856269103
 23
0.4369232594583563
 33
0.0
 40
0.0
 40
0.0
 40
0.0
 40
0.0
 40
0.2240065915494787
 40
0.6673311909008244
 40
0.6673311909008244
 40
0.6673311909008244
 40
0.6673311909008244
 10
-2.193206953741814
 20
-1.521299584689217
 30
0.0
 10
-2.149396303374063
 20
-1.581764997471886
 30
0.0
 10
-1.960413650605173
 20
-1.79794824210397
 30
0.0
 10
-2.367076687081692
 20
-1.952243573495473
 30
0.0
 10
-2.50000000000005
 20
-1.88767729717992
 30
0.0
 11
-2.193206953741814
 21
-1.521299584689217
 31
0.0
 11
-2.089638795441537
 21
-1.71992634432624
 31
0.0
 11
-2.50000000000005
 21
-1.88767729717992
 31
0.0
  0
SPLINE
  5
499D
330
1F
100
AcDbEntity
  8
AM_0
100
AcDbSpline
210
0.0
220
0.0
230
1.0
 70
     8
 71
     3
 72
     8
 73
     4
 74
     2
 42
0.0000000001
 43
0.0000000001
 44
0.0000000001
 12
0.421692687695876
 22
-0.9067388141818064
 32
0.0
 13
-0.9928045895078733
 23
-0.1197457600589821
 33
0.0
 40
0.0
 40
0.0
 40
0.0
 40
0.0
 40
0.8827097282331491
 40
0.8827097282331491
 40
0.8827097282331491
 40
0.8827097282331491
 10
-2.500000000000046
 20
2.462019382530428
 30
0.0
 10
-2.375922587415401
 20
2.195223658448805
 30
0.0
 10
-2.675661873903218
 20
1.748682913162942
 30
0.0
 10
-2.967781297034257
 20
1.713449330723364
 30
0.0
 11
-2.500000000000046
 21
2.462019382530428
 31
0.0
 11
-2.967781297034257
 21
1.713449330723364
 31
0.0
  0
SPLINE
  5
499E
330
1F
100
AcDbEntity
  8
AM_0
100
AcDbSpline
210
0.0
220
0.0
230
1.0
 70
     8
 71
     3
 72
     8
 73
     4
 74
     2
 42
0.0000000001
 43
0.0000000001
 44
0.0000000001
 12
-0.8789112757303591
 22
0.4769852926391262
 32
0.0
 13
0.9988106394578341
 23
0.0487576302319218
 33
0.0
 40
0.0
 40
0.0
 40
0.0
 40
0.0
 40
1.078724930164697
 40
1.078724930164697
 40
1.078724930164697
 40
1.078724930164697
 10
-2.613890680339686
 20
0.6944258244245987
 30
0.0
 10
-2.929925181850752
 20
0.8659377999218415
 30
0.0
 10
-3.326928609442004
 20
1.695917306968859
 30
0.0
 10
-2.967781297009701
 20
1.713449330724501
 30
0.0
 11
-2.613890680339686
 21
0.6944258244245987
 31
0.0
 11
-2.967781297009701
 21
1.713449330724501
 31
0.0
  0
SPLINE
  5
499F
330
1F
100
AcDbEntity
  8
AM_0
100
AcDbSpline
210
0.0
220
0.0
230
1.0
 70
     8
 71
     3
 72
     8
 73
     4
 74
     0
 42
0.0000000001
 43
0.0000000001
 40
1.794922859432252
 40
1.794922859432252
 40
1.794922859432252
 40
1.794922859432252
 40
8.217791785374707
 40
8.217791785374707
 40
8.217791785374707
 40
8.217791785374707
 10
-2.500000000000046
 20
2.462019382530428
 30
0.0
 10
-3.55751443624813
 20
2.373014998098228
 30
0.0
 10
-4.593086145356257
 20
2.133359472503997
 30
0.0
 10
-5.615672873105997
 20
1.804553576165489
 30
0.0
  0
SPLINE
  5
49A0
330
1F
100
AcDbEntity
  8
AM_0
100
AcDbSpline
210
0.0
220
0.0
230
1.0
 70
     8
 71
     3
 72
     8
 73
     4
 74
     0
 42
0.0000000001
 43
0.0000000001
 40
6.513172597598655
 40
6.513172597598655
 40
6.513172597598655
 40
6.513172597598655
 40
17.00040327533524
 40
17.00040327533524
 40
17.00040327533524
 40
17.00040327533524
 10
-2.50000000000005
 20
-1.88767729717992
 30
0.0
 10
-4.190740899729427
 20
-1.464788667893145
 30
0.0
 10
-5.846059063521942
 20
-0.7796973161256632
 30
0.0
 10
-7.50000000000005
 20
-0.0844115866013908
 30
0.0
  0
SPLINE
  5
49A1
330
1F
100
AcDbEntity
  8
AM_0
100
AcDbSpline
210
0.0
220
0.0
230
1.0
 70
     8
 71
     3
 72
     8
 73
     4
 74
     0
 42
0.0000000001
 43
0.0000000001
 40
3.732786119440464
 40
3.732786119440464
 40
3.732786119440464
 40
3.732786119440464
 40
12.64635230762074
 40
12.64635230762074
 40
12.64635230762074
 40
12.64635230762074
 10
-2.392376488935319
 20
-2.271154805476016
 30
0.0
 10
-3.844623770827989
 20
-2.035426550780505
 30
0.0
 10
-5.261813559945393
 20
-1.551879269919754
 30
0.0
 10
-6.999999999999999
 20
-0.7886747326033757
 30
0.0
  0
SPLINE
  5
49A2
330
1F
100
AcDbEntity
  8
AM_0
100
AcDbSpline
210
0.0
220
0.0
230
1.0
 70
     8
 71
     3
 72
     8
 73
     4
 74
     0
 42
0.0000000001
 43
0.0000000001
 40
1.794922859428793
 40
1.794922859428793
 40
1.794922859428793
 40
1.794922859428793
 40
10.42710976687388
 40
10.42710976687388
 40
10.42710976687388
 40
10.42710976687388
 10
-2.499999999998458
 20
-2.462019382530655
 30
0.0
 10
-3.921274881405721
 20
-2.342399553625782
 30
0.0
 10
-5.302915192465473
 20
-1.950662534623215
 30
0.0
 10
-6.999999999999783
 20
-1.243656886990917
 30
0.0
  0
LINE
  5
49A3
330
1F
100
AcDbEntity
  8
AM_11
100
AcDbLine
 10
-2.500000000000046
 20
2.499999999999972
 30
0.0
 11
-6.999999999999783
 21
2.499999999999972
 31
0.0
  0
LINE
  5
49A4
330
1F
100
AcDbEntity
  8
AM_11
100
AcDbLine
 10
-6.999999999999782
 20
-2.500000000000002
 30
0.0
 11
-2.50000000000005
 21
-2.499999999999972
 31
0.0
  0
LINE
  5
49A5
330
1F
100
AcDbEntity
  8
AM_0
100
AcDbLine
 10
-0.3500000000001862
 20
-0.0881023401275059
 30
0.0
 11
-2.613890680339686
 21
0.6944258244245987
 31
0.0
  0
LINE
  5
49A6
330
1F
100
AcDbEntity
  8
AM_0
100
AcDbLine
 10
-0.0000000000000497
 20
0.0000000000000249
 30
0.0
 11
-2.967781297009701
 21
1.713449330724501
 31
0.0
  0
ARC
  5
49A7
330
1F
100
AcDbEntity
  8
AM_0
100
AcDbCircle
 10
-0.1025704564204304
 20
0.0234332065603233
 30
0.0
 40
2.599415388177602
100
AcDbArc
 50
165.040742132377
 51
216.4600123166023
  0
LINE
  5
49A8
330
1F
100
AcDbEntity
  8
AM_0
100
AcDbLine
 10
-2.392376488935319
 20
-2.271154805475902
 30
0.0
 11
-2.500000000000277
 21
-1.88767729717992
 31
0.0
  0
ARC
  5
49A9
330
1F
100
AcDbEntity
  8
AM_0
100
AcDbCircle
 10
-2.568427238397184
 20
0.1919168762368848
 30
0.0
 40
2.469355376538952
100
AcDbArc
 50
274.0883259404363
 51
353.4887846299623
  0
ARC
  5
49AA
330
1F
100
AcDbEntity
  8
AM_0
100
AcDbCircle
 10
-2.500000000000277
 20
0.0379806174669533
 30
0.0
 40
2.5
100
AcDbArc
 50
270.0000000000781
 51
359.1295148788724
  0
ARC
  5
49AB
330
1F
100
AcDbEntity
  8
AM_11
100
AcDbCircle
 10
-2.50000000000005
 20
0.0000000000000249
 30
0.0
 40
2.5
100
AcDbArc
 50
270.0
 51
90.0
  0
ARC
  5
49AC
330
1F
100
AcDbEntity
  8
AM_0
100
AcDbCircle
 10
-2.419532774454005
 20
0.6716284624057175
 30
0.0
 40
2.204576330467315
100
AcDbArc
 50
275.8924707062755
 51
339.8416840647174
  0
ARC
  5
49AD
330
1F
100
AcDbEntity
  8
AM_0
100
AcDbCircle
 10
-2.50000000000005
 20
-0.0379806174695183
 30
0.0
 40
2.5
100
AcDbArc
 50
0.8704851212057906
 51
90.0
  0
LINE
  5
49AE
330
1F
100
AcDbEntity
  8
AM_0
100
AcDbLine
 10
-0.0000000000000497
 20
0.0000000000000249
 30
0.0
 11
-0.1150000000000588
 21
-0.0881023401275094
 31
0.0
  0
LINE
  5
49AF
330
1F
100
AcDbEntity
  8
AM_0
100
AcDbLine
 10
-0.1150000000000588
 20
-0.0881023401275094
 30
0.0
 11
-0.3500000000001862
 21
-0.0881023401275059
 31
0.0
  0
LINE
  5
49B0
330
1F
100
AcDbEntity
  8
AM_0
100
AcDbLine
 10
-2.499999999969809
 20
-2.462019382533043
 30
0.0
 11
-2.392376488935319
 21
-2.271154805475902
 31
0.0
  0
ARC
  5
49C2
330
1F
100
AcDbEntity
  8
AM_0
100
AcDbCircle
 10
-13.23807170043838
 20
-20.25818062731829
 30
0.0
 40
22.85945511015821
100
AcDbArc
 50
75.46240278532372
 51
84.60470520851833
  0
ARC
  5
49C3
330
1F
100
AcDbEntity
  8
AM_0
100
AcDbCircle
 10
-4.979970527799199
 20
5.00538951698951
 30
0.0
 40
5.679491510238963
100
AcDbArc
 50
207.617850793459
 51
243.6593648755327
  0
LINE
  5
49C4
330
1F
100
AcDbEntity
  8
AM_0
100
AcDbLine
 10
-7.500000000000136
 20
1.86938636713387
 30
0.0
 11
-2.967781297009928
 21
1.713449330724501
 31
0.0
  0
LINE
  5
49C5
330
1F
100
AcDbEntity
  8
AM_0
100
AcDbLine
 10
-6.999999999999998
 20
-0.2940017211412476
 30
0.0
 11
-7.000000000000213
 21
-1.243656886990931
 31
0.0
  0
LINE
  5
4B66
330
1F
100
AcDbEntity
  8
AM_0
100
AcDbLine
 10
-11.08867586260525
 20
2.499999999999964
 30
0.0
 11
-40.00000000000001
 21
2.499999999999945
 31
0.0
  0
LINE
  5
4B67
330
1F
100
AcDbEntity
  8
AM_0
100
AcDbLine
 10
-10.25217357337999
 20
-2.499999999999996
 30
0.0
 11
-39.99999999999998
 21
-2.500000000000013
 31
0.0
  0
LINE
  5
4B68
330
1F
100
AcDbEntity
  8
AM_0
100
AcDbLine
 10
-44.12121612918182
 20
-3.99999999999999
 30
0.0
 11
-44.12121612918182
 21
3.9999999999999
 31
0.0
  0
LINE
  5
4CB9
330
1F
100
AcDbEntity
  8
AM_0
100
AcDbLine
 10
-40.0
 20
2.499999999999945
 30
0.0
 11
-39.99999999999999
 21
-2.500000000000015
 31
0.0
  0
DIMENSION
  5
4D66
330
1F
100
AcDbEntity
  8
AM_5
100
AcDbDimension
  2
*D8
 10
-39.99999999999998
 20
-30.00000099999999
 30
0.0
 11
-20.0
 21
-26.90000099999999
 31
0.0
 70
    32
  1
<>
  3
AM_JIS
100
AcDbAlignedDimension
 13
-0.0000000000000091
 23
-0.0000000000000009
 33
0.0
 14
-39.99999999999998
 24
-2.500000000000013
 34
0.0
 50
0.0000000000001641
100
AcDbRotatedDimension
1001
GENIUS_GENDTOL_13
1000

1000
h7
1000

1040
0.0
  0
LINE
  5
4E51
330
1F
100
AcDbEntity
  8
AM_0
100
AcDbLine
 10
-44.1212161291819
 20
-4.000000000000007
 30
0.0
 11
-114.2499999999999
 21
-4.000000000000057
 31
0.0
  0
LINE
  5
4E54
330
1F
100
AcDbEntity
  8
AM_0
100
AcDbLine
 10
-114.2499999999999
 20
3.999999999999836
 30
0.0
 11
-114.2499999999999
 21
-4.000000000000085
 31
0.0
  0
LINE
  5
4E55
330
1F
100
AcDbEntity
  8
AM_0
100
AcDbLine
 10
-114.9999999999999
 20
3.249999999999856
 30
0.0
 11
-114.9999999999999
 21
-3.250000000000058
 31
0.0
  0
DIMENSION
  5
4E56
330
1F
100
AcDbEntity
  8
AM_5
100
AcDbDimension
  2
*D9
 10
-131.0561951299595
 20
-4.00000000000008
 30
0.0
 11
-134.1561951299595
 21
-13.01428571428581
 31
0.0
 70
    32
  1
%%c<>
  3
AM_JIS
100
AcDbAlignedDimension
 13
-114.2499999999999
 23
3.999999999999836
 33
0.0
 14
-114.2499999999999
 24
-4.000000000000085
 34
0.0
 50
270.0
100
AcDbRotatedDimension
1001
GENIUS_GENDTOL_13
1000

1000
h7
1000

1040
0.0
  0
LINE
  5
4E65
330
1F
100
AcDbEntity
  8
AM_0
100
AcDbLine
 10
-44.12121612918182
 20
3.999999999999901
 30
0.0
 11
-114.2499999999999
 21
3.999999999999856
 31
0.0
  0
LINE
  5
4E75
330
1F
100
AcDbEntity
  8
AM_0
100
AcDbLine
 10
-114.9999999999999
 20
-3.250000000000058
 30
0.0
 11
-114.2499999999999
 21
-4.000000000000057
 31
0.0
1001
GENIUS_GENFIL_13
1070
     0
1040
0.75
1040
0.75
1040
20.0
1040
0.0
1002
{
1002
}
1001
GENIUS_GENODEF_13
1002
{
1000
HIER
1070
     0
1002
}
1002
{
1000
MANEDIT
1070
     0
1002
}
1002
{
1000
NOSEL
1070
     0
1002
}
1002
{
1000
BEHIND
1070
     0
1002
}
1002
{
1000
REACTOR
1002
}
1001
GENIUS_GENOBJ-N-CHA_13
1002
{
1000
OWNER
1000
GEN
1002
}
  0
LINE
  5
4E78
330
1F
100
AcDbEntity
  8
AM_0
100
AcDbLine
 10
-114.9999999999999
 20
3.249999999999856
 30
0.0
 11
-114.2499999999999
 21
3.999999999999856
 31
0.0
1001
GENIUS_GENFIL_13
1070
     0
1040
0.75
1040
0.75
1040
20.0
1040
0.0
1002
{
1002
}
1001
GENIUS_GENODEF_13
1002
{
1000
HIER
1070
     0
1002
}
1002
{
1000
MANEDIT
1070
     0
1002
}
1002
{
1000
NOSEL
1070
     0
1002
}
1002
{
1000
BEHIND
1070
     0
1002
}
1002
{
1000
REACTOR
1002
}
1001
GENIUS_GENOBJ-N-CHA_13
1002
{
1000
OWNER
1000
GEN
1002
}
  0
LINE
  5
4FB9
330
1F
100
AcDbEntity
  8
AM_11
100
AcDbLine
 10
-6.999999999999782
 20
-2.499999999999972
 30
0.0
 11
-6.999999999999782
 21
2.499999999999971
 31
0.0
  0
POLYLINE
  5
5022
330
1F
100
AcDbEntity
  8
AM_0
100
AcDb2dPolyline
 66
     1
 10
0.0
 20
0.0
 30
0.0
 70
     2
  0
VERTEX
  5
5023
330
5022
100
AcDbEntity
  8
AM_0
100
AcDbVertex
100
AcDb2dVertex
 10
-6.999999999999783
 20
-1.243656886990892
 30
0.0
 42
0.0167617469376757
  0
VERTEX
  5
5024
330
5022
100
AcDbEntity
  8
AM_0
100
AcDbVertex
100
AcDb2dVertex
 10
-7.570736587452739
 20
-1.301654020021233
 30
0.0
 42
0.0257740858962584
 70
     1
  0
VERTEX
  5
5025
330
5022
100
AcDbEntity
  8
AM_0
100
AcDbVertex
100
AcDb2dVertex
 10
-7.937499999999783
 20
-1.37079413329326
 30
0.0
 42
0.0129062253880721
  0
VERTEX
  5
5026
330
5022
100
AcDbEntity
  8
AM_0
100
AcDbVertex
100
AcDb2dVertex
 10
-8.7906115047907
 20
-1.601100808859515
 30
0.0
 42
0.0322710141744365
 70
     1
  0
VERTEX
  5
5027
330
5022
100
AcDbEntity
  8
AM_0
100
AcDbVertex
100
AcDb2dVertex
 10
-9.122388603205951
 20
-1.723717300215129
 30
0.0
 42
0.066302819305777
  0
VERTEX
  5
5028
330
5022
100
AcDbEntity
  8
AM_0
100
AcDbVertex
100
AcDb2dVertex
 10
-9.353659159596205
 20
-1.865808952626283
 30
0.0
 42
0.141835538265495
 70
     1
  0
VERTEX
  5
5029
330
5022
100
AcDbEntity
  8
AM_0
100
AcDbVertex
100
AcDb2dVertex
 10
-9.42702560280189
 20
-1.971757593049092
 30
0.0
 42
0.3019338394559296
  0
VERTEX
  5
502A
330
5022
100
AcDbEntity
  8
AM_0
100
AcDbVertex
100
AcDb2dVertex
 10
-9.386727146778682
 20
-2.121675712088348
 30
0.0
 42
0.1448123473042558
 70
     1
  0
VERTEX
  5
502B
330
5022
100
AcDbEntity
  8
AM_0
100
AcDbVertex
100
AcDb2dVertex
 10
-9.111965564639735
 20
-2.249058239177687
 30
0.0
 42
0.0233293908839008
  0
VERTEX
  5
502C
330
5022
100
AcDbEntity
  8
AM_0
100
AcDbVertex
100
AcDb2dVertex
 10
-8.869775932854267
 20
-2.273319003496995
 30
0.0
 42
0.0065058132401841
 70
     1
  0
VERTEX
  5
502D
330
5022
100
AcDbEntity
  8
AM_0
100
AcDbVertex
100
AcDb2dVertex
 10
-7.998096255654854
 20
-2.308360010347003
 30
0.0
 42
0.0093933844226459
  0
VERTEX
  5
502E
330
5022
100
AcDbEntity
  8
AM_0
100
AcDbVertex
100
AcDb2dVertex
 10
-7.554631076689911
 20
-2.312076386808714
 30
0.0
 42
0.0075082457306975
 70
     1
  0
VERTEX
  5
502F
330
5022
100
AcDbEntity
  8
AM_0
100
AcDbVertex
100
AcDb2dVertex
 10
-6.999999999999783
 20
-2.297973345268703
 30
0.0
  0
SEQEND
  5
5030
330
5022
100
AcDbEntity
  8
AM_0
  0
ARC
  5
5031
330
1F
100
AcDbEntity
  8
AM_0
100
AcDbCircle
 10
-9.991875853034882
 20
19.00137544640922
 30
0.0
 40
21.50295098331077
100
AcDbArc
 50
269.3064056618478
 51
283.1069243499541
  0
DIMENSION
  5
5114
330
1F
100
AcDbEntity
  8
AM_5
100
AcDbDimension
  2
*D10
 10
-2.500000000000277
 20
0.0379806174669533
 30
0.0
 11
9.347314636995099
 21
-21.69960029083237
 31
0.0
 70
   164
  1
<>
  3
AM_JIS$4
100
AcDbRadialDimension
 15
-1.303612821356161
 25
-2.157163505085362
 35
0.0
 40
0.0
1001
GENIUS_GENDTOL_13
1000

1000
h7
1000

1040
0.0
1001
ACAD
1000
DSTYLE
1002
{
1070
   287
1070
     3
1070
   271
1070
     3
1070
   288
1070
     1
1070
   289
1070
     3
1070
   172
1070
     1
1070
    74
1070
     0
1002
}
  0
VIEWPORT
  5
110
330
101
100
AcDbEntity
 67
     1
  8
0
100
AcDbViewport
 10
420.5
 20
297.0
 30
0.0
 40
948.9782706766916
 41
628.452
 68
     1
 69
     1
1001
ACAD
1000
MVIEW
1002
{
1070
    16
1010
0.0
1020
0.0
1030
0.0
1010
0.0
1020
0.0
1030
1.0
1040
0.0
1040
628.452
1040
420.5
1040
297.0
1040
50.0
1040
0.0
1040
0.0
1070
     0
1070
   100
1070
     1
1070
     1
1070
     0
1070
     0
1070
     0
1070
     0
1040
0.0
1040
0.0
1040
0.0
1040
10.0
1040
10.0
1040
10.0
1040
10.0
1070
     0
1002
{
1002
}
1002
}
  0
ENDSEC
  0
SECTION
  2
OBJECTS
  0
DICTIONARY
  5
C
330
0
100
AcDbDictionary
  3
ACAD_GROUP
350
D
  3
ACAD_LAYOUT
350
1A
  3
ACAD_MLINESTYLE
350
17
  3
ACAD_PLOTSETTINGS
350
19
  3
ACAD_PLOTSTYLENAME
350
E
  3
ACDBVARIABLEDICTIONARY
350
34
  3
ACMDICTIONARY
350
43
  3
AMG
350
2B
  3
AMGSNAPSETTINGS
350
6E
  3
ASE_INDEX_DICTIONARY
350
151A
  3
DWGPROPS
350
52D7
  3
ACDBHEADERROUNDTRIPXREC
350
52E3
  0
DICTIONARY
  5
74
330
1F
100
AcDbDictionary
280
     1
  3
ACAD_INDEX
360
52D9
  3
ACAD_LAYOUTSELFREF
360
5306
  0
DICTIONARY
  5
530B
330
101
100
AcDbDictionary
280
     1
  3
ACAD_LAYOUTSELFREF
360
530C
  0
DICTIONARY
  5
D
102
{ACAD_REACTORS
330
C
102
}
330
C
100
AcDbDictionary
  0
DICTIONARY
  5
1A
102
{ACAD_REACTORS
330
C
102
}
330
C
100
AcDbDictionary
  0
DICTIONARY
  5
17
102
{ACAD_REACTORS
330
C
102
}
330
C
100
AcDbDictionary
  3
STANDARD
350
18
  0
DICTIONARY
  5
19
102
{ACAD_REACTORS
330
C
102
}
330
C
100
AcDbDictionary
  0
ACDBDICTIONARYWDFLT
  5
E
102
{ACAD_REACTORS
330
C
102
}
330
C
100
AcDbDictionary
281
     1
  3
Normal
350
F
100
AcDbDictionaryWithDefault
340
F
  0
DICTIONARY
  5
34
102
{ACAD_REACTORS
330
C
102
}
330
C
100
AcDbDictionary
  3
INDEXCTL
350
35
  3
SORTENTS
350
B5E
  0
DICTIONARY
  5
43
102
{ACAD_REACTORS
330
C
102
}
330
C
100
AcDbDictionary
  3
ACMSTDDICTIONARY
350
260
  0
DICTIONARY
  5
2B
102
{ACAD_REACTORS
330
C
102
}
330
C
100
AcDbDictionary
  3
ACMGSETTINGS
350
2C
  0
DICTIONARY
  5
6E
102
{ACAD_REACTORS
330
C
102
}
330
C
100
AcDbDictionary
  0
DICTIONARY
  5
151A
102
{ACAD_REACTORS
330
C
102
}
330
C
100
AcDbDictionary
  3
ASEBLOCKHIERARCHYINDEXRECORD
350
151C
1001
DCO15
1040
1471862535.906
  0
XRECORD
  5
52D7
102
{ACAD_REACTORS
330
C
102
}
330
C
100
AcDbXrecord
  1
DWGPROPS COOKIE
  2

  3

  4

  6

  7

  8

  9

300
AmdtFileType=82
301
=
302
=
303
=
304
=
305
=
306
=
307
=
308
=
309
=
 40
0.1739326851851852
 41
2452838.430434386
 42
2452871.580716585
  1

 90
        1
  0
DICTIONARY
  5
52E3
102
{ACAD_REACTORS
330
C
102
}
330
C
100
AcDbDictionary
  3
TSTACKALIGN
350
52E4
  3
TSTACKSIZE
350
52E5
  3
HYPERLINKBASE
350
52E6
  3
STYLESHEET
350
52E7
  3
LAYOUTDICT
350
52E8
  3
PLOTSETDICT
350
52E9
  3
PLOTSTYLNAMDICT
350
52EA
  3
LWETCUNION
350
52EB
  3
INSUNITS
350
52EC
  3
CEPSNTYPE
350
52ED
  3
FINGERPRINTGUID
350
52EE
  3
VERSIONGUID
350
52EF
  3
PSVPSCALE
350
52F0
  3
DIMSTYLEDATA
350
52F1
  3
PUCSORTHOREF
350
52F2
  3
PUCSORTHOVIEW
350
52F3
  3
PUCSBASE
350
52F4
  3
PUCSORGTOP
350
52F5
  3
PUCSORGBOTTOM
350
52F6
  3
PUCSORGLEFT
350
52F7
  3
PUCSORGRIGHT
350
52F8
  3
PUCSORGFRONT
350
52F9
  3
PUCSORGBACK
350
52FA
  3
UCSORTHOREF
350
52FB
  3
UCSORTHOVIEW
350
52FC
  3
UCSBASE
350
52FD
  3
UCSORGTOP
350
52FE
  3
UCSORGBOTTOM
350
52FF
  3
UCSORGLEFT
350
5300
  3
UCSORGRIGHT
350
5301
  3
UCSORGFRONT
350
5302
  3
UCSORGBACK
350
5303
  0
DICTIONARY
  5
52D9
102
{ACAD_REACTORS
330
74
102
}
330
74
100
AcDbDictionary
  3
*A1
350
52DA
  0
XRECORD
  5
5306
102
{ACAD_REACTORS
330
74
102
}
330
74
100
AcDbXrecord
340
1F
  0
XRECORD
  5
530C
102
{ACAD_REACTORS
330
530B
102
}
330
530B
100
AcDbXrecord
340
101
  0
MLINESTYLE
  5
18
102
{ACAD_REACTORS
330
17
102
}
330
17
100
AcDbMlineStyle
  2
STANDARD
 70
     0
  3

 62
   256
 51
90.0
 52
90.0
 71
     2
 49
0.5
 62
   256
  6
BYLAYER
 49
-0.5
 62
   256
  6
BYLAYER
  0
ACDBPLACEHOLDER
  5
F
102
{ACAD_REACTORS
330
E
102
}
330
E
100
AcDbPlaceHolder
280
     0
  0
DICTIONARYVAR
  5
35
102
{ACAD_REACTORS
330
34
102
}
330
34
100
DictionaryVariables
280
     0
  1
1
  0
DICTIONARYVAR
  5
B5E
102
{ACAD_REACTORS
330
34
102
}
330
34
100
DictionaryVariables
280
     0
  1
96
  0
DICTIONARY
  5
260
102
{ACAD_REACTORS
330
43
102
}
330
43
100
AcDbDictionary
  0
DICTIONARY
  5
2C
102
{ACAD_REACTORS
330
2B
102
}
330
2B
100
AcDbDictionary
  3
DWGSETTINGS
350
2D
  0
XRECORD
  5
151C
102
{ACAD_REACTORS
330
151A
102
}
330
151A
100
AcDbXrecord
330
0
330
0
330
0
330
0
330
0
330
0
330
0
330
0
  0
XRECORD
  5
52E4
102
{ACAD_REACTORS
330
52E3
102
}
330
52E3
100
AcDbXrecord
 90
        1
  0
XRECORD
  5
52E5
102
{ACAD_REACTORS
330
52E3
102
}
330
52E3
100
AcDbXrecord
 90
       70
  0
XRECORD
  5
52E6
102
{ACAD_REACTORS
330
52E3
102
}
330
52E3
100
AcDbXrecord
  1

  0
XRECORD
  5
52E7
102
{ACAD_REACTORS
330
52E3
102
}
330
52E3
100
AcDbXrecord
  1
ASAMI.ctb
  0
XRECORD
  5
52E8
102
{ACAD_REACTORS
330
52E3
102
}
330
52E3
100
AcDbXrecord
340
1A
  0
XRECORD
  5
52E9
102
{ACAD_REACTORS
330
52E3
102
}
330
52E3
100
AcDbXrecord
340
19
  0
XRECORD
  5
52EA
102
{ACAD_REACTORS
330
52E3
102
}
330
52E3
100
AcDbXrecord
340
E
  0
XRECORD
  5
52EB
102
{ACAD_REACTORS
330
52E3
102
}
330
52E3
100
AcDbXrecord
 90
    10781
  0
XRECORD
  5
52EC
102
{ACAD_REACTORS
330
52E3
102
}
330
52E3
100
AcDbXrecord
 90
        4
  0
XRECORD
  5
52ED
102
{ACAD_REACTORS
330
52E3
102
}
330
52E3
100
AcDbXrecord
 90
        0
  0
XRECORD
  5
52EE
102
{ACAD_REACTORS
330
52E3
102
}
330
52E3
100
AcDbXrecord
  1
{AFB28963-8C59-40AE-9337-C84526B81ACE}
  0
XRECORD
  5
52EF
102
{ACAD_REACTORS
330
52E3
102
}
330
52E3
100
AcDbXrecord
  1
{54F6CDBC-7259-4AD7-BC5A-67928B44BE6D}
  0
XRECORD
  5
52F0
102
{ACAD_REACTORS
330
52E3
102
}
330
52E3
100
AcDbXrecord
 40
0.0
  0
XRECORD
  5
52F1
102
{ACAD_REACTORS
330
52E3
102
}
330
52E3
100
AcDbXrecord
1000
DSTYLE
1002
{
1070
    79
 70
     2
1070
   341
340
59
1070
   342
340
59
1070
   371
 70
    -1
1070
   372
 70
    -1
1002
}
  0
XRECORD
  5
52F2
102
{ACAD_REACTORS
330
52E3
102
}
330
52E3
100
AcDbXrecord
340
0
  0
XRECORD
  5
52F3
102
{ACAD_REACTORS
330
52E3
102
}
330
52E3
100
AcDbXrecord
 70
     0
  0
XRECORD
  5
52F4
102
{ACAD_REACTORS
330
52E3
102
}
330
52E3
100
AcDbXrecord
340
0
  0
XRECORD
  5
52F5
102
{ACAD_REACTORS
330
52E3
102
}
330
52E3
100
AcDbXrecord
 10
0.0
 20
0.0
 30
0.0
  0
XRECORD
  5
52F6
102
{ACAD_REACTORS
330
52E3
102
}
330
52E3
100
AcDbXrecord
 10
0.0
 20
0.0
 30
0.0
  0
XRECORD
  5
52F7
102
{ACAD_REACTORS
330
52E3
102
}
330
52E3
100
AcDbXrecord
 10
0.0
 20
0.0
 30
0.0
  0
XRECORD
  5
52F8
102
{ACAD_REACTORS
330
52E3
102
}
330
52E3
100
AcDbXrecord
 10
0.0
 20
0.0
 30
0.0
  0
XRECORD
  5
52F9
102
{ACAD_REACTORS
330
52E3
102
}
330
52E3
100
AcDbXrecord
 10
0.0
 20
0.0
 30
0.0
  0
XRECORD
  5
52FA
102
{ACAD_REACTORS
330
52E3
102
}
330
52E3
100
AcDbXrecord
 10
0.0
 20
0.0
 30
0.0
  0
XRECORD
  5
52FB
102
{ACAD_REACTORS
330
52E3
102
}
330
52E3
100
AcDbXrecord
340
0
  0
XRECORD
  5
52FC
102
{ACAD_REACTORS
330
52E3
102
}
330
52E3
100
AcDbXrecord
 70
     0
  0
XRECORD
  5
52FD
102
{ACAD_REACTORS
330
52E3
102
}
330
52E3
100
AcDbXrecord
340
0
  0
XRECORD
  5
52FE
102
{ACAD_REACTORS
330
52E3
102
}
330
52E3
100
AcDbXrecord
 10
0.0
 20
0.0
 30
0.0
  0
XRECORD
  5
52FF
102
{ACAD_REACTORS
330
52E3
102
}
330
52E3
100
AcDbXrecord
 10
0.0
 20
0.0
 30
0.0
  0
XRECORD
  5
5300
102
{ACAD_REACTORS
330
52E3
102
}
330
52E3
100
AcDbXrecord
 10
0.0
 20
0.0
 30
0.0
  0
XRECORD
  5
5301
102
{ACAD_REACTORS
330
52E3
102
}
330
52E3
100
AcDbXrecord
 10
0.0
 20
0.0
 30
0.0
  0
XRECORD
  5
5302
102
{ACAD_REACTORS
330
52E3
102
}
330
52E3
100
AcDbXrecord
 10
0.0
 20
0.0
 30
0.0
  0
XRECORD
  5
5303
102
{ACAD_REACTORS
330
52E3
102
}
330
52E3
100
AcDbXrecord
 10
0.0
 20
0.0
 30
0.0
  0
LAYER_INDEX
  5
52DA
102
{ACAD_REACTORS
330
52D9
102
}
330
52D9
100
AcDbIndex
 40
2453152.43691309
100
AcDbLayerIndex
  8
0
360
52DB
 90
        0
  8
AM_0
360
52DC
 90
       36
  8
AM_11
360
52DD
 90
        4
  8
AM_7
360
52DE
 90
        1
  8
AM_5
360
52DF
 90
        6
  8
Defpoints
360
52E0
 90
        0
  8
AM_6
360
52E1
 90
        1
  0
XRECORD
  5
2D
102
{ACAD_REACTORS
330
2C
102
}
330
2C
100
AcDbXrecord
  1
VERSION
140
15.0
  1
PRODUCT
  2
AutoCAD Mechanical 2000
  0
IDBUFFER
  5
52DB
330
0
100
AcDbIdBuffer
  0
IDBUFFER
  5
52DC
330
0
100
AcDbIdBuffer
330
49AD
330
49AE
330
49AF
330
49B0
330
49C2
330
49C3
330
49C4
330
49C5
330
4B66
330
4B67
330
4B68
330
4CB9
330
4E51
330
4E54
330
4E55
330
4E65
330
4E75
330
4E78
330
5022
330
5031
330
4699
330
469B
330
499C
330
499D
330
499E
330
499F
330
49A0
330
49A1
330
49A2
330
49A5
330
49A6
330
49A7
330
49A8
330
49A9
330
49AA
330
49AC
  0
IDBUFFER
  5
52DD
330
0
100
AcDbIdBuffer
330
49A3
330
49A4
330
49AB
330
4FB9
  0
IDBUFFER
  5
52DE
330
0
100
AcDbIdBuffer
330
3EE8
  0
IDBUFFER
  5
52DF
330
0
100
AcDbIdBuffer
330
4047
330
412A
330
42F4
330
4D66
330
4E56
330
5114
  0
IDBUFFER
  5
52E0
330
0
100
AcDbIdBuffer
  0
IDBUFFER
  5
52E1
330
0
100
AcDbIdBuffer
330
1500
  0
ENDSEC
  0
EOF
