  0
SECTION
  2
HEADER
  9
$ACADVER
  1
AC1014
  9
$ACADMAINTVER
 70
     9
  9
$DWGCODEPAGE
  3
ANSI_932
  9
$INSBASE
 10
0.0
 20
0.0
 30
0.0
  9
$EXTMIN
 10
-175.7561222429479
 20
-71.59365527108565
 30
-0.00000001
  9
$EXTMAX
 10
16.19870082757634
 20
8.074640906351573
 30
0.00000001
  9
$LIMMIN
 10
-182.9520726904704
 20
-82.71527210806192
  9
$LIMMAX
 10
24.33711392060911
 20
34.08947774814555
  9
$ORTHOMODE
 70
     0
  9
$REGENMODE
 70
     1
  9
$FILLMODE
 70
     1
  9
$QTEXTMODE
 70
     0
  9
$MIRRTEXT
 70
     0
  9
$DRAGMODE
 70
     2
  9
$LTSCALE
 40
1.0
  9
$OSMODE
 70
    55
  9
$ATTMODE
 70
     1
  9
$TEXTSIZE
 40
2.5
  9
$TRACEWID
 40
1.0
  9
$TEXTSTYLE
  7
STANDARD
  9
$CLAYER
  8
AM_0
  9
$CELTYPE
  6
BYLAYER
  9
$CECOLOR
 62
   256
  9
$CELTSCALE
 40
1.0
  9
$DELOBJ
 70
     1
  9
$DISPSILH
 70
     0
  9
$DIMSCALE
 40
1.0
  9
$DIMASZ
 40
2.5
  9
$DIMEXO
 40
1.0
  9
$DIMDLI
 40
12.0
  9
$DIMRND
 40
0.0
  9
$DIMDLE
 40
0.0
  9
$DIMEXE
 40
1.0
  9
$DIMTP
 40
0.1
  9
$DIMTM
 40
0.1
  9
$DIMTXT
 40
3.2
  9
$DIMCEN
 40
0.0
  9
$DIMTSZ
 40
0.0
  9
$DIMTOL
 70
     0
  9
$DIMLIM
 70
     0
  9
$DIMTIH
 70
     0
  9
$DIMTOH
 70
     0
  9
$DIMSE1
 70
     0
  9
$DIMSE2
 70
     0
  9
$DIMTAD
 70
     3
  9
$DIMZIN
 70
     8
  9
$DIMBLK
  1
OPEN30
  9
$DIMASO
 70
     1
  9
$DIMSHO
 70
     1
  9
$DIMPOST
  1

  9
$DIMAPOST
  1
"
  9
$DIMALT
 70
     0
  9
$DIMALTD
 70
     2
  9
$DIMALTF
 40
0.0393701
  9
$DIMLFAC
 40
1.0
  9
$DIMTOFL
 70
     1
  9
$DIMTVP
 40
0.0
  9
$DIMTIX
 70
     0
  9
$DIMSOXD
 70
     0
  9
$DIMSAH
 70
     0
  9
$DIMBLK1
  1

  9
$DIMBLK2
  1

  9
$DIMSTYLE
  2
AM_JIS
  9
$DIMCLRD
 70
   256
  9
$DIMCLRE
 70
   256
  9
$DIMCLRT
 70
     2
  9
$DIMTFAC
 40
0.71
  9
$DIMGAP
 40
1.5
  9
$DIMJUST
 70
     0
  9
$DIMSD1
 70
     0
  9
$DIMSD2
 70
     0
  9
$DIMTOLJ
 70
     0
  9
$DIMTZIN
 70
     0
  9
$DIMALTZ
 70
     0
  9
$DIMALTTZ
 70
     0
  9
$DIMFIT
 70
     3
  9
$DIMUPT
 70
     0
  9
$DIMUNIT
 70
     2
  9
$DIMDEC
 70
     3
  9
$DIMTDEC
 70
     3
  9
$DIMALTU
 70
     2
  9
$DIMALTTD
 70
     2
  9
$DIMTXSTY
  7
ASAMI
  9
$DIMAUNIT
 70
     0
  9
$LUNITS
 70
     2
  9
$LUPREC
 70
     2
  9
$SKETCHINC
 40
1.0
  9
$FILLETRAD
 40
2.5
  9
$AUNITS
 70
     0
  9
$AUPREC
 70
     0
  9
$MENU
  1
.
  9
$ELEVATION
 40
0.0
  9
$PELEVATION
 40
0.0
  9
$THICKNESS
 40
0.0
  9
$LIMCHECK
 70
     0
  9
$BLIPMODE
 70
     0
  9
$CHAMFERA
 40
1.0
  9
$CHAMFERB
 40
1.0
  9
$CHAMFERC
 40
20.0
  9
$CHAMFERD
 40
0.0
  9
$SKPOLY
 70
     0
  9
$TDCREATE
 40
2452838.430434386
  9
$TDUPDATE
 40
2453152.435570648
  9
$TDINDWG
 40
0.1654970023
  9
$TDUSRTIMER
 40
0.1654970023
  9
$USRTIMER
 70
     1
  9
$ANGBASE
 50
0.0
  9
$ANGDIR
 70
     0
  9
$PDMODE
 70
     0
  9
$PDSIZE
 40
0.0
  9
$PLINEWID
 40
0.0
  9
$COORDS
 70
     1
  9
$SPLFRAME
 70
     0
  9
$SPLINETYPE
 70
     6
  9
$SPLINESEGS
 70
     8
  9
$ATTDIA
 70
     1
  9
$ATTREQ
 70
     1
  9
$HANDLING
 70
 12289
  9
$HANDSEED
  5
4D88
  9
$SURFTAB1
 70
     6
  9
$SURFTAB2
 70
     6
  9
$SURFTYPE
 70
     6
  9
$SURFU
 70
     6
  9
$SURFV
 70
     6
  9
$UCSNAME
  2

  9
$UCSORG
 10
0.0
 20
0.0
 30
0.0
  9
$UCSXDIR
 10
1.0
 20
0.0
 30
0.0
  9
$UCSYDIR
 10
0.0
 20
1.0
 30
0.0
  9
$PUCSNAME
  2

  9
$PUCSORG
 10
0.0
 20
0.0
 30
0.0
  9
$PUCSXDIR
 10
1.0
 20
0.0
 30
0.0
  9
$PUCSYDIR
 10
0.0
 20
1.0
 30
0.0
  9
$USERI1
 70
     0
  9
$USERI2
 70
     0
  9
$USERI3
 70
     0
  9
$USERI4
 70
     0
  9
$USERI5
 70
     0
  9
$USERR1
 40
0.0
  9
$USERR2
 40
0.0
  9
$USERR3
 40
0.0
  9
$USERR4
 40
0.0
  9
$USERR5
 40
0.0
  9
$WORLDVIEW
 70
     1
  9
$SHADEDGE
 70
     3
  9
$SHADEDIF
 70
    70
  9
$TILEMODE
 70
     1
  9
$MAXACTVP
 70
    64
  9
$PINSBASE
 10
0.0
 20
0.0
 30
0.0
  9
$PLIMCHECK
 70
     0
  9
$PEXTMIN
 10
1.000000000000000E+20
 20
1.000000000000000E+20
 30
1.000000000000000E+20
  9
$PEXTMAX
 10
-1.000000000000000E+20
 20
-1.000000000000000E+20
 30
-1.000000000000000E+20
  9
$PLIMMIN
 10
0.0
 20
0.0
  9
$PLIMMAX
 10
841.0
 20
594.0
  9
$UNITMODE
 70
     0
  9
$VISRETAIN
 70
     1
  9
$PLINEGEN
 70
     0
  9
$PSLTSCALE
 70
     0
  9
$TREEDEPTH
 70
  3020
  9
$PICKSTYLE
 70
     0
  9
$CMLSTYLE
  2
STANDARD
  9
$CMLJUST
 70
     0
  9
$CMLSCALE
 40
20.0
  9
$PROXYGRAPHICS
 70
     1
  9
$MEASUREMENT
 70
     1
  0
ENDSEC
  0
SECTION
  2
CLASSES
  0
CLASS
  1
ACDBDICTIONARYWDFLT
  2
AcDbDictionaryWithDefault
  3
AutoCAD 2000
 90
        0
280
     0
281
     0
  0
CLASS
  1
ACDBPLACEHOLDER
  2
AcDbPlaceHolder
  3
AutoCAD 2000
 90
        0
280
     0
281
     0
  0
CLASS
  1
LAYOUT
  2
AcDbLayout
  3
AutoCAD 2000
 90
        0
280
     0
281
     0
  0
CLASS
  1
AMGSETTINGSOBJ
  2
AmgSettingsObj
  3
"AcadM|Product Description: AutoCAD Mechanical 2000|Company: Autodesk"
 90
        0
280
     0
281
     0
  0
CLASS
  1
ACME_DOCUMENT
  2
AcMeDbDoc
  3
AcMeServices
 90
        0
280
     0
281
     0
  0
CLASS
  1
ACMESCOPE
  2
AcMeScope
  3
AcMeServices
 90
        0
280
     0
281
     0
  0
CLASS
  1
ACMECOMMANDHISTORY
  2
AcMeCommandHistory
  3
AcMeServices
 90
        0
280
     0
281
     0
  0
CLASS
  1
DICTIONARYVAR
  2
AcDbDictionaryVar
  3
AutoCAD 2000
 90
        0
280
     0
281
     0
  0
CLASS
  1
ACIMSYSVARMAN
  2
AcImSysVarManager
  3
AcMeServices
 90
        0
280
     0
281
     0
  0
CLASS
  1
ACIMREALSYSVAR
  2
AcImRealSysVar
  3
AcMeServices
 90
        0
280
     0
281
     0
  0
CLASS
  1
ACIMINTSYSVAR
  2
AcImIntSysVar
  3
AcMeServices
 90
        0
280
     0
281
     0
  0
CLASS
  1
ACMEDRAWINGMAN
  2
AcMeDrawingMan
  3
AcMeServices
 90
        0
280
     0
281
     0
  0
CLASS
  1
ACMEVIEW
  2
AcMeView
  3
AcMeServices
 90
        0
280
     0
281
     0
  0
CLASS
  1
ACDBENTITYCACHE
  2
AcMeEntityCache
  3
AcMeServices
 90
        0
280
     0
281
     0
  0
CLASS
  1
GSMANAGER
  2
AcMeGSManager
  3
AcMeServices
 90
        0
280
     0
281
     0
  0
CLASS
  1
AmdtInternalReactor
  2
AmdtInternalReactor
  3
AcMeServices
 90
        0
280
     0
281
     0
  0
CLASS
  1
ACMESTATEMGR
  2
AcMeStateMgr
  3
AcMeServices
 90
        0
280
     0
281
     0
  0
CLASS
  1
ACME_DATABASE
  2
AcMeDbDatabase
  3
AcMeServices
 90
        0
280
     0
281
     0
  0
CLASS
  1
ACRFINSADJUSTERMGR
  2
AcRfInsAdjusterMgr
  3
AcMeServices
 90
        0
280
     0
281
     0
  0
CLASS
  1
ACMDATADICTIONARY
  2
AcmDataDictionary
  3
"AcmSymBB|Product Description: AutoCAD Mechanical 2000|Company: Autodesk"
 90
        0
280
     0
281
     0
  0
CLASS
  1
ACMDATAENTRYBLOCK
  2
AcmDataEntryBlock
  3
"AcmSymBB|Product Description: AutoCAD Mechanical 2000|Company: Autodesk"
 90
        0
280
     0
281
     0
  0
CLASS
  1
AMGOBJPROPCFG
  2
AmgObjPropCfg
  3
"AmgLay|Product Description: AutoCAD Mechanical 2000|Company: Autodesk"
 90
        1
280
     0
281
     0
  0
CLASS
  1
ACAMGFILTERDAT
  2
AcAmgFilterDat
  3
"AcadM|Product Description: AutoCAD Mechanical 2000|Company: Autodesk"
 90
        0
280
     0
281
     0
  0
CLASS
  1
LAYER_INDEX
  2
AcDbLayerIndex
  3
AutoCAD 2000
 90
        0
280
     0
281
     0
  0
CLASS
  1
IDBUFFER
  2
AcDbIdBuffer
  3
AutoCAD 2000
 90
        0
280
     0
281
     0
  0
CLASS
  1
ACIMSTRSYSVAR
  2
AcImStrSysVar
  3
AcMeServices
 90
        0
280
     0
281
     0
  0
CLASS
  1
ACMSTANDARDJIS
  2
AcmStandardJIS
  3
"AcmSymBB|Product Description: AutoCAD Mechanical 2000|Company: Autodesk"
 90
        0
280
     0
281
     0
  0
CLASS
  1
ACMSURFSTANDARDJIS
  2
AcmSurfTextStdJIS
  3
"AcmSymBB|Product Description: AutoCAD Mechanical 2000|Company: Autodesk"
 90
        0
280
     0
281
     0
  0
CLASS
  1
ACMFCFSTANDARDJIS
  2
AcmFCFStdJIS
  3
"AcmSymBB|Product Description: AutoCAD Mechanical 2000|Company: Autodesk"
 90
        0
280
     0
281
     0
  0
CLASS
  1
ACMWELDSTANDARDJIS
  2
AcmWeldingStdJIS
  3
"AcmSymBB|Product Description: AutoCAD Mechanical 2000|Company: Autodesk"
 90
        0
280
     0
281
     0
  0
CLASS
  1
ACMIDSTANDARDJIS
  2
AcmIdStdJIS
  3
"AcmSymBB|Product Description: AutoCAD Mechanical 2000|Company: Autodesk"
 90
        0
280
     0
281
     0
  0
CLASS
  1
ACMDATUMSTANDARDJIS
  2
AcmDatumStdJIS
  3
"AcmSymBB|Product Description: AutoCAD Mechanical 2000|Company: Autodesk"
 90
        0
280
     0
281
     0
  0
CLASS
  1
ACMBOMSTANDARDJIS
  2
AcmBOMStdJIS
  3
"AcmSymBB|Product Description: AutoCAD Mechanical 2000|Company: Autodesk"
 90
        0
280
     0
281
     0
  0
CLASS
  1
ACMSTANDARDANSI
  2
AcmStandardANSI
  3
"AcmSymBB|Product Description: AutoCAD Mechanical 2000|Company: Autodesk"
 90
        0
280
     0
281
     0
  0
CLASS
  1
ACMSURFSTANDARDANSI
  2
AcmSurfTextStdANSI
  3
"AcmSymBB|Product Description: AutoCAD Mechanical 2000|Company: Autodesk"
 90
        0
280
     0
281
     0
  0
CLASS
  1
ACMFCFSTANDARDANSI
  2
AcmFCFStdANSI
  3
"AcmSymBB|Product Description: AutoCAD Mechanical 2000|Company: Autodesk"
 90
        0
280
     0
281
     0
  0
CLASS
  1
ACMWELDSTANDARDANSI
  2
AcmWeldingStdANSI
  3
"AcmSymBB|Product Description: AutoCAD Mechanical 2000|Company: Autodesk"
 90
        0
280
     0
281
     0
  0
CLASS
  1
ACMIDSTANDARDANSI
  2
AcmIdStdANSI
  3
"AcmSymBB|Product Description: AutoCAD Mechanical 2000|Company: Autodesk"
 90
        0
280
     0
281
     0
  0
CLASS
  1
ACMDATUMSTANDARDANSI
  2
AcmDatumStdANSI
  3
"AcmSymBB|Product Description: AutoCAD Mechanical 2000|Company: Autodesk"
 90
        0
280
     0
281
     0
  0
CLASS
  1
ACMBOMSTANDARDANSI
  2
AcmBOMStdANSI
  3
"AcmSymBB|Product Description: AutoCAD Mechanical 2000|Company: Autodesk"
 90
        0
280
     0
281
     0
  0
CLASS
  1
ACMSTANDARDBSI
  2
AcmStandardBSI
  3
"AcmSymBB|Product Description: AutoCAD Mechanical 2000|Company: Autodesk"
 90
        0
280
     0
281
     0
  0
CLASS
  1
ACMSURFSTANDARDBSI
  2
AcmSurfTextStdBSI
  3
"AcmSymBB|Product Description: AutoCAD Mechanical 2000|Company: Autodesk"
 90
        0
280
     0
281
     0
  0
CLASS
  1
ACMFCFSTANDARDBSI
  2
AcmFCFStdBSI
  3
"AcmSymBB|Product Description: AutoCAD Mechanical 2000|Company: Autodesk"
 90
        0
280
     0
281
     0
  0
CLASS
  1
ACMWELDSTANDARDBSI
  2
AcmWeldingStdBSI
  3
"AcmSymBB|Product Description: AutoCAD Mechanical 2000|Company: Autodesk"
 90
        0
280
     0
281
     0
  0
CLASS
  1
ACMIDSTANDARDBSI
  2
AcmIdStdBSI
  3
"AcmSymBB|Product Description: AutoCAD Mechanical 2000|Company: Autodesk"
 90
        0
280
     0
281
     0
  0
CLASS
  1
ACMDATUMSTANDARDBSI
  2
AcmDatumStdBSI
  3
"AcmSymBB|Product Description: AutoCAD Mechanical 2000|Company: Autodesk"
 90
        0
280
     0
281
     0
  0
CLASS
  1
ACMBOMSTANDARDBSI
  2
AcmBOMStdBSI
  3
"AcmSymBB|Product Description: AutoCAD Mechanical 2000|Company: Autodesk"
 90
        0
280
     0
281
     0
  0
CLASS
  1
LONG_TRANSACTION
  2
AcDbLongTransaction
  3
AutoCAD 2000
 90
        0
280
     0
281
     0
  0
CLASS
  1
LWPOLYLINE
  2
AcDbPolyline
  3
AutoCAD 2000
 90
        0
280
     0
281
     1
  0
CLASS
  1
HATCH
  2
AcDbHatch
  3
AutoCAD 2000
 90
        0
280
     0
281
     1
  0
CLASS
  1
XRECORD
  2
AcDbXrecord
  3
AutoCAD 2000
 90
        0
280
     0
281
     0
  0
ENDSEC
  0
SECTION
  2
TABLES
  0
TABLE
  2
VPORT
  5
8
330
0
100
AcDbSymbolTable
 70
     3
  0
VPORT
  5
4D57
330
8
100
AcDbSymbolTableRecord
100
AcDbViewportTableRecord
  2
*ACTIVE
 70
     0
 10
0.0
 20
0.0
 11
1.0
 21
1.0
 12
-79.78192619886566
 22
-31.63369022149125
 13
0.0
 23
0.0
 14
2.5
 24
2.5
 15
10.0
 25
10.0
 16
0.0
 26
0.0
 36
1.0
 17
0.0
 27
0.0
 37
0.0
 40
123.1054167644113
 41
1.56570841889117
 42
50.0
 43
0.0
 44
0.0
 50
0.0
 51
0.0
 71
     0
 72
   100
 73
     1
 74
     3
 75
     0
 76
     0
 77
     0
 78
     0
  0
ENDTAB
  0
TABLE
  2
LTYPE
  5
5
330
0
100
AcDbSymbolTable
 70
    10
  0
LTYPE
  5
14
330
5
100
AcDbSymbolTableRecord
100
AcDbLinetypeTableRecord
  2
BYBLOCK
 70
     0
  3

 72
    65
 73
     0
 40
0.0
  0
LTYPE
  5
15
330
5
100
AcDbSymbolTableRecord
100
AcDbLinetypeTableRecord
  2
BYLAYER
 70
     0
  3

 72
    65
 73
     0
 40
0.0
  0
LTYPE
  5
16
330
5
100
AcDbSymbolTableRecord
100
AcDbLinetypeTableRecord
  2
CONTINUOUS
 70
     0
  3
Solid line
 72
    65
 73
     0
 40
0.0
  0
LTYPE
  5
4B
330
5
100
AcDbSymbolTableRecord
100
AcDbLinetypeTableRecord
  2
AM_ISO02W050
 70
     0
  3
__ __ __ __ __ __ __ __ __ __ __ __ __ __ __
 72
    65
 73
     2
 40
7.5
 49
6.0
 74
     0
 49
-1.5
 74
     0
  0
LTYPE
  5
4C
330
5
100
AcDbSymbolTableRecord
100
AcDbLinetypeTableRecord
  2
AM_ISO08W050
 70
     0
  3
____ . ____ . ____ . ____ . ____ . ____ . ____
 72
    65
 73
     4
 40
18.0
 49
12.0
 74
     0
 49
-1.5
 74
     0
 49
3.0
 74
     0
 49
-1.5
 74
     0
  0
LTYPE
  5
4D
330
5
100
AcDbSymbolTableRecord
100
AcDbLinetypeTableRecord
  2
AM_ISO09W050
 70
     0
  3
_____ . . _____ . . _____ . . ____ .. ____
 72
    65
 73
     6
 40
22.5
 49
12.0
 74
     0
 49
-1.5
 74
     0
 49
3.0
 74
     0
 49
-1.5
 74
     0
 49
3.0
 74
     0
 49
-1.5
 74
     0
  0
LTYPE
  5
4E
330
5
100
AcDbSymbolTableRecord
100
AcDbLinetypeTableRecord
  2
AMCONSTR
 70
     0
  3
_______________________
 72
    65
 73
     2
 40
9999.0
 49
9999.0
 74
     0
 49
0.0
 74
     0
  0
LTYPE
  5
4F
330
5
100
AcDbSymbolTableRecord
100
AcDbLinetypeTableRecord
  2
AM_ISO02W050X2
 70
     0
  3
 _ _ _ _ _ _ _ _ _ _ _ _
 72
    65
 73
     2
 40
3.75
 49
3.0
 74
     0
 49
-0.75
 74
     0
  0
LTYPE
  5
50
330
5
100
AcDbSymbolTableRecord
100
AcDbLinetypeTableRecord
  2
AM_ISO08W050X2
 70
     0
  3
__ . __ . __ . __ . __ . __
 72
    65
 73
     4
 40
9.0
 49
6.0
 74
     0
 49
-0.75
 74
     0
 49
1.5
 74
     0
 49
-0.75
 74
     0
  0
LTYPE
  5
53
330
5
100
AcDbSymbolTableRecord
100
AcDbLinetypeTableRecord
  2
AMZIGZAG
 70
     0
  3
/\/-/\/-/\/-/\/-/\/-/\/
 72
    65
 73
     2
 40
11.00009999999999
 49
0.0001
 74
     4
 75
   135
340
52
 46
0.04
 50
0.0
 44
0.0
 45
0.0
 49
-11.0
 74
     0
  0
LTYPE
  5
166
330
5
100
AcDbSymbolTableRecord
100
AcDbLinetypeTableRecord
  2
ACJISTGL
 70
     0
  3
_ _ _ _ _
 72
    65
 73
     2
 40
3.0
 49
2.0
 74
     0
 49
-1.0
 74
     0
  0
LTYPE
  5
26A
330
5
100
AcDbSymbolTableRecord
100
AcDbLinetypeTableRecord
  2
ACJISTGB
 70
     0
  3
__ . . __ . .
 72
    65
 73
     6
 40
9.0
 49
4.0
 74
     0
 49
-1.0
 74
     0
 49
1.0
 74
     0
 49
-1.0
 74
     0
 49
1.0
 74
     0
 49
-1.0
 74
     0
  0
ENDTAB
  0
TABLE
  2
LAYER
  5
2
330
0
100
AcDbSymbolTable
 70
     7
  0
LAYER
  5
10
330
2
100
AcDbSymbolTableRecord
100
AcDbLayerTableRecord
  2
0
 70
     0
 62
     7
  6
CONTINUOUS
  0
LAYER
  5
3F9
330
2
100
AcDbSymbolTableRecord
100
AcDbLayerTableRecord
  2
AM_0
 70
     0
 62
     7
  6
CONTINUOUS
  0
LAYER
  5
BDD
330
2
100
AcDbSymbolTableRecord
100
AcDbLayerTableRecord
  2
AM_11
 70
     0
 62
     3
  6
AM_ISO09W050
  0
LAYER
  5
BDE
330
2
100
AcDbSymbolTableRecord
100
AcDbLayerTableRecord
  2
AM_7
 70
     0
 62
     4
  6
AM_ISO08W050
  0
LAYER
  5
BDF
330
2
100
AcDbSymbolTableRecord
100
AcDbLayerTableRecord
  2
AM_5
 70
     0
 62
     3
  6
CONTINUOUS
  0
LAYER
  5
BE0
330
2
100
AcDbSymbolTableRecord
100
AcDbLayerTableRecord
  2
DEFPOINTS
 70
     0
 62
     7
  6
CONTINUOUS
  0
LAYER
  5
14FF
330
2
100
AcDbSymbolTableRecord
100
AcDbLayerTableRecord
  2
AM_6
 70
     0
 62
     2
  6
CONTINUOUS
  0
ENDTAB
  0
TABLE
  2
STYLE
  5
3
330
0
100
AcDbSymbolTable
 70
     5
  0
STYLE
  5
11
330
3
100
AcDbSymbolTableRecord
100
AcDbTextStyleTableRecord
  2
STANDARD
 70
     0
 40
0.0
 41
1.0
 50
0.0
 71
     0
 42
2.5
  3
simplex.shx
  4
EXTFONT.SHX
  0
STYLE
  5
52
330
3
100
AcDbSymbolTableRecord
100
AcDbTextStyleTableRecord
  2

 70
     1
 40
0.0
 41
1.0
 50
0.0
 71
     0
 42
2.5
  3
ltypeshp.shx
  4

  0
STYLE
  5
6B
330
3
100
AcDbSymbolTableRecord
100
AcDbTextStyleTableRecord
  2
ASAMI
 70
     0
 40
0.0
 41
1.0
 50
0.0
 71
     0
 42
2.5
  3
simplex.shx
  4
EXTFONT.SHX
  0
STYLE
  5
262
330
3
100
AcDbSymbolTableRecord
100
AcDbTextStyleTableRecord
  2
ACJISTS
 70
     0
 40
1.0
 41
1.0
 50
0.0
 71
     0
 42
2.5
  3
simplex.shx
  4
bigfont.shx
  0
STYLE
  5
269
330
3
100
AcDbSymbolTableRecord
100
AcDbTextStyleTableRecord
  2
ACJISGDT
 70
     0
 40
0.0
 41
1.0
 50
0.0
 71
     0
 42
2.5
  3
amgdtans.shx
  4

  0
ENDTAB
  0
TABLE
  2
VIEW
  5
6
330
0
100
AcDbSymbolTable
 70
     0
  0
ENDTAB
  0
TABLE
  2
UCS
  5
7
330
0
100
AcDbSymbolTable
 70
     0
  0
ENDTAB
  0
TABLE
  2
APPID
  5
9
330
0
100
AcDbSymbolTable
 70
    14
  0
APPID
  5
12
330
9
100
AcDbSymbolTableRecord
100
AcDbRegAppTableRecord
  2
ACAD
 70
     0
  0
APPID
  5
30
330
9
100
AcDbSymbolTableRecord
100
AcDbRegAppTableRecord
  2
MCAD_NO_VIS
 70
     0
  0
APPID
  5
31
330
9
100
AcDbSymbolTableRecord
100
AcDbRegAppTableRecord
  2
ACAD_TEMP_GRAPHIC
 70
     0
  0
APPID
  5
2C2
330
9
100
AcDbSymbolTableRecord
100
AcDbRegAppTableRecord
  2
GENIUS_GENDTOL_13
 70
     0
  0
APPID
  5
339
330
9
100
AcDbSymbolTableRecord
100
AcDbRegAppTableRecord
  2
GENIUS_GENODEF_13
 70
     0
  0
APPID
  5
33A
330
9
100
AcDbSymbolTableRecord
100
AcDbRegAppTableRecord
  2
GENIUS_GENOBJ-N-RSBK_13
 70
     0
  0
APPID
  5
33B
330
9
100
AcDbSymbolTableRecord
100
AcDbRegAppTableRecord
  2
GENIUS_GENOBJ-N-LIB_13
 70
     0
  0
APPID
  5
33C
330
9
100
AcDbSymbolTableRecord
100
AcDbRegAppTableRecord
  2
GENIUS_GENSCALE_13
 70
     0
  0
APPID
  5
378
330
9
100
AcDbSymbolTableRecord
100
AcDbRegAppTableRecord
  2
GENIUS_GENDIMSH_14
 70
     0
  0
APPID
  5
BE1
330
9
100
AcDbSymbolTableRecord
100
AcDbRegAppTableRecord
  2
GENIUS_GENFIL_13
 70
     0
  0
APPID
  5
BE2
330
9
100
AcDbSymbolTableRecord
100
AcDbRegAppTableRecord
  2
GENIUS_GENOBJ-N-CHA_13
 70
     0
  0
APPID
  5
151B
330
9
100
AcDbSymbolTableRecord
100
AcDbRegAppTableRecord
  2
DCO15
 70
     0
  0
APPID
  5
1860
330
9
100
AcDbSymbolTableRecord
100
AcDbRegAppTableRecord
  2
GENIUS_GENOBJ-N-CEN_13
 70
     0
  0
APPID
  5
359C
330
9
100
AcDbSymbolTableRecord
100
AcDbRegAppTableRecord
  2
GENIUS_GENOBJ-N-FIL_13
 70
     0
  0
ENDTAB
  0
TABLE
  2
DIMSTYLE
  5
A
330
0
100
AcDbSymbolTable
 70
     8
  0
DIMSTYLE
105
58
102
{ACAD_REACTORS
330
4047
330
412A
330
42F4
330
458C
330
4912
102
}
330
A
100
AcDbSymbolTableRecord
100
AcDbDimStyleTableRecord
  2
AM_JIS
 70
     0
  3

  4
"
  5
OPEN30
  6

  7

 40
1.0
 41
2.5
 42
1.0
 43
12.0
 44
1.0
 45
0.0
 46
0.0
 47
0.1
 48
0.1
140
3.2
141
0.0
142
0.0
143
0.0393701
144
1.0
145
0.0
146
0.71
147
1.5
 71
     0
 72
     0
 73
     0
 74
     0
 75
     0
 76
     0
 77
     3
 78
     8
170
     0
171
     2
172
     1
173
     0
174
     0
175
     0
176
   256
177
   256
178
     2
270
     2
271
     3
272
     3
273
     2
274
     2
340
6B
275
     0
280
     0
281
     0
282
     0
283
     0
284
     0
285
     0
286
     0
287
     3
288
     0
  0
DIMSTYLE
105
5F
330
A
100
AcDbSymbolTableRecord
100
AcDbDimStyleTableRecord
  2
AM_JIS$3
 70
     0
  3

  4
"
  5
OPEN30
  6

  7

 40
1.0
 41
2.5
 42
1.0
 43
10.0
 44
1.0
 45
0.0
 46
0.0
 47
0.1
 48
0.1
140
3.2
141
0.0
142
0.0
143
0.0393701
144
1.0
145
0.0
146
0.71
147
1.5
 71
     0
 72
     0
 73
     0
 74
     1
 75
     0
 76
     0
 77
     3
 78
     8
170
     0
171
     2
172
     0
173
     0
174
     0
175
     0
176
   256
177
   256
178
     2
270
     2
271
     2
272
     3
273
     2
274
     2
340
6B
275
     0
280
     0
281
     0
282
     0
283
     0
284
     0
285
     0
286
     0
287
     0
288
     1
  0
DIMSTYLE
105
60
102
{ACAD_REACTORS
330
4B07
102
}
330
A
100
AcDbSymbolTableRecord
100
AcDbDimStyleTableRecord
  2
AM_JIS$4
 70
     0
  3

  4
"
  5
OPEN30
  6

  7

 40
1.0
 41
2.5
 42
1.0
 43
10.0
 44
1.0
 45
0.0
 46
0.0
 47
0.1
 48
0.1
140
3.2
141
0.0
142
0.0
143
0.0393701
144
1.0
145
0.0
146
0.71
147
1.5
 71
     0
 72
     0
 73
     0
 74
     1
 75
     0
 76
     0
 77
     3
 78
     8
170
     0
171
     2
172
     0
173
     0
174
     0
175
     0
176
   256
177
   256
178
     2
270
     2
271
     2
272
     3
273
     2
274
     2
340
6B
275
     0
280
     0
281
     0
282
     0
283
     0
284
     0
285
     0
286
     0
287
     0
288
     1
  0
DIMSTYLE
105
61
330
A
100
AcDbSymbolTableRecord
100
AcDbDimStyleTableRecord
  2
AM_JIS$6
 70
     0
  3

  4
"
  5
OPEN30
  6

  7

 40
1.0
 41
2.5
 42
1.0
 43
10.0
 44
1.0
 45
0.0
 46
0.0
 47
0.1
 48
0.1
140
3.2
141
0.0
142
0.0
143
0.0393701
144
1.0
145
0.0
146
0.71
147
1.5
 71
     0
 72
     0
 73
     0
 74
     0
 75
     0
 76
     0
 77
     0
 78
     8
170
     0
171
     2
172
     1
173
     0
174
     0
175
     0
176
   256
177
   256
178
     2
270
     2
271
     2
272
     2
273
     2
274
     2
340
6B
275
     0
280
     0
281
     0
282
     0
283
     0
284
     0
285
     0
286
     0
287
     3
288
     0
  0
DIMSTYLE
105
62
330
A
100
AcDbSymbolTableRecord
100
AcDbDimStyleTableRecord
  2
AM_JIS$7
 70
     0
  3

  4
"
  5
OPEN30
  6

  7

 40
1.0
 41
2.5
 42
1.0
 43
10.0
 44
1.0
 45
0.0
 46
0.0
 47
0.1
 48
0.1
140
3.2
141
0.0
142
0.0
143
0.0393701
144
1.0
145
0.0
146
0.71
147
1.5
 71
     0
 72
     0
 73
     0
 74
     0
 75
     0
 76
     0
 77
     3
 78
     8
170
     0
171
     2
172
     1
173
     0
174
     0
175
     0
176
   256
177
   256
178
     2
270
     2
271
     2
272
     3
273
     2
274
     2
340
6B
275
     0
280
     0
281
     0
282
     0
283
     0
284
     0
285
     0
286
     0
287
     3
288
     0
  0
DIMSTYLE
105
63
330
A
100
AcDbSymbolTableRecord
100
AcDbDimStyleTableRecord
  2
AM_JIS$SF
 70
     0
  3

  4
"
  5
OPEN30
  6

  7

 40
1.0
 41
2.5
 42
1.0
 43
10.0
 44
1.0
 45
0.0
 46
0.0
 47
0.1
 48
0.1
140
3.2
141
0.0
142
0.0
143
0.0393701
144
1.0
145
0.0
146
0.71
147
1.5
 71
     0
 72
     0
 73
     0
 74
     0
 75
     1
 76
     1
 77
     3
 78
     8
170
     0
171
     2
172
     1
173
     0
174
     0
175
     0
176
   256
177
   256
178
     2
270
     2
271
     2
272
     2
273
     2
274
     2
340
6B
275
     0
280
     0
281
     0
282
     0
283
     0
284
     0
285
     0
286
     0
287
     3
288
     0
  0
DIMSTYLE
105
68
330
A
100
AcDbSymbolTableRecord
100
AcDbDimStyleTableRecord
  2
AM_JIS$SH
 70
     0
  3

  4
"
  5

  6
GENAXEH
  7
OPEN30
 40
1.0
 41
2.5
 42
1.0
 43
10.0
 44
1.0
 45
0.0
 46
0.0
 47
0.1
 48
0.1
140
3.2
141
0.0
142
0.0
143
0.0393701
144
2.0
145
0.0
146
0.71
147
1.5
 71
     0
 72
     0
 73
     0
 74
     0
 75
     1
 76
     1
 77
     3
 78
     8
170
     0
171
     2
172
     1
173
     1
174
     0
175
     0
176
   256
177
   256
178
     2
270
     2
271
     2
272
     2
273
     2
274
     2
340
6B
275
     0
280
     0
281
     0
282
     0
283
     0
284
     0
285
     0
286
     0
287
     3
288
     0
  0
DIMSTYLE
105
B34
330
A
100
AcDbSymbolTableRecord
100
AcDbDimStyleTableRecord
  2
AM_JIS$2
 70
     0
  3

  4
"
  5
OPEN30
  6

  7

 40
1.0
 41
2.5
 42
1.0
 43
12.0
 44
1.0
 45
0.0
 46
0.0
 47
0.1
 48
0.1
140
3.2
141
0.0
142
0.0
143
0.0393701
144
1.0
145
0.0
146
0.71
147
1.5
 71
     0
 72
     0
 73
     0
 74
     0
 75
     0
 76
     0
 77
     3
 78
     8
170
     0
171
     2
172
     1
173
     0
174
     0
175
     0
176
   256
177
   256
178
     2
270
     2
271
     3
272
     3
273
     2
274
     2
340
6B
275
     0
280
     0
281
     0
282
     0
283
     0
284
     0
285
     0
286
     0
287
     3
288
     0
  0
ENDTAB
  0
TABLE
  2
BLOCK_RECORD
  5
1
330
0
100
AcDbSymbolTable
 70
    11
  0
BLOCK_RECORD
  5
1F
102
{ACAD_XDICTIONARY
360
74
102
}
330
1
100
AcDbSymbolTableRecord
100
AcDbBlockTableRecord
  2
*MODEL_SPACE
  0
BLOCK_RECORD
  5
101
102
{ACAD_XDICTIONARY
360
4D80
102
}
330
1
100
AcDbSymbolTableRecord
100
AcDbBlockTableRecord
  2
*PAPER_SPACE
  0
BLOCK_RECORD
  5
59
330
1
100
AcDbSymbolTableRecord
100
AcDbBlockTableRecord
  2
_OPEN30
  0
BLOCK_RECORD
  5
64
330
1
100
AcDbSymbolTableRecord
100
AcDbBlockTableRecord
  2
GENAXEH
  0
BLOCK_RECORD
  5
4048
330
1
100
AcDbSymbolTableRecord
100
AcDbBlockTableRecord
  2
*D5
  0
BLOCK_RECORD
  5
412B
330
1
100
AcDbSymbolTableRecord
100
AcDbBlockTableRecord
  2
*D6
  0
BLOCK_RECORD
  5
42F5
330
1
100
AcDbSymbolTableRecord
100
AcDbBlockTableRecord
  2
*D7
  0
BLOCK_RECORD
  5
458D
330
1
100
AcDbSymbolTableRecord
100
AcDbBlockTableRecord
  2
*D8
  0
BLOCK_RECORD
  5
4913
330
1
100
AcDbSymbolTableRecord
100
AcDbBlockTableRecord
  2
*D9
  0
BLOCK_RECORD
  5
4B08
330
1
100
AcDbSymbolTableRecord
100
AcDbBlockTableRecord
  2
*D10
  0
ENDTAB
  0
ENDSEC
  0
SECTION
  2
BLOCKS
  0
BLOCK
  5
20
330
1F
100
AcDbEntity
  8
0
100
AcDbBlockBegin
  2
*MODEL_SPACE
 70
     0
 10
0.0
 20
0.0
 30
0.0
  3
*MODEL_SPACE
  1

  0
ENDBLK
  5
21
330
1F
100
AcDbEntity
  8
0
100
AcDbBlockEnd
  0
BLOCK
  5
103
330
101
100
AcDbEntity
 67
     1
  8
0
100
AcDbBlockBegin
  2
*PAPER_SPACE
 70
     0
 10
0.0
 20
0.0
 30
0.0
  3
*PAPER_SPACE
  1

  0
ENDBLK
  5
104
330
101
100
AcDbEntity
 67
     1
  8
0
100
AcDbBlockEnd
  0
BLOCK
  5
5D
330
59
100
AcDbEntity
  8
0
100
AcDbBlockBegin
  2
_OPEN30
 70
     0
 10
0.0
 20
0.0
 30
0.0
  3
_OPEN30
  1

  0
LINE
  5
5A
330
59
100
AcDbEntity
  8
0
 62
     0
100
AcDbLine
 10
-1.0
 20
0.26794919
 30
0.0
 11
0.0
 21
0.0
 31
0.0
  0
LINE
  5
5B
330
59
100
AcDbEntity
  8
0
 62
     0
100
AcDbLine
 10
0.0
 20
0.0
 30
0.0
 11
-1.0
 21
-0.26794919
 31
0.0
  0
LINE
  5
5C
330
59
100
AcDbEntity
  8
0
 62
     0
100
AcDbLine
 10
0.0
 20
0.0
 30
0.0
 11
-1.0
 21
0.0
 31
0.0
  0
ENDBLK
  5
5E
330
59
100
AcDbEntity
  8
0
100
AcDbBlockEnd
  0
BLOCK
  5
66
330
64
100
AcDbEntity
  8
0
100
AcDbBlockBegin
  2
GENAXEH
 70
     0
 10
0.0
 20
0.0
 30
0.0
  3
GENAXEH
  1

  0
LINE
  5
65
330
64
100
AcDbEntity
  8
0
100
AcDbLine
 10
-1.0
 20
0.0
 30
0.0
 11
1.0
 21
0.0
 31
0.0
  0
ENDBLK
  5
67
330
64
100
AcDbEntity
  8
0
100
AcDbBlockEnd
  0
BLOCK
  5
4052
330
4048
100
AcDbEntity
  8
0
100
AcDbBlockBegin
  2
*D5
 70
     1
 10
0.0
 20
0.0
 30
0.0
  3
*D5
  1

  0
LINE
  5
4AC2
330
4048
100
AcDbEntity
  8
AM_5
100
AcDbLine
 10
-154.9999271129884
 20
-7.999999999999984
 30
0.0
 11
-154.9999271129884
 21
-50.09365527108558
 31
0.0
  0
LINE
  5
4AC3
330
4048
100
AcDbEntity
  8
AM_5
100
AcDbLine
 10
-0.0000000000000001
 20
-1.0
 30
0.0
 11
-0.0000000000000031
 21
-50.09365527108558
 31
0.0
  0
LINE
  5
4AC4
330
4048
100
AcDbEntity
  8
AM_5
100
AcDbLine
 10
-152.4999271129884
 20
-49.09365527108558
 30
0.0
 11
-2.500000000000003
 21
-49.09365527108558
 31
0.0
  0
INSERT
  5
4AC5
330
4048
100
AcDbEntity
  8
AM_5
100
AcDbBlockReference
  2
_OPEN30
 10
-154.9999271129884
 20
-49.09365527108558
 30
0.0
 41
2.5
 42
2.5
 43
2.5
 50
180.0
  0
INSERT
  5
4AC6
330
4048
100
AcDbEntity
  8
AM_5
100
AcDbBlockReference
  2
_OPEN30
 10
-0.000000000000003
 20
-49.09365527108558
 30
0.0
 41
2.5
 42
2.5
 43
2.5
  0
MTEXT
  5
4AC7
330
4048
100
AcDbEntity
  8
AM_5
 62
     2
100
AcDbMText
 10
-77.49996355649421
 20
-45.99365527108558
 30
0.0
 40
3.2
 41
0.0
 71
     5
 72
     1
  1
155
  7
ASAMI
1001
ACAD
1000
MTEXTBEGIN
1070
    73
1070
     1
1070
    44
1040
1.0
1070
    74
1070
     0
1000
MTEXTEND
  0
POINT
  5
4AC8
330
4048
100
AcDbEntity
  8
DEFPOINTS
 62
     0
100
AcDbPoint
 10
-154.9999271129884
 20
-6.999999999999984
 30
0.0
  0
POINT
  5
4AC9
330
4048
100
AcDbEntity
  8
DEFPOINTS
 62
     0
100
AcDbPoint
 10
0.0
 20
0.0
 30
0.0
  0
POINT
  5
4ACA
330
4048
100
AcDbEntity
  8
DEFPOINTS
 62
     0
100
AcDbPoint
 10
-0.000000000000003
 20
-49.09365527108558
 30
0.0
  0
ENDBLK
  5
4053
330
4048
100
AcDbEntity
  8
0
100
AcDbBlockEnd
  0
BLOCK
  5
4135
330
412B
100
AcDbEntity
  8
0
100
AcDbBlockBegin
  2
*D6
 70
     1
 10
0.0
 20
0.0
 30
0.0
  3
*D6
  1

  0
LINE
  5
4ADD
330
412B
100
AcDbEntity
  8
AM_5
100
AcDbLine
 10
-0.0000000000000149
 20
-1.00000000000001
 30
0.0
 11
-0.0000000000000165
 21
-26.09365527108564
 31
0.0
  0
LINE
  5
4ADE
330
412B
100
AcDbEntity
  8
AM_5
100
AcDbLine
 10
-31.99960058570808
 20
-8.000000000000015
 30
0.0
 11
-31.99960058570808
 21
-26.09365527108564
 31
0.0
  0
LINE
  5
4ADF
330
412B
100
AcDbEntity
  8
AM_5
100
AcDbLine
 10
-2.500000000000016
 20
-25.09365527108564
 30
0.0
 11
-29.49960058570808
 21
-25.09365527108564
 31
0.0
  0
INSERT
  5
4AE0
330
412B
100
AcDbEntity
  8
AM_5
100
AcDbBlockReference
  2
_OPEN30
 10
-0.0000000000000164
 20
-25.09365527108564
 30
0.0
 41
2.5
 42
2.5
 43
2.5
  0
INSERT
  5
4AE1
330
412B
100
AcDbEntity
  8
AM_5
100
AcDbBlockReference
  2
_OPEN30
 10
-31.99960058570808
 20
-25.09365527108564
 30
0.0
 41
2.5
 42
2.5
 43
2.5
 50
180.0
  0
MTEXT
  5
4AE2
330
412B
100
AcDbEntity
  8
AM_5
 62
     2
100
AcDbMText
 10
-15.99980029285404
 20
-21.99365527108564
 30
0.0
 40
3.2
 41
0.0
 71
     5
 72
     1
  1
32
  7
ASAMI
1001
ACAD
1000
MTEXTBEGIN
1070
    73
1070
     1
1070
    44
1040
1.0
1070
    74
1070
     0
1000
MTEXTEND
  0
POINT
  5
4AE3
330
412B
100
AcDbEntity
  8
DEFPOINTS
 62
     0
100
AcDbPoint
 10
-0.0000000000000149
 20
-0.0000000000000106
 30
0.0
  0
POINT
  5
4AE4
330
412B
100
AcDbEntity
  8
DEFPOINTS
 62
     0
100
AcDbPoint
 10
-31.99960058570808
 20
-7.000000000000015
 30
0.0
  0
POINT
  5
4AE5
330
412B
100
AcDbEntity
  8
DEFPOINTS
 62
     0
100
AcDbPoint
 10
-31.99960058570808
 20
-25.09365527108564
 30
0.0
  0
ENDBLK
  5
4136
330
412B
100
AcDbEntity
  8
0
100
AcDbBlockEnd
  0
BLOCK
  5
42FF
330
42F5
100
AcDbEntity
  8
0
100
AcDbBlockBegin
  2
*D7
 70
     1
 10
0.0
 20
0.0
 30
0.0
  3
*D7
  1

  0
LINE
  5
4AB9
330
42F5
100
AcDbEntity
  8
AM_5
100
AcDbLine
 10
-6.0
 20
7.000000000000953
 30
0.0
 11
16.19870082757634
 21
7.000000000000945
 31
0.0
  0
LINE
  5
4ABA
330
42F5
100
AcDbEntity
  8
AM_5
100
AcDbLine
 10
-6.0
 20
-6.999999999999047
 30
0.0
 11
16.19870082757633
 21
-6.999999999999054
 31
0.0
  0
LINE
  5
4ABB
330
42F5
100
AcDbEntity
  8
AM_5
100
AcDbLine
 10
15.19870082757633
 20
4.500000000000945
 30
0.0
 11
15.19870082757633
 21
-4.499999999999054
 31
0.0
  0
INSERT
  5
4ABC
330
42F5
100
AcDbEntity
  8
AM_5
100
AcDbBlockReference
  2
_OPEN30
 10
15.19870082757633
 20
7.000000000000945
 30
0.0
 41
2.5
 42
2.5
 43
2.5
 50
90.0
  0
INSERT
  5
4ABD
330
42F5
100
AcDbEntity
  8
AM_5
100
AcDbBlockReference
  2
_OPEN30
 10
15.19870082757633
 20
-6.999999999999054
 30
0.0
 41
2.5
 42
2.5
 43
2.5
 50
270.0
  0
MTEXT
  5
4ABE
330
42F5
100
AcDbEntity
  8
AM_5
 62
     2
100
AcDbMText
 10
12.09870082757633
 20
0.0000000000009489
 30
0.0
 40
3.2
 41
0.0
 71
     5
 72
     1
  1
%%c14
  7
ASAMI
 11
0.0000000000000001
 21
1.0
 31
0.0
1001
ACAD
1000
MTEXTBEGIN
1070
    73
1070
     1
1070
    44
1040
1.0
1070
    74
1070
     0
1000
MTEXTEND
  0
POINT
  5
4ABF
330
42F5
100
AcDbEntity
  8
DEFPOINTS
 62
     0
100
AcDbPoint
 10
-7.0
 20
7.000000000000953
 30
0.0
  0
POINT
  5
4AC0
330
42F5
100
AcDbEntity
  8
DEFPOINTS
 62
     0
100
AcDbPoint
 10
-7.0
 20
-6.999999999999046
 30
0.0
  0
POINT
  5
4AC1
330
42F5
100
AcDbEntity
  8
DEFPOINTS
 62
     0
100
AcDbPoint
 10
15.19870082757633
 20
-6.999999999999054
 30
0.0
  0
ENDBLK
  5
4300
330
42F5
100
AcDbEntity
  8
0
100
AcDbBlockEnd
  0
BLOCK
  5
4597
330
458D
100
AcDbEntity
  8
0
100
AcDbBlockBegin
  2
*D8
 70
     1
 10
0.0
 20
0.0
 30
0.0
  3
*D8
  1

  0
LINE
  5
4ACB
330
458D
100
AcDbEntity
  8
AM_5
100
AcDbLine
 10
-154.9999271129884
 20
7.999999999999807
 30
0.0
 11
-172.0561222429479
 21
7.999999999999811
 31
0.0
  0
LINE
  5
4ACC
330
458D
100
AcDbEntity
  8
AM_5
100
AcDbLine
 10
-154.9999271129884
 20
-8.000000000000014
 30
0.0
 11
-172.0561222429479
 21
-8.000000000000007
 31
0.0
  0
LINE
  5
4ACD
330
458D
100
AcDbEntity
  8
AM_5
100
AcDbLine
 10
-171.0561222429479
 20
5.499999999999811
 30
0.0
 11
-171.0561222429479
 21
-5.500000000000007
 31
0.0
  0
INSERT
  5
4ACE
330
458D
100
AcDbEntity
  8
AM_5
100
AcDbBlockReference
  2
_OPEN30
 10
-171.0561222429479
 20
7.999999999999811
 30
0.0
 41
2.5
 42
2.5
 43
2.5
 50
90.0
  0
INSERT
  5
4ACF
330
458D
100
AcDbEntity
  8
AM_5
100
AcDbBlockReference
  2
_OPEN30
 10
-171.0561222429479
 20
-8.000000000000008
 30
0.0
 41
2.5
 42
2.5
 43
2.5
 50
270.0
  0
MTEXT
  5
4AD0
330
458D
100
AcDbEntity
  8
AM_5
 62
     2
100
AcDbMText
 10
-174.1561222429479
 20
-0.0000000000001255
 30
0.0
 40
3.2
 41
0.0
 71
     5
 72
     1
  1
%%c16
  7
ASAMI
 11
0.0000000000000001
 21
1.0
 31
0.0
1001
ACAD
1000
MTEXTBEGIN
1070
    73
1070
     1
1070
    44
1040
1.0
1070
    74
1070
     0
1000
MTEXTEND
  0
POINT
  5
4AD1
330
458D
100
AcDbEntity
  8
DEFPOINTS
 62
     0
100
AcDbPoint
 10
-153.9999271129883
 20
7.999999999999806
 30
0.0
  0
POINT
  5
4AD2
330
458D
100
AcDbEntity
  8
DEFPOINTS
 62
     0
100
AcDbPoint
 10
-153.9999271129883
 20
-8.000000000000014
 30
0.0
  0
POINT
  5
4AD3
330
458D
100
AcDbEntity
  8
DEFPOINTS
 62
     0
100
AcDbPoint
 10
-171.0561222429479
 20
-8.000000000000008
 30
0.0
  0
ENDBLK
  5
4598
330
458D
100
AcDbEntity
  8
0
100
AcDbBlockEnd
  0
BLOCK
  5
491D
330
4913
100
AcDbEntity
  8
0
100
AcDbBlockBegin
  2
*D9
 70
     1
 10
0.0
 20
0.0
 30
0.0
  3
*D9
  1

  0
LINE
  5
4AD4
330
4913
100
AcDbEntity
  8
AM_5
100
AcDbLine
 10
-0.0000000000000016
 20
-0.9999999999999605
 30
0.0
 11
-0.0000000000000039
 21
-38.09365527108573
 31
0.0
  0
LINE
  5
4AD5
330
4913
100
AcDbEntity
  8
AM_5
100
AcDbLine
 10
-74.99992711298887
 20
-8.000000000000056
 30
0.0
 11
-74.99992711298887
 21
-38.09365527108573
 31
0.0
  0
LINE
  5
4AD6
330
4913
100
AcDbEntity
  8
AM_5
100
AcDbLine
 10
-2.500000000000003
 20
-37.09365527108573
 30
0.0
 11
-72.49992711298887
 21
-37.09365527108573
 31
0.0
  0
INSERT
  5
4AD7
330
4913
100
AcDbEntity
  8
AM_5
100
AcDbBlockReference
  2
_OPEN30
 10
-0.0000000000000038
 20
-37.09365527108573
 30
0.0
 41
2.5
 42
2.5
 43
2.5
  0
INSERT
  5
4AD8
330
4913
100
AcDbEntity
  8
AM_5
100
AcDbBlockReference
  2
_OPEN30
 10
-74.99992711298887
 20
-37.09365527108573
 30
0.0
 41
2.5
 42
2.5
 43
2.5
 50
180.0
  0
MTEXT
  5
4AD9
330
4913
100
AcDbEntity
  8
AM_5
 62
     2
100
AcDbMText
 10
-37.49996355649443
 20
-33.99365527108573
 30
0.0
 40
3.2
 41
0.0
 71
     5
 72
     1
  1
75
  7
ASAMI
1001
ACAD
1000
MTEXTBEGIN
1070
    73
1070
     1
1070
    44
1040
1.0
1070
    74
1070
     0
1000
MTEXTEND
  0
POINT
  5
4ADA
330
4913
100
AcDbEntity
  8
DEFPOINTS
 62
     0
100
AcDbPoint
 10
-0.0000000000000016
 20
0.0000000000000394
 30
0.0
  0
POINT
  5
4ADB
330
4913
100
AcDbEntity
  8
DEFPOINTS
 62
     0
100
AcDbPoint
 10
-74.99992711298887
 20
-7.000000000000056
 30
0.0
  0
POINT
  5
4ADC
330
4913
100
AcDbEntity
  8
DEFPOINTS
 62
     0
100
AcDbPoint
 10
-74.99992711298887
 20
-37.09365527108573
 30
0.0
  0
ENDBLK
  5
491E
330
4913
100
AcDbEntity
  8
0
100
AcDbBlockEnd
  0
BLOCK
  5
4B0E
330
4B08
100
AcDbEntity
  8
0
100
AcDbBlockBegin
  2
*D10
 70
     1
 10
0.0
 20
0.0
 30
0.0
  3
*D10
  1

  0
LINE
  5
4D82
330
4B08
100
AcDbEntity
  8
AM_5
100
AcDbLine
 10
5.960751026206245
 20
-16.68568159999803
 30
0.0
 11
-1.195429675126205
 21
-7.414090650955996
 31
0.0
  0
MTEXT
  5
4D83
330
4B08
100
AcDbEntity
  8
AM_5
 62
     2
100
AcDbMText
 10
5.868923983111793
 20
-11.49312164316868
 30
0.0
 40
3.2
 41
0.0
 71
     5
 72
     1
  1
R7
  7
ASAMI
 11
0.6110074026183609
 21
-0.791624882090984
 31
0.0
  0
LINE
  5
4D84
330
4B08
100
AcDbEntity
  8
AM_5
100
AcDbLine
 10
-7.000000000000632
 20
0.1063457289083525
 30
0.0
 11
-2.722948181672108
 21
-5.435028445728536
 31
0.0
  0
INSERT
  5
4D85
330
4B08
100
AcDbEntity
  8
AM_5
100
AcDbBlockReference
  2
_OPEN30
 10
-2.722948181672108
 20
-5.435028445728536
 30
0.0
 41
2.5
 42
2.5
 43
2.5
 50
127.6623804299392
  0
POINT
  5
4D86
330
4B08
100
AcDbEntity
  8
DEFPOINTS
 62
     0
100
AcDbPoint
 10
-2.722948181672108
 20
-5.435028445728536
 30
0.0
  0
POINT
  5
4D87
330
4B08
100
AcDbEntity
  8
DEFPOINTS
 62
     0
100
AcDbPoint
 10
-7.000000000000632
 20
0.1063457289083525
 30
0.0
  0
ENDBLK
  5
4B0F
330
4B08
100
AcDbEntity
  8
0
100
AcDbBlockEnd
  0
ENDSEC
  0
SECTION
  2
ENTITIES
  0
TEXT
  5
1500
330
1F
100
AcDbEntity
  8
AM_6
100
AcDbText
 10
-100.0238794939407
 20
-71.59365527108558
 30
0.0
 40
5.0
  1
LSSB2140ZX
 72
     4
 11
-77.64292711298839
 21
-69.09365527108558
 31
0.0
100
AcDbText
  0
LINE
  5
3EE8
330
1F
100
AcDbEntity
  8
AM_7
  6
AM_ISO08W050X2
100
AcDbLine
 10
1.198699827576355
 20
0.0000000000000007
 30
0.0
 11
-157.0561212429479
 21
-0.0000000000000881
 31
0.0
1001
GENIUS_GENODEF_13
1002
{
1000
HIER
1070
     0
1002
}
1002
{
1000
MANEDIT
1070
     0
1002
}
1002
{
1000
NOSEL
1070
     0
1002
}
1002
{
1000
BEHIND
1070
     0
1002
}
1002
{
1000
REACTOR
1002
}
1001
GENIUS_GENOBJ-N-CEN_13
1002
{
1000
OWNER
1000
GEN
1002
}
  0
DIMENSION
  5
4047
330
1F
100
AcDbEntity
  8
AM_5
100
AcDbDimension
  2
*D5
 10
-0.000000000000003
 20
-49.09365527108558
 30
0.0
 11
-77.49996355649421
 21
-45.99365527108558
 31
0.0
 70
    32
  1
<>
  3
AM_JIS
100
AcDbAlignedDimension
 13
-154.9999271129884
 23
-6.999999999999984
 33
0.0
 14
0.0
 24
0.0
 34
0.0
 50
0.0000000000001132
100
AcDbRotatedDimension
1001
GENIUS_GENDTOL_13
1000

1000
h7
1000

1040
0.0
  0
DIMENSION
  5
412A
330
1F
100
AcDbEntity
  8
AM_5
100
AcDbDimension
  2
*D6
 10
-31.99960058570808
 20
-25.09365527108564
 30
0.0
 11
-15.99980029285404
 21
-21.99365527108564
 31
0.0
 70
    32
  1
<>
  3
AM_JIS
100
AcDbAlignedDimension
 13
-0.0000000000000149
 23
-0.0000000000000106
 33
0.0
 14
-31.99960058570808
 24
-7.000000000000015
 34
0.0
 50
0.0000000000001132
100
AcDbRotatedDimension
1001
GENIUS_GENDTOL_13
1000

1000
h7
1000

1040
0.0
  0
DIMENSION
  5
42F4
330
1F
100
AcDbEntity
  8
AM_5
100
AcDbDimension
  2
*D7
 10
15.19870082757633
 20
-6.999999999999054
 30
0.0
 11
12.09870082757633
 21
0.0000000000009489
 31
0.0
 70
    32
  1
%%c<>
  3
AM_JIS
100
AcDbAlignedDimension
 13
-7.0
 23
7.000000000000953
 33
0.0
 14
-7.0
 24
-6.999999999999046
 34
0.0
 50
90.0
100
AcDbRotatedDimension
1001
GENIUS_GENDTOL_13
1000

1000
h7
1000

1040
0.0
  0
LINE
  5
4587
330
1F
100
AcDbEntity
  8
AM_0
100
AcDbLine
 10
-77.74740453244319
 20
-7.999999999999959
 30
0.0
 11
-153.9999271129883
 21
-8.000000000000014
 31
0.0
  0
LINE
  5
458A
330
1F
100
AcDbEntity
  8
AM_0
100
AcDbLine
 10
-153.9999271129883
 20
7.999999999999806
 30
0.0
 11
-153.9999271129883
 21
-8.000000000000035
 31
0.0
  0
LINE
  5
458B
330
1F
100
AcDbEntity
  8
AM_0
100
AcDbLine
 10
-154.9999271129884
 20
6.999999999999805
 30
0.0
 11
-154.9999271129884
 21
-7.000000000000013
 31
0.0
  0
DIMENSION
  5
458C
330
1F
100
AcDbEntity
  8
AM_5
100
AcDbDimension
  2
*D8
 10
-171.0561222429479
 20
-8.000000000000008
 30
0.0
 11
-174.1561222429479
 21
-0.0000000000001255
 31
0.0
 70
    32
  1
%%c<>
  3
AM_JIS
100
AcDbAlignedDimension
 13
-153.9999271129883
 23
7.999999999999806
 33
0.0
 14
-153.9999271129883
 24
-8.000000000000014
 34
0.0
 50
270.0
100
AcDbRotatedDimension
1001
GENIUS_GENDTOL_13
1000

1000
h7
1000

1040
0.0
  0
LINE
  5
4599
330
1F
100
AcDbEntity
  8
AM_0
100
AcDbLine
 10
-77.74740453244323
 20
7.999999999999857
 30
0.0
 11
-153.9999271129883
 21
7.999999999999806
 31
0.0
  0
LINE
  5
45A5
330
1F
100
AcDbEntity
  8
AM_0
100
AcDbLine
 10
-153.9999271129883
 20
7.999999999999806
 30
0.0
 11
-154.9999271129884
 21
6.999999999999805
 31
0.0
1001
GENIUS_GENFIL_13
1070
     0
1040
1.0
1040
1.0
1040
20.0
1040
0.0
1002
{
1002
}
1001
GENIUS_GENODEF_13
1002
{
1000
HIER
1070
     0
1002
}
1002
{
1000
MANEDIT
1070
     0
1002
}
1002
{
1000
NOSEL
1070
     0
1002
}
1002
{
1000
BEHIND
1070
     0
1002
}
1002
{
1000
REACTOR
1002
}
1001
GENIUS_GENOBJ-N-CHA_13
1002
{
1000
OWNER
1000
GEN
1002
}
  0
LINE
  5
45A8
330
1F
100
AcDbEntity
  8
AM_0
100
AcDbLine
 10
-154.9999271129884
 20
-7.000000000000013
 30
0.0
 11
-153.9999271129883
 21
-8.000000000000014
 31
0.0
1001
GENIUS_GENFIL_13
1070
     0
1040
1.0
1040
1.0
1040
20.0
1040
0.0
1002
{
1002
}
1001
GENIUS_GENODEF_13
1002
{
1000
HIER
1070
     0
1002
}
1002
{
1000
MANEDIT
1070
     0
1002
}
1002
{
1000
NOSEL
1070
     0
1002
}
1002
{
1000
BEHIND
1070
     0
1002
}
1002
{
1000
REACTOR
1002
}
1001
GENIUS_GENOBJ-N-CHA_13
1002
{
1000
OWNER
1000
GEN
1002
}
  0
LINE
  5
45CC
330
1F
100
AcDbEntity
  8
AM_0
100
AcDbLine
 10
-77.74740453244323
 20
7.999999999999858
 30
0.0
 11
-77.74740453244319
 21
-7.999999999999959
 31
0.0
  0
LINE
  5
4698
330
1F
100
AcDbEntity
  8
AM_0
100
AcDbLine
 10
-43.81374994593335
 20
6.999999999999807
 30
0.0
 11
-74.99992711298841
 21
6.999999999999781
 31
0.0
  0
LINE
  5
4699
330
1F
100
AcDbEntity
  8
AM_0
100
AcDbLine
 10
-74.99992711298841
 20
6.999999999999785
 30
0.0
 11
-77.74740453244323
 21
7.999999999999858
 31
0.0
  0
LINE
  5
469A
330
1F
100
AcDbEntity
  8
AM_0
100
AcDbLine
 10
-45.1984308517713
 20
-7.000000000000034
 30
0.0
 11
-74.99992711298841
 21
-7.000000000000056
 31
0.0
  0
LINE
  5
469B
330
1F
100
AcDbEntity
  8
AM_0
100
AcDbLine
 10
-74.99992711298841
 20
-6.999999999999894
 30
0.0
 11
-77.74740453244319
 21
-7.99999999999996
 31
0.0
  0
LINE
  5
469C
330
1F
100
AcDbEntity
  8
AM_0
100
AcDbLine
 10
-74.99992711298841
 20
-6.999999999999891
 30
0.0
 11
-74.99992711298841
 21
6.999999999999647
 31
0.0
  0
LINE
  5
486B
330
1F
100
AcDbEntity
  8
AM_0
100
AcDbLine
 10
-0.14292711298841
 20
0.0000000000000007
 30
0.0
 11
-0.4583524657909607
 21
-0.246686552357092
 31
0.0
  0
LINE
  5
486C
330
1F
100
AcDbEntity
  8
AM_0
100
AcDbLine
 10
-0.4583524657909607
 20
-0.246686552357092
 30
0.0
 11
-0.9800000000021089
 21
-0.246686552357092
 31
0.0
  0
LINE
  5
486E
330
1F
100
AcDbEntity
  8
AM_11
100
AcDbLine
 10
-6.999999999999766
 20
6.999999999999851
 30
0.0
 11
-31.99960058570805
 21
6.999999999999817
 31
0.0
  0
LINE
  5
486F
330
1F
100
AcDbEntity
  8
AM_0
100
AcDbLine
 10
-6.704807096109001
 20
-6.359233455332601
 30
0.0
 11
-7.0000000000004
 21
-5.285496432103854
 31
0.0
  0
LINE
  5
4870
330
1F
100
AcDbEntity
  8
AM_0
100
AcDbLine
 10
-6.999999999916825
 20
-6.893654271092599
 30
0.0
 11
-6.704807096109001
 21
-6.359233455332601
 31
0.0
  0
LINE
  5
4871
330
1F
100
AcDbEntity
  8
AM_0
100
AcDbLine
 10
-31.99960058570806
 20
1.997053357377325
 30
0.0
 11
-31.99960058570806
 21
4.291966485383275
 31
0.0
  0
POLYLINE
  5
4872
330
1F
100
AcDbEntity
  8
AM_0
100
AcDb2dPolyline
 66
     1
 10
0.0
 20
0.0
 30
0.0
 70
     2
  0
VERTEX
  5
4873
330
4872
100
AcDbEntity
  8
AM_0
100
AcDbVertex
100
AcDb2dVertex
 10
-31.99960058570808
 20
1.997053357377325
 30
0.0
 42
0.0476085500986973
  0
VERTEX
  5
4874
330
4872
100
AcDbEntity
  8
AM_0
100
AcDbVertex
100
AcDb2dVertex
 10
-34.69643777641204
 20
1.538772372604454
 30
0.0
 42
0.0266427629234881
 70
     1
  0
VERTEX
  5
4875
330
4872
100
AcDbEntity
  8
AM_0
100
AcDbVertex
100
AcDb2dVertex
 10
-36.25684431791489
 20
1.073690347789687
 30
0.0
 42
0.0133310426104534
  0
VERTEX
  5
4876
330
4872
100
AcDbEntity
  8
AM_0
100
AcDbVertex
100
AcDb2dVertex
 10
-40.12603143208081
 20
-0.4311200288423113
 30
0.0
 42
0.0490966498745873
 70
     1
  0
VERTEX
  5
4877
330
4872
100
AcDbEntity
  8
AM_0
100
AcDbVertex
100
AcDb2dVertex
 10
-40.93196112707388
 20
-1.232565278869092
 30
0.0
 42
0.0606131752338264
  0
VERTEX
  5
4878
330
4872
100
AcDbEntity
  8
AM_0
100
AcDbVertex
100
AcDb2dVertex
 10
-42.13950682618405
 20
-2.140184413670056
 30
0.0
 42
0.1124288503526285
 70
     1
  0
VERTEX
  5
4879
330
4872
100
AcDbEntity
  8
AM_0
100
AcDbVertex
100
AcDb2dVertex
 10
-42.30337570447615
 20
-2.98510193166765
 30
0.0
 42
0.2320489978593618
  0
VERTEX
  5
487A
330
4872
100
AcDbEntity
  8
AM_0
100
AcDbVertex
100
AcDb2dVertex
 10
-42.10501743527823
 20
-3.356474955544878
 30
0.0
 42
0.0671524414269103
 70
     1
  0
VERTEX
  5
487B
330
4872
100
AcDbEntity
  8
AM_0
100
AcDbVertex
100
AcDb2dVertex
 10
-40.89538445918147
 20
-4.001663230615968
 30
0.0
 42
0.0706904262869981
  0
VERTEX
  5
487C
330
4872
100
AcDbEntity
  8
AM_0
100
AcDbVertex
100
AcDb2dVertex
 10
-40.13913531177827
 20
-4.446932037559085
 30
0.0
 42
0.015309379493102
 70
     1
  0
VERTEX
  5
487D
330
4872
100
AcDbEntity
  8
AM_0
100
AcDbVertex
100
AcDb2dVertex
 10
-36.22026765002248
 20
-5.390100383294207
 30
0.0
 42
0.0278025959802376
  0
VERTEX
  5
487E
330
4872
100
AcDbEntity
  8
AM_0
100
AcDbVertex
100
AcDb2dVertex
 10
-34.60627463428862
 20
-5.518889022373434
 30
0.0
 42
0.0182596520050883
 70
     1
  0
VERTEX
  5
487F
330
4872
100
AcDbEntity
  8
AM_0
100
AcDbVertex
100
AcDb2dVertex
 10
-32.14260058570808
 20
-5.635689073299505
 30
0.0
  0
SEQEND
  5
4880
330
4872
100
AcDbEntity
  8
AM_0
  0
LINE
  5
4881
330
1F
100
AcDbEntity
  8
AM_11
100
AcDbLine
 10
-31.99960058570808
 20
-7.000000000000015
 30
0.0
 11
-6.999999999999766
 21
-6.999999999999999
 31
0.0
  0
LINE
  5
4882
330
1F
100
AcDbEntity
  8
AM_0
100
AcDbLine
 10
-38.00234402524537
 20
-5.84150372726024
 30
0.0
 11
-15.5457583931884
 21
-5.052750013263779
 31
0.0
  0
LINE
  5
4883
330
1F
100
AcDbEntity
  8
AM_11
100
AcDbLine
 10
-31.99960058570805
 20
6.999999999999817
 30
0.0
 11
-31.99960058570808
 21
-7.000000000000024
 31
0.0
  0
LINE
  5
4884
330
1F
100
AcDbEntity
  8
AM_0
100
AcDbLine
 10
-37.08146386654396
 20
5.809159200036597
 30
0.0
 11
-8.283044179510751
 21
4.797658126028523
 31
0.0
  0
ELLIPSE
  5
4886
330
1F
100
AcDbEntity
  8
AM_0
100
AcDbEllipse
 10
-0.4242603512798422
 20
0.0656129783688596
 30
0.0
 11
-0.0000000000000152
 21
7.278363086897283
 31
0.0
210
0.0
220
0.0
230
1.0
 40
0.9795818410016225
 41
1.30970802335001
 42
2.207143587037291
  0
SPLINE
  5
488D
330
1F
100
AcDbEntity
  8
AM_0
100
AcDbSpline
210
0.0
220
0.0
230
1.0
 70
     8
 71
     3
 72
     8
 73
     4
 74
     0
 42
0.0000000001
 43
0.0000000001
 40
15.45051549505632
 40
15.45051549505632
 40
15.45051549505632
 40
15.45051549505632
 40
17.52826289168434
 40
17.52826289168434
 40
17.52826289168434
 40
17.52826289168434
 10
-31.99960058570808
 20
1.997053357377325
 30
0.0
 10
-29.37460131360007
 20
0.8297588794888767
 30
0.0
 10
-28.48397805057681
 20
0.4148794397444304
 30
0.0
 10
-27.59335478755354
 20
-0.0000000000000159
 30
0.0
  0
SPLINE
  5
488E
330
1F
100
AcDbEntity
  8
AM_0
100
AcDbSpline
210
0.0
220
0.0
230
1.0
 70
     8
 71
     3
 72
     8
 73
     4
 74
     0
 42
0.0000000001
 43
0.0000000001
 40
13.18693383391154
 40
13.18693383391154
 40
13.18693383391154
 40
13.18693383391154
 40
17.48613721147548
 40
17.48613721147548
 40
17.48613721147548
 40
17.48613721147548
 10
-31.99960058570805
 20
3.075859112236599
 30
0.0
 10
-28.3844261554513
 20
1.669501870795149
 30
0.0
 10
-26.53477225013455
 20
0.8347509353975585
 30
0.0
 10
-24.68511834481899
 20
-0.0000000000000159
 30
0.0
  0
SPLINE
  5
488F
330
1F
100
AcDbEntity
  8
AM_0
100
AcDbSpline
210
0.0
220
0.0
230
1.0
 70
     8
 71
     3
 72
     8
 73
     4
 74
     0
 42
0.0000000001
 43
0.0000000001
 40
1.794922859428793
 40
1.794922859428793
 40
1.794922859428793
 40
1.794922859428793
 40
17.5282628916844
 40
17.5282628916844
 40
17.5282628916844
 40
17.5282628916844
 10
-6.999999999995414
 20
-6.893654271085909
 30
0.0
 10
-14.10521021278527
 20
-6.283188522807824
 30
0.0
 10
-20.84928250016909
 20
-3.141594261403932
 30
0.0
 10
-27.59335478755354
 20
-0.0000000000000159
 30
0.0
  0
SPLINE
  5
4890
330
1F
100
AcDbEntity
  8
AM_0
100
AcDbSpline
210
0.0
220
0.0
230
1.0
 70
     8
 71
     3
 72
     8
 73
     4
 74
     0
 42
0.0000000001
 43
0.0000000001
 40
3.732786119440464
 40
3.732786119440464
 40
3.732786119440464
 40
3.732786119440464
 40
17.48613721147548
 40
17.48613721147548
 40
17.48613721147548
 40
17.48613721147548
 10
-6.704807096109001
 20
-6.359233455332924
 30
0.0
 10
-12.85086100713421
 20
-5.34081395118097
 30
0.0
 10
-18.76798967597659
 20
-2.670406975590662
 30
0.0
 10
-24.68511834481899
 20
-0.0000000000000159
 30
0.0
  0
SPLINE
  5
4891
330
1F
100
AcDbEntity
  8
AM_0
100
AcDbSpline
210
0.0
220
0.0
230
1.0
 70
     8
 71
     3
 72
     8
 73
     4
 74
     0
 42
0.0000000001
 43
0.0000000001
 40
6.513172597598655
 40
6.513172597598655
 40
6.513172597598655
 40
6.513172597598655
 40
17.4246383984571
 40
17.4246383984571
 40
17.4246383984571
 40
17.4246383984571
 10
-6.999999999999766
 20
-5.285496432103846
 30
0.0
 10
-11.8250085874453
 20
-4.053508895839888
 30
0.0
 10
-16.5448390537074
 20
-2.026754447919964
 30
0.0
 10
-21.26466951996949
 20
-0.0000000000000159
 30
0.0
  0
SPLINE
  5
4892
330
1F
100
AcDbEntity
  8
AM_0
100
AcDbSpline
210
0.0
220
0.0
230
1.0
 70
     8
 71
     3
 72
     8
 73
     4
 74
     0
 42
0.0000000001
 43
0.0000000001
 40
1.794922859432252
 40
1.794922859432252
 40
1.794922859432252
 40
1.794922859432252
 40
8.217791785374707
 40
8.217791785374707
 40
8.217791785374707
 40
8.217791785374707
 10
-6.999999999999766
 20
6.893654271085124
 30
0.0
 10
-9.900581427367715
 20
6.644441994674928
 30
0.0
 10
-12.74097770300024
 20
5.973406523011093
 30
0.0
 10
-15.5457583931884
 20
5.052750013263267
 30
0.0
  0
SPLINE
  5
4893
330
1F
100
AcDbEntity
  8
AM_0
100
AcDbSpline
210
0.0
220
0.0
230
1.0
 70
     8
 71
     3
 72
     8
 73
     4
 74
     0
 42
0.0000000001
 43
0.0000000001
 40
0.0
 40
0.0
 40
0.0
 40
0.0
 40
3.020429804461161
 40
3.020429804461161
 40
3.020429804461161
 40
3.020429804461161
 10
-7.312382678495847
 20
1.94439230838879
 30
0.0
 10
-8.179211323164521
 20
2.424625839781072
 30
0.0
 10
-9.268123898919153
 20
4.748568459512725
 30
0.0
 10
-8.283044179510135
 20
4.797658126028523
 30
0.0
  0
SPLINE
  5
4894
330
1F
100
AcDbEntity
  8
AM_0
100
AcDbSpline
210
0.0
220
0.0
230
1.0
 70
     8
 71
     3
 72
     8
 73
     4
 74
     0
 42
0.0000000001
 43
0.0000000001
 40
0.0
 40
0.0
 40
0.0
 40
0.0
 40
2.47158723905282
 40
2.47158723905282
 40
2.47158723905282
 40
2.47158723905282
 10
-6.999999999999766
 20
6.893654271085124
 30
0.0
 10
-6.65967685530989
 20
6.146626243656578
 30
0.0
 10
-7.481810509128984
 20
4.896312156856161
 30
0.0
 10
-8.283044179577483
 20
4.79765812602534
 30
0.0
  0
SPLINE
  5
4895
330
1F
100
AcDbEntity
  8
AM_0
100
AcDbSpline
210
0.0
220
0.0
230
1.0
 70
     8
 71
     3
 72
     8
 73
     4
 74
     0
 42
0.0000000001
 43
0.0000000001
 40
0.7484745895110383
 40
0.7484745895110383
 40
0.7484745895110383
 40
0.7484745895110383
 40
17.4246383984571
 40
17.4246383984571
 40
17.4246383984571
 40
17.4246383984571
 10
-43.81374994593348
 20
6.999999999999818
 30
0.0
 10
-35.69145093363783
 20
6.195041031309208
 30
0.0
 10
-28.47806022680366
 20
3.097520515654521
 30
0.0
 10
-21.26466951996949
 20
-0.0000000000000159
 30
0.0
  0
SPLINE
  5
4896
330
1F
100
AcDbEntity
  8
AM_0
100
AcDbSpline
210
0.0
220
0.0
230
1.0
 70
     8
 71
     3
 72
     8
 73
     4
 74
     0
 42
0.0000000001
 43
0.0000000001
 40
0.0
 40
0.0
 40
0.0
 40
0.0
 40
4.656267981793611
 40
4.656267981793611
 40
4.656267981793611
 40
4.656267981793611
 10
-45.19843085177124
 20
-7.000000000000024
 30
0.0
 10
-42.17587649148731
 20
-6.473092437258338
 30
0.0
 10
-40.07790407993104
 20
-6.241976337823161
 30
0.0
 10
-38.00234402524164
 20
-5.841503727259602
 30
0.0
  0
SPLINE
  5
4897
330
1F
100
AcDbEntity
  8
AM_0
100
AcDbSpline
210
0.0
220
0.0
230
1.0
 70
     8
 71
     3
 72
     9
 73
     5
 74
     0
 42
0.0000000001
 43
0.0000000001
 40
0.0
 40
0.0
 40
0.0
 40
0.0
 40
0.6272184563385361
 40
1.868527334522296
 40
1.868527334522296
 40
1.868527334522296
 40
1.868527334522296
 10
-6.158519088231393
 20
-4.259638837129885
 30
0.0
 10
-6.038353959111778
 20
-4.428941992921357
 30
0.0
 10
-5.52000682934495
 20
-5.034255077891182
 30
0.0
 10
-6.63541406197409
 20
-5.466282005787394
 30
0.0
 10
-6.999999999999766
 20
-5.285496432103846
 30
0.0
  0
DIMENSION
  5
4912
330
1F
100
AcDbEntity
  8
AM_5
100
AcDbDimension
  2
*D9
 10
-74.99992711298887
 20
-37.09365527108573
 30
0.0
 11
-37.49996355649443
 21
-33.99365527108573
 31
0.0
 70
    32
  1
<>
  3
AM_JIS
100
AcDbAlignedDimension
 13
-0.0000000000000016
 23
0.0000000000000394
 33
0.0
 14
-74.99992711298887
 24
-7.000000000000056
 34
0.0
 50
0.0000000000001132
100
AcDbRotatedDimension
1001
GENIUS_GENDTOL_13
1000

1000
h7
1000

1040
0.0
  0
ARC
  5
4A5F
330
1F
100
AcDbEntity
  8
AM_0
100
AcDbCircle
 10
-7.0
 20
-0.1063457289137724
 30
0.0
 40
7.0
100
AcDbArc
 50
0.8704851212057906
 51
90.0
  0
ARC
  5
4A60
330
1F
100
AcDbEntity
  8
AM_11
100
AcDbCircle
 10
-7.0
 20
0.0000000000009528
 30
0.0
 40
7.0
100
AcDbArc
 50
270.0
 51
90.0
  0
ARC
  5
4A61
330
1F
100
AcDbEntity
  8
AM_0
100
AcDbCircle
 10
-7.000000000000632
 20
0.1063457289083522
 30
0.0
 40
7.0
100
AcDbArc
 50
270.0000000000781
 51
359.1295148788724
  0
DIMENSION
  5
4B07
330
1F
100
AcDbEntity
  8
AM_5
100
AcDbDimension
  2
*D10
 10
-7.000000000000632
 20
0.1063457289083525
 30
0.0
 11
3.414886848629742
 21
-13.3872445912856
 31
0.0
 70
   164
  1
<>
  3
AM_JIS$4
100
AcDbRadialDimension
 15
-2.722948181672108
 25
-5.435028445728536
 35
0.0
 40
0.0
1001
GENIUS_GENDTOL_13
1000

1000
h7
1000

1040
0.0
1001
ACAD
1000
DSTYLE
1002
{
1070
   287
1070
     3
1070
   271
1070
     3
1070
   288
1070
     1
1070
   289
1070
     3
1070
   172
1070
     1
1070
    74
1070
     0
1002
}
  0
LINE
  5
4C50
330
1F
100
AcDbEntity
  8
AM_0
100
AcDbLine
 10
-0.0000000000016547
 20
0.0000000000009557
 30
0.0
 11
-8.287560776412817
 21
4.797658126029489
 31
0.0
  0
LINE
  5
4C51
330
1F
100
AcDbEntity
  8
AM_0
100
AcDbLine
 10
-0.9800000000020352
 20
-0.2466865523561417
 30
0.0
 11
-7.318893904952637
 21
1.944392308389762
 31
0.0
  0
LINE
  5
4C52
330
1F
100
AcDbEntity
  8
AM_0
100
AcDbLine
 10
-0.0000000000016547
 20
0.0000000000009557
 30
0.0
 11
-0.3220000000016787
 21
-0.2466865523561417
 31
0.0
  0
LINE
  5
4C53
330
1F
100
AcDbEntity
  8
AM_0
100
AcDbLine
 10
-0.3220000000016787
 20
-0.2466865523561417
 30
0.0
 11
-0.9800000000020352
 21
-0.2466865523561417
 31
0.0
  0
ARC
  5
4C54
330
1F
100
AcDbEntity
  8
AM_0
100
AcDbCircle
 10
-7.190697513912509
 20
0.5369218641070068
 30
0.0
 40
6.913251600220617
100
AcDbArc
 50
274.0302947628183
 51
353.4916074600507
  0
ARC
  5
4C55
330
1F
100
AcDbEntity
  8
AM_0
100
AcDbCircle
 10
-6.774691768472741
 20
1.880559694736895
 30
0.0
 40
6.17281372530848
100
AcDbArc
 50
275.8924707062755
 51
339.8416840647174
  0
VIEWPORT
  5
110
330
101
100
AcDbEntity
 67
     1
  8
0
100
AcDbViewport
 10
420.5
 20
297.0
 30
0.0
 40
948.9782706766916
 41
628.452
 68
     1
 69
     1
1001
ACAD
1000
MVIEW
1002
{
1070
    16
1010
0.0
1020
0.0
1030
0.0
1010
0.0
1020
0.0
1030
1.0
1040
0.0
1040
628.452
1040
420.5
1040
297.0
1040
50.0
1040
0.0
1040
0.0
1070
     0
1070
   100
1070
     1
1070
     1
1070
     0
1070
     0
1070
     0
1070
     0
1040
0.0
1040
0.0
1040
0.0
1040
10.0
1040
10.0
1040
10.0
1040
10.0
1070
     0
1002
{
1002
}
1002
}
  0
ENDSEC
  0
SECTION
  2
OBJECTS
  0
DICTIONARY
  5
C
330
0
100
AcDbDictionary
  3
ACAD_GROUP
350
D
  3
ACAD_LAYOUT
350
1A
  3
ACAD_MLINESTYLE
350
17
  3
ACAD_PLOTSETTINGS
350
19
  3
ACAD_PLOTSTYLENAME
350
E
  3
ACDBVARIABLEDICTIONARY
350
34
  3
ACMDICTIONARY
350
43
  3
AMG
350
2B
  3
AMGSNAPSETTINGS
350
6E
  3
ASE_INDEX_DICTIONARY
350
151A
  3
DWGPROPS
350
4D4C
  3
ACDBHEADERROUNDTRIPXREC
350
4D58
  0
DICTIONARY
  5
74
330
1F
100
AcDbDictionary
280
     1
  3
ACAD_INDEX
360
4D4E
  3
ACAD_LAYOUTSELFREF
360
4D7B
  0
DICTIONARY
  5
4D80
330
101
100
AcDbDictionary
280
     1
  3
ACAD_LAYOUTSELFREF
360
4D81
  0
DICTIONARY
  5
D
102
{ACAD_REACTORS
330
C
102
}
330
C
100
AcDbDictionary
  0
DICTIONARY
  5
1A
102
{ACAD_REACTORS
330
C
102
}
330
C
100
AcDbDictionary
  0
DICTIONARY
  5
17
102
{ACAD_REACTORS
330
C
102
}
330
C
100
AcDbDictionary
  3
STANDARD
350
18
  0
DICTIONARY
  5
19
102
{ACAD_REACTORS
330
C
102
}
330
C
100
AcDbDictionary
  0
ACDBDICTIONARYWDFLT
  5
E
102
{ACAD_REACTORS
330
C
102
}
330
C
100
AcDbDictionary
281
     1
  3
Normal
350
F
100
AcDbDictionaryWithDefault
340
F
  0
DICTIONARY
  5
34
102
{ACAD_REACTORS
330
C
102
}
330
C
100
AcDbDictionary
  3
INDEXCTL
350
35
  3
SORTENTS
350
B5E
  0
DICTIONARY
  5
43
102
{ACAD_REACTORS
330
C
102
}
330
C
100
AcDbDictionary
  3
ACMSTDDICTIONARY
350
260
  0
DICTIONARY
  5
2B
102
{ACAD_REACTORS
330
C
102
}
330
C
100
AcDbDictionary
  3
ACMGSETTINGS
350
2C
  0
DICTIONARY
  5
6E
102
{ACAD_REACTORS
330
C
102
}
330
C
100
AcDbDictionary
  0
DICTIONARY
  5
151A
102
{ACAD_REACTORS
330
C
102
}
330
C
100
AcDbDictionary
  3
ASEBLOCKHIERARCHYINDEXRECORD
350
151C
1001
DCO15
1040
1471862535.906
  0
XRECORD
  5
4D4C
102
{ACAD_REACTORS
330
C
102
}
330
C
100
AcDbXrecord
  1
DWGPROPS COOKIE
  2

  3

  4

  6

  7

  8

  9

300
AmdtFileType=82
301
=
302
=
303
=
304
=
305
=
306
=
307
=
308
=
309
=
 40
0.1653794560185185
 41
2452838.430434386
 42
2452901.587111539
  1

 90
        1
  0
DICTIONARY
  5
4D58
102
{ACAD_REACTORS
330
C
102
}
330
C
100
AcDbDictionary
  3
TSTACKALIGN
350
4D59
  3
TSTACKSIZE
350
4D5A
  3
HYPERLINKBASE
350
4D5B
  3
STYLESHEET
350
4D5C
  3
LAYOUTDICT
350
4D5D
  3
PLOTSETDICT
350
4D5E
  3
PLOTSTYLNAMDICT
350
4D5F
  3
LWETCUNION
350
4D60
  3
INSUNITS
350
4D61
  3
CEPSNTYPE
350
4D62
  3
FINGERPRINTGUID
350
4D63
  3
VERSIONGUID
350
4D64
  3
PSVPSCALE
350
4D65
  3
DIMSTYLEDATA
350
4D66
  3
PUCSORTHOREF
350
4D67
  3
PUCSORTHOVIEW
350
4D68
  3
PUCSBASE
350
4D69
  3
PUCSORGTOP
350
4D6A
  3
PUCSORGBOTTOM
350
4D6B
  3
PUCSORGLEFT
350
4D6C
  3
PUCSORGRIGHT
350
4D6D
  3
PUCSORGFRONT
350
4D6E
  3
PUCSORGBACK
350
4D6F
  3
UCSORTHOREF
350
4D70
  3
UCSORTHOVIEW
350
4D71
  3
UCSBASE
350
4D72
  3
UCSORGTOP
350
4D73
  3
UCSORGBOTTOM
350
4D74
  3
UCSORGLEFT
350
4D75
  3
UCSORGRIGHT
350
4D76
  3
UCSORGFRONT
350
4D77
  3
UCSORGBACK
350
4D78
  0
DICTIONARY
  5
4D4E
102
{ACAD_REACTORS
330
74
102
}
330
74
100
AcDbDictionary
  3
*A1
350
4D4F
  0
XRECORD
  5
4D7B
102
{ACAD_REACTORS
330
74
102
}
330
74
100
AcDbXrecord
340
1F
  0
XRECORD
  5
4D81
102
{ACAD_REACTORS
330
4D80
102
}
330
4D80
100
AcDbXrecord
340
101
  0
MLINESTYLE
  5
18
102
{ACAD_REACTORS
330
17
102
}
330
17
100
AcDbMlineStyle
  2
STANDARD
 70
     0
  3

 62
   256
 51
90.0
 52
90.0
 71
     2
 49
0.5
 62
   256
  6
BYLAYER
 49
-0.5
 62
   256
  6
BYLAYER
  0
ACDBPLACEHOLDER
  5
F
102
{ACAD_REACTORS
330
E
102
}
330
E
100
AcDbPlaceHolder
280
     0
  0
DICTIONARYVAR
  5
35
102
{ACAD_REACTORS
330
34
102
}
330
34
100
DictionaryVariables
280
     0
  1
1
  0
DICTIONARYVAR
  5
B5E
102
{ACAD_REACTORS
330
34
102
}
330
34
100
DictionaryVariables
280
     0
  1
96
  0
DICTIONARY
  5
260
102
{ACAD_REACTORS
330
43
102
}
330
43
100
AcDbDictionary
  0
DICTIONARY
  5
2C
102
{ACAD_REACTORS
330
2B
102
}
330
2B
100
AcDbDictionary
  3
DWGSETTINGS
350
2D
  0
XRECORD
  5
151C
102
{ACAD_REACTORS
330
151A
102
}
330
151A
100
AcDbXrecord
330
0
330
0
330
0
330
0
330
0
330
0
330
0
330
0
  0
XRECORD
  5
4D59
102
{ACAD_REACTORS
330
4D58
102
}
330
4D58
100
AcDbXrecord
 90
        1
  0
XRECORD
  5
4D5A
102
{ACAD_REACTORS
330
4D58
102
}
330
4D58
100
AcDbXrecord
 90
       70
  0
XRECORD
  5
4D5B
102
{ACAD_REACTORS
330
4D58
102
}
330
4D58
100
AcDbXrecord
  1

  0
XRECORD
  5
4D5C
102
{ACAD_REACTORS
330
4D58
102
}
330
4D58
100
AcDbXrecord
  1
ASAMI.ctb
  0
XRECORD
  5
4D5D
102
{ACAD_REACTORS
330
4D58
102
}
330
4D58
100
AcDbXrecord
340
1A
  0
XRECORD
  5
4D5E
102
{ACAD_REACTORS
330
4D58
102
}
330
4D58
100
AcDbXrecord
340
19
  0
XRECORD
  5
4D5F
102
{ACAD_REACTORS
330
4D58
102
}
330
4D58
100
AcDbXrecord
340
E
  0
XRECORD
  5
4D60
102
{ACAD_REACTORS
330
4D58
102
}
330
4D58
100
AcDbXrecord
 90
    10781
  0
XRECORD
  5
4D61
102
{ACAD_REACTORS
330
4D58
102
}
330
4D58
100
AcDbXrecord
 90
        4
  0
XRECORD
  5
4D62
102
{ACAD_REACTORS
330
4D58
102
}
330
4D58
100
AcDbXrecord
 90
        0
  0
XRECORD
  5
4D63
102
{ACAD_REACTORS
330
4D58
102
}
330
4D58
100
AcDbXrecord
  1
{AFB28963-8C59-40AE-9337-C84526B81ACE}
  0
XRECORD
  5
4D64
102
{ACAD_REACTORS
330
4D58
102
}
330
4D58
100
AcDbXrecord
  1
{E5DD6B81-D0B6-4DAD-9CA4-882D1B72CE19}
  0
XRECORD
  5
4D65
102
{ACAD_REACTORS
330
4D58
102
}
330
4D58
100
AcDbXrecord
 40
0.0
  0
XRECORD
  5
4D66
102
{ACAD_REACTORS
330
4D58
102
}
330
4D58
100
AcDbXrecord
1000
DSTYLE
1002
{
1070
    79
 70
     2
1070
   341
340
59
1070
   342
340
59
1070
   371
 70
    -1
1070
   372
 70
    -1
1002
}
  0
XRECORD
  5
4D67
102
{ACAD_REACTORS
330
4D58
102
}
330
4D58
100
AcDbXrecord
340
0
  0
XRECORD
  5
4D68
102
{ACAD_REACTORS
330
4D58
102
}
330
4D58
100
AcDbXrecord
 70
     0
  0
XRECORD
  5
4D69
102
{ACAD_REACTORS
330
4D58
102
}
330
4D58
100
AcDbXrecord
340
0
  0
XRECORD
  5
4D6A
102
{ACAD_REACTORS
330
4D58
102
}
330
4D58
100
AcDbXrecord
 10
0.0
 20
0.0
 30
0.0
  0
XRECORD
  5
4D6B
102
{ACAD_REACTORS
330
4D58
102
}
330
4D58
100
AcDbXrecord
 10
0.0
 20
0.0
 30
0.0
  0
XRECORD
  5
4D6C
102
{ACAD_REACTORS
330
4D58
102
}
330
4D58
100
AcDbXrecord
 10
0.0
 20
0.0
 30
0.0
  0
XRECORD
  5
4D6D
102
{ACAD_REACTORS
330
4D58
102
}
330
4D58
100
AcDbXrecord
 10
0.0
 20
0.0
 30
0.0
  0
XRECORD
  5
4D6E
102
{ACAD_REACTORS
330
4D58
102
}
330
4D58
100
AcDbXrecord
 10
0.0
 20
0.0
 30
0.0
  0
XRECORD
  5
4D6F
102
{ACAD_REACTORS
330
4D58
102
}
330
4D58
100
AcDbXrecord
 10
0.0
 20
0.0
 30
0.0
  0
XRECORD
  5
4D70
102
{ACAD_REACTORS
330
4D58
102
}
330
4D58
100
AcDbXrecord
340
0
  0
XRECORD
  5
4D71
102
{ACAD_REACTORS
330
4D58
102
}
330
4D58
100
AcDbXrecord
 70
     0
  0
XRECORD
  5
4D72
102
{ACAD_REACTORS
330
4D58
102
}
330
4D58
100
AcDbXrecord
340
0
  0
XRECORD
  5
4D73
102
{ACAD_REACTORS
330
4D58
102
}
330
4D58
100
AcDbXrecord
 10
0.0
 20
0.0
 30
0.0
  0
XRECORD
  5
4D74
102
{ACAD_REACTORS
330
4D58
102
}
330
4D58
100
AcDbXrecord
 10
0.0
 20
0.0
 30
0.0
  0
XRECORD
  5
4D75
102
{ACAD_REACTORS
330
4D58
102
}
330
4D58
100
AcDbXrecord
 10
0.0
 20
0.0
 30
0.0
  0
XRECORD
  5
4D76
102
{ACAD_REACTORS
330
4D58
102
}
330
4D58
100
AcDbXrecord
 10
0.0
 20
0.0
 30
0.0
  0
XRECORD
  5
4D77
102
{ACAD_REACTORS
330
4D58
102
}
330
4D58
100
AcDbXrecord
 10
0.0
 20
0.0
 30
0.0
  0
XRECORD
  5
4D78
102
{ACAD_REACTORS
330
4D58
102
}
330
4D58
100
AcDbXrecord
 10
0.0
 20
0.0
 30
0.0
  0
LAYER_INDEX
  5
4D4F
102
{ACAD_REACTORS
330
4D4E
102
}
330
4D4E
100
AcDbIndex
 40
2453152.435570648
100
AcDbLayerIndex
  8
0
360
4D50
 90
        0
  8
AM_0
360
4D51
 90
       40
  8
AM_11
360
4D52
 90
        4
  8
AM_7
360
4D53
 90
        1
  8
AM_5
360
4D54
 90
        6
  8
Defpoints
360
4D55
 90
        0
  8
AM_6
360
4D56
 90
        1
  0
XRECORD
  5
2D
102
{ACAD_REACTORS
330
2C
102
}
330
2C
100
AcDbXrecord
  1
VERSION
140
15.0
  1
PRODUCT
  2
AutoCAD Mechanical 2000
  0
IDBUFFER
  5
4D50
330
0
100
AcDbIdBuffer
  0
IDBUFFER
  5
4D51
330
0
100
AcDbIdBuffer
330
4871
330
4872
330
4882
330
4884
330
4886
330
488D
330
488E
330
488F
330
4890
330
4891
330
4892
330
4893
330
4894
330
4895
330
4896
330
4897
330
4A5F
330
4A61
330
4C50
330
4C51
330
4C52
330
4C53
330
4C54
330
4C55
330
4587
330
458A
330
458B
330
4599
330
45A5
330
45A8
330
45CC
330
4698
330
4699
330
469A
330
469B
330
469C
330
486B
330
486C
330
486F
330
4870
  0
IDBUFFER
  5
4D52
330
0
100
AcDbIdBuffer
330
486E
330
4881
330
4883
330
4A60
  0
IDBUFFER
  5
4D53
330
0
100
AcDbIdBuffer
330
3EE8
  0
IDBUFFER
  5
4D54
330
0
100
AcDbIdBuffer
330
4047
330
412A
330
42F4
330
458C
330
4912
330
4B07
  0
IDBUFFER
  5
4D55
330
0
100
AcDbIdBuffer
  0
IDBUFFER
  5
4D56
330
0
100
AcDbIdBuffer
330
1500
  0
ENDSEC
  0
EOF
