  0
SECTION
  2
HEADER
  9
$ACADVER
  1
AC1014
  9
$ACADMAINTVER
 70
     9
  9
$DWGCODEPAGE
  3
ANSI_932
  9
$INSBASE
 10
0.0
 20
0.0
 30
0.0
  9
$EXTMIN
 10
-180.7563233801961
 20
-64.3480785301223
 30
-0.00000001
  9
$EXTMAX
 10
15.98449969032811
 20
11.53601640118509
 30
0.00000001
  9
$LIMMIN
 10
-186.6021257851848
 20
-80.2569440540658
  9
$LIMMAX
 10
25.59089606177565
 20
34.98828461797626
  9
$ORTHOMODE
 70
     0
  9
$REGENMODE
 70
     1
  9
$FILLMODE
 70
     1
  9
$QTEXTMODE
 70
     0
  9
$MIRRTEXT
 70
     0
  9
$DRAGMODE
 70
     2
  9
$LTSCALE
 40
1.0
  9
$OSMODE
 70
    55
  9
$ATTMODE
 70
     1
  9
$TEXTSIZE
 40
2.5
  9
$TRACEWID
 40
1.0
  9
$TEXTSTYLE
  7
STANDARD
  9
$CLAYER
  8
AM_0
  9
$CELTYPE
  6
BYLAYER
  9
$CECOLOR
 62
   256
  9
$CELTSCALE
 40
1.0
  9
$DELOBJ
 70
     1
  9
$DISPSILH
 70
     0
  9
$DIMSCALE
 40
1.0
  9
$DIMASZ
 40
2.5
  9
$DIMEXO
 40
1.0
  9
$DIMDLI
 40
12.0
  9
$DIMRND
 40
0.0
  9
$DIMDLE
 40
0.0
  9
$DIMEXE
 40
1.0
  9
$DIMTP
 40
0.1
  9
$DIMTM
 40
0.1
  9
$DIMTXT
 40
3.2
  9
$DIMCEN
 40
0.0
  9
$DIMTSZ
 40
0.0
  9
$DIMTOL
 70
     0
  9
$DIMLIM
 70
     0
  9
$DIMTIH
 70
     0
  9
$DIMTOH
 70
     0
  9
$DIMSE1
 70
     0
  9
$DIMSE2
 70
     0
  9
$DIMTAD
 70
     3
  9
$DIMZIN
 70
     8
  9
$DIMBLK
  1
OPEN30
  9
$DIMASO
 70
     1
  9
$DIMSHO
 70
     1
  9
$DIMPOST
  1

  9
$DIMAPOST
  1
"
  9
$DIMALT
 70
     0
  9
$DIMALTD
 70
     2
  9
$DIMALTF
 40
0.0393701
  9
$DIMLFAC
 40
1.0
  9
$DIMTOFL
 70
     1
  9
$DIMTVP
 40
0.0
  9
$DIMTIX
 70
     0
  9
$DIMSOXD
 70
     0
  9
$DIMSAH
 70
     0
  9
$DIMBLK1
  1

  9
$DIMBLK2
  1

  9
$DIMSTYLE
  2
AM_JIS
  9
$DIMCLRD
 70
   256
  9
$DIMCLRE
 70
   256
  9
$DIMCLRT
 70
     2
  9
$DIMTFAC
 40
0.71
  9
$DIMGAP
 40
1.5
  9
$DIMJUST
 70
     0
  9
$DIMSD1
 70
     0
  9
$DIMSD2
 70
     0
  9
$DIMTOLJ
 70
     0
  9
$DIMTZIN
 70
     0
  9
$DIMALTZ
 70
     0
  9
$DIMALTTZ
 70
     0
  9
$DIMFIT
 70
     3
  9
$DIMUPT
 70
     0
  9
$DIMUNIT
 70
     2
  9
$DIMDEC
 70
     3
  9
$DIMTDEC
 70
     3
  9
$DIMALTU
 70
     2
  9
$DIMALTTD
 70
     2
  9
$DIMTXSTY
  7
ASAMI
  9
$DIMAUNIT
 70
     0
  9
$LUNITS
 70
     2
  9
$LUPREC
 70
     2
  9
$SKETCHINC
 40
1.0
  9
$FILLETRAD
 40
2.5
  9
$AUNITS
 70
     0
  9
$AUPREC
 70
     0
  9
$MENU
  1
.
  9
$ELEVATION
 40
0.0
  9
$PELEVATION
 40
0.0
  9
$THICKNESS
 40
0.0
  9
$LIMCHECK
 70
     0
  9
$BLIPMODE
 70
     0
  9
$CHAMFERA
 40
1.25
  9
$CHAMFERB
 40
1.25
  9
$CHAMFERC
 40
20.0
  9
$CHAMFERD
 40
0.0
  9
$SKPOLY
 70
     0
  9
$TDCREATE
 40
2452838.430434386
  9
$TDUPDATE
 40
2453152.436017882
  9
$TDINDWG
 40
0.1662581481
  9
$TDUSRTIMER
 40
0.1662581481
  9
$USRTIMER
 70
     1
  9
$ANGBASE
 50
0.0
  9
$ANGDIR
 70
     0
  9
$PDMODE
 70
     0
  9
$PDSIZE
 40
0.0
  9
$PLINEWID
 40
0.0
  9
$COORDS
 70
     1
  9
$SPLFRAME
 70
     0
  9
$SPLINETYPE
 70
     6
  9
$SPLINESEGS
 70
     8
  9
$ATTDIA
 70
     1
  9
$ATTREQ
 70
     1
  9
$HANDLING
 70
 12289
  9
$HANDSEED
  5
4F19
  9
$SURFTAB1
 70
     6
  9
$SURFTAB2
 70
     6
  9
$SURFTYPE
 70
     6
  9
$SURFU
 70
     6
  9
$SURFV
 70
     6
  9
$UCSNAME
  2

  9
$UCSORG
 10
0.0
 20
0.0
 30
0.0
  9
$UCSXDIR
 10
1.0
 20
0.0
 30
0.0
  9
$UCSYDIR
 10
0.0
 20
1.0
 30
0.0
  9
$PUCSNAME
  2

  9
$PUCSORG
 10
0.0
 20
0.0
 30
0.0
  9
$PUCSXDIR
 10
1.0
 20
0.0
 30
0.0
  9
$PUCSYDIR
 10
0.0
 20
1.0
 30
0.0
  9
$USERI1
 70
     0
  9
$USERI2
 70
     0
  9
$USERI3
 70
     0
  9
$USERI4
 70
     0
  9
$USERI5
 70
     0
  9
$USERR1
 40
0.0
  9
$USERR2
 40
0.0
  9
$USERR3
 40
0.0
  9
$USERR4
 40
0.0
  9
$USERR5
 40
0.0
  9
$WORLDVIEW
 70
     1
  9
$SHADEDGE
 70
     3
  9
$SHADEDIF
 70
    70
  9
$TILEMODE
 70
     1
  9
$MAXACTVP
 70
    64
  9
$PINSBASE
 10
0.0
 20
0.0
 30
0.0
  9
$PLIMCHECK
 70
     0
  9
$PEXTMIN
 10
1.000000000000000E+20
 20
1.000000000000000E+20
 30
1.000000000000000E+20
  9
$PEXTMAX
 10
-1.000000000000000E+20
 20
-1.000000000000000E+20
 30
-1.000000000000000E+20
  9
$PLIMMIN
 10
0.0
 20
0.0
  9
$PLIMMAX
 10
841.0
 20
594.0
  9
$UNITMODE
 70
     0
  9
$VISRETAIN
 70
     1
  9
$PLINEGEN
 70
     0
  9
$PSLTSCALE
 70
     0
  9
$TREEDEPTH
 70
  3020
  9
$PICKSTYLE
 70
     0
  9
$CMLSTYLE
  2
STANDARD
  9
$CMLJUST
 70
     0
  9
$CMLSCALE
 40
20.0
  9
$PROXYGRAPHICS
 70
     1
  9
$MEASUREMENT
 70
     1
  0
ENDSEC
  0
SECTION
  2
CLASSES
  0
CLASS
  1
ACDBDICTIONARYWDFLT
  2
AcDbDictionaryWithDefault
  3
AutoCAD 2000
 90
        0
280
     0
281
     0
  0
CLASS
  1
ACDBPLACEHOLDER
  2
AcDbPlaceHolder
  3
AutoCAD 2000
 90
        0
280
     0
281
     0
  0
CLASS
  1
LAYOUT
  2
AcDbLayout
  3
AutoCAD 2000
 90
        0
280
     0
281
     0
  0
CLASS
  1
AMGSETTINGSOBJ
  2
AmgSettingsObj
  3
"AcadM|Product Description: AutoCAD Mechanical 2000|Company: Autodesk"
 90
        0
280
     0
281
     0
  0
CLASS
  1
ACME_DOCUMENT
  2
AcMeDbDoc
  3
AcMeServices
 90
        0
280
     0
281
     0
  0
CLASS
  1
ACMESCOPE
  2
AcMeScope
  3
AcMeServices
 90
        0
280
     0
281
     0
  0
CLASS
  1
ACMECOMMANDHISTORY
  2
AcMeCommandHistory
  3
AcMeServices
 90
        0
280
     0
281
     0
  0
CLASS
  1
DICTIONARYVAR
  2
AcDbDictionaryVar
  3
AutoCAD 2000
 90
        0
280
     0
281
     0
  0
CLASS
  1
ACIMSYSVARMAN
  2
AcImSysVarManager
  3
AcMeServices
 90
        0
280
     0
281
     0
  0
CLASS
  1
ACIMREALSYSVAR
  2
AcImRealSysVar
  3
AcMeServices
 90
        0
280
     0
281
     0
  0
CLASS
  1
ACIMINTSYSVAR
  2
AcImIntSysVar
  3
AcMeServices
 90
        0
280
     0
281
     0
  0
CLASS
  1
ACMEDRAWINGMAN
  2
AcMeDrawingMan
  3
AcMeServices
 90
        0
280
     0
281
     0
  0
CLASS
  1
ACMEVIEW
  2
AcMeView
  3
AcMeServices
 90
        0
280
     0
281
     0
  0
CLASS
  1
ACDBENTITYCACHE
  2
AcMeEntityCache
  3
AcMeServices
 90
        0
280
     0
281
     0
  0
CLASS
  1
GSMANAGER
  2
AcMeGSManager
  3
AcMeServices
 90
        0
280
     0
281
     0
  0
CLASS
  1
AmdtInternalReactor
  2
AmdtInternalReactor
  3
AcMeServices
 90
        0
280
     0
281
     0
  0
CLASS
  1
ACMESTATEMGR
  2
AcMeStateMgr
  3
AcMeServices
 90
        0
280
     0
281
     0
  0
CLASS
  1
ACME_DATABASE
  2
AcMeDbDatabase
  3
AcMeServices
 90
        0
280
     0
281
     0
  0
CLASS
  1
ACRFINSADJUSTERMGR
  2
AcRfInsAdjusterMgr
  3
AcMeServices
 90
        0
280
     0
281
     0
  0
CLASS
  1
ACMDATADICTIONARY
  2
AcmDataDictionary
  3
"AcmSymBB|Product Description: AutoCAD Mechanical 2000|Company: Autodesk"
 90
        0
280
     0
281
     0
  0
CLASS
  1
ACMDATAENTRYBLOCK
  2
AcmDataEntryBlock
  3
"AcmSymBB|Product Description: AutoCAD Mechanical 2000|Company: Autodesk"
 90
        0
280
     0
281
     0
  0
CLASS
  1
AMGOBJPROPCFG
  2
AmgObjPropCfg
  3
"AmgLay|Product Description: AutoCAD Mechanical 2000|Company: Autodesk"
 90
        1
280
     0
281
     0
  0
CLASS
  1
ACAMGFILTERDAT
  2
AcAmgFilterDat
  3
"AcadM|Product Description: AutoCAD Mechanical 2000|Company: Autodesk"
 90
        0
280
     0
281
     0
  0
CLASS
  1
LAYER_INDEX
  2
AcDbLayerIndex
  3
AutoCAD 2000
 90
        0
280
     0
281
     0
  0
CLASS
  1
IDBUFFER
  2
AcDbIdBuffer
  3
AutoCAD 2000
 90
        0
280
     0
281
     0
  0
CLASS
  1
ACIMSTRSYSVAR
  2
AcImStrSysVar
  3
AcMeServices
 90
        0
280
     0
281
     0
  0
CLASS
  1
ACMSTANDARDJIS
  2
AcmStandardJIS
  3
"AcmSymBB|Product Description: AutoCAD Mechanical 2000|Company: Autodesk"
 90
        0
280
     0
281
     0
  0
CLASS
  1
ACMSURFSTANDARDJIS
  2
AcmSurfTextStdJIS
  3
"AcmSymBB|Product Description: AutoCAD Mechanical 2000|Company: Autodesk"
 90
        0
280
     0
281
     0
  0
CLASS
  1
ACMFCFSTANDARDJIS
  2
AcmFCFStdJIS
  3
"AcmSymBB|Product Description: AutoCAD Mechanical 2000|Company: Autodesk"
 90
        0
280
     0
281
     0
  0
CLASS
  1
ACMWELDSTANDARDJIS
  2
AcmWeldingStdJIS
  3
"AcmSymBB|Product Description: AutoCAD Mechanical 2000|Company: Autodesk"
 90
        0
280
     0
281
     0
  0
CLASS
  1
ACMIDSTANDARDJIS
  2
AcmIdStdJIS
  3
"AcmSymBB|Product Description: AutoCAD Mechanical 2000|Company: Autodesk"
 90
        0
280
     0
281
     0
  0
CLASS
  1
ACMDATUMSTANDARDJIS
  2
AcmDatumStdJIS
  3
"AcmSymBB|Product Description: AutoCAD Mechanical 2000|Company: Autodesk"
 90
        0
280
     0
281
     0
  0
CLASS
  1
ACMBOMSTANDARDJIS
  2
AcmBOMStdJIS
  3
"AcmSymBB|Product Description: AutoCAD Mechanical 2000|Company: Autodesk"
 90
        0
280
     0
281
     0
  0
CLASS
  1
ACMSTANDARDANSI
  2
AcmStandardANSI
  3
"AcmSymBB|Product Description: AutoCAD Mechanical 2000|Company: Autodesk"
 90
        0
280
     0
281
     0
  0
CLASS
  1
ACMSURFSTANDARDANSI
  2
AcmSurfTextStdANSI
  3
"AcmSymBB|Product Description: AutoCAD Mechanical 2000|Company: Autodesk"
 90
        0
280
     0
281
     0
  0
CLASS
  1
ACMFCFSTANDARDANSI
  2
AcmFCFStdANSI
  3
"AcmSymBB|Product Description: AutoCAD Mechanical 2000|Company: Autodesk"
 90
        0
280
     0
281
     0
  0
CLASS
  1
ACMWELDSTANDARDANSI
  2
AcmWeldingStdANSI
  3
"AcmSymBB|Product Description: AutoCAD Mechanical 2000|Company: Autodesk"
 90
        0
280
     0
281
     0
  0
CLASS
  1
ACMIDSTANDARDANSI
  2
AcmIdStdANSI
  3
"AcmSymBB|Product Description: AutoCAD Mechanical 2000|Company: Autodesk"
 90
        0
280
     0
281
     0
  0
CLASS
  1
ACMDATUMSTANDARDANSI
  2
AcmDatumStdANSI
  3
"AcmSymBB|Product Description: AutoCAD Mechanical 2000|Company: Autodesk"
 90
        0
280
     0
281
     0
  0
CLASS
  1
ACMBOMSTANDARDANSI
  2
AcmBOMStdANSI
  3
"AcmSymBB|Product Description: AutoCAD Mechanical 2000|Company: Autodesk"
 90
        0
280
     0
281
     0
  0
CLASS
  1
ACMSTANDARDBSI
  2
AcmStandardBSI
  3
"AcmSymBB|Product Description: AutoCAD Mechanical 2000|Company: Autodesk"
 90
        0
280
     0
281
     0
  0
CLASS
  1
ACMSURFSTANDARDBSI
  2
AcmSurfTextStdBSI
  3
"AcmSymBB|Product Description: AutoCAD Mechanical 2000|Company: Autodesk"
 90
        0
280
     0
281
     0
  0
CLASS
  1
ACMFCFSTANDARDBSI
  2
AcmFCFStdBSI
  3
"AcmSymBB|Product Description: AutoCAD Mechanical 2000|Company: Autodesk"
 90
        0
280
     0
281
     0
  0
CLASS
  1
ACMWELDSTANDARDBSI
  2
AcmWeldingStdBSI
  3
"AcmSymBB|Product Description: AutoCAD Mechanical 2000|Company: Autodesk"
 90
        0
280
     0
281
     0
  0
CLASS
  1
ACMIDSTANDARDBSI
  2
AcmIdStdBSI
  3
"AcmSymBB|Product Description: AutoCAD Mechanical 2000|Company: Autodesk"
 90
        0
280
     0
281
     0
  0
CLASS
  1
ACMDATUMSTANDARDBSI
  2
AcmDatumStdBSI
  3
"AcmSymBB|Product Description: AutoCAD Mechanical 2000|Company: Autodesk"
 90
        0
280
     0
281
     0
  0
CLASS
  1
ACMBOMSTANDARDBSI
  2
AcmBOMStdBSI
  3
"AcmSymBB|Product Description: AutoCAD Mechanical 2000|Company: Autodesk"
 90
        0
280
     0
281
     0
  0
CLASS
  1
LONG_TRANSACTION
  2
AcDbLongTransaction
  3
AutoCAD 2000
 90
        0
280
     0
281
     0
  0
CLASS
  1
LWPOLYLINE
  2
AcDbPolyline
  3
AutoCAD 2000
 90
        0
280
     0
281
     1
  0
CLASS
  1
HATCH
  2
AcDbHatch
  3
AutoCAD 2000
 90
        0
280
     0
281
     1
  0
CLASS
  1
XRECORD
  2
AcDbXrecord
  3
AutoCAD 2000
 90
        0
280
     0
281
     0
  0
ENDSEC
  0
SECTION
  2
TABLES
  0
TABLE
  2
VPORT
  5
8
330
0
100
AcDbSymbolTable
 70
     3
  0
VPORT
  5
4EE8
330
8
100
AcDbSymbolTableRecord
100
AcDbViewportTableRecord
  2
*ACTIVE
 70
     0
 10
0.0
 20
0.0
 11
1.0
 21
1.0
 12
-82.38354333516079
 22
-26.22607108541004
 13
0.0
 23
0.0
 14
2.5
 24
2.5
 15
10.0
 25
10.0
 16
0.0
 26
0.0
 36
1.0
 17
0.0
 27
0.0
 37
0.0
 40
126.1937396373328
 41
1.56570841889117
 42
50.0
 43
0.0
 44
0.0
 50
0.0
 51
0.0
 71
     0
 72
   100
 73
     1
 74
     3
 75
     0
 76
     0
 77
     0
 78
     0
  0
ENDTAB
  0
TABLE
  2
LTYPE
  5
5
330
0
100
AcDbSymbolTable
 70
    10
  0
LTYPE
  5
14
330
5
100
AcDbSymbolTableRecord
100
AcDbLinetypeTableRecord
  2
BYBLOCK
 70
     0
  3

 72
    65
 73
     0
 40
0.0
  0
LTYPE
  5
15
330
5
100
AcDbSymbolTableRecord
100
AcDbLinetypeTableRecord
  2
BYLAYER
 70
     0
  3

 72
    65
 73
     0
 40
0.0
  0
LTYPE
  5
16
330
5
100
AcDbSymbolTableRecord
100
AcDbLinetypeTableRecord
  2
CONTINUOUS
 70
     0
  3
Solid line
 72
    65
 73
     0
 40
0.0
  0
LTYPE
  5
4B
330
5
100
AcDbSymbolTableRecord
100
AcDbLinetypeTableRecord
  2
AM_ISO02W050
 70
     0
  3
__ __ __ __ __ __ __ __ __ __ __ __ __ __ __
 72
    65
 73
     2
 40
7.5
 49
6.0
 74
     0
 49
-1.5
 74
     0
  0
LTYPE
  5
4C
330
5
100
AcDbSymbolTableRecord
100
AcDbLinetypeTableRecord
  2
AM_ISO08W050
 70
     0
  3
____ . ____ . ____ . ____ . ____ . ____ . ____
 72
    65
 73
     4
 40
18.0
 49
12.0
 74
     0
 49
-1.5
 74
     0
 49
3.0
 74
     0
 49
-1.5
 74
     0
  0
LTYPE
  5
4D
330
5
100
AcDbSymbolTableRecord
100
AcDbLinetypeTableRecord
  2
AM_ISO09W050
 70
     0
  3
_____ . . _____ . . _____ . . ____ .. ____
 72
    65
 73
     6
 40
22.5
 49
12.0
 74
     0
 49
-1.5
 74
     0
 49
3.0
 74
     0
 49
-1.5
 74
     0
 49
3.0
 74
     0
 49
-1.5
 74
     0
  0
LTYPE
  5
4E
330
5
100
AcDbSymbolTableRecord
100
AcDbLinetypeTableRecord
  2
AMCONSTR
 70
     0
  3
_______________________
 72
    65
 73
     2
 40
9999.0
 49
9999.0
 74
     0
 49
0.0
 74
     0
  0
LTYPE
  5
4F
330
5
100
AcDbSymbolTableRecord
100
AcDbLinetypeTableRecord
  2
AM_ISO02W050X2
 70
     0
  3
 _ _ _ _ _ _ _ _ _ _ _ _
 72
    65
 73
     2
 40
3.75
 49
3.0
 74
     0
 49
-0.75
 74
     0
  0
LTYPE
  5
50
330
5
100
AcDbSymbolTableRecord
100
AcDbLinetypeTableRecord
  2
AM_ISO08W050X2
 70
     0
  3
__ . __ . __ . __ . __ . __
 72
    65
 73
     4
 40
9.0
 49
6.0
 74
     0
 49
-0.75
 74
     0
 49
1.5
 74
     0
 49
-0.75
 74
     0
  0
LTYPE
  5
53
330
5
100
AcDbSymbolTableRecord
100
AcDbLinetypeTableRecord
  2
AMZIGZAG
 70
     0
  3
/\/-/\/-/\/-/\/-/\/-/\/
 72
    65
 73
     2
 40
11.00009999999999
 49
0.0001
 74
     4
 75
   135
340
52
 46
0.04
 50
0.0
 44
0.0
 45
0.0
 49
-11.0
 74
     0
  0
LTYPE
  5
166
330
5
100
AcDbSymbolTableRecord
100
AcDbLinetypeTableRecord
  2
ACJISTGL
 70
     0
  3
_ _ _ _ _
 72
    65
 73
     2
 40
3.0
 49
2.0
 74
     0
 49
-1.0
 74
     0
  0
LTYPE
  5
26A
330
5
100
AcDbSymbolTableRecord
100
AcDbLinetypeTableRecord
  2
ACJISTGB
 70
     0
  3
__ . . __ . .
 72
    65
 73
     6
 40
9.0
 49
4.0
 74
     0
 49
-1.0
 74
     0
 49
1.0
 74
     0
 49
-1.0
 74
     0
 49
1.0
 74
     0
 49
-1.0
 74
     0
  0
ENDTAB
  0
TABLE
  2
LAYER
  5
2
330
0
100
AcDbSymbolTable
 70
     7
  0
LAYER
  5
10
330
2
100
AcDbSymbolTableRecord
100
AcDbLayerTableRecord
  2
0
 70
     0
 62
     7
  6
CONTINUOUS
  0
LAYER
  5
3F9
330
2
100
AcDbSymbolTableRecord
100
AcDbLayerTableRecord
  2
AM_0
 70
     0
 62
     7
  6
CONTINUOUS
  0
LAYER
  5
BDD
330
2
100
AcDbSymbolTableRecord
100
AcDbLayerTableRecord
  2
AM_11
 70
     0
 62
     3
  6
AM_ISO09W050
  0
LAYER
  5
BDE
330
2
100
AcDbSymbolTableRecord
100
AcDbLayerTableRecord
  2
AM_7
 70
     0
 62
     4
  6
AM_ISO08W050
  0
LAYER
  5
BDF
330
2
100
AcDbSymbolTableRecord
100
AcDbLayerTableRecord
  2
AM_5
 70
     0
 62
     3
  6
CONTINUOUS
  0
LAYER
  5
BE0
330
2
100
AcDbSymbolTableRecord
100
AcDbLayerTableRecord
  2
DEFPOINTS
 70
     0
 62
     7
  6
CONTINUOUS
  0
LAYER
  5
14FF
330
2
100
AcDbSymbolTableRecord
100
AcDbLayerTableRecord
  2
AM_6
 70
     0
 62
     2
  6
CONTINUOUS
  0
ENDTAB
  0
TABLE
  2
STYLE
  5
3
330
0
100
AcDbSymbolTable
 70
     5
  0
STYLE
  5
11
330
3
100
AcDbSymbolTableRecord
100
AcDbTextStyleTableRecord
  2
STANDARD
 70
     0
 40
0.0
 41
1.0
 50
0.0
 71
     0
 42
2.5
  3
simplex.shx
  4
EXTFONT.SHX
  0
STYLE
  5
52
330
3
100
AcDbSymbolTableRecord
100
AcDbTextStyleTableRecord
  2

 70
     1
 40
0.0
 41
1.0
 50
0.0
 71
     0
 42
2.5
  3
ltypeshp.shx
  4

  0
STYLE
  5
6B
330
3
100
AcDbSymbolTableRecord
100
AcDbTextStyleTableRecord
  2
ASAMI
 70
     0
 40
0.0
 41
1.0
 50
0.0
 71
     0
 42
2.5
  3
simplex.shx
  4
EXTFONT.SHX
  0
STYLE
  5
262
330
3
100
AcDbSymbolTableRecord
100
AcDbTextStyleTableRecord
  2
ACJISTS
 70
     0
 40
1.0
 41
1.0
 50
0.0
 71
     0
 42
2.5
  3
simplex.shx
  4
bigfont.shx
  0
STYLE
  5
269
330
3
100
AcDbSymbolTableRecord
100
AcDbTextStyleTableRecord
  2
ACJISGDT
 70
     0
 40
0.0
 41
1.0
 50
0.0
 71
     0
 42
2.5
  3
amgdtans.shx
  4

  0
ENDTAB
  0
TABLE
  2
VIEW
  5
6
330
0
100
AcDbSymbolTable
 70
     0
  0
ENDTAB
  0
TABLE
  2
UCS
  5
7
330
0
100
AcDbSymbolTable
 70
     0
  0
ENDTAB
  0
TABLE
  2
APPID
  5
9
330
0
100
AcDbSymbolTable
 70
    14
  0
APPID
  5
12
330
9
100
AcDbSymbolTableRecord
100
AcDbRegAppTableRecord
  2
ACAD
 70
     0
  0
APPID
  5
30
330
9
100
AcDbSymbolTableRecord
100
AcDbRegAppTableRecord
  2
MCAD_NO_VIS
 70
     0
  0
APPID
  5
31
330
9
100
AcDbSymbolTableRecord
100
AcDbRegAppTableRecord
  2
ACAD_TEMP_GRAPHIC
 70
     0
  0
APPID
  5
2C2
330
9
100
AcDbSymbolTableRecord
100
AcDbRegAppTableRecord
  2
GENIUS_GENDTOL_13
 70
     0
  0
APPID
  5
339
330
9
100
AcDbSymbolTableRecord
100
AcDbRegAppTableRecord
  2
GENIUS_GENODEF_13
 70
     0
  0
APPID
  5
33A
330
9
100
AcDbSymbolTableRecord
100
AcDbRegAppTableRecord
  2
GENIUS_GENOBJ-N-RSBK_13
 70
     0
  0
APPID
  5
33B
330
9
100
AcDbSymbolTableRecord
100
AcDbRegAppTableRecord
  2
GENIUS_GENOBJ-N-LIB_13
 70
     0
  0
APPID
  5
33C
330
9
100
AcDbSymbolTableRecord
100
AcDbRegAppTableRecord
  2
GENIUS_GENSCALE_13
 70
     0
  0
APPID
  5
378
330
9
100
AcDbSymbolTableRecord
100
AcDbRegAppTableRecord
  2
GENIUS_GENDIMSH_14
 70
     0
  0
APPID
  5
BE1
330
9
100
AcDbSymbolTableRecord
100
AcDbRegAppTableRecord
  2
GENIUS_GENFIL_13
 70
     0
  0
APPID
  5
BE2
330
9
100
AcDbSymbolTableRecord
100
AcDbRegAppTableRecord
  2
GENIUS_GENOBJ-N-CHA_13
 70
     0
  0
APPID
  5
151B
330
9
100
AcDbSymbolTableRecord
100
AcDbRegAppTableRecord
  2
DCO15
 70
     0
  0
APPID
  5
1860
330
9
100
AcDbSymbolTableRecord
100
AcDbRegAppTableRecord
  2
GENIUS_GENOBJ-N-CEN_13
 70
     0
  0
APPID
  5
359C
330
9
100
AcDbSymbolTableRecord
100
AcDbRegAppTableRecord
  2
GENIUS_GENOBJ-N-FIL_13
 70
     0
  0
ENDTAB
  0
TABLE
  2
DIMSTYLE
  5
A
330
0
100
AcDbSymbolTable
 70
     8
  0
DIMSTYLE
105
58
102
{ACAD_REACTORS
330
4047
330
412A
330
42F4
330
4A0F
102
}
330
A
100
AcDbSymbolTableRecord
100
AcDbDimStyleTableRecord
  2
AM_JIS
 70
     0
  3

  4
"
  5
OPEN30
  6

  7

 40
1.0
 41
2.5
 42
1.0
 43
12.0
 44
1.0
 45
0.0
 46
0.0
 47
0.1
 48
0.1
140
3.2
141
0.0
142
0.0
143
0.0393701
144
1.0
145
0.0
146
0.71
147
1.5
 71
     0
 72
     0
 73
     0
 74
     0
 75
     0
 76
     0
 77
     3
 78
     8
170
     0
171
     2
172
     1
173
     0
174
     0
175
     0
176
   256
177
   256
178
     2
270
     2
271
     3
272
     3
273
     2
274
     2
340
6B
275
     0
280
     0
281
     0
282
     0
283
     0
284
     0
285
     0
286
     0
287
     3
288
     0
  0
DIMSTYLE
105
5F
330
A
100
AcDbSymbolTableRecord
100
AcDbDimStyleTableRecord
  2
AM_JIS$3
 70
     0
  3

  4
"
  5
OPEN30
  6

  7

 40
1.0
 41
2.5
 42
1.0
 43
10.0
 44
1.0
 45
0.0
 46
0.0
 47
0.1
 48
0.1
140
3.2
141
0.0
142
0.0
143
0.0393701
144
1.0
145
0.0
146
0.71
147
1.5
 71
     0
 72
     0
 73
     0
 74
     1
 75
     0
 76
     0
 77
     3
 78
     8
170
     0
171
     2
172
     0
173
     0
174
     0
175
     0
176
   256
177
   256
178
     2
270
     2
271
     2
272
     3
273
     2
274
     2
340
6B
275
     0
280
     0
281
     0
282
     0
283
     0
284
     0
285
     0
286
     0
287
     0
288
     1
  0
DIMSTYLE
105
60
102
{ACAD_REACTORS
330
4D47
102
}
330
A
100
AcDbSymbolTableRecord
100
AcDbDimStyleTableRecord
  2
AM_JIS$4
 70
     0
  3

  4
"
  5
OPEN30
  6

  7

 40
1.0
 41
2.5
 42
1.0
 43
10.0
 44
1.0
 45
0.0
 46
0.0
 47
0.1
 48
0.1
140
3.2
141
0.0
142
0.0
143
0.0393701
144
1.0
145
0.0
146
0.71
147
1.5
 71
     0
 72
     0
 73
     0
 74
     1
 75
     0
 76
     0
 77
     3
 78
     8
170
     0
171
     2
172
     0
173
     0
174
     0
175
     0
176
   256
177
   256
178
     2
270
     2
271
     2
272
     3
273
     2
274
     2
340
6B
275
     0
280
     0
281
     0
282
     0
283
     0
284
     0
285
     0
286
     0
287
     0
288
     1
  0
DIMSTYLE
105
61
330
A
100
AcDbSymbolTableRecord
100
AcDbDimStyleTableRecord
  2
AM_JIS$6
 70
     0
  3

  4
"
  5
OPEN30
  6

  7

 40
1.0
 41
2.5
 42
1.0
 43
10.0
 44
1.0
 45
0.0
 46
0.0
 47
0.1
 48
0.1
140
3.2
141
0.0
142
0.0
143
0.0393701
144
1.0
145
0.0
146
0.71
147
1.5
 71
     0
 72
     0
 73
     0
 74
     0
 75
     0
 76
     0
 77
     0
 78
     8
170
     0
171
     2
172
     1
173
     0
174
     0
175
     0
176
   256
177
   256
178
     2
270
     2
271
     2
272
     2
273
     2
274
     2
340
6B
275
     0
280
     0
281
     0
282
     0
283
     0
284
     0
285
     0
286
     0
287
     3
288
     0
  0
DIMSTYLE
105
62
330
A
100
AcDbSymbolTableRecord
100
AcDbDimStyleTableRecord
  2
AM_JIS$7
 70
     0
  3

  4
"
  5
OPEN30
  6

  7

 40
1.0
 41
2.5
 42
1.0
 43
10.0
 44
1.0
 45
0.0
 46
0.0
 47
0.1
 48
0.1
140
3.2
141
0.0
142
0.0
143
0.0393701
144
1.0
145
0.0
146
0.71
147
1.5
 71
     0
 72
     0
 73
     0
 74
     0
 75
     0
 76
     0
 77
     3
 78
     8
170
     0
171
     2
172
     1
173
     0
174
     0
175
     0
176
   256
177
   256
178
     2
270
     2
271
     2
272
     3
273
     2
274
     2
340
6B
275
     0
280
     0
281
     0
282
     0
283
     0
284
     0
285
     0
286
     0
287
     3
288
     0
  0
DIMSTYLE
105
63
330
A
100
AcDbSymbolTableRecord
100
AcDbDimStyleTableRecord
  2
AM_JIS$SF
 70
     0
  3

  4
"
  5
OPEN30
  6

  7

 40
1.0
 41
2.5
 42
1.0
 43
10.0
 44
1.0
 45
0.0
 46
0.0
 47
0.1
 48
0.1
140
3.2
141
0.0
142
0.0
143
0.0393701
144
1.0
145
0.0
146
0.71
147
1.5
 71
     0
 72
     0
 73
     0
 74
     0
 75
     1
 76
     1
 77
     3
 78
     8
170
     0
171
     2
172
     1
173
     0
174
     0
175
     0
176
   256
177
   256
178
     2
270
     2
271
     2
272
     2
273
     2
274
     2
340
6B
275
     0
280
     0
281
     0
282
     0
283
     0
284
     0
285
     0
286
     0
287
     3
288
     0
  0
DIMSTYLE
105
68
330
A
100
AcDbSymbolTableRecord
100
AcDbDimStyleTableRecord
  2
AM_JIS$SH
 70
     0
  3

  4
"
  5

  6
GENAXEH
  7
OPEN30
 40
1.0
 41
2.5
 42
1.0
 43
10.0
 44
1.0
 45
0.0
 46
0.0
 47
0.1
 48
0.1
140
3.2
141
0.0
142
0.0
143
0.0393701
144
2.0
145
0.0
146
0.71
147
1.5
 71
     0
 72
     0
 73
     0
 74
     0
 75
     1
 76
     1
 77
     3
 78
     8
170
     0
171
     2
172
     1
173
     1
174
     0
175
     0
176
   256
177
   256
178
     2
270
     2
271
     2
272
     2
273
     2
274
     2
340
6B
275
     0
280
     0
281
     0
282
     0
283
     0
284
     0
285
     0
286
     0
287
     3
288
     0
  0
DIMSTYLE
105
B34
330
A
100
AcDbSymbolTableRecord
100
AcDbDimStyleTableRecord
  2
AM_JIS$2
 70
     0
  3

  4
"
  5
OPEN30
  6

  7

 40
1.0
 41
2.5
 42
1.0
 43
12.0
 44
1.0
 45
0.0
 46
0.0
 47
0.1
 48
0.1
140
3.2
141
0.0
142
0.0
143
0.0393701
144
1.0
145
0.0
146
0.71
147
1.5
 71
     0
 72
     0
 73
     0
 74
     0
 75
     0
 76
     0
 77
     3
 78
     8
170
     0
171
     2
172
     1
173
     0
174
     0
175
     0
176
   256
177
   256
178
     2
270
     2
271
     3
272
     3
273
     2
274
     2
340
6B
275
     0
280
     0
281
     0
282
     0
283
     0
284
     0
285
     0
286
     0
287
     3
288
     0
  0
ENDTAB
  0
TABLE
  2
BLOCK_RECORD
  5
1
330
0
100
AcDbSymbolTable
 70
    10
  0
BLOCK_RECORD
  5
1F
102
{ACAD_XDICTIONARY
360
74
102
}
330
1
100
AcDbSymbolTableRecord
100
AcDbBlockTableRecord
  2
*MODEL_SPACE
  0
BLOCK_RECORD
  5
101
102
{ACAD_XDICTIONARY
360
4F11
102
}
330
1
100
AcDbSymbolTableRecord
100
AcDbBlockTableRecord
  2
*PAPER_SPACE
  0
BLOCK_RECORD
  5
59
330
1
100
AcDbSymbolTableRecord
100
AcDbBlockTableRecord
  2
_OPEN30
  0
BLOCK_RECORD
  5
64
330
1
100
AcDbSymbolTableRecord
100
AcDbBlockTableRecord
  2
GENAXEH
  0
BLOCK_RECORD
  5
4048
330
1
100
AcDbSymbolTableRecord
100
AcDbBlockTableRecord
  2
*D5
  0
BLOCK_RECORD
  5
412B
330
1
100
AcDbSymbolTableRecord
100
AcDbBlockTableRecord
  2
*D6
  0
BLOCK_RECORD
  5
42F5
330
1
100
AcDbSymbolTableRecord
100
AcDbBlockTableRecord
  2
*D7
  0
BLOCK_RECORD
  5
4A10
330
1
100
AcDbSymbolTableRecord
100
AcDbBlockTableRecord
  2
*D8
  0
BLOCK_RECORD
  5
4D48
330
1
100
AcDbSymbolTableRecord
100
AcDbBlockTableRecord
  2
*D9
  0
ENDTAB
  0
ENDSEC
  0
SECTION
  2
BLOCKS
  0
BLOCK
  5
20
330
1F
100
AcDbEntity
  8
0
100
AcDbBlockBegin
  2
*MODEL_SPACE
 70
     0
 10
0.0
 20
0.0
 30
0.0
  3
*MODEL_SPACE
  1

  0
ENDBLK
  5
21
330
1F
100
AcDbEntity
  8
0
100
AcDbBlockEnd
  0
BLOCK
  5
103
330
101
100
AcDbEntity
 67
     1
  8
0
100
AcDbBlockBegin
  2
*PAPER_SPACE
 70
     0
 10
0.0
 20
0.0
 30
0.0
  3
*PAPER_SPACE
  1

  0
ENDBLK
  5
104
330
101
100
AcDbEntity
 67
     1
  8
0
100
AcDbBlockEnd
  0
BLOCK
  5
5D
330
59
100
AcDbEntity
  8
0
100
AcDbBlockBegin
  2
_OPEN30
 70
     0
 10
0.0
 20
0.0
 30
0.0
  3
_OPEN30
  1

  0
LINE
  5
5A
330
59
100
AcDbEntity
  8
0
 62
     0
100
AcDbLine
 10
-1.0
 20
0.26794919
 30
0.0
 11
0.0
 21
0.0
 31
0.0
  0
LINE
  5
5B
330
59
100
AcDbEntity
  8
0
 62
     0
100
AcDbLine
 10
0.0
 20
0.0
 30
0.0
 11
-1.0
 21
-0.26794919
 31
0.0
  0
LINE
  5
5C
330
59
100
AcDbEntity
  8
0
 62
     0
100
AcDbLine
 10
0.0
 20
0.0
 30
0.0
 11
-1.0
 21
0.0
 31
0.0
  0
ENDBLK
  5
5E
330
59
100
AcDbEntity
  8
0
100
AcDbBlockEnd
  0
BLOCK
  5
66
330
64
100
AcDbEntity
  8
0
100
AcDbBlockBegin
  2
GENAXEH
 70
     0
 10
0.0
 20
0.0
 30
0.0
  3
GENAXEH
  1

  0
LINE
  5
65
330
64
100
AcDbEntity
  8
0
100
AcDbLine
 10
-1.0
 20
0.0
 30
0.0
 11
1.0
 21
0.0
 31
0.0
  0
ENDBLK
  5
67
330
64
100
AcDbEntity
  8
0
100
AcDbBlockEnd
  0
BLOCK
  5
4052
330
4048
100
AcDbEntity
  8
0
100
AcDbBlockBegin
  2
*D5
 70
     1
 10
0.0
 20
0.0
 30
0.0
  3
*D5
  1

  0
LINE
  5
4D23
330
4048
100
AcDbEntity
  8
AM_5
100
AcDbLine
 10
-160.0001282502366
 20
-9.749999999999964
 30
0.0
 11
-160.0001282502366
 21
-42.84807853012226
 31
0.0
  0
LINE
  5
4D24
330
4048
100
AcDbEntity
  8
AM_5
100
AcDbLine
 10
-0.0000000000000001
 20
-1.0
 30
0.0
 11
-0.0000000000000026
 21
-42.84807853012226
 31
0.0
  0
LINE
  5
4D25
330
4048
100
AcDbEntity
  8
AM_5
100
AcDbLine
 10
-157.5001282502366
 20
-41.84807853012226
 30
0.0
 11
-2.500000000000002
 21
-41.84807853012226
 31
0.0
  0
INSERT
  5
4D26
330
4048
100
AcDbEntity
  8
AM_5
100
AcDbBlockReference
  2
_OPEN30
 10
-160.0001282502366
 20
-41.84807853012226
 30
0.0
 41
2.5
 42
2.5
 43
2.5
 50
180.0
  0
INSERT
  5
4D27
330
4048
100
AcDbEntity
  8
AM_5
100
AcDbBlockReference
  2
_OPEN30
 10
-0.0000000000000026
 20
-41.84807853012226
 30
0.0
 41
2.5
 42
2.5
 43
2.5
  0
MTEXT
  5
4D28
330
4048
100
AcDbEntity
  8
AM_5
 62
     2
100
AcDbMText
 10
-80.00006412511831
 20
-38.74807853012226
 30
0.0
 40
3.2
 41
0.0
 71
     5
 72
     1
  1
160
  7
ASAMI
1001
ACAD
1000
MTEXTBEGIN
1070
    73
1070
     1
1070
    44
1040
1.0
1070
    74
1070
     0
1000
MTEXTEND
  0
POINT
  5
4D29
330
4048
100
AcDbEntity
  8
DEFPOINTS
 62
     0
100
AcDbPoint
 10
-160.0001282502366
 20
-8.749999999999964
 30
0.0
  0
POINT
  5
4D2A
330
4048
100
AcDbEntity
  8
DEFPOINTS
 62
     0
100
AcDbPoint
 10
0.0
 20
0.0
 30
0.0
  0
POINT
  5
4D2B
330
4048
100
AcDbEntity
  8
DEFPOINTS
 62
     0
100
AcDbPoint
 10
-0.0000000000000026
 20
-41.84807853012226
 30
0.0
  0
ENDBLK
  5
4053
330
4048
100
AcDbEntity
  8
0
100
AcDbBlockEnd
  0
BLOCK
  5
4135
330
412B
100
AcDbEntity
  8
0
100
AcDbBlockBegin
  2
*D6
 70
     1
 10
0.0
 20
0.0
 30
0.0
  3
*D6
  1

  0
LINE
  5
4D35
330
412B
100
AcDbEntity
  8
AM_5
100
AcDbLine
 10
-0.0000000000000149
 20
-1.00000000000001
 30
0.0
 11
-0.0000000000000168
 21
-30.84807853012235
 31
0.0
  0
LINE
  5
4D36
330
412B
100
AcDbEntity
  8
AM_5
100
AcDbLine
 10
-46.00012825023664
 20
-11.00000000000003
 30
0.0
 11
-46.00012825023664
 21
-30.84807853012235
 31
0.0
  0
LINE
  5
4D37
330
412B
100
AcDbEntity
  8
AM_5
100
AcDbLine
 10
-2.500000000000016
 20
-29.84807853012235
 30
0.0
 11
-43.50012825023664
 21
-29.84807853012235
 31
0.0
  0
INSERT
  5
4D38
330
412B
100
AcDbEntity
  8
AM_5
100
AcDbBlockReference
  2
_OPEN30
 10
-0.0000000000000167
 20
-29.84807853012235
 30
0.0
 41
2.5
 42
2.5
 43
2.5
  0
INSERT
  5
4D39
330
412B
100
AcDbEntity
  8
AM_5
100
AcDbBlockReference
  2
_OPEN30
 10
-46.00012825023664
 20
-29.84807853012235
 30
0.0
 41
2.5
 42
2.5
 43
2.5
 50
180.0
  0
MTEXT
  5
4D3A
330
412B
100
AcDbEntity
  8
AM_5
 62
     2
100
AcDbMText
 10
-23.00006412511832
 20
-26.74807853012235
 30
0.0
 40
3.2
 41
0.0
 71
     5
 72
     1
  1
46
  7
ASAMI
1001
ACAD
1000
MTEXTBEGIN
1070
    73
1070
     1
1070
    44
1040
1.0
1070
    74
1070
     0
1000
MTEXTEND
  0
POINT
  5
4D3B
330
412B
100
AcDbEntity
  8
DEFPOINTS
 62
     0
100
AcDbPoint
 10
-0.0000000000000149
 20
-0.0000000000000106
 30
0.0
  0
POINT
  5
4D3C
330
412B
100
AcDbEntity
  8
DEFPOINTS
 62
     0
100
AcDbPoint
 10
-46.00012825023664
 20
-10.00000000000003
 30
0.0
  0
POINT
  5
4D3D
330
412B
100
AcDbEntity
  8
DEFPOINTS
 62
     0
100
AcDbPoint
 10
-46.00012825023664
 20
-29.84807853012235
 30
0.0
  0
ENDBLK
  5
4136
330
412B
100
AcDbEntity
  8
0
100
AcDbBlockEnd
  0
BLOCK
  5
42FF
330
42F5
100
AcDbEntity
  8
0
100
AcDbBlockBegin
  2
*D7
 70
     1
 10
0.0
 20
0.0
 30
0.0
  3
*D7
  1

  0
LINE
  5
4E3C
330
42F5
100
AcDbEntity
  8
AM_5
100
AcDbLine
 10
-9.00000000000001
 20
10.00000000000135
 30
0.0
 11
15.98449969032811
 21
10.00000000000134
 31
0.0
  0
LINE
  5
4E3D
330
42F5
100
AcDbEntity
  8
AM_5
100
AcDbLine
 10
-9.357128250236627
 20
-10.0
 30
0.0
 11
15.9844996903281
 21
-10.0
 31
0.0
  0
LINE
  5
4E3E
330
42F5
100
AcDbEntity
  8
AM_5
100
AcDbLine
 10
14.98449969032811
 20
7.500000000001342
 30
0.0
 11
14.9844996903281
 21
-7.500000000000007
 31
0.0
  0
INSERT
  5
4E3F
330
42F5
100
AcDbEntity
  8
AM_5
100
AcDbBlockReference
  2
_OPEN30
 10
14.98449969032811
 20
10.00000000000134
 30
0.0
 41
2.5
 42
2.5
 43
2.5
 50
90.0
  0
INSERT
  5
4E40
330
42F5
100
AcDbEntity
  8
AM_5
100
AcDbBlockReference
  2
_OPEN30
 10
14.9844996903281
 20
-10.0
 30
0.0
 41
2.5
 42
2.5
 43
2.5
 50
270.0
  0
MTEXT
  5
4E41
330
42F5
100
AcDbEntity
  8
AM_5
 62
     2
100
AcDbMText
 10
11.8844996903281
 20
0.0000000000006709
 30
0.0
 40
3.2
 41
0.0
 71
     5
 72
     1
  1
%%c20
  7
ASAMI
 11
0.0000000000000001
 21
1.0
 31
0.0
1001
ACAD
1000
MTEXTBEGIN
1070
    73
1070
     1
1070
    44
1040
1.0
1070
    74
1070
     0
1000
MTEXTEND
  0
POINT
  5
4E42
330
42F5
100
AcDbEntity
  8
DEFPOINTS
 62
     0
100
AcDbPoint
 10
-10.00000000000001
 20
10.00000000000135
 30
0.0
  0
POINT
  5
4E43
330
42F5
100
AcDbEntity
  8
DEFPOINTS
 62
     0
100
AcDbPoint
 10
-10.35712825023662
 20
-10.0
 30
0.0
  0
POINT
  5
4E44
330
42F5
100
AcDbEntity
  8
DEFPOINTS
 62
     0
100
AcDbPoint
 10
14.9844996903281
 20
-10.0
 30
0.0
  0
ENDBLK
  5
4300
330
42F5
100
AcDbEntity
  8
0
100
AcDbBlockEnd
  0
BLOCK
  5
4A1A
330
4A10
100
AcDbEntity
  8
0
100
AcDbBlockBegin
  2
*D8
 70
     1
 10
0.0
 20
0.0
 30
0.0
  3
*D8
  1

  0
LINE
  5
4D2C
330
4A10
100
AcDbEntity
  8
AM_5
100
AcDbLine
 10
-159.7501282502365
 20
9.999999999999783
 30
0.0
 11
-177.0563233801961
 21
9.999999999999788
 31
0.0
  0
LINE
  5
4D2D
330
4A10
100
AcDbEntity
  8
AM_5
100
AcDbLine
 10
-159.7501282502365
 20
-9.999999999999992
 30
0.0
 11
-177.0563233801961
 21
-9.999999999999987
 31
0.0
  0
LINE
  5
4D2E
330
4A10
100
AcDbEntity
  8
AM_5
100
AcDbLine
 10
-176.0563233801961
 20
7.499999999999788
 30
0.0
 11
-176.0563233801961
 21
-7.499999999999987
 31
0.0
  0
INSERT
  5
4D2F
330
4A10
100
AcDbEntity
  8
AM_5
100
AcDbBlockReference
  2
_OPEN30
 10
-176.0563233801961
 20
9.999999999999788
 30
0.0
 41
2.5
 42
2.5
 43
2.5
 50
90.0
  0
INSERT
  5
4D30
330
4A10
100
AcDbEntity
  8
AM_5
100
AcDbBlockReference
  2
_OPEN30
 10
-176.0563233801961
 20
-9.999999999999987
 30
0.0
 41
2.5
 42
2.5
 43
2.5
 50
270.0
  0
MTEXT
  5
4D31
330
4A10
100
AcDbEntity
  8
AM_5
 62
     2
100
AcDbMText
 10
-179.1563233801961
 20
-0.0000000000001274
 30
0.0
 40
3.2
 41
0.0
 71
     5
 72
     1
  1
%%c20
  7
ASAMI
 11
0.0000000000000001
 21
1.0
 31
0.0
1001
ACAD
1000
MTEXTBEGIN
1070
    73
1070
     1
1070
    44
1040
1.0
1070
    74
1070
     0
1000
MTEXTEND
  0
POINT
  5
4D32
330
4A10
100
AcDbEntity
  8
DEFPOINTS
 62
     0
100
AcDbPoint
 10
-158.7501282502365
 20
9.999999999999783
 30
0.0
  0
POINT
  5
4D33
330
4A10
100
AcDbEntity
  8
DEFPOINTS
 62
     0
100
AcDbPoint
 10
-158.7501282502365
 20
-9.999999999999992
 30
0.0
  0
POINT
  5
4D34
330
4A10
100
AcDbEntity
  8
DEFPOINTS
 62
     0
100
AcDbPoint
 10
-176.0563233801961
 20
-9.999999999999987
 30
0.0
  0
ENDBLK
  5
4A1B
330
4A10
100
AcDbEntity
  8
0
100
AcDbBlockEnd
  0
BLOCK
  5
4D4E
330
4D48
100
AcDbEntity
  8
0
100
AcDbBlockBegin
  2
*D9
 70
     1
 10
0.0
 20
0.0
 30
0.0
  3
*D9
  1

  0
LINE
  5
4F13
330
4D48
100
AcDbEntity
  8
AM_5
100
AcDbLine
 10
9.412027202417743
 20
-22.82873565040568
 30
0.0
 11
-1.933751004236631
 21
-9.397194093370274
 31
0.0
  0
MTEXT
  5
4F14
330
4D48
100
AcDbEntity
  8
AM_5
 62
     2
100
AcDbMText
 10
8.304807114211799
 20
-16.71400082020903
 30
0.0
 40
3.2
 41
0.0
 71
     5
 72
     1
  1
R10
  7
ASAMI
 11
0.6452999196611424
 21
-0.7639293250591467
 31
0.0
  0
LINE
  5
4F15
330
4D48
100
AcDbEntity
  8
AM_5
100
AcDbLine
 10
-10.00000000000091
 20
0.1519224698690644
 30
0.0
 11
-3.547000803389487
 21
-7.487370780722406
 31
0.0
  0
INSERT
  5
4F16
330
4D48
100
AcDbEntity
  8
AM_5
100
AcDbBlockReference
  2
_OPEN30
 10
-3.547000803389487
 20
-7.487370780722406
 30
0.0
 41
2.5
 42
2.5
 43
2.5
 50
130.1881661398275
  0
POINT
  5
4F17
330
4D48
100
AcDbEntity
  8
DEFPOINTS
 62
     0
100
AcDbPoint
 10
-3.547000803389487
 20
-7.487370780722406
 30
0.0
  0
POINT
  5
4F18
330
4D48
100
AcDbEntity
  8
DEFPOINTS
 62
     0
100
AcDbPoint
 10
-10.00000000000091
 20
0.1519224698690644
 30
0.0
  0
ENDBLK
  5
4D4F
330
4D48
100
AcDbEntity
  8
0
100
AcDbBlockEnd
  0
ENDSEC
  0
SECTION
  2
ENTITIES
  0
TEXT
  5
1500
330
1F
100
AcDbEntity
  8
AM_6
100
AcDbText
 10
-103.2142711073794
 20
-64.34807853012227
 30
0.0
 40
5.0
  1
LSSB2200ZX
 72
     4
 11
-80.35712825023662
 21
-61.84807853012227
 31
0.0
100
AcDbText
  0
LINE
  5
3EE8
330
1F
100
AcDbEntity
  8
AM_7
  6
AM_ISO08W050X2
100
AcDbLine
 10
0.984498690328138
 20
0.0000000000000005
 30
0.0
 11
-162.0563223801961
 21
-0.0000000000000883
 31
0.0
1001
GENIUS_GENODEF_13
1002
{
1000
HIER
1070
     0
1002
}
1002
{
1000
MANEDIT
1070
     0
1002
}
1002
{
1000
NOSEL
1070
     0
1002
}
1002
{
1000
BEHIND
1070
     0
1002
}
1002
{
1000
REACTOR
1002
}
1001
GENIUS_GENOBJ-N-CEN_13
1002
{
1000
OWNER
1000
GEN
1002
}
  0
DIMENSION
  5
4047
330
1F
100
AcDbEntity
  8
AM_5
100
AcDbDimension
  2
*D5
 10
-0.0000000000000026
 20
-41.84807853012226
 30
0.0
 11
-80.00006412511831
 21
-38.74807853012226
 31
0.0
 70
    32
  1
<>
  3
AM_JIS
100
AcDbAlignedDimension
 13
-160.0001282502366
 23
-8.749999999999964
 33
0.0
 14
0.0
 24
0.0
 34
0.0
 50
0.0000000000001132
100
AcDbRotatedDimension
1001
GENIUS_GENDTOL_13
1000

1000
h7
1000

1040
0.0
  0
DIMENSION
  5
412A
330
1F
100
AcDbEntity
  8
AM_5
100
AcDbDimension
  2
*D6
 10
-46.00012825023664
 20
-29.84807853012235
 30
0.0
 11
-23.00006412511832
 21
-26.74807853012235
 31
0.0
 70
    32
  1
<>
  3
AM_JIS
100
AcDbAlignedDimension
 13
-0.0000000000000149
 23
-0.0000000000000106
 33
0.0
 14
-46.00012825023664
 24
-10.00000000000003
 34
0.0
 50
0.0000000000001132
100
AcDbRotatedDimension
1001
GENIUS_GENDTOL_13
1000

1000
h7
1000

1040
0.0
  0
DIMENSION
  5
42F4
330
1F
100
AcDbEntity
  8
AM_5
100
AcDbDimension
  2
*D7
 10
14.9844996903281
 20
-10.0
 30
0.0
 11
11.8844996903281
 21
0.0000000000006709
 31
0.0
 70
    32
  1
%%c<>
  3
AM_JIS
100
AcDbAlignedDimension
 13
-10.00000000000001
 23
10.00000000000135
 33
0.0
 14
-10.35712825023662
 24
-10.0
 34
0.0
 50
90.0
100
AcDbRotatedDimension
1001
GENIUS_GENDTOL_13
1000

1000
h7
1000

1040
0.0
  0
LINE
  5
4A0A
330
1F
100
AcDbEntity
  8
AM_0
100
AcDbLine
 10
-63.79710407080353
 20
-10.00000000000224
 30
0.0
 11
-158.7501282502365
 21
-9.999999999999992
 31
0.0
  0
LINE
  5
4A0D
330
1F
100
AcDbEntity
  8
AM_0
100
AcDbLine
 10
-158.7501282502365
 20
9.999999999999783
 30
0.0
 11
-158.7501282502365
 21
-10.00000000000001
 31
0.0
  0
LINE
  5
4A0E
330
1F
100
AcDbEntity
  8
AM_0
100
AcDbLine
 10
-160.0001282502365
 20
8.749999999999783
 30
0.0
 11
-160.0001282502365
 21
-8.749999999999992
 31
0.0
  0
DIMENSION
  5
4A0F
330
1F
100
AcDbEntity
  8
AM_5
100
AcDbDimension
  2
*D8
 10
-176.0563233801961
 20
-9.999999999999987
 30
0.0
 11
-179.1563233801961
 21
-0.0000000000001274
 31
0.0
 70
    32
  1
%%c<>
  3
AM_JIS
100
AcDbAlignedDimension
 13
-158.7501282502365
 23
9.999999999999783
 33
0.0
 14
-158.7501282502365
 24
-9.999999999999992
 34
0.0
 50
270.0
100
AcDbRotatedDimension
1001
GENIUS_GENDTOL_13
1000

1000
h7
1000

1040
0.0
  0
LINE
  5
4A1C
330
1F
100
AcDbEntity
  8
AM_0
100
AcDbLine
 10
-62.95135678771392
 20
9.99999999999977
 30
0.0
 11
-158.7501282502365
 21
9.999999999999783
 31
0.0
  0
LINE
  5
4A28
330
1F
100
AcDbEntity
  8
AM_0
100
AcDbLine
 10
-158.7501282502365
 20
9.999999999999783
 30
0.0
 11
-160.0001282502365
 21
8.749999999999783
 31
0.0
1001
GENIUS_GENFIL_13
1070
     0
1040
1.25
1040
1.25
1040
20.0
1040
0.0
1002
{
1002
}
1001
GENIUS_GENODEF_13
1002
{
1000
HIER
1070
     0
1002
}
1002
{
1000
MANEDIT
1070
     0
1002
}
1002
{
1000
NOSEL
1070
     0
1002
}
1002
{
1000
BEHIND
1070
     0
1002
}
1002
{
1000
REACTOR
1002
}
1001
GENIUS_GENOBJ-N-CHA_13
1002
{
1000
OWNER
1000
GEN
1002
}
  0
LINE
  5
4A2B
330
1F
100
AcDbEntity
  8
AM_0
100
AcDbLine
 10
-160.0001282502365
 20
-8.749999999999992
 30
0.0
 11
-158.7501282502365
 21
-9.999999999999992
 31
0.0
1001
GENIUS_GENFIL_13
1070
     0
1040
1.25
1040
1.25
1040
20.0
1040
0.0
1002
{
1002
}
1001
GENIUS_GENODEF_13
1002
{
1000
HIER
1070
     0
1002
}
1002
{
1000
MANEDIT
1070
     0
1002
}
1002
{
1000
NOSEL
1070
     0
1002
}
1002
{
1000
BEHIND
1070
     0
1002
}
1002
{
1000
REACTOR
1002
}
1001
GENIUS_GENOBJ-N-CHA_13
1002
{
1000
OWNER
1000
GEN
1002
}
  0
LINE
  5
4BE7
330
1F
100
AcDbEntity
  8
AM_11
100
AcDbLine
 10
-10.0
 20
9.999999999999786
 30
0.0
 11
-46.00012825023661
 21
9.999999999999735
 31
0.0
  0
LINE
  5
4BE8
330
1F
100
AcDbEntity
  8
AM_0
100
AcDbLine
 10
-53.3018419378336
 20
8.298798857195137
 30
0.0
 11
-12.02451427437477
 21
6.85379732289789
 31
0.0
  0
LINE
  5
4BE9
330
1F
100
AcDbEntity
  8
AM_0
100
AcDbLine
 10
-10.18550242638652
 20
-9.848077530132286
 30
0.0
 11
-9.762396771742219
 21
-9.084619221903718
 31
0.0
  0
LINE
  5
4BEA
330
1F
100
AcDbEntity
  8
AM_0
100
AcDbLine
 10
-9.762396771742219
 20
-9.084619221903718
 30
0.0
 11
-10.1855024265063
 21
-7.550709188719792
 31
0.0
  0
LINE
  5
4BEB
330
1F
100
AcDbEntity
  8
AM_11
100
AcDbLine
 10
-46.00012825023664
 20
-10.00000000000002
 30
0.0
 11
-9.999999999999992
 21
-9.999999999998649
 31
0.0
  0
LINE
  5
4BEC
330
1F
100
AcDbEntity
  8
AM_0
100
AcDbLine
 10
-54.62175714368814
 20
-8.538538031955152
 30
0.0
 11
-21.89365434244383
 21
-7.392820480954522
 31
0.0
  0
LINE
  5
4BED
330
1F
100
AcDbEntity
  8
AM_0
100
AcDbLine
 10
-46.00012825023663
 20
2.769739924918697
 30
0.0
 11
-46.00012825023662
 21
6.125311480731797
 31
0.0
  0
ELLIPSE
  5
4BF2
330
1F
100
AcDbEntity
  8
AM_0
100
AcDbEllipse
 10
-0.7603685802887004
 20
0.0937328262412276
 30
0.0
 11
-0.0000000000000095
 21
10.39766155271039
 31
0.0
210
0.0
220
0.0
230
1.0
 40
0.9828374176268784
 41
1.309708023350011
 42
2.207143587037292
  0
SPLINE
  5
4BF7
330
1F
100
AcDbEntity
  8
AM_0
100
AcDbSpline
210
0.0
220
0.0
230
1.0
 70
     8
 71
     3
 72
     8
 73
     4
 74
     0
 42
0.0000000001
 43
0.0000000001
 40
15.91543075505932
 40
15.91543075505932
 40
15.91543075505932
 40
15.91543075505932
 40
17.52826289168434
 40
17.52826289168434
 40
17.52826289168434
 40
17.52826289168434
 10
-46.00012825023662
 20
2.769739924918697
 30
0.0
 10
-44.52510708683958
 20
2.128581281932983
 30
0.0
 10
-40.6932611769691
 20
0.460066164739428
 30
0.0
 10
-39.70235309030952
 20
-0.0000000000000231
 30
0.0
  0
SPLINE
  5
4BF8
330
1F
100
AcDbEntity
  8
AM_0
100
AcDbSpline
210
0.0
220
0.0
230
1.0
 70
     8
 71
     3
 72
     8
 73
     4
 74
     0
 42
0.0000000001
 43
0.0000000001
 40
13.37751787426017
 40
13.37751787426017
 40
13.37751787426017
 40
13.37751787426017
 40
17.48613721147548
 40
17.48613721147548
 40
17.48613721147548
 40
17.48613721147548
 10
-46.00012825023662
 20
4.272505016614646
 30
0.0
 10
-40.60115996123744
 20
2.457902281237392
 30
0.0
 10
-38.06754097029871
 20
1.139637653680964
 30
0.0
 10
-35.53392197936154
 20
-0.0000000000000231
 30
0.0
  0
SPLINE
  5
4BF9
330
1F
100
AcDbEntity
  8
AM_0
100
AcDbSpline
210
0.0
220
0.0
230
1.0
 70
     8
 71
     3
 72
     9
 73
     5
 74
     0
 42
0.0000000001
 43
0.0000000001
 40
0.0
 40
0.0
 40
0.0
 40
0.0
 40
0.6272184563385361
 40
1.868527334522296
 40
1.868527334522296
 40
1.868527334522296
 40
1.868527334522296
 10
-8.979391685184111
 20
-6.085198338756979
 30
0.0
 10
-8.807156699296134
 20
-6.327059989887653
 30
0.0
 10
-8.064199809601504
 20
-7.191792968415974
 30
0.0
 10
-9.662934404061051
 20
-7.808974293981992
 30
0.0
 10
-10.18550242650539
 20
-7.55070918871978
 30
0.0
  0
SPLINE
  5
4BFA
330
1F
100
AcDbEntity
  8
AM_0
100
AcDbSpline
210
0.0
220
0.0
230
1.0
 70
     8
 71
     3
 72
     8
 73
     4
 74
     0
 42
0.0000000001
 43
0.0000000001
 40
0.0
 40
0.0
 40
0.0
 40
0.0
 40
2.47158723905282
 40
2.47158723905282
 40
2.47158723905282
 40
2.47158723905282
 10
-10.18550242650539
 20
9.848077530121605
 30
0.0
 10
-9.697710731423333
 20
8.78089463379511
 30
0.0
 10
-10.87609067659536
 20
6.994731652651659
 30
0.0
 10
-12.02451427447042
 20
6.853797322893343
 30
0.0
  0
SPLINE
  5
4BFB
330
1F
100
AcDbEntity
  8
AM_0
100
AcDbSpline
210
0.0
220
0.0
230
1.0
 70
     8
 71
     3
 72
     8
 73
     4
 74
     0
 42
0.0000000001
 43
0.0000000001
 40
0.0
 40
0.0
 40
0.0
 40
0.0
 40
3.020429804461161
 40
3.020429804461161
 40
3.020429804461161
 40
3.020429804461161
 10
-10.6332465151325
 20
2.777703297698272
 30
0.0
 10
-11.87568864851704
 20
3.463751199687244
 30
0.0
 10
-13.43644794276828
 20
6.783669227875321
 30
0.0
 10
-12.02451427437388
 20
6.85379732289789
 30
0.0
  0
SPLINE
  5
4BFC
330
1F
100
AcDbEntity
  8
AM_0
100
AcDbSpline
210
0.0
220
0.0
230
1.0
 70
     8
 71
     3
 72
     8
 73
     4
 74
     0
 42
0.0000000001
 43
0.0000000001
 40
1.794922859432252
 40
1.794922859432252
 40
1.794922859432252
 40
1.794922859432252
 40
8.217791785374707
 40
8.217791785374707
 40
8.217791785374707
 40
8.217791785374707
 10
-10.18550242650539
 20
9.848077530121605
 30
0.0
 10
-14.34296145700625
 20
9.492059992392753
 30
0.0
 10
-18.41415595439537
 20
8.533437890015846
 30
0.0
 10
-22.43430194959965
 20
7.21821430466181
 30
0.0
  0
SPLINE
  5
4BFD
330
1F
100
AcDbEntity
  8
AM_0
100
AcDbSpline
210
0.0
220
0.0
230
1.0
 70
     8
 71
     3
 72
     8
 73
     4
 74
     0
 42
0.0000000001
 43
0.0000000001
 40
6.513172597598655
 40
6.513172597598655
 40
6.513172597598655
 40
6.513172597598655
 40
17.4246383984571
 40
17.4246383984571
 40
17.4246383984571
 40
17.4246383984571
 10
-10.18550242650539
 20
-7.55070918871978
 30
0.0
 10
-17.10127984093997
 20
-5.790726994056983
 30
0.0
 10
-23.86630343560607
 20
-2.895363497028521
 30
0.0
 10
-30.63132703027215
 20
-0.0000000000000231
 30
0.0
  0
SPLINE
  5
4BFE
330
1F
100
AcDbEntity
  8
AM_0
100
AcDbSpline
210
0.0
220
0.0
230
1.0
 70
     8
 71
     3
 72
     8
 73
     4
 74
     0
 42
0.0000000001
 43
0.0000000001
 40
3.732786119440464
 40
3.732786119440464
 40
3.732786119440464
 40
3.732786119440464
 40
17.48613721147548
 40
17.48613721147548
 40
17.48613721147548
 40
17.48613721147548
 10
-9.762396771742219
 20
-9.08461922190418
 30
0.0
 10
-18.57165380319308
 20
-7.629734215972814
 30
0.0
 10
-27.0527878912773
 20
-3.814867107986661
 30
0.0
 10
-35.53392197936154
 20
-0.0000000000000231
 30
0.0
  0
SPLINE
  5
4BFF
330
1F
100
AcDbEntity
  8
AM_0
100
AcDbSpline
210
0.0
220
0.0
230
1.0
 70
     8
 71
     3
 72
     8
 73
     4
 74
     0
 42
0.0000000001
 43
0.0000000001
 40
1.794922859428793
 40
1.794922859428793
 40
1.794922859428793
 40
1.794922859428793
 40
17.5282628916844
 40
17.5282628916844
 40
17.5282628916844
 40
17.5282628916844
 10
-10.18550242649916
 20
-9.848077530122729
 30
0.0
 10
-20.36953659428842
 20
-8.97598360401118
 30
0.0
 10
-30.03594484229851
 20
-4.487991802005618
 30
0.0
 10
-39.70235309030952
 20
-0.0000000000000231
 30
0.0
  0
SPLINE
  5
4C00
330
1F
100
AcDbEntity
  8
AM_0
100
AcDbSpline
210
0.0
220
0.0
230
1.0
 70
     8
 71
     3
 72
     8
 73
     4
 74
     0
 42
0.0000000001
 43
0.0000000001
 40
0.4192477751875368
 40
0.4192477751875368
 40
0.4192477751875368
 40
0.4192477751875368
 40
4.656267981793611
 40
4.656267981793611
 40
4.656267981793611
 40
4.656267981793611
 10
-63.79710407080353
 20
-10.00000000000224
 30
0.0
 10
-60.06251300581444
 20
-9.379390303272591
 30
0.0
 10
-57.32883526019413
 20
-9.059129860243615
 30
0.0
 10
-54.62175714368814
 20
-8.538538031955152
 30
0.0
  0
SPLINE
  5
4C01
330
1F
100
AcDbEntity
  8
AM_0
100
AcDbSpline
210
0.0
220
0.0
230
1.0
 70
     8
 71
     3
 72
     8
 73
     4
 74
     0
 42
0.0000000001
 43
0.0000000001
 40
0.7484745895110383
 40
0.7484745895110383
 40
0.7484745895110383
 40
0.7484745895110383
 40
17.4246383984571
 40
17.4246383984571
 40
17.4246383984571
 40
17.4246383984571
 10
-62.95135678771362
 20
9.99999999999974
 30
0.0
 10
-51.30950972267925
 20
8.85005861615601
 30
0.0
 10
-40.97041837647569
 20
4.425029308077887
 30
0.0
 10
-30.63132703027215
 20
-0.0000000000000231
 30
0.0
  0
POLYLINE
  5
4C02
330
1F
100
AcDbEntity
  8
AM_0
100
AcDb2dPolyline
 66
     1
 10
0.0
 20
0.0
 30
0.0
 70
     2
  0
VERTEX
  5
4C03
330
4C02
100
AcDbEntity
  8
AM_0
100
AcDbVertex
100
AcDb2dVertex
 10
-46.00012825023662
 20
2.769739924918697
 30
0.0
 42
0.0662925162146809
  0
VERTEX
  5
4C04
330
4C02
100
AcDbEntity
  8
AM_0
100
AcDbVertex
100
AcDb2dVertex
 10
-50.01759211128937
 20
2.179356352729187
 30
0.0
 42
0.0266427629234881
 70
     1
  0
VERTEX
  5
4C05
330
4C02
100
AcDbEntity
  8
AM_0
100
AcDbVertex
100
AcDb2dVertex
 10
-52.2541527559979
 20
1.514953460136662
 30
0.0
 42
0.0133310426104534
  0
VERTEX
  5
4C06
330
4C02
100
AcDbEntity
  8
AM_0
100
AcDbVertex
100
AcDb2dVertex
 10
-57.7999329077668
 20
-0.6347756493376213
 30
0.0
 42
0.0490966498745873
 70
     1
  0
VERTEX
  5
4C07
330
4C02
100
AcDbEntity
  8
AM_0
100
AcDbVertex
100
AcDb2dVertex
 10
-59.09687235878013
 20
-1.637912484062092
 30
0.0
 42
0.0154754160610923
  0
VERTEX
  5
4C08
330
4C02
100
AcDbEntity
  8
AM_0
100
AcDbVertex
100
AcDb2dVertex
 10
-60.68588583462595
 20
-3.076296199091543
 30
0.0
 42
0.1124288503526285
 70
     1
  0
VERTEX
  5
4C09
330
4C02
100
AcDbEntity
  8
AM_0
100
AcDbVertex
100
AcDb2dVertex
 10
-60.9207622430058
 20
-4.283321224802391
 30
0.0
 42
0.2320489978593618
  0
VERTEX
  5
4C0A
330
4C02
100
AcDbEntity
  8
AM_0
100
AcDbVertex
100
AcDb2dVertex
 10
-60.63645152868816
 20
-4.813854116055575
 30
0.0
 42
0.0671524414269103
 70
     1
  0
VERTEX
  5
4C0B
330
4C02
100
AcDbEntity
  8
AM_0
100
AcDbVertex
100
AcDb2dVertex
 10
-59.23301035657377
 20
-5.735551651871418
 30
0.0
 42
0.0680629650187303
  0
VERTEX
  5
4C0C
330
4C02
100
AcDbEntity
  8
AM_0
100
AcDbVertex
100
AcDb2dVertex
 10
-57.81871495003901
 20
-6.37164994750444
 30
0.0
 42
0.015309379493102
 70
     1
  0
VERTEX
  5
4C0D
330
4C02
100
AcDbEntity
  8
AM_0
100
AcDbVertex
100
AcDb2dVertex
 10
-52.20172671589431
 20
-7.719033298554617
 30
0.0
 42
0.0278025959802376
  0
VERTEX
  5
4C0E
330
4C02
100
AcDbEntity
  8
AM_0
100
AcDbVertex
100
AcDb2dVertex
 10
-49.88835954918907
 20
-7.903017068667796
 30
0.0
 42
0.0182596520050883
 70
     1
  0
VERTEX
  5
4C0F
330
4C02
100
AcDbEntity
  8
AM_0
100
AcDbVertex
100
AcDb2dVertex
 10
-46.35712825023662
 20
-8.249216941965961
 30
0.0
  0
SEQEND
  5
4C10
330
4C02
100
AcDbEntity
  8
AM_0
  0
LINE
  5
4C11
330
1F
100
AcDbEntity
  8
AM_11
100
AcDbLine
 10
-46.00012825023661
 20
9.999999999999735
 30
0.0
 11
-46.00012825023664
 21
-10.00000000000003
 31
0.0
  0
ARC
  5
4CE2
330
1F
100
AcDbEntity
  8
AM_0
100
AcDbCircle
 10
-10.0
 20
-0.1519224698768221
 30
0.0
 40
10.0
100
AcDbArc
 50
0.870485121205805
 51
90.00000000000005
  0
ARC
  5
4CE3
330
1F
100
AcDbEntity
  8
AM_11
100
AcDbCircle
 10
-10.0
 20
0.0000000000013506
 30
0.0
 40
10.0
100
AcDbArc
 50
270.0
 51
90.00000000000005
  0
ARC
  5
4CE4
330
1F
100
AcDbEntity
  8
AM_0
100
AcDbCircle
 10
-10.00288053730988
 20
0.1531542656390495
 30
0.0
 40
10.00289898914896
100
AcDbArc
 50
268.9538987787822
 51
359.1227107328449
  0
DIMENSION
  5
4D47
330
1F
100
AcDbEntity
  8
AM_5
100
AcDbDimension
  2
*D9
 10
-10.00000000000091
 20
0.1519224698690644
 30
0.0
 11
5.936626206528445
 21
-18.71443057115857
 31
0.0
 70
   164
  1
<>
  3
AM_JIS$4
100
AcDbRadialDimension
 15
-3.547000803389487
 25
-7.487370780722406
 35
0.0
 40
0.0
1001
GENIUS_GENDTOL_13
1000

1000
h7
1000

1040
0.0
1001
ACAD
1000
DSTYLE
1002
{
1070
   287
1070
     3
1070
   271
1070
     3
1070
   288
1070
     1
1070
   289
1070
     3
1070
   172
1070
     1
1070
    74
1070
     0
1002
}
  0
LINE
  5
4E35
330
1F
100
AcDbEntity
  8
AM_0
100
AcDbLine
 10
-0.000000000002359
 20
0.0000000000013642
 30
0.0
 11
-12.02451427442158
 21
6.853797322899268
 31
0.0
  0
LINE
  5
4E36
330
1F
100
AcDbEntity
  8
AM_0
100
AcDbLine
 10
-1.400000000002503
 20
-0.3524093605088057
 30
0.0
 11
-10.6332465151325
 21
2.777703297698272
 31
0.0
  0
LINE
  5
4E37
330
1F
100
AcDbEntity
  8
AM_0
100
AcDbLine
 10
-0.000000000002359
 20
0.0000000000013642
 30
0.0
 11
-0.4600000000023954
 21
-0.3524093605087728
 31
0.0
  0
LINE
  5
4E38
330
1F
100
AcDbEntity
  8
AM_0
100
AcDbLine
 10
-0.4600000000023954
 20
-0.3524093605087728
 30
0.0
 11
-1.400000000002904
 21
-0.3524093605087728
 31
0.0
  0
ARC
  5
4E39
330
1F
100
AcDbEntity
  8
AM_0
100
AcDbCircle
 10
-9.629289739728113
 20
2.650838517668955
 30
0.0
 40
8.760177363394671
100
AcDbArc
 50
274.2545551411542
 51
339.9506388919338
  0
ARC
  5
4E3A
330
1F
100
AcDbEntity
  8
AM_0
100
AcDbCircle
 10
-10.25014512075034
 20
0.7559901326994684
 30
0.0
 40
9.8526895273241
100
AcDbArc
 50
272.8375347349837
 51
353.5407145497748
  0
VIEWPORT
  5
110
330
101
100
AcDbEntity
 67
     1
  8
0
100
AcDbViewport
 10
420.5
 20
297.0
 30
0.0
 40
948.9782706766916
 41
628.452
 68
     1
 69
     1
1001
ACAD
1000
MVIEW
1002
{
1070
    16
1010
0.0
1020
0.0
1030
0.0
1010
0.0
1020
0.0
1030
1.0
1040
0.0
1040
628.452
1040
420.5
1040
297.0
1040
50.0
1040
0.0
1040
0.0
1070
     0
1070
   100
1070
     1
1070
     1
1070
     0
1070
     0
1070
     0
1070
     0
1040
0.0
1040
0.0
1040
0.0
1040
10.0
1040
10.0
1040
10.0
1040
10.0
1070
     0
1002
{
1002
}
1002
}
  0
ENDSEC
  0
SECTION
  2
OBJECTS
  0
DICTIONARY
  5
C
330
0
100
AcDbDictionary
  3
ACAD_GROUP
350
D
  3
ACAD_LAYOUT
350
1A
  3
ACAD_MLINESTYLE
350
17
  3
ACAD_PLOTSETTINGS
350
19
  3
ACAD_PLOTSTYLENAME
350
E
  3
ACDBVARIABLEDICTIONARY
350
34
  3
ACMDICTIONARY
350
43
  3
AMG
350
2B
  3
AMGSNAPSETTINGS
350
6E
  3
ASE_INDEX_DICTIONARY
350
151A
  3
DWGPROPS
350
4EDD
  3
ACDBHEADERROUNDTRIPXREC
350
4EE9
  0
DICTIONARY
  5
74
330
1F
100
AcDbDictionary
280
     1
  3
ACAD_INDEX
360
4EDF
  3
ACAD_LAYOUTSELFREF
360
4F0C
  0
DICTIONARY
  5
4F11
330
101
100
AcDbDictionary
280
     1
  3
ACAD_LAYOUTSELFREF
360
4F12
  0
DICTIONARY
  5
D
102
{ACAD_REACTORS
330
C
102
}
330
C
100
AcDbDictionary
  0
DICTIONARY
  5
1A
102
{ACAD_REACTORS
330
C
102
}
330
C
100
AcDbDictionary
  0
DICTIONARY
  5
17
102
{ACAD_REACTORS
330
C
102
}
330
C
100
AcDbDictionary
  3
STANDARD
350
18
  0
DICTIONARY
  5
19
102
{ACAD_REACTORS
330
C
102
}
330
C
100
AcDbDictionary
  0
ACDBDICTIONARYWDFLT
  5
E
102
{ACAD_REACTORS
330
C
102
}
330
C
100
AcDbDictionary
281
     1
  3
Normal
350
F
100
AcDbDictionaryWithDefault
340
F
  0
DICTIONARY
  5
34
102
{ACAD_REACTORS
330
C
102
}
330
C
100
AcDbDictionary
  3
INDEXCTL
350
35
  3
SORTENTS
350
B5E
  0
DICTIONARY
  5
43
102
{ACAD_REACTORS
330
C
102
}
330
C
100
AcDbDictionary
  3
ACMSTDDICTIONARY
350
260
  0
DICTIONARY
  5
2B
102
{ACAD_REACTORS
330
C
102
}
330
C
100
AcDbDictionary
  3
ACMGSETTINGS
350
2C
  0
DICTIONARY
  5
6E
102
{ACAD_REACTORS
330
C
102
}
330
C
100
AcDbDictionary
  0
DICTIONARY
  5
151A
102
{ACAD_REACTORS
330
C
102
}
330
C
100
AcDbDictionary
  3
ASEBLOCKHIERARCHYINDEXRECORD
350
151C
1001
DCO15
1040
1471862535.906
  0
XRECORD
  5
4EDD
102
{ACAD_REACTORS
330
C
102
}
330
C
100
AcDbXrecord
  1
DWGPROPS COOKIE
  2

  3

  4

  6

  7

  8

  9

300
AmdtFileType=82
301
=
302
=
303
=
304
=
305
=
306
=
307
=
308
=
309
=
 40
0.1661393287037037
 41
2452838.430434386
 42
2452901.586748402
  1

 90
        1
  0
DICTIONARY
  5
4EE9
102
{ACAD_REACTORS
330
C
102
}
330
C
100
AcDbDictionary
  3
TSTACKALIGN
350
4EEA
  3
TSTACKSIZE
350
4EEB
  3
HYPERLINKBASE
350
4EEC
  3
STYLESHEET
350
4EED
  3
LAYOUTDICT
350
4EEE
  3
PLOTSETDICT
350
4EEF
  3
PLOTSTYLNAMDICT
350
4EF0
  3
LWETCUNION
350
4EF1
  3
INSUNITS
350
4EF2
  3
CEPSNTYPE
350
4EF3
  3
FINGERPRINTGUID
350
4EF4
  3
VERSIONGUID
350
4EF5
  3
PSVPSCALE
350
4EF6
  3
DIMSTYLEDATA
350
4EF7
  3
PUCSORTHOREF
350
4EF8
  3
PUCSORTHOVIEW
350
4EF9
  3
PUCSBASE
350
4EFA
  3
PUCSORGTOP
350
4EFB
  3
PUCSORGBOTTOM
350
4EFC
  3
PUCSORGLEFT
350
4EFD
  3
PUCSORGRIGHT
350
4EFE
  3
PUCSORGFRONT
350
4EFF
  3
PUCSORGBACK
350
4F00
  3
UCSORTHOREF
350
4F01
  3
UCSORTHOVIEW
350
4F02
  3
UCSBASE
350
4F03
  3
UCSORGTOP
350
4F04
  3
UCSORGBOTTOM
350
4F05
  3
UCSORGLEFT
350
4F06
  3
UCSORGRIGHT
350
4F07
  3
UCSORGFRONT
350
4F08
  3
UCSORGBACK
350
4F09
  0
DICTIONARY
  5
4EDF
102
{ACAD_REACTORS
330
74
102
}
330
74
100
AcDbDictionary
  3
*A1
350
4EE0
  0
XRECORD
  5
4F0C
102
{ACAD_REACTORS
330
74
102
}
330
74
100
AcDbXrecord
340
1F
  0
XRECORD
  5
4F12
102
{ACAD_REACTORS
330
4F11
102
}
330
4F11
100
AcDbXrecord
340
101
  0
MLINESTYLE
  5
18
102
{ACAD_REACTORS
330
17
102
}
330
17
100
AcDbMlineStyle
  2
STANDARD
 70
     0
  3

 62
   256
 51
90.0
 52
90.0
 71
     2
 49
0.5
 62
   256
  6
BYLAYER
 49
-0.5
 62
   256
  6
BYLAYER
  0
ACDBPLACEHOLDER
  5
F
102
{ACAD_REACTORS
330
E
102
}
330
E
100
AcDbPlaceHolder
280
     0
  0
DICTIONARYVAR
  5
35
102
{ACAD_REACTORS
330
34
102
}
330
34
100
DictionaryVariables
280
     0
  1
1
  0
DICTIONARYVAR
  5
B5E
102
{ACAD_REACTORS
330
34
102
}
330
34
100
DictionaryVariables
280
     0
  1
96
  0
DICTIONARY
  5
260
102
{ACAD_REACTORS
330
43
102
}
330
43
100
AcDbDictionary
  0
DICTIONARY
  5
2C
102
{ACAD_REACTORS
330
2B
102
}
330
2B
100
AcDbDictionary
  3
DWGSETTINGS
350
2D
  0
XRECORD
  5
151C
102
{ACAD_REACTORS
330
151A
102
}
330
151A
100
AcDbXrecord
330
0
330
0
330
0
330
0
330
0
330
0
330
0
330
0
  0
XRECORD
  5
4EEA
102
{ACAD_REACTORS
330
4EE9
102
}
330
4EE9
100
AcDbXrecord
 90
        1
  0
XRECORD
  5
4EEB
102
{ACAD_REACTORS
330
4EE9
102
}
330
4EE9
100
AcDbXrecord
 90
       70
  0
XRECORD
  5
4EEC
102
{ACAD_REACTORS
330
4EE9
102
}
330
4EE9
100
AcDbXrecord
  1

  0
XRECORD
  5
4EED
102
{ACAD_REACTORS
330
4EE9
102
}
330
4EE9
100
AcDbXrecord
  1
ASAMI.ctb
  0
XRECORD
  5
4EEE
102
{ACAD_REACTORS
330
4EE9
102
}
330
4EE9
100
AcDbXrecord
340
1A
  0
XRECORD
  5
4EEF
102
{ACAD_REACTORS
330
4EE9
102
}
330
4EE9
100
AcDbXrecord
340
19
  0
XRECORD
  5
4EF0
102
{ACAD_REACTORS
330
4EE9
102
}
330
4EE9
100
AcDbXrecord
340
E
  0
XRECORD
  5
4EF1
102
{ACAD_REACTORS
330
4EE9
102
}
330
4EE9
100
AcDbXrecord
 90
    10781
  0
XRECORD
  5
4EF2
102
{ACAD_REACTORS
330
4EE9
102
}
330
4EE9
100
AcDbXrecord
 90
        4
  0
XRECORD
  5
4EF3
102
{ACAD_REACTORS
330
4EE9
102
}
330
4EE9
100
AcDbXrecord
 90
        0
  0
XRECORD
  5
4EF4
102
{ACAD_REACTORS
330
4EE9
102
}
330
4EE9
100
AcDbXrecord
  1
{AFB28963-8C59-40AE-9337-C84526B81ACE}
  0
XRECORD
  5
4EF5
102
{ACAD_REACTORS
330
4EE9
102
}
330
4EE9
100
AcDbXrecord
  1
{DF0FD422-42B2-4988-8946-D3AC755E0E91}
  0
XRECORD
  5
4EF6
102
{ACAD_REACTORS
330
4EE9
102
}
330
4EE9
100
AcDbXrecord
 40
0.0
  0
XRECORD
  5
4EF7
102
{ACAD_REACTORS
330
4EE9
102
}
330
4EE9
100
AcDbXrecord
1000
DSTYLE
1002
{
1070
    79
 70
     2
1070
   341
340
59
1070
   342
340
59
1070
   371
 70
    -1
1070
   372
 70
    -1
1002
}
  0
XRECORD
  5
4EF8
102
{ACAD_REACTORS
330
4EE9
102
}
330
4EE9
100
AcDbXrecord
340
0
  0
XRECORD
  5
4EF9
102
{ACAD_REACTORS
330
4EE9
102
}
330
4EE9
100
AcDbXrecord
 70
     0
  0
XRECORD
  5
4EFA
102
{ACAD_REACTORS
330
4EE9
102
}
330
4EE9
100
AcDbXrecord
340
0
  0
XRECORD
  5
4EFB
102
{ACAD_REACTORS
330
4EE9
102
}
330
4EE9
100
AcDbXrecord
 10
0.0
 20
0.0
 30
0.0
  0
XRECORD
  5
4EFC
102
{ACAD_REACTORS
330
4EE9
102
}
330
4EE9
100
AcDbXrecord
 10
0.0
 20
0.0
 30
0.0
  0
XRECORD
  5
4EFD
102
{ACAD_REACTORS
330
4EE9
102
}
330
4EE9
100
AcDbXrecord
 10
0.0
 20
0.0
 30
0.0
  0
XRECORD
  5
4EFE
102
{ACAD_REACTORS
330
4EE9
102
}
330
4EE9
100
AcDbXrecord
 10
0.0
 20
0.0
 30
0.0
  0
XRECORD
  5
4EFF
102
{ACAD_REACTORS
330
4EE9
102
}
330
4EE9
100
AcDbXrecord
 10
0.0
 20
0.0
 30
0.0
  0
XRECORD
  5
4F00
102
{ACAD_REACTORS
330
4EE9
102
}
330
4EE9
100
AcDbXrecord
 10
0.0
 20
0.0
 30
0.0
  0
XRECORD
  5
4F01
102
{ACAD_REACTORS
330
4EE9
102
}
330
4EE9
100
AcDbXrecord
340
0
  0
XRECORD
  5
4F02
102
{ACAD_REACTORS
330
4EE9
102
}
330
4EE9
100
AcDbXrecord
 70
     0
  0
XRECORD
  5
4F03
102
{ACAD_REACTORS
330
4EE9
102
}
330
4EE9
100
AcDbXrecord
340
0
  0
XRECORD
  5
4F04
102
{ACAD_REACTORS
330
4EE9
102
}
330
4EE9
100
AcDbXrecord
 10
0.0
 20
0.0
 30
0.0
  0
XRECORD
  5
4F05
102
{ACAD_REACTORS
330
4EE9
102
}
330
4EE9
100
AcDbXrecord
 10
0.0
 20
0.0
 30
0.0
  0
XRECORD
  5
4F06
102
{ACAD_REACTORS
330
4EE9
102
}
330
4EE9
100
AcDbXrecord
 10
0.0
 20
0.0
 30
0.0
  0
XRECORD
  5
4F07
102
{ACAD_REACTORS
330
4EE9
102
}
330
4EE9
100
AcDbXrecord
 10
0.0
 20
0.0
 30
0.0
  0
XRECORD
  5
4F08
102
{ACAD_REACTORS
330
4EE9
102
}
330
4EE9
100
AcDbXrecord
 10
0.0
 20
0.0
 30
0.0
  0
XRECORD
  5
4F09
102
{ACAD_REACTORS
330
4EE9
102
}
330
4EE9
100
AcDbXrecord
 10
0.0
 20
0.0
 30
0.0
  0
LAYER_INDEX
  5
4EE0
102
{ACAD_REACTORS
330
4EDF
102
}
330
4EDF
100
AcDbIndex
 40
2453152.436017882
100
AcDbLayerIndex
  8
0
360
4EE1
 90
        0
  8
AM_0
360
4EE2
 90
       32
  8
AM_11
360
4EE3
 90
        4
  8
AM_7
360
4EE4
 90
        1
  8
AM_5
360
4EE5
 90
        5
  8
Defpoints
360
4EE6
 90
        0
  8
AM_6
360
4EE7
 90
        1
  0
XRECORD
  5
2D
102
{ACAD_REACTORS
330
2C
102
}
330
2C
100
AcDbXrecord
  1
VERSION
140
15.0
  1
PRODUCT
  2
AutoCAD Mechanical 2000
  0
IDBUFFER
  5
4EE1
330
0
100
AcDbIdBuffer
  0
IDBUFFER
  5
4EE2
330
0
100
AcDbIdBuffer
330
4BFB
330
4BFC
330
4BFD
330
4BFE
330
4BFF
330
4C00
330
4C01
330
4C02
330
4CE2
330
4CE4
330
4E35
330
4E36
330
4E37
330
4E38
330
4E39
330
4E3A
330
4A0A
330
4A0D
330
4A0E
330
4A1C
330
4A28
330
4A2B
330
4BE8
330
4BE9
330
4BEA
330
4BEC
330
4BED
330
4BF2
330
4BF7
330
4BF8
330
4BF9
330
4BFA
  0
IDBUFFER
  5
4EE3
330
0
100
AcDbIdBuffer
330
4BE7
330
4BEB
330
4C11
330
4CE3
  0
IDBUFFER
  5
4EE4
330
0
100
AcDbIdBuffer
330
3EE8
  0
IDBUFFER
  5
4EE5
330
0
100
AcDbIdBuffer
330
4047
330
412A
330
42F4
330
4A0F
330
4D47
  0
IDBUFFER
  5
4EE6
330
0
100
AcDbIdBuffer
  0
IDBUFFER
  5
4EE7
330
0
100
AcDbIdBuffer
330
1500
  0
ENDSEC
  0
EOF
