  0
SECTION
  2
HEADER
  9
$ACADVER
  1
AC1014
  9
$ACADMAINTVER
 70
     9
  9
$DWGCODEPAGE
  3
ANSI_932
  9
$INSBASE
 10
0.0
 20
0.0
 30
0.0
  9
$EXTMIN
 10
-218.7
 20
-66.11768724371026
 30
-0.00000001
  9
$EXTMAX
 10
15.0028127271194
 20
15.17146988760715
 30
0.00000001
  9
$LIMMIN
 10
-236.686549955473
 20
-111.1168612149082
  9
$LIMMAX
 10
38.33410441611226
 20
47.35199975726965
  9
$ORTHOMODE
 70
     0
  9
$REGENMODE
 70
     1
  9
$FILLMODE
 70
     1
  9
$QTEXTMODE
 70
     0
  9
$MIRRTEXT
 70
     0
  9
$DRAGMODE
 70
     2
  9
$LTSCALE
 40
0.3
  9
$OSMODE
 70
    55
  9
$ATTMODE
 70
     1
  9
$TEXTSIZE
 40
2.5
  9
$TRACEWID
 40
1.0
  9
$TEXTSTYLE
  7
STANDARD
  9
$CLAYER
  8
AM_0
  9
$CELTYPE
  6
BYLAYER
  9
$CECOLOR
 62
   256
  9
$CELTSCALE
 40
1.0
  9
$DELOBJ
 70
     1
  9
$DISPSILH
 70
     0
  9
$DIMSCALE
 40
0.5
  9
$DIMASZ
 40
2.5
  9
$DIMEXO
 40
1.0
  9
$DIMDLI
 40
12.0
  9
$DIMRND
 40
0.0
  9
$DIMDLE
 40
0.0
  9
$DIMEXE
 40
1.0
  9
$DIMTP
 40
0.1
  9
$DIMTM
 40
0.1
  9
$DIMTXT
 40
3.2
  9
$DIMCEN
 40
0.0
  9
$DIMTSZ
 40
0.0
  9
$DIMTOL
 70
     0
  9
$DIMLIM
 70
     0
  9
$DIMTIH
 70
     0
  9
$DIMTOH
 70
     0
  9
$DIMSE1
 70
     0
  9
$DIMSE2
 70
     0
  9
$DIMTAD
 70
     3
  9
$DIMZIN
 70
     8
  9
$DIMBLK
  1
OPEN30
  9
$DIMASO
 70
     1
  9
$DIMSHO
 70
     1
  9
$DIMPOST
  1

  9
$DIMAPOST
  1
"
  9
$DIMALT
 70
     0
  9
$DIMALTD
 70
     2
  9
$DIMALTF
 40
0.0393701
  9
$DIMLFAC
 40
1.0
  9
$DIMTOFL
 70
     1
  9
$DIMTVP
 40
0.0
  9
$DIMTIX
 70
     0
  9
$DIMSOXD
 70
     0
  9
$DIMSAH
 70
     0
  9
$DIMBLK1
  1

  9
$DIMBLK2
  1

  9
$DIMSTYLE
  2
AM_JIS
  9
$DIMCLRD
 70
   256
  9
$DIMCLRE
 70
   256
  9
$DIMCLRT
 70
     2
  9
$DIMTFAC
 40
0.71
  9
$DIMGAP
 40
1.5
  9
$DIMJUST
 70
     0
  9
$DIMSD1
 70
     0
  9
$DIMSD2
 70
     0
  9
$DIMTOLJ
 70
     0
  9
$DIMTZIN
 70
     0
  9
$DIMALTZ
 70
     0
  9
$DIMALTTZ
 70
     0
  9
$DIMFIT
 70
     3
  9
$DIMUPT
 70
     0
  9
$DIMUNIT
 70
     2
  9
$DIMDEC
 70
     3
  9
$DIMTDEC
 70
     3
  9
$DIMALTU
 70
     2
  9
$DIMALTTD
 70
     2
  9
$DIMTXSTY
  7
ASAMI
  9
$DIMAUNIT
 70
     0
  9
$LUNITS
 70
     2
  9
$LUPREC
 70
     2
  9
$SKETCHINC
 40
1.0
  9
$FILLETRAD
 40
0.5
  9
$AUNITS
 70
     0
  9
$AUPREC
 70
     0
  9
$MENU
  1
.
  9
$ELEVATION
 40
0.0
  9
$PELEVATION
 40
0.0
  9
$THICKNESS
 40
0.0
  9
$LIMCHECK
 70
     0
  9
$BLIPMODE
 70
     0
  9
$CHAMFERA
 40
2.5
  9
$CHAMFERB
 40
2.5
  9
$CHAMFERC
 40
20.0
  9
$CHAMFERD
 40
0.0
  9
$SKPOLY
 70
     0
  9
$TDCREATE
 40
2452838.620506898
  9
$TDUPDATE
 40
2453151.895743726
  9
$TDINDWG
 40
0.3873933565
  9
$TDUSRTIMER
 40
0.3873933565
  9
$USRTIMER
 70
     1
  9
$ANGBASE
 50
0.0
  9
$ANGDIR
 70
     0
  9
$PDMODE
 70
     0
  9
$PDSIZE
 40
0.0
  9
$PLINEWID
 40
0.0
  9
$COORDS
 70
     1
  9
$SPLFRAME
 70
     0
  9
$SPLINETYPE
 70
     6
  9
$SPLINESEGS
 70
     8
  9
$ATTDIA
 70
     1
  9
$ATTREQ
 70
     1
  9
$HANDLING
 70
 12289
  9
$HANDSEED
  5
303B
  9
$SURFTAB1
 70
     6
  9
$SURFTAB2
 70
     6
  9
$SURFTYPE
 70
     6
  9
$SURFU
 70
     6
  9
$SURFV
 70
     6
  9
$UCSNAME
  2

  9
$UCSORG
 10
-0.0000000000000568
 20
-0.0000000000000036
 30
0.0
  9
$UCSXDIR
 10
1.0
 20
0.0
 30
0.0
  9
$UCSYDIR
 10
0.0
 20
1.0
 30
0.0
  9
$PUCSNAME
  2

  9
$PUCSORG
 10
0.0
 20
0.0
 30
0.0
  9
$PUCSXDIR
 10
1.0
 20
0.0
 30
0.0
  9
$PUCSYDIR
 10
0.0
 20
1.0
 30
0.0
  9
$USERI1
 70
     0
  9
$USERI2
 70
     0
  9
$USERI3
 70
     0
  9
$USERI4
 70
     0
  9
$USERI5
 70
     0
  9
$USERR1
 40
0.0
  9
$USERR2
 40
0.0
  9
$USERR3
 40
0.0
  9
$USERR4
 40
0.0
  9
$USERR5
 40
0.0
  9
$WORLDVIEW
 70
     1
  9
$SHADEDGE
 70
     3
  9
$SHADEDIF
 70
    70
  9
$TILEMODE
 70
     1
  9
$MAXACTVP
 70
    64
  9
$PINSBASE
 10
0.0
 20
0.0
 30
0.0
  9
$PLIMCHECK
 70
     0
  9
$PEXTMIN
 10
1.000000000000000E+20
 20
1.000000000000000E+20
 30
1.000000000000000E+20
  9
$PEXTMAX
 10
-1.000000000000000E+20
 20
-1.000000000000000E+20
 30
-1.000000000000000E+20
  9
$PLIMMIN
 10
0.0
 20
0.0
  9
$PLIMMAX
 10
841.0
 20
594.0
  9
$UNITMODE
 70
     0
  9
$VISRETAIN
 70
     1
  9
$PLINEGEN
 70
     0
  9
$PSLTSCALE
 70
     0
  9
$TREEDEPTH
 70
  3020
  9
$PICKSTYLE
 70
     0
  9
$CMLSTYLE
  2
STANDARD
  9
$CMLJUST
 70
     0
  9
$CMLSCALE
 40
20.0
  9
$PROXYGRAPHICS
 70
     1
  9
$MEASUREMENT
 70
     1
  0
ENDSEC
  0
SECTION
  2
CLASSES
  0
CLASS
  1
ACDBDICTIONARYWDFLT
  2
AcDbDictionaryWithDefault
  3
AutoCAD 2000
 90
        0
280
     0
281
     0
  0
CLASS
  1
ACDBPLACEHOLDER
  2
AcDbPlaceHolder
  3
AutoCAD 2000
 90
        0
280
     0
281
     0
  0
CLASS
  1
LAYOUT
  2
AcDbLayout
  3
AutoCAD 2000
 90
        0
280
     0
281
     0
  0
CLASS
  1
AMGSETTINGSOBJ
  2
AmgSettingsObj
  3
"AcadM|Product Description: AutoCAD Mechanical 2000|Company: Autodesk"
 90
        0
280
     0
281
     0
  0
CLASS
  1
ACME_DOCUMENT
  2
AcMeDbDoc
  3
AcMeServices
 90
        0
280
     0
281
     0
  0
CLASS
  1
ACMESCOPE
  2
AcMeScope
  3
AcMeServices
 90
        0
280
     0
281
     0
  0
CLASS
  1
ACMECOMMANDHISTORY
  2
AcMeCommandHistory
  3
AcMeServices
 90
        0
280
     0
281
     0
  0
CLASS
  1
DICTIONARYVAR
  2
AcDbDictionaryVar
  3
AutoCAD 2000
 90
        0
280
     0
281
     0
  0
CLASS
  1
ACIMSYSVARMAN
  2
AcImSysVarManager
  3
AcMeServices
 90
        0
280
     0
281
     0
  0
CLASS
  1
ACIMREALSYSVAR
  2
AcImRealSysVar
  3
AcMeServices
 90
        0
280
     0
281
     0
  0
CLASS
  1
ACIMINTSYSVAR
  2
AcImIntSysVar
  3
AcMeServices
 90
        0
280
     0
281
     0
  0
CLASS
  1
ACMEDRAWINGMAN
  2
AcMeDrawingMan
  3
AcMeServices
 90
        0
280
     0
281
     0
  0
CLASS
  1
ACMEVIEW
  2
AcMeView
  3
AcMeServices
 90
        0
280
     0
281
     0
  0
CLASS
  1
ACDBENTITYCACHE
  2
AcMeEntityCache
  3
AcMeServices
 90
        0
280
     0
281
     0
  0
CLASS
  1
GSMANAGER
  2
AcMeGSManager
  3
AcMeServices
 90
        0
280
     0
281
     0
  0
CLASS
  1
AmdtInternalReactor
  2
AmdtInternalReactor
  3
AcMeServices
 90
        0
280
     0
281
     0
  0
CLASS
  1
ACMESTATEMGR
  2
AcMeStateMgr
  3
AcMeServices
 90
        0
280
     0
281
     0
  0
CLASS
  1
ACME_DATABASE
  2
AcMeDbDatabase
  3
AcMeServices
 90
        0
280
     0
281
     0
  0
CLASS
  1
ACRFINSADJUSTERMGR
  2
AcRfInsAdjusterMgr
  3
AcMeServices
 90
        0
280
     0
281
     0
  0
CLASS
  1
ACMDATADICTIONARY
  2
AcmDataDictionary
  3
"AcmSymBB|Product Description: AutoCAD Mechanical 2000|Company: Autodesk"
 90
        0
280
     0
281
     0
  0
CLASS
  1
ACMDATAENTRYBLOCK
  2
AcmDataEntryBlock
  3
"AcmSymBB|Product Description: AutoCAD Mechanical 2000|Company: Autodesk"
 90
        0
280
     0
281
     0
  0
CLASS
  1
AMGOBJPROPCFG
  2
AmgObjPropCfg
  3
"AmgLay|Product Description: AutoCAD Mechanical 2000|Company: Autodesk"
 90
        1
280
     0
281
     0
  0
CLASS
  1
ACAMGFILTERDAT
  2
AcAmgFilterDat
  3
"AcadM|Product Description: AutoCAD Mechanical 2000|Company: Autodesk"
 90
        0
280
     0
281
     0
  0
CLASS
  1
LAYER_INDEX
  2
AcDbLayerIndex
  3
AutoCAD 2000
 90
        0
280
     0
281
     0
  0
CLASS
  1
IDBUFFER
  2
AcDbIdBuffer
  3
AutoCAD 2000
 90
        0
280
     0
281
     0
  0
CLASS
  1
ACIMSTRSYSVAR
  2
AcImStrSysVar
  3
AcMeServices
 90
        0
280
     0
281
     0
  0
CLASS
  1
ACMSTANDARDJIS
  2
AcmStandardJIS
  3
"AcmSymBB|Product Description: AutoCAD Mechanical 2000|Company: Autodesk"
 90
        0
280
     0
281
     0
  0
CLASS
  1
ACMSURFSTANDARDJIS
  2
AcmSurfTextStdJIS
  3
"AcmSymBB|Product Description: AutoCAD Mechanical 2000|Company: Autodesk"
 90
        0
280
     0
281
     0
  0
CLASS
  1
ACMFCFSTANDARDJIS
  2
AcmFCFStdJIS
  3
"AcmSymBB|Product Description: AutoCAD Mechanical 2000|Company: Autodesk"
 90
        0
280
     0
281
     0
  0
CLASS
  1
ACMWELDSTANDARDJIS
  2
AcmWeldingStdJIS
  3
"AcmSymBB|Product Description: AutoCAD Mechanical 2000|Company: Autodesk"
 90
        0
280
     0
281
     0
  0
CLASS
  1
ACMIDSTANDARDJIS
  2
AcmIdStdJIS
  3
"AcmSymBB|Product Description: AutoCAD Mechanical 2000|Company: Autodesk"
 90
        0
280
     0
281
     0
  0
CLASS
  1
ACMDATUMSTANDARDJIS
  2
AcmDatumStdJIS
  3
"AcmSymBB|Product Description: AutoCAD Mechanical 2000|Company: Autodesk"
 90
        0
280
     0
281
     0
  0
CLASS
  1
ACMBOMSTANDARDJIS
  2
AcmBOMStdJIS
  3
"AcmSymBB|Product Description: AutoCAD Mechanical 2000|Company: Autodesk"
 90
        0
280
     0
281
     0
  0
CLASS
  1
ACMSTANDARDANSI
  2
AcmStandardANSI
  3
"AcmSymBB|Product Description: AutoCAD Mechanical 2000|Company: Autodesk"
 90
        0
280
     0
281
     0
  0
CLASS
  1
ACMSURFSTANDARDANSI
  2
AcmSurfTextStdANSI
  3
"AcmSymBB|Product Description: AutoCAD Mechanical 2000|Company: Autodesk"
 90
        0
280
     0
281
     0
  0
CLASS
  1
ACMFCFSTANDARDANSI
  2
AcmFCFStdANSI
  3
"AcmSymBB|Product Description: AutoCAD Mechanical 2000|Company: Autodesk"
 90
        0
280
     0
281
     0
  0
CLASS
  1
ACMWELDSTANDARDANSI
  2
AcmWeldingStdANSI
  3
"AcmSymBB|Product Description: AutoCAD Mechanical 2000|Company: Autodesk"
 90
        0
280
     0
281
     0
  0
CLASS
  1
ACMIDSTANDARDANSI
  2
AcmIdStdANSI
  3
"AcmSymBB|Product Description: AutoCAD Mechanical 2000|Company: Autodesk"
 90
        0
280
     0
281
     0
  0
CLASS
  1
ACMDATUMSTANDARDANSI
  2
AcmDatumStdANSI
  3
"AcmSymBB|Product Description: AutoCAD Mechanical 2000|Company: Autodesk"
 90
        0
280
     0
281
     0
  0
CLASS
  1
ACMBOMSTANDARDANSI
  2
AcmBOMStdANSI
  3
"AcmSymBB|Product Description: AutoCAD Mechanical 2000|Company: Autodesk"
 90
        0
280
     0
281
     0
  0
CLASS
  1
ACMSTANDARDBSI
  2
AcmStandardBSI
  3
"AcmSymBB|Product Description: AutoCAD Mechanical 2000|Company: Autodesk"
 90
        0
280
     0
281
     0
  0
CLASS
  1
ACMSURFSTANDARDBSI
  2
AcmSurfTextStdBSI
  3
"AcmSymBB|Product Description: AutoCAD Mechanical 2000|Company: Autodesk"
 90
        0
280
     0
281
     0
  0
CLASS
  1
ACMFCFSTANDARDBSI
  2
AcmFCFStdBSI
  3
"AcmSymBB|Product Description: AutoCAD Mechanical 2000|Company: Autodesk"
 90
        0
280
     0
281
     0
  0
CLASS
  1
ACMWELDSTANDARDBSI
  2
AcmWeldingStdBSI
  3
"AcmSymBB|Product Description: AutoCAD Mechanical 2000|Company: Autodesk"
 90
        0
280
     0
281
     0
  0
CLASS
  1
ACMIDSTANDARDBSI
  2
AcmIdStdBSI
  3
"AcmSymBB|Product Description: AutoCAD Mechanical 2000|Company: Autodesk"
 90
        0
280
     0
281
     0
  0
CLASS
  1
ACMDATUMSTANDARDBSI
  2
AcmDatumStdBSI
  3
"AcmSymBB|Product Description: AutoCAD Mechanical 2000|Company: Autodesk"
 90
        0
280
     0
281
     0
  0
CLASS
  1
ACMBOMSTANDARDBSI
  2
AcmBOMStdBSI
  3
"AcmSymBB|Product Description: AutoCAD Mechanical 2000|Company: Autodesk"
 90
        0
280
     0
281
     0
  0
CLASS
  1
LONG_TRANSACTION
  2
AcDbLongTransaction
  3
AutoCAD 2000
 90
        0
280
     0
281
     0
  0
CLASS
  1
LWPOLYLINE
  2
AcDbPolyline
  3
AutoCAD 2000
 90
        0
280
     0
281
     1
  0
CLASS
  1
HATCH
  2
AcDbHatch
  3
AutoCAD 2000
 90
        0
280
     0
281
     1
  0
CLASS
  1
XRECORD
  2
AcDbXrecord
  3
AutoCAD 2000
 90
        0
280
     0
281
     0
  0
ENDSEC
  0
SECTION
  2
TABLES
  0
TABLE
  2
VPORT
  5
8
330
0
100
AcDbSymbolTable
 70
     3
  0
VPORT
  5
3004
330
8
100
AcDbSymbolTableRecord
100
AcDbViewportTableRecord
  2
*ACTIVE
 70
     0
 10
0.0
 20
0.0
 11
1.0
 21
1.0
 12
-121.2997593690354
 22
2.405384582554788
 13
0.0
 23
0.0
 14
2.5
 24
2.5
 15
10.0
 25
10.0
 16
0.0
 26
0.0
 36
1.0
 17
0.0
 27
0.0
 37
0.0
 40
210.4282347973993
 41
1.56570841889117
 42
50.0
 43
0.0
 44
0.0
 50
0.0
 51
0.0
 71
     0
 72
   100
 73
     1
 74
     3
 75
     0
 76
     0
 77
     0
 78
     0
  0
ENDTAB
  0
TABLE
  2
LTYPE
  5
5
330
0
100
AcDbSymbolTable
 70
    10
  0
LTYPE
  5
14
330
5
100
AcDbSymbolTableRecord
100
AcDbLinetypeTableRecord
  2
BYBLOCK
 70
     0
  3

 72
    65
 73
     0
 40
0.0
  0
LTYPE
  5
15
330
5
100
AcDbSymbolTableRecord
100
AcDbLinetypeTableRecord
  2
BYLAYER
 70
     0
  3

 72
    65
 73
     0
 40
0.0
  0
LTYPE
  5
16
330
5
100
AcDbSymbolTableRecord
100
AcDbLinetypeTableRecord
  2
CONTINUOUS
 70
     0
  3
Solid line
 72
    65
 73
     0
 40
0.0
  0
LTYPE
  5
4B
330
5
100
AcDbSymbolTableRecord
100
AcDbLinetypeTableRecord
  2
AM_ISO02W050
 70
     0
  3
__ __ __ __ __ __ __ __ __ __ __ __ __ __ __
 72
    65
 73
     2
 40
7.5
 49
6.0
 74
     0
 49
-1.5
 74
     0
  0
LTYPE
  5
4C
330
5
100
AcDbSymbolTableRecord
100
AcDbLinetypeTableRecord
  2
AM_ISO08W050
 70
     0
  3
____ . ____ . ____ . ____ . ____ . ____ . ____
 72
    65
 73
     4
 40
18.0
 49
12.0
 74
     0
 49
-1.5
 74
     0
 49
3.0
 74
     0
 49
-1.5
 74
     0
  0
LTYPE
  5
4D
330
5
100
AcDbSymbolTableRecord
100
AcDbLinetypeTableRecord
  2
AM_ISO09W050
 70
     0
  3
_____ . . _____ . . _____ . . ____ .. ____
 72
    65
 73
     6
 40
22.5
 49
12.0
 74
     0
 49
-1.5
 74
     0
 49
3.0
 74
     0
 49
-1.5
 74
     0
 49
3.0
 74
     0
 49
-1.5
 74
     0
  0
LTYPE
  5
4E
330
5
100
AcDbSymbolTableRecord
100
AcDbLinetypeTableRecord
  2
AMCONSTR
 70
     0
  3
_______________________
 72
    65
 73
     2
 40
9999.0
 49
9999.0
 74
     0
 49
0.0
 74
     0
  0
LTYPE
  5
4F
330
5
100
AcDbSymbolTableRecord
100
AcDbLinetypeTableRecord
  2
AM_ISO02W050X2
 70
     0
  3
 _ _ _ _ _ _ _ _ _ _ _ _
 72
    65
 73
     2
 40
3.75
 49
3.0
 74
     0
 49
-0.75
 74
     0
  0
LTYPE
  5
50
330
5
100
AcDbSymbolTableRecord
100
AcDbLinetypeTableRecord
  2
AM_ISO08W050X2
 70
     0
  3
__ . __ . __ . __ . __ . __
 72
    65
 73
     4
 40
9.0
 49
6.0
 74
     0
 49
-0.75
 74
     0
 49
1.5
 74
     0
 49
-0.75
 74
     0
  0
LTYPE
  5
53
330
5
100
AcDbSymbolTableRecord
100
AcDbLinetypeTableRecord
  2
AMZIGZAG
 70
     0
  3
/\/-/\/-/\/-/\/-/\/-/\/
 72
    65
 73
     2
 40
11.00009999999999
 49
0.0001
 74
     4
 75
   135
340
52
 46
0.04
 50
0.0
 44
0.0
 45
0.0
 49
-11.0
 74
     0
  0
LTYPE
  5
166
330
5
100
AcDbSymbolTableRecord
100
AcDbLinetypeTableRecord
  2
ACJISTGL
 70
     0
  3
_ _ _ _ _
 72
    65
 73
     2
 40
3.0
 49
2.0
 74
     0
 49
-1.0
 74
     0
  0
LTYPE
  5
26A
330
5
100
AcDbSymbolTableRecord
100
AcDbLinetypeTableRecord
  2
ACJISTGB
 70
     0
  3
__ . . __ . .
 72
    65
 73
     6
 40
9.0
 49
4.0
 74
     0
 49
-1.0
 74
     0
 49
1.0
 74
     0
 49
-1.0
 74
     0
 49
1.0
 74
     0
 49
-1.0
 74
     0
  0
ENDTAB
  0
TABLE
  2
LAYER
  5
2
330
0
100
AcDbSymbolTable
 70
     8
  0
LAYER
  5
10
330
2
100
AcDbSymbolTableRecord
100
AcDbLayerTableRecord
  2
0
 70
     0
 62
     7
  6
CONTINUOUS
  0
LAYER
  5
3F9
330
2
100
AcDbSymbolTableRecord
100
AcDbLayerTableRecord
  2
AM_0
 70
     0
 62
     7
  6
CONTINUOUS
  0
LAYER
  5
BD6
330
2
100
AcDbSymbolTableRecord
100
AcDbLayerTableRecord
  2
AM_11
 70
     0
 62
     3
  6
AM_ISO09W050
  0
LAYER
  5
BD7
330
2
100
AcDbSymbolTableRecord
100
AcDbLayerTableRecord
  2
AM_7
 70
     0
 62
     4
  6
AM_ISO08W050
  0
LAYER
  5
BD8
330
2
100
AcDbSymbolTableRecord
100
AcDbLayerTableRecord
  2
AM_5
 70
     0
 62
     3
  6
CONTINUOUS
  0
LAYER
  5
BD9
330
2
100
AcDbSymbolTableRecord
100
AcDbLayerTableRecord
  2
DEFPOINTS
 70
     0
 62
     7
  6
CONTINUOUS
  0
LAYER
  5
BDA
330
2
100
AcDbSymbolTableRecord
100
AcDbLayerTableRecord
  2
AM_6
 70
     0
 62
     2
  6
CONTINUOUS
  0
LAYER
  5
1F9B
330
2
100
AcDbSymbolTableRecord
100
AcDbLayerTableRecord
  2
AM_CL
 70
     0
 62
     1
  6
AMCONSTR
  0
ENDTAB
  0
TABLE
  2
STYLE
  5
3
330
0
100
AcDbSymbolTable
 70
     5
  0
STYLE
  5
11
330
3
100
AcDbSymbolTableRecord
100
AcDbTextStyleTableRecord
  2
STANDARD
 70
     0
 40
0.0
 41
1.0
 50
0.0
 71
     0
 42
2.5
  3
simplex.shx
  4
EXTFONT.SHX
  0
STYLE
  5
52
330
3
100
AcDbSymbolTableRecord
100
AcDbTextStyleTableRecord
  2

 70
     1
 40
0.0
 41
1.0
 50
0.0
 71
     0
 42
2.5
  3
ltypeshp.shx
  4

  0
STYLE
  5
6B
330
3
100
AcDbSymbolTableRecord
100
AcDbTextStyleTableRecord
  2
ASAMI
 70
     0
 40
0.0
 41
1.0
 50
0.0
 71
     0
 42
2.5
  3
simplex.shx
  4
EXTFONT.SHX
  0
STYLE
  5
262
330
3
100
AcDbSymbolTableRecord
100
AcDbTextStyleTableRecord
  2
ACJISTS
 70
     0
 40
1.0
 41
1.0
 50
0.0
 71
     0
 42
2.5
  3
simplex.shx
  4
bigfont.shx
  0
STYLE
  5
269
330
3
100
AcDbSymbolTableRecord
100
AcDbTextStyleTableRecord
  2
ACJISGDT
 70
     0
 40
0.0
 41
1.0
 50
0.0
 71
     0
 42
2.5
  3
amgdtans.shx
  4

  0
ENDTAB
  0
TABLE
  2
VIEW
  5
6
330
0
100
AcDbSymbolTable
 70
     0
  0
ENDTAB
  0
TABLE
  2
UCS
  5
7
330
0
100
AcDbSymbolTable
 70
     0
  0
ENDTAB
  0
TABLE
  2
APPID
  5
9
330
0
100
AcDbSymbolTable
 70
    13
  0
APPID
  5
12
330
9
100
AcDbSymbolTableRecord
100
AcDbRegAppTableRecord
  2
ACAD
 70
     0
  0
APPID
  5
30
330
9
100
AcDbSymbolTableRecord
100
AcDbRegAppTableRecord
  2
MCAD_NO_VIS
 70
     0
  0
APPID
  5
31
330
9
100
AcDbSymbolTableRecord
100
AcDbRegAppTableRecord
  2
ACAD_TEMP_GRAPHIC
 70
     0
  0
APPID
  5
2C2
330
9
100
AcDbSymbolTableRecord
100
AcDbRegAppTableRecord
  2
GENIUS_GENDTOL_13
 70
     0
  0
APPID
  5
339
330
9
100
AcDbSymbolTableRecord
100
AcDbRegAppTableRecord
  2
GENIUS_GENODEF_13
 70
     0
  0
APPID
  5
33A
330
9
100
AcDbSymbolTableRecord
100
AcDbRegAppTableRecord
  2
GENIUS_GENOBJ-N-RSBK_13
 70
     0
  0
APPID
  5
33B
330
9
100
AcDbSymbolTableRecord
100
AcDbRegAppTableRecord
  2
GENIUS_GENOBJ-N-LIB_13
 70
     0
  0
APPID
  5
33C
330
9
100
AcDbSymbolTableRecord
100
AcDbRegAppTableRecord
  2
GENIUS_GENSCALE_13
 70
     0
  0
APPID
  5
378
330
9
100
AcDbSymbolTableRecord
100
AcDbRegAppTableRecord
  2
GENIUS_GENDIMSH_14
 70
     0
  0
APPID
  5
BDB
330
9
100
AcDbSymbolTableRecord
100
AcDbRegAppTableRecord
  2
GENIUS_GENOBJ-N-CEN_13
 70
     0
  0
APPID
  5
BDC
330
9
100
AcDbSymbolTableRecord
100
AcDbRegAppTableRecord
  2
GENIUS_GENFIL_13
 70
     0
  0
APPID
  5
BDD
330
9
100
AcDbSymbolTableRecord
100
AcDbRegAppTableRecord
  2
GENIUS_GENOBJ-N-FIL_13
 70
     0
  0
APPID
  5
12AD
330
9
100
AcDbSymbolTableRecord
100
AcDbRegAppTableRecord
  2
GENIUS_GENOREF_13
 70
     0
  0
ENDTAB
  0
TABLE
  2
DIMSTYLE
  5
A
330
0
100
AcDbSymbolTable
 70
     8
  0
DIMSTYLE
105
58
102
{ACAD_REACTORS
330
194C
330
195B
330
21E0
330
2DED
330
2DFE
102
}
330
A
100
AcDbSymbolTableRecord
100
AcDbDimStyleTableRecord
  2
AM_JIS
 70
     0
  3

  4
"
  5
OPEN30
  6

  7

 40
1.0
 41
2.5
 42
1.0
 43
12.0
 44
1.0
 45
0.0
 46
0.0
 47
0.1
 48
0.1
140
3.2
141
0.0
142
0.0
143
0.0393701
144
1.0
145
0.0
146
0.71
147
1.5
 71
     0
 72
     0
 73
     0
 74
     0
 75
     0
 76
     0
 77
     3
 78
     8
170
     0
171
     2
172
     1
173
     0
174
     0
175
     0
176
   256
177
   256
178
     2
270
     2
271
     3
272
     3
273
     2
274
     2
340
6B
275
     0
280
     0
281
     0
282
     0
283
     0
284
     0
285
     0
286
     0
287
     3
288
     0
  0
DIMSTYLE
105
5F
330
A
100
AcDbSymbolTableRecord
100
AcDbDimStyleTableRecord
  2
AM_JIS$3
 70
     0
  3

  4
"
  5
OPEN30
  6

  7

 40
1.0
 41
2.5
 42
1.0
 43
10.0
 44
1.0
 45
0.0
 46
0.0
 47
0.1
 48
0.1
140
3.2
141
0.0
142
0.0
143
0.0393701
144
1.0
145
0.0
146
0.71
147
1.5
 71
     0
 72
     0
 73
     0
 74
     1
 75
     0
 76
     0
 77
     3
 78
     8
170
     0
171
     2
172
     0
173
     0
174
     0
175
     0
176
   256
177
   256
178
     2
270
     2
271
     2
272
     3
273
     2
274
     2
340
6B
275
     0
280
     0
281
     0
282
     0
283
     0
284
     0
285
     0
286
     0
287
     0
288
     1
  0
DIMSTYLE
105
60
102
{ACAD_REACTORS
330
1EF8
102
}
330
A
100
AcDbSymbolTableRecord
100
AcDbDimStyleTableRecord
  2
AM_JIS$4
 70
     0
  3

  4
"
  5
OPEN30
  6

  7

 40
1.0
 41
2.5
 42
1.0
 43
10.0
 44
1.0
 45
0.0
 46
0.0
 47
0.1
 48
0.1
140
3.2
141
0.0
142
0.0
143
0.0393701
144
1.0
145
0.0
146
0.71
147
1.5
 71
     0
 72
     0
 73
     0
 74
     1
 75
     0
 76
     0
 77
     3
 78
     8
170
     0
171
     2
172
     0
173
     0
174
     0
175
     0
176
   256
177
   256
178
     2
270
     2
271
     2
272
     3
273
     2
274
     2
340
6B
275
     0
280
     0
281
     0
282
     0
283
     0
284
     0
285
     0
286
     0
287
     0
288
     1
  0
DIMSTYLE
105
61
330
A
100
AcDbSymbolTableRecord
100
AcDbDimStyleTableRecord
  2
AM_JIS$6
 70
     0
  3

  4
"
  5
OPEN30
  6

  7

 40
1.0
 41
2.5
 42
1.0
 43
10.0
 44
1.0
 45
0.0
 46
0.0
 47
0.1
 48
0.1
140
3.2
141
0.0
142
0.0
143
0.0393701
144
1.0
145
0.0
146
0.71
147
1.5
 71
     0
 72
     0
 73
     0
 74
     0
 75
     0
 76
     0
 77
     0
 78
     8
170
     0
171
     2
172
     1
173
     0
174
     0
175
     0
176
   256
177
   256
178
     2
270
     2
271
     2
272
     2
273
     2
274
     2
340
6B
275
     0
280
     0
281
     0
282
     0
283
     0
284
     0
285
     0
286
     0
287
     3
288
     0
  0
DIMSTYLE
105
62
330
A
100
AcDbSymbolTableRecord
100
AcDbDimStyleTableRecord
  2
AM_JIS$7
 70
     0
  3

  4
"
  5
OPEN30
  6

  7

 40
1.0
 41
2.5
 42
1.0
 43
10.0
 44
1.0
 45
0.0
 46
0.0
 47
0.1
 48
0.1
140
3.2
141
0.0
142
0.0
143
0.0393701
144
1.0
145
0.0
146
0.71
147
1.5
 71
     0
 72
     0
 73
     0
 74
     0
 75
     0
 76
     0
 77
     3
 78
     8
170
     0
171
     2
172
     1
173
     0
174
     0
175
     0
176
   256
177
   256
178
     2
270
     2
271
     2
272
     3
273
     2
274
     2
340
6B
275
     0
280
     0
281
     0
282
     0
283
     0
284
     0
285
     0
286
     0
287
     3
288
     0
  0
DIMSTYLE
105
63
330
A
100
AcDbSymbolTableRecord
100
AcDbDimStyleTableRecord
  2
AM_JIS$SF
 70
     0
  3

  4
"
  5
OPEN30
  6

  7

 40
1.0
 41
2.5
 42
1.0
 43
10.0
 44
1.0
 45
0.0
 46
0.0
 47
0.1
 48
0.1
140
3.2
141
0.0
142
0.0
143
0.0393701
144
1.0
145
0.0
146
0.71
147
1.5
 71
     0
 72
     0
 73
     0
 74
     0
 75
     1
 76
     1
 77
     3
 78
     8
170
     0
171
     2
172
     1
173
     0
174
     0
175
     0
176
   256
177
   256
178
     2
270
     2
271
     2
272
     2
273
     2
274
     2
340
6B
275
     0
280
     0
281
     0
282
     0
283
     0
284
     0
285
     0
286
     0
287
     3
288
     0
  0
DIMSTYLE
105
68
330
A
100
AcDbSymbolTableRecord
100
AcDbDimStyleTableRecord
  2
AM_JIS$SH
 70
     0
  3

  4
"
  5

  6
GENAXEH
  7
OPEN30
 40
1.0
 41
2.5
 42
1.0
 43
10.0
 44
1.0
 45
0.0
 46
0.0
 47
0.1
 48
0.1
140
3.2
141
0.0
142
0.0
143
0.0393701
144
2.0
145
0.0
146
0.71
147
1.5
 71
     0
 72
     0
 73
     0
 74
     0
 75
     1
 76
     1
 77
     3
 78
     8
170
     0
171
     2
172
     1
173
     1
174
     0
175
     0
176
   256
177
   256
178
     2
270
     2
271
     2
272
     2
273
     2
274
     2
340
6B
275
     0
280
     0
281
     0
282
     0
283
     0
284
     0
285
     0
286
     0
287
     3
288
     0
  0
DIMSTYLE
105
B34
102
{ACAD_REACTORS
330
2CAA
102
}
330
A
100
AcDbSymbolTableRecord
100
AcDbDimStyleTableRecord
  2
AM_JIS$2
 70
     0
  3

  4
"
  5
OPEN30
  6

  7

 40
1.0
 41
2.5
 42
1.0
 43
12.0
 44
1.0
 45
0.0
 46
0.0
 47
0.1
 48
0.1
140
3.2
141
0.0
142
0.0
143
0.0393701
144
1.0
145
0.0
146
0.71
147
1.5
 71
     0
 72
     0
 73
     0
 74
     0
 75
     0
 76
     0
 77
     3
 78
     8
170
     0
171
     2
172
     1
173
     0
174
     0
175
     0
176
   256
177
   256
178
     2
270
     2
271
     3
272
     3
273
     2
274
     2
340
6B
275
     0
280
     0
281
     0
282
     0
283
     0
284
     0
285
     0
286
     0
287
     3
288
     0
  0
ENDTAB
  0
TABLE
  2
BLOCK_RECORD
  5
1
330
0
100
AcDbSymbolTable
 70
    12
  0
BLOCK_RECORD
  5
1F
102
{ACAD_XDICTIONARY
360
74
102
}
330
1
100
AcDbSymbolTableRecord
100
AcDbBlockTableRecord
  2
*MODEL_SPACE
  0
BLOCK_RECORD
  5
101
102
{ACAD_XDICTIONARY
360
302D
102
}
330
1
100
AcDbSymbolTableRecord
100
AcDbBlockTableRecord
  2
*PAPER_SPACE
  0
BLOCK_RECORD
  5
59
330
1
100
AcDbSymbolTableRecord
100
AcDbBlockTableRecord
  2
_OPEN30
  0
BLOCK_RECORD
  5
64
330
1
100
AcDbSymbolTableRecord
100
AcDbBlockTableRecord
  2
GENAXEH
  0
BLOCK_RECORD
  5
194D
330
1
100
AcDbSymbolTableRecord
100
AcDbBlockTableRecord
  2
*D5
  0
BLOCK_RECORD
  5
195C
330
1
100
AcDbSymbolTableRecord
100
AcDbBlockTableRecord
  2
*D6
  0
BLOCK_RECORD
  5
1EF9
330
1
100
AcDbSymbolTableRecord
100
AcDbBlockTableRecord
  2
*D7
  0
BLOCK_RECORD
  5
21E1
330
1
100
AcDbSymbolTableRecord
100
AcDbBlockTableRecord
  2
*D8
  0
BLOCK_RECORD
  5
2CAB
330
1
100
AcDbSymbolTableRecord
100
AcDbBlockTableRecord
  2
*D9
  0
BLOCK_RECORD
  5
2DEE
330
1
100
AcDbSymbolTableRecord
100
AcDbBlockTableRecord
  2
*D10
  0
BLOCK_RECORD
  5
2DFF
330
1
100
AcDbSymbolTableRecord
100
AcDbBlockTableRecord
  2
*D11
  0
ENDTAB
  0
ENDSEC
  0
SECTION
  2
BLOCKS
  0
BLOCK
  5
20
330
1F
100
AcDbEntity
  8
0
100
AcDbBlockBegin
  2
*MODEL_SPACE
 70
     0
 10
0.0
 20
0.0
 30
0.0
  3
*MODEL_SPACE
  1

  0
ENDBLK
  5
21
330
1F
100
AcDbEntity
  8
0
100
AcDbBlockEnd
  0
BLOCK
  5
103
330
101
100
AcDbEntity
 67
     1
  8
0
100
AcDbBlockBegin
  2
*PAPER_SPACE
 70
     0
 10
0.0
 20
0.0
 30
0.0
  3
*PAPER_SPACE
  1

  0
ENDBLK
  5
104
330
101
100
AcDbEntity
 67
     1
  8
0
100
AcDbBlockEnd
  0
BLOCK
  5
5D
330
59
100
AcDbEntity
  8
0
100
AcDbBlockBegin
  2
_OPEN30
 70
     0
 10
0.0
 20
0.0
 30
0.0
  3
_OPEN30
  1

  0
LINE
  5
5A
330
59
100
AcDbEntity
  8
0
 62
     0
100
AcDbLine
 10
-1.0
 20
0.26794919
 30
0.0
 11
0.0
 21
0.0
 31
0.0
  0
LINE
  5
5B
330
59
100
AcDbEntity
  8
0
 62
     0
100
AcDbLine
 10
0.0
 20
0.0
 30
0.0
 11
-1.0
 21
-0.26794919
 31
0.0
  0
LINE
  5
5C
330
59
100
AcDbEntity
  8
0
 62
     0
100
AcDbLine
 10
0.0
 20
0.0
 30
0.0
 11
-1.0
 21
0.0
 31
0.0
  0
ENDBLK
  5
5E
330
59
100
AcDbEntity
  8
0
100
AcDbBlockEnd
  0
BLOCK
  5
66
330
64
100
AcDbEntity
  8
0
100
AcDbBlockBegin
  2
GENAXEH
 70
     0
 10
0.0
 20
0.0
 30
0.0
  3
GENAXEH
  1

  0
LINE
  5
65
330
64
100
AcDbEntity
  8
0
100
AcDbLine
 10
-1.0
 20
0.0
 30
0.0
 11
1.0
 21
0.0
 31
0.0
  0
ENDBLK
  5
67
330
64
100
AcDbEntity
  8
0
100
AcDbBlockEnd
  0
BLOCK
  5
1959
330
194D
100
AcDbEntity
  8
0
100
AcDbBlockBegin
  2
*D5
 70
     1
 10
0.0
 20
0.0
 30
0.0
  3
*D5
  1

  0
LINE
  5
2FA9
330
194D
100
AcDbEntity
  8
AM_5
100
AcDbLine
 10
-0.9971863924496176
 20
-2.009482493339111
 30
0.0
 11
15.0028127271194
 21
-2.009482493339116
 31
0.0
  0
LINE
  5
2FAA
330
194D
100
AcDbEntity
  8
AM_5
100
AcDbLine
 10
-0.9971863924496176
 20
1.990517506654775
 30
0.0
 11
15.0028127271194
 21
1.990517506654771
 31
0.0
  0
LINE
  5
2FAB
330
194D
100
AcDbEntity
  8
AM_5
100
AcDbLine
 10
14.00281272711939
 20
-4.509482493339116
 30
0.0
 11
14.00281272711939
 21
-7.009482493339116
 31
0.0
  0
LINE
  5
2FAC
330
194D
100
AcDbEntity
  8
AM_5
100
AcDbLine
 10
14.0028127271194
 20
4.490517506654771
 30
0.0
 11
14.0028127271194
 21
15.17146988760715
 31
0.0
  0
LINE
  5
2FAD
330
194D
100
AcDbEntity
  8
AM_5
100
AcDbLine
 10
14.0028127271194
 20
-2.009482493339115
 30
0.0
 11
14.0028127271194
 21
1.990517506654771
 31
0.0
  0
INSERT
  5
2FAE
330
194D
100
AcDbEntity
  8
AM_5
100
AcDbBlockReference
  2
_OPEN30
 10
14.0028127271194
 20
-2.009482493339115
 30
0.0
 41
2.5
 42
2.5
 43
2.5
 50
90.0
  0
INSERT
  5
2FAF
330
194D
100
AcDbEntity
  8
AM_5
100
AcDbBlockReference
  2
_OPEN30
 10
14.0028127271194
 20
1.990517506654771
 30
0.0
 41
2.5
 42
2.5
 43
2.5
 50
270.0
  0
MTEXT
  5
2FB0
330
194D
100
AcDbEntity
  8
AM_5
 62
     2
100
AcDbMText
 10
10.90281272711939
 20
11.08099369713096
 30
0.0
 40
3.2
 41
0.0
 71
     5
 72
     1
  1
%%c4
  7
ASAMI
 11
0.0000000000000001
 21
1.0
 31
0.0
1001
ACAD
1000
MTEXTBEGIN
1070
    73
1070
     1
1070
    44
1040
1.0
1070
    74
1070
     0
1000
MTEXTEND
  0
POINT
  5
2FB1
330
194D
100
AcDbEntity
  8
DEFPOINTS
 62
     0
100
AcDbPoint
 10
-1.997186392449617
 20
-2.009482493339111
 30
0.0
  0
POINT
  5
2FB2
330
194D
100
AcDbEntity
  8
DEFPOINTS
 62
     0
100
AcDbPoint
 10
-1.997186392449617
 20
1.990517506654775
 30
0.0
  0
POINT
  5
2FB3
330
194D
100
AcDbEntity
  8
DEFPOINTS
 62
     0
100
AcDbPoint
 10
14.0028127271194
 20
1.990517506654771
 30
0.0
  0
ENDBLK
  5
195A
330
194D
100
AcDbEntity
  8
0
100
AcDbBlockEnd
  0
BLOCK
  5
1968
330
195C
100
AcDbEntity
  8
0
100
AcDbBlockBegin
  2
*D6
 70
     1
 10
0.0
 20
0.0
 30
0.0
  3
*D6
  1

  0
LINE
  5
2FB4
330
195C
100
AcDbEntity
  8
AM_5
100
AcDbLine
 10
-7.99672879748558
 20
-3.009482493331225
 30
0.0
 11
-7.996728797485581
 21
-20.62499999999846
 31
0.0
  0
LINE
  5
2FB5
330
195C
100
AcDbEntity
  8
AM_5
100
AcDbLine
 10
0.0028127271194464
 20
-1.011359111298726
 30
0.0
 11
0.0028127271194452
 21
-20.62499999999846
 31
0.0
  0
LINE
  5
2FB6
330
195C
100
AcDbEntity
  8
AM_5
100
AcDbLine
 10
-10.49672879748558
 20
-19.62499999999846
 30
0.0
 11
-12.99672879748558
 21
-19.62499999999846
 31
0.0
  0
LINE
  5
2FB7
330
195C
100
AcDbEntity
  8
AM_5
100
AcDbLine
 10
2.502812727119445
 20
-19.62499999999846
 30
0.0
 11
5.002812727119445
 21
-19.62499999999846
 31
0.0
  0
LINE
  5
2FB8
330
195C
100
AcDbEntity
  8
AM_5
100
AcDbLine
 10
-7.996728797485581
 20
-19.62499999999846
 30
0.0
 11
0.0028127271194453
 21
-19.62499999999846
 31
0.0
  0
INSERT
  5
2FB9
330
195C
100
AcDbEntity
  8
AM_5
100
AcDbBlockReference
  2
_OPEN30
 10
-7.996728797485581
 20
-19.62499999999846
 30
0.0
 41
2.5
 42
2.5
 43
2.5
  0
INSERT
  5
2FBA
330
195C
100
AcDbEntity
  8
AM_5
100
AcDbBlockReference
  2
_OPEN30
 10
0.0028127271194453
 20
-19.62499999999846
 30
0.0
 41
2.5
 42
2.5
 43
2.5
 50
180.0
  0
MTEXT
  5
2FBB
330
195C
100
AcDbEntity
  8
AM_5
 62
     2
100
AcDbMText
 10
-3.996958035183068
 20
-16.52499999999846
 30
0.0
 40
3.2
 41
0.0
 71
     5
 72
     1
  1
8
  7
ASAMI
1001
ACAD
1000
MTEXTBEGIN
1070
    73
1070
     1
1070
    44
1040
1.0
1070
    74
1070
     0
1000
MTEXTEND
  0
POINT
  5
2FBC
330
195C
100
AcDbEntity
  8
DEFPOINTS
 62
     0
100
AcDbPoint
 10
-7.99672879748558
 20
-2.009482493331225
 30
0.0
  0
POINT
  5
2FBD
330
195C
100
AcDbEntity
  8
DEFPOINTS
 62
     0
100
AcDbPoint
 10
0.0028127271194465
 20
-0.0113591112987261
 30
0.0
  0
POINT
  5
2FBE
330
195C
100
AcDbEntity
  8
DEFPOINTS
 62
     0
100
AcDbPoint
 10
0.0028127271194453
 20
-19.62499999999846
 30
0.0
  0
ENDBLK
  5
1969
330
195C
100
AcDbEntity
  8
0
100
AcDbBlockEnd
  0
BLOCK
  5
1F00
330
1EF9
100
AcDbEntity
  8
0
100
AcDbBlockBegin
  2
*D7
 70
     1
 10
0.0
 20
0.0
 30
0.0
  3
*D7
  1

  0
LINE
  5
2FC4
330
1EF9
100
AcDbEntity
  8
AM_5
100
AcDbLine
 10
0.5432552648597973
 20
-3.723800221500962
 30
0.0
 11
9.239899456826723
 21
-16.43895138618365
 31
0.0
  0
INSERT
  5
2FC5
330
1EF9
100
AcDbEntity
  8
AM_5
100
AcDbBlockReference
  2
_OPEN30
 10
-0.8681012114254077
 20
-1.660290372518454
 30
0.0
 41
2.5
 42
2.5
 43
2.5
 50
124.3705340065254
  0
MTEXT
  5
2FC6
330
1EF9
100
AcDbEntity
  8
AM_5
 62
     2
100
AcDbMText
 10
8.156007811724167
 20
-9.363048697739911
 30
0.0
 40
3.2
 41
0.0
 71
     5
 72
     1
  1
R2.0
  7
ASAMI
 11
0.5645425905140817
 21
-0.825403939593003
 31
0.0
1001
ACAD
1000
MTEXTBEGIN
1070
    73
1070
     1
1070
    44
1040
1.0
1070
    74
1070
     0
1000
MTEXTEND
  0
POINT
  5
2FC7
330
1EF9
100
AcDbEntity
  8
DEFPOINTS
 62
     0
100
AcDbPoint
 10
-0.8681012114254077
 20
-1.660290372518454
 30
0.0
  0
POINT
  5
2FC8
330
1EF9
100
AcDbEntity
  8
DEFPOINTS
 62
     0
100
AcDbPoint
 10
-1.99718639244962
 20
-0.0094824933382243
 30
0.0
  0
ENDBLK
  5
1F01
330
1EF9
100
AcDbEntity
  8
0
100
AcDbBlockEnd
  0
BLOCK
  5
21EB
330
21E1
100
AcDbEntity
  8
0
100
AcDbBlockBegin
  2
*D8
 70
     1
 10
0.0
 20
0.0
 30
0.0
  3
*D8
  1

  0
LINE
  5
2F97
330
21E1
100
AcDbEntity
  8
AM_5
100
AcDbLine
 10
-99.99950918848497
 20
-5.318743335566647
 30
0.0
 11
-99.99950918848497
 21
-32.62499999999892
 31
0.0
  0
LINE
  5
2F98
330
21E1
100
AcDbEntity
  8
AM_5
100
AcDbLine
 10
0.0004689345905169
 20
-1.000000000000003
 30
0.0
 11
0.0004689345905149
 21
-32.62499999999892
 31
0.0
  0
LINE
  5
2F99
330
21E1
100
AcDbEntity
  8
AM_5
100
AcDbLine
 10
-97.49950918848497
 20
-31.62499999999892
 30
0.0
 11
-2.499531065409485
 21
-31.62499999999892
 31
0.0
  0
INSERT
  5
2F9A
330
21E1
100
AcDbEntity
  8
AM_5
100
AcDbBlockReference
  2
_OPEN30
 10
-99.99950918848497
 20
-31.62499999999892
 30
0.0
 41
2.5
 42
2.5
 43
2.5
 50
180.0
  0
INSERT
  5
2F9B
330
21E1
100
AcDbEntity
  8
AM_5
100
AcDbBlockReference
  2
_OPEN30
 10
0.000468934590515
 20
-31.62499999999892
 30
0.0
 41
2.5
 42
2.5
 43
2.5
  0
MTEXT
  5
2F9C
330
21E1
100
AcDbEntity
  8
AM_5
 62
     2
100
AcDbMText
 10
-49.99952012694723
 20
-28.52499999999892
 30
0.0
 40
3.2
 41
0.0
 71
     5
 72
     1
  1
100
  7
ASAMI
1001
ACAD
1000
MTEXTBEGIN
1070
    73
1070
     1
1070
    44
1040
1.0
1070
    74
1070
     0
1000
MTEXTEND
  0
POINT
  5
2F9D
330
21E1
100
AcDbEntity
  8
DEFPOINTS
 62
     0
100
AcDbPoint
 10
-99.99950918848497
 20
-4.318743335566647
 30
0.0
  0
POINT
  5
2F9E
330
21E1
100
AcDbEntity
  8
DEFPOINTS
 62
     0
100
AcDbPoint
 10
0.0004689345905169
 20
-0.0000000000000036
 30
0.0
  0
POINT
  5
2F9F
330
21E1
100
AcDbEntity
  8
DEFPOINTS
 62
     0
100
AcDbPoint
 10
0.000468934590515
 20
-31.62499999999892
 30
0.0
  0
ENDBLK
  5
21EC
330
21E1
100
AcDbEntity
  8
0
100
AcDbBlockEnd
  0
BLOCK
  5
2CBB
330
2CAB
100
AcDbEntity
  8
0
100
AcDbBlockBegin
  2
*D9
 70
     1
 10
0.0
 20
0.0
 30
0.0
  3
*D9
  1

  0
LINE
  5
302F
330
2CAB
100
AcDbEntity
  8
AM_5
100
AcDbLine
 10
-48.99965732497563
 20
-2.983265214628639
 30
0.0
 11
-84.51523843280318
 21
-3.913273436002321
 31
0.0
  0
ARC
  5
3030
330
2CAB
100
AcDbEntity
  8
AM_5
100
AcDbCircle
 10
64.92664489610216
 20
-0.0000000000000031
 30
0.0
 40
148.4931108843316
100
AcDbArc
 50
178.0707368891944
 51
179.0353684445972
  0
ARC
  5
3031
330
2CAB
100
AcDbEntity
  8
AM_5
100
AcDbCircle
 10
64.92664489610216
 20
-0.0000000000000031
 30
0.0
 40
148.4931108843316
100
AcDbArc
 50
182.4646315554027
 51
183.4292631108055
  0
ARC
  5
3032
330
2CAB
100
AcDbEntity
  8
AM_5
100
AcDbCircle
 10
64.92664489610216
 20
-0.0000000000000031
 30
0.0
 40
148.4931108843316
100
AcDbArc
 50
180.0
 51
181.4999999999999
  0
INSERT
  5
3033
330
2CAB
100
AcDbEntity
  8
AM_5
100
AcDbBlockReference
  2
_OPEN30
 10
-83.56646598822948
 20
-0.0000000000000009
 30
0.0
 41
2.5
 42
2.5
 43
2.5
 50
269.5176842222986
  0
INSERT
  5
3034
330
2CAB
100
AcDbEntity
  8
AM_5
100
AcDbBlockReference
  2
_OPEN30
 10
-83.51558110782759
 20
-3.887096487694448
 30
0.0
 41
2.5
 42
2.5
 43
2.5
 50
91.9823157777014
  0
MTEXT
  5
3035
330
2CAB
100
AcDbEntity
  8
AM_5
 62
     2
100
AcDbMText
 10
-74.72164046204028
 20
-2.024735533426685
 30
0.0
 40
3.2
 41
0.0
 71
     5
 72
     1
  1
1°30'
  7
ASAMI
  0
POINT
  5
3036
330
2CAB
100
AcDbEntity
  8
DEFPOINTS
 62
     0
100
AcDbPoint
 10
-83.56081182557533
 20
-1.295830403396148
 30
0.0
  0
POINT
  5
3037
330
2CAB
100
AcDbEntity
  8
DEFPOINTS
 62
     0
100
AcDbPoint
 10
-92.3848732152464
 20
-0.0000000000000036
 30
0.0
  0
POINT
  5
3038
330
2CAB
100
AcDbEntity
  8
DEFPOINTS
 62
     0
100
AcDbPoint
 10
-48.00000000000007
 20
-2.957088266320766
 30
0.0
  0
POINT
  5
3039
330
2CAB
100
AcDbEntity
  8
DEFPOINTS
 62
     0
100
AcDbPoint
 10
-12.00093786918195
 20
-2.014419648798873
 30
0.0
  0
POINT
  5
303A
330
2CAB
100
AcDbEntity
  8
DEFPOINTS
 62
     0
100
AcDbPoint
 10
1.329529889074521
 20
-0.0000000000000036
 30
0.0
  0
ENDBLK
  5
2CBC
330
2CAB
100
AcDbEntity
  8
0
100
AcDbBlockEnd
  0
BLOCK
  5
2DF8
330
2DEE
100
AcDbEntity
  8
0
100
AcDbBlockBegin
  2
*D10
 70
     1
 10
0.0
 20
0.0
 30
0.0
  3
*D10
  1

  0
LINE
  5
2F8E
330
2DEE
100
AcDbEntity
  8
AM_5
100
AcDbLine
 10
-200.0
 20
-6.62500000000001
 30
0.0
 11
-200.0
 21
-44.62499999999823
 31
0.0
  0
LINE
  5
2F8F
330
2DEE
100
AcDbEntity
  8
AM_5
100
AcDbLine
 10
-0.0000000000000569
 20
-1.000000000000003
 30
0.0
 11
-0.0000000000000596
 21
-44.62499999999823
 31
0.0
  0
LINE
  5
2F90
330
2DEE
100
AcDbEntity
  8
AM_5
100
AcDbLine
 10
-197.5
 20
-43.62499999999823
 30
0.0
 11
-2.500000000000059
 21
-43.62499999999823
 31
0.0
  0
INSERT
  5
2F91
330
2DEE
100
AcDbEntity
  8
AM_5
100
AcDbBlockReference
  2
_OPEN30
 10
-200.0
 20
-43.62499999999823
 30
0.0
 41
2.5
 42
2.5
 43
2.5
 50
180.0
  0
INSERT
  5
2F92
330
2DEE
100
AcDbEntity
  8
AM_5
100
AcDbBlockReference
  2
_OPEN30
 10
-0.0000000000000595
 20
-43.62499999999823
 30
0.0
 41
2.5
 42
2.5
 43
2.5
  0
MTEXT
  5
2F93
330
2DEE
100
AcDbEntity
  8
AM_5
 62
     2
100
AcDbMText
 10
-100.0
 20
-40.52499999999823
 30
0.0
 40
3.2
 41
0.0
 71
     5
 72
     1
  1
200
  7
ASAMI
1001
ACAD
1000
MTEXTBEGIN
1070
    73
1070
     1
1070
    44
1040
1.0
1070
    74
1070
     0
1000
MTEXTEND
  0
POINT
  5
2F94
330
2DEE
100
AcDbEntity
  8
DEFPOINTS
 62
     0
100
AcDbPoint
 10
-200.0
 20
-5.62500000000001
 30
0.0
  0
POINT
  5
2F95
330
2DEE
100
AcDbEntity
  8
DEFPOINTS
 62
     0
100
AcDbPoint
 10
-0.0000000000000568
 20
-0.0000000000000037
 30
0.0
  0
POINT
  5
2F96
330
2DEE
100
AcDbEntity
  8
DEFPOINTS
 62
     0
100
AcDbPoint
 10
-0.0000000000000595
 20
-43.62499999999823
 30
0.0
  0
ENDBLK
  5
2DF9
330
2DEE
100
AcDbEntity
  8
0
100
AcDbBlockEnd
  0
BLOCK
  5
2E09
330
2DFF
100
AcDbEntity
  8
0
100
AcDbBlockBegin
  2
*D11
 70
     1
 10
0.0
 20
0.0
 30
0.0
  3
*D11
  1

  0
LINE
  5
2FA0
330
2DFF
100
AcDbEntity
  8
AM_5
100
AcDbLine
 10
-200.5
 20
-5.00000000000001
 30
0.0
 11
-215.0
 21
-5.000000000000006
 31
0.0
  0
LINE
  5
2FA1
330
2DFF
100
AcDbEntity
  8
AM_5
100
AcDbLine
 10
-200.5
 20
4.999999999999997
 30
0.0
 11
-215.0
 21
5.000000000000001
 31
0.0
  0
LINE
  5
2FA2
330
2DFF
100
AcDbEntity
  8
AM_5
100
AcDbLine
 10
-214.0
 20
-2.500000000000006
 30
0.0
 11
-214.0
 21
2.500000000000001
 31
0.0
  0
INSERT
  5
2FA3
330
2DFF
100
AcDbEntity
  8
AM_5
100
AcDbBlockReference
  2
_OPEN30
 10
-214.0
 20
-5.000000000000006
 30
0.0
 41
2.5
 42
2.5
 43
2.5
 50
270.0
  0
INSERT
  5
2FA4
330
2DFF
100
AcDbEntity
  8
AM_5
100
AcDbBlockReference
  2
_OPEN30
 10
-214.0
 20
5.000000000000001
 30
0.0
 41
2.5
 42
2.5
 43
2.5
 50
90.0
  0
MTEXT
  5
2FA5
330
2DFF
100
AcDbEntity
  8
AM_5
 62
     2
100
AcDbMText
 10
-217.1
 20
-0.0000000000000367
 30
0.0
 40
3.2
 41
0.0
 71
     5
 72
     1
  1
%%c10
  7
ASAMI
 11
0.0000000000000001
 21
1.0
 31
0.0
1001
ACAD
1000
MTEXTBEGIN
1070
    73
1070
     1
1070
    44
1040
1.0
1070
    74
1070
     0
1000
MTEXTEND
  0
POINT
  5
2FA6
330
2DFF
100
AcDbEntity
  8
DEFPOINTS
 62
     0
100
AcDbPoint
 10
-199.5
 20
-5.00000000000001
 30
0.0
  0
POINT
  5
2FA7
330
2DFF
100
AcDbEntity
  8
DEFPOINTS
 62
     0
100
AcDbPoint
 10
-199.5
 20
4.999999999999997
 30
0.0
  0
POINT
  5
2FA8
330
2DFF
100
AcDbEntity
  8
DEFPOINTS
 62
     0
100
AcDbPoint
 10
-214.0
 20
5.000000000000001
 30
0.0
  0
ENDBLK
  5
2E0A
330
2DFF
100
AcDbEntity
  8
0
100
AcDbBlockEnd
  0
ENDSEC
  0
SECTION
  2
ENTITIES
  0
LINE
  5
C50
330
1F
100
AcDbEntity
  8
AM_7
100
AcDbLine
 10
-202.3848732152464
 20
-0.0000000000000036
 30
0.0
 11
1.32952988907452
 21
-0.0000000000000036
 31
0.0
1001
GENIUS_GENODEF_13
1002
{
1000
HIER
1070
     0
1002
}
1002
{
1000
MANEDIT
1070
     0
1002
}
1002
{
1000
NOSEL
1070
     0
1002
}
1002
{
1000
BEHIND
1070
     0
1002
}
1002
{
1000
REACTOR
1002
}
1001
GENIUS_GENOBJ-N-CEN_13
1002
{
1000
OWNER
1000
GEN
1002
}
  0
TEXT
  5
C58
330
1F
100
AcDbEntity
  8
AM_6
100
AcDbText
 10
-132.4353977477638
 20
-66.11768724371026
 30
0.0
 40
5.0
  1
PLSNB2040ZX-15
 50
0.0000000000002036
 72
     4
 11
-99.45920727157332
 21
-63.61768724371015
 31
0.0
100
AcDbText
  0
DIMENSION
  5
194C
330
1F
100
AcDbEntity
  8
AM_5
100
AcDbDimension
  2
*D5
 10
14.0028127271194
 20
1.990517506654771
 30
0.0
 11
10.90281272711939
 21
11.08099369713096
 31
0.0
 70
    32
  1
%%c<>
  3
AM_JIS
100
AcDbAlignedDimension
 13
-1.997186392449617
 23
-2.009482493339111
 33
0.0
 14
-1.997186392449617
 24
1.990517506654775
 34
0.0
 50
90.00000000000003
100
AcDbRotatedDimension
1001
ACAD
1000
DSTYLE
1002
{
1070
    48
1040
0.05
1070
    47
1040
0.0
1070
   274
1070
     1
1070
   272
1070
     2
1002
}
1001
GENIUS_GENDTOL_13
1000

1000
H7
1000

1040
0.0
  0
DIMENSION
  5
195B
330
1F
100
AcDbEntity
  8
AM_5
100
AcDbDimension
  2
*D6
 10
0.0028127271194453
 20
-19.62499999999846
 30
0.0
 11
-3.996958035183068
 21
-16.52499999999846
 31
0.0
 70
    32
  1
<>
  3
AM_JIS
100
AcDbAlignedDimension
 13
-7.99672879748558
 23
-2.009482493331225
 33
0.0
 14
0.0028127271194465
 24
-0.0113591112987261
 34
0.0
 50
359.9999999999988
100
AcDbRotatedDimension
1001
GENIUS_GENDTOL_13
1000

1000
H7
1000

1040
0.0
  0
LINE
  5
1C97
330
1F
100
AcDbEntity
  8
AM_11
 48
0.4
100
AcDbLine
 10
-7.99672879748558
 20
2.009482493339078
 30
0.0
 11
-7.99672879748558
 21
-1.990517506660919
 31
0.0
  0
ARC
  5
1C9A
330
1F
100
AcDbEntity
  8
AM_11
100
AcDbCircle
 10
-1.997186392449617
 20
-0.0094824933382243
 30
0.0
 40
1.999999999993
100
AcDbArc
 50
270.0
 51
90.0
  0
LINE
  5
1CA1
330
1F
100
AcDbEntity
  8
AM_11
100
AcDbLine
 10
-7.99672879748558
 20
-2.009482493331225
 30
0.0
 11
-1.997186392449617
 21
-2.009482493331225
 31
0.0
1001
GENIUS_GENODEF_13
1002
{
1000
HIER
1070
     0
1002
}
1002
{
1000
MANEDIT
1070
     0
1002
}
1002
{
1000
NOSEL
1070
     0
1002
}
1002
{
1000
BEHIND
1070
     0
1002
}
1002
{
1000
REACTOR
1002
}
1001
GENIUS_GENOBJ-N-CEN_13
1002
{
1000
OWNER
1000
GEN
1002
}
  0
LINE
  5
1CB1
330
1F
100
AcDbEntity
  8
AM_11
100
AcDbLine
 10
-7.99672879748558
 20
1.990517506668774
 30
0.0
 11
-1.997186392449617
 21
1.990517506668774
 31
0.0
1001
GENIUS_GENODEF_13
1002
{
1000
HIER
1070
     0
1002
}
1002
{
1000
MANEDIT
1070
     0
1002
}
1002
{
1000
NOSEL
1070
     0
1002
}
1002
{
1000
BEHIND
1070
     0
1002
}
1002
{
1000
REACTOR
1002
}
1001
GENIUS_GENOBJ-N-CEN_13
1002
{
1000
OWNER
1000
GEN
1002
}
  0
DIMENSION
  5
1EF8
330
1F
100
AcDbEntity
  8
AM_5
100
AcDbDimension
  2
*D7
 10
-1.99718639244962
 20
-0.0094824933382243
 30
0.0
 11
5.597255598985857
 21
-11.11313072833356
 31
0.0
 70
   164
  1
<>
  3
AM_JIS$4
100
AcDbRadialDimension
 15
-0.8681012114254077
 25
-1.660290372518454
 35
0.0
 40
0.0
1001
GENIUS_GENDTOL_13
1000

1000
h7
1000

1040
0.0
1001
ACAD
1000
DSTYLE
1002
{
1070
    78
1070
     0
1070
   271
1070
     1
1070
   288
1070
     1
1070
   289
1070
     0
1070
    74
1070
     0
1002
}
  0
LINE
  5
2165
330
1F
100
AcDbEntity
  8
AM_0
100
AcDbLine
 10
-100.0
 20
-4.318743335566647
 30
0.0
 11
-100.0
 21
4.318743335566623
 31
0.0
  0
DIMENSION
  5
21E0
330
1F
100
AcDbEntity
  8
AM_5
100
AcDbDimension
  2
*D8
 10
0.000468934590515
 20
-31.62499999999892
 30
0.0
 11
-49.99952012694723
 21
-28.52499999999892
 31
0.0
 70
    32
  1
<>
  3
AM_JIS
100
AcDbAlignedDimension
 13
-99.99950918848497
 23
-4.318743335566647
 33
0.0
 14
0.0004689345905169
 24
-0.0000000000000036
 34
0.0
 50
0.0000000000001132
100
AcDbRotatedDimension
1001
GENIUS_GENDTOL_13
1000

1000
h7
1000

1040
0.0
1001
ACAD
1000
DSTYLE
1002
{
1070
   271
1070
     1
1002
}
  0
ARC
  5
25B1
330
1F
100
AcDbEntity
  8
AM_0
100
AcDbCircle
 10
-4.181557808806401
 20
-4.075504613592917
 30
0.0
 40
5.845057976050594
100
AcDbArc
 50
44.33711907809943
 51
76.82999214053896
  0
LINE
  5
25B2
330
1F
100
AcDbEntity
  8
AM_0
100
AcDbLine
 10
-1.681024659497025
 20
0.4821325386111766
 30
0.0
 11
-0.3218621308178331
 21
-0.1516553571892047
 31
0.0
  0
ARC
  5
25B3
330
1F
100
AcDbEntity
  8
AM_0
100
AcDbCircle
 10
-1.990266334897169
 20
-0.1968479587617851
 30
0.0
 40
1.999999999993002
100
AcDbArc
 50
5.375507822153728
 51
90.25198180382437
  0
SPLINE
  5
25B4
330
1F
100
AcDbEntity
  8
AM_0
100
AcDbSpline
210
0.0
220
0.0
230
1.0
 70
     8
 71
     3
 72
     8
 73
     4
 74
     0
 42
0.0000000001
 43
0.0000000001
 40
3.790408995970492
 40
3.790408995970492
 40
3.790408995970492
 40
3.790408995970492
 40
5.485524909568358
 40
5.485524909568358
 40
5.485524909568358
 40
5.485524909568358
 10
-1.999062130806634
 20
1.803132699631313
 30
0.0
 10
-2.215608240845695
 20
1.749933925358754
 30
0.0
 10
-2.430355565661712
 20
1.686629576943738
 30
0.0
 10
-2.643589083478373
 20
1.614820661851134
 30
0.0
  0
SPLINE
  5
25B5
330
1F
100
AcDbEntity
  8
AM_0
100
AcDbSpline
210
0.0
220
0.0
230
1.0
 70
     8
 71
     3
 72
     8
 73
     4
 74
     2
 42
0.0000000001
 43
0.0000000001
 44
0.0000000001
 12
0.603993312815418
 22
-0.7969893839156561
 32
0.0
 40
0.0
 40
0.0
 40
0.0
 40
0.0
 40
0.8001426187159868
 40
0.8001426187159868
 40
0.8001426187159868
 40
0.8001426187159868
 10
-1.999062130806463
 20
1.803132699631313
 30
0.0
 10
-1.837968533805439
 20
1.590564308719609
 30
0.0
 10
-2.30753297269532
 20
1.603455099497684
 30
0.0
 10
-2.777097411585201
 20
1.61634589027576
 30
0.0
 11
-1.999062130806463
 21
1.803132699631313
 31
0.0
 11
-2.777097411585201
 21
1.61634589027576
 31
0.0
  0
SPLINE
  5
25B6
330
1F
100
AcDbEntity
  8
AM_0
100
AcDbSpline
210
0.0
220
0.0
230
1.0
 70
     8
 71
     3
 72
     8
 73
     4
 74
     2
 42
0.0000000001
 43
0.0000000001
 44
0.0000000001
 12
-0.9063077870366491
 22
0.4226182617407012
 32
0.0
 13
0.9900295272873
 23
-0.140859984024155
 33
0.0
 40
0.0
 40
0.0
 40
0.0
 40
0.0
 40
1.5546884198417
 40
1.5546884198417
 40
1.5546884198417
 40
1.5546884198417
 10
-1.70297776298318
 20
0.4923694388869619
 30
0.0
 10
-2.172653170089259
 20
0.7113826780675942
 30
0.0
 10
-3.290159892043692
 20
1.689343685602907
 30
0.0
 10
-2.777097411585386
 20
1.61634589027576
 30
0.0
 11
-1.70297776298318
 21
0.4923694388869619
 31
0.0
 11
-2.777097411585386
 21
1.61634589027576
 31
0.0
  0
LINE
  5
25B8
330
1F
100
AcDbEntity
  8
AM_0
100
AcDbLine
 10
0.0009378691809883
 20
-0.0094824933381887
 30
0.0
 11
-0.3218621308178331
 21
-0.1516553571892047
 31
0.0
  0
SPLINE
  5
25B9
330
1F
100
AcDbEntity
  8
AM_0
100
AcDbSpline
210
0.0
220
0.0
230
1.0
 70
     8
 71
     3
 72
     8
 73
     4
 74
     2
 42
0.0000000001
 43
0.0000000001
 44
0.0000000001
 12
-0.0000000000000001
 22
-1.0
 32
0.0
 13
-1.0
 23
0.0000000000000001
 33
0.0
 40
0.0
 40
0.0
 40
0.0
 40
0.0
 40
0.3501906582277805
 40
0.3501906582277805
 40
0.3501906582277805
 40
0.3501906582277805
 10
-1.476395048542484
 20
-0.9840636492777349
 30
0.0
 10
-1.476395048542484
 20
-1.100793868686995
 30
0.0
 10
-1.648079327178708
 20
-1.182685335976791
 30
0.0
 10
-1.764809546587968
 20
-1.182685335976791
 30
0.0
 11
-1.476395048542484
 21
-0.9840636492777349
 31
0.0
 11
-1.764809546587968
 21
-1.182685335976791
 31
0.0
  0
ARC
  5
25BB
330
1F
100
AcDbEntity
  8
AM_0
100
AcDbCircle
 10
-0.2287134934120008
 20
-0.0625533685173196
 30
0.0
 40
1.551093311364568
100
AcDbArc
 50
159.4415606715376
 51
216.4487634976257
  0
ARC
  5
25BC
330
1F
100
AcDbEntity
  8
AM_0
100
AcDbCircle
 10
-1.990266334897169
 20
0.1778829720853081
 30
0.0
 40
1.999999999993002
100
AcDbArc
 50
269.7480181961756
 51
354.6244921778462
  0
SPLINE
  5
25BE
330
1F
100
AcDbEntity
  8
AM_0
100
AcDbSpline
210
0.0
220
0.0
230
1.0
 70
     8
 71
     3
 72
     8
 73
     4
 74
     2
 42
0.0000000001
 43
0.0000000001
 44
0.0000000001
 12
0.0000000000000001
 22
1.0
 32
0.0
 40
0.0
 40
0.0
 40
0.0
 40
0.0
 40
0.6809716785374482
 40
0.6809716785374482
 40
0.6809716785374482
 40
0.6809716785374482
 10
-1.999062130815447
 20
-1.822097686305479
 30
0.0
 10
-1.999062130815447
 20
-1.595107126792996
 30
0.0
 10
-1.881935838701707
 20
-1.388896231384893
 30
0.0
 10
-1.764809546587968
 20
-1.182685335976791
 30
0.0
 11
-1.999062130815447
 21
-1.822097686305479
 31
0.0
 11
-1.764809546587968
 21
-1.182685335976791
 31
0.0
  0
ARC
  5
25C2
330
1F
100
AcDbEntity
  8
AM_0
100
AcDbCircle
 10
-1.711704870492182
 20
0.5591668290078303
 30
0.0
 40
1.561067269984169
100
AcDbArc
 50
278.6696104128123
 51
332.9129476995508
  0
LINE
  5
290B
330
1F
100
AcDbEntity
  8
AM_0
100
AcDbLine
 10
-12.00093786918195
 20
-2.014419648798875
 30
0.0
 11
-9.119511679534193
 21
-2.014419648798875
 31
0.0
  0
LINE
  5
2910
330
1F
100
AcDbEntity
  8
AM_0
100
AcDbLine
 10
-9.117097593540345
 20
1.995400162573078
 30
0.0
 11
-12.00093786918195
 21
1.995400162573078
 31
0.0
  0
SPLINE
  5
29E2
330
1F
100
AcDbEntity
  8
AM_0
100
AcDbSpline
210
0.0
220
0.0
230
1.0
 70
     8
 71
     3
 72
     8
 73
     4
 74
     0
 42
0.0000000001
 43
0.0000000001
 40
0.0
 40
0.0
 40
0.0
 40
0.0
 40
1.943319591907458
 40
1.943319591907458
 40
1.943319591907458
 40
1.943319591907458
 10
-7.923328385182904
 20
-1.845649447185236
 30
0.0
 10
-8.3297616119207
 20
-1.845649447185236
 30
0.0
 10
-8.727741305663746
 20
-1.78111901975326
 30
0.0
 10
-9.119511679534193
 20
-1.669189467518761
 30
0.0
  0
SPLINE
  5
29E3
330
1F
100
AcDbEntity
  8
AM_0
100
AcDbSpline
210
0.0
220
0.0
230
1.0
 70
     8
 71
     3
 72
     8
 73
     4
 74
     0
 42
0.0000000001
 43
0.0000000001
 40
0.0
 40
0.0
 40
0.0
 40
0.0
 40
1.293721832890842
 40
1.293721832890842
 40
1.293721832890842
 40
1.293721832890842
 10
-9.119511679534189
 20
-2.009482543898363
 30
0.0
 10
-8.848937790796362
 20
-2.009482543898363
 30
0.0
 10
-8.582725024250173
 20
-1.978848222219815
 30
0.0
 10
-8.320110067369833
 20
-1.922941400989066
 30
0.0
  0
LINE
  5
29E4
330
1F
100
AcDbEntity
  8
AM_0
100
AcDbLine
 10
-9.119511679534193
 20
-1.669189467518236
 30
0.0
 11
-9.119511679534193
 21
-2.014419648798875
 31
0.0
  0
SPLINE
  5
29E5
330
1F
100
AcDbEntity
  8
AM_0
100
AcDbSpline
210
0.0
220
0.0
230
1.0
 70
     8
 71
     3
 72
     8
 73
     4
 74
     0
 42
0.0000000001
 43
0.0000000001
 40
0.0
 40
0.0
 40
0.0
 40
0.0
 40
1.389839699216864
 40
1.389839699216864
 40
1.389839699216864
 40
1.389839699216864
 10
-8.5668863308974
 20
-1.931104145978443
 30
0.0
 10
-8.276209987205298
 20
-1.931104145978443
 30
0.0
 10
-7.990234096611289
 20
-1.896820746223915
 30
0.0
 10
-7.708070761833243
 20
-1.83472994739609
 30
0.0
  0
LINE
  5
29E6
330
1F
100
AcDbEntity
  8
AM_0
100
AcDbLine
 10
-10.69558565977456
 20
1.125923542376997
 30
0.0
 11
-9.120107191089905
 21
1.990517506654805
 31
0.0
  0
LINE
  5
29E7
330
1F
100
AcDbEntity
  8
AM_0
100
AcDbLine
 10
-10.69499014821885
 20
-0.4831147473661996
 30
0.0
 11
-9.119511679534193
 21
0.3814792169116081
 31
0.0
  0
SPLINE
  5
29E8
330
1F
100
AcDbEntity
  8
AM_0
100
AcDbSpline
210
0.0
220
0.0
230
1.0
 70
     8
 71
     3
 72
     8
 73
     4
 74
     0
 42
0.0000000001
 43
0.0000000001
 40
3.359485258353905
 40
3.359485258353905
 40
3.359485258353905
 40
3.359485258353905
 40
7.218994763998551
 40
7.218994763998551
 40
7.218994763998551
 40
7.218994763998551
 10
-10.69558565977456
 20
1.125923542070977
 30
0.0
 10
-9.922077406414878
 20
0.8271687365355418
 30
0.0
 10
-9.162050601374978
 20
0.4088430964585791
 30
0.0
 10
-8.402023796335077
 20
-0.0094825436184238
 30
0.0
  0
SPLINE
  5
29E9
330
1F
100
AcDbEntity
  8
AM_0
100
AcDbSpline
210
0.0
220
0.0
230
1.0
 70
     8
 71
     3
 72
     8
 73
     4
 74
     0
 42
0.0000000001
 43
0.0000000001
 40
4.071346735624547
 40
4.071346735624547
 40
4.071346735624547
 40
4.071346735624547
 40
6.816591828337566
 40
6.816591828337566
 40
6.816591828337566
 40
6.816591828337566
 10
-9.119511679534193
 20
-1.669189467518236
 30
0.0
 10
-9.693574499229953
 20
-1.283646836157799
 30
0.0
 10
-10.22291611412674
 20
-0.9462486339508586
 30
0.0
 10
-10.69558565977456
 20
-0.482693286232958
 30
0.0
  0
SPLINE
  5
29EA
330
1F
100
AcDbEntity
  8
AM_0
100
AcDbSpline
210
0.0
220
0.0
230
1.0
 70
     8
 71
     3
 72
     8
 73
     4
 74
     0
 42
0.0000000001
 43
0.0000000001
 40
0.0
 40
0.0
 40
0.0
 40
0.0
 40
1.748655602797241
 40
1.748655602797241
 40
1.748655602797241
 40
1.748655602797241
 10
-7.923328385182904
 20
-1.840712342284723
 30
0.0
 10
-7.557607923115093
 20
-1.840712342284723
 30
0.0
 10
-7.198732223196921
 20
-1.788462540046331
 30
0.0
 10
-6.845066185644053
 20
-1.69644454391578
 30
0.0
  0
SPLINE
  5
29EB
330
1F
100
AcDbEntity
  8
AM_0
100
AcDbSpline
210
0.0
220
0.0
230
1.0
 70
     8
 71
     3
 72
     8
 73
     4
 74
     0
 42
0.0000000001
 43
0.0000000001
 40
0.0
 40
0.0
 40
0.0
 40
0.0
 40
2.238610194515266
 40
2.238610194515266
 40
2.238610194515266
 40
2.238610194515266
 10
-4.049041352387953
 20
-1.574391556509857
 30
0.0
 10
-3.580849929549445
 20
-1.574391556509857
 30
0.0
 10
-3.121141983729857
 20
-1.49914916393532
 30
0.0
 10
-2.66728678880167
 20
-1.371997043870982
 30
0.0
  0
SPLINE
  5
29ED
330
1F
100
AcDbEntity
  8
AM_0
100
AcDbSpline
210
0.0
220
0.0
230
1.0
 70
     8
 71
     3
 72
     8
 73
     4
 74
     0
 42
0.0000000001
 43
0.0000000001
 40
7.981245920543044
 40
7.981245920543044
 40
7.981245920543044
 40
7.981245920543044
 40
14.43905044399483
 40
14.43905044399483
 40
14.43905044399483
 40
14.43905044399483
 10
-1.764809546587968
 20
-1.182685335976791
 30
0.0
 10
-2.060722090210735
 20
-0.8496402207526811
 30
0.0
 10
-2.695454638237432
 20
-0.4295613570454777
 30
0.0
 10
-3.330187186264118
 20
-0.0094824933381887
 30
0.0
  0
LINE
  5
29EE
330
1F
100
AcDbEntity
  8
AM_0
100
AcDbLine
 10
-3.660063392411882
 20
-1.557411763810839
 30
0.0
 11
-6.845066185643906
 21
-1.69644454391578
 31
0.0
  0
SPLINE
  5
29EF
330
1F
100
AcDbEntity
  8
AM_0
100
AcDbSpline
210
0.0
220
0.0
230
1.0
 70
     8
 71
     3
 72
     8
 73
     4
 74
     0
 42
0.0000000001
 43
0.0000000001
 40
0.0
 40
0.0
 40
0.0
 40
0.0
 40
4.246467508828962
 40
4.246467508828962
 40
4.246467508828962
 40
4.246467508828962
 10
-4.049041352387953
 20
-1.574391556509857
 30
0.0
 10
-5.558849285140352
 20
-1.574391556509857
 30
0.0
 10
-6.980436540737787
 20
-0.7919370500640908
 30
0.0
 10
-8.402023796335226
 20
-0.0094825436183243
 30
0.0
  0
SPLINE
  5
29F0
330
1F
100
AcDbEntity
  8
AM_0
100
AcDbSpline
210
0.0
220
0.0
230
1.0
 70
     8
 71
     3
 72
     8
 73
     4
 74
     0
 42
0.0000000001
 43
0.0000000001
 40
3.7904089959839
 40
3.7904089959839
 40
3.7904089959839
 40
3.7904089959839
 40
14.48999654934396
 40
14.48999654934396
 40
14.48999654934396
 40
14.48999654934396
 10
-1.999062130815447
 20
-1.822097686305479
 30
0.0
 10
-2.696028192120033
 20
-1.486306523887327
 30
0.0
 10
-3.732135689487693
 20
-0.7478945086127651
 30
0.0
 10
-4.768243186855203
 20
-0.0094824933381887
 30
0.0
  0
LINE
  5
29F1
330
1F
100
AcDbEntity
  8
AM_0
100
AcDbLine
 10
-6.703661432607999
 20
1.680304426794601
 30
0.0
 11
-2.224998273539245
 21
1.61634589027576
 31
0.0
  0
SPLINE
  5
29F2
330
1F
100
AcDbEntity
  8
AM_0
100
AcDbSpline
210
0.0
220
0.0
230
1.0
 70
     8
 71
     3
 72
     8
 73
     4
 74
     0
 42
0.0000000001
 43
0.0000000001
 40
0.0
 40
0.0
 40
0.0
 40
0.0
 40
4.346998964788029
 40
4.346998964788029
 40
4.346998964788029
 40
4.346998964788029
 10
-9.120107191089902
 20
1.990517506654805
 30
0.0
 10
-7.574555857644438
 20
1.990517506654804
 30
0.0
 10
-6.17139952224982
 20
0.990517506658308
 30
0.0
 10
-4.768243186855203
 20
-0.0094824933381887
 30
0.0
  0
SPLINE
  5
29F4
330
1F
100
AcDbEntity
  8
AM_0
100
AcDbSpline
210
0.0
220
0.0
230
1.0
 70
     8
 71
     3
 72
     8
 73
     4
 74
     0
 42
0.0000000001
 43
0.0000000001
 40
0.0821324233433243
 40
0.0821324233433243
 40
0.0821324233433243
 40
0.0821324233433243
 40
4.331715133183233
 40
4.331715133183233
 40
4.331715133183233
 40
4.331715133183233
 10
-8.254767448939855
 20
1.889347446165367
 30
0.0
 10
-6.114774891141915
 20
1.833414081912074
 30
0.0
 10
-4.722481038703016
 20
0.9119657942869428
 30
0.0
 10
-3.330187186264118
 20
-0.0094824933381887
 30
0.0
  0
LINE
  5
2C12
330
1F
100
AcDbEntity
  8
AM_0
100
AcDbLine
 10
-12.00093786918195
 20
-2.014419648798874
 30
0.0
 11
-12.00093786918195
 21
1.995400162573078
 31
0.0
  0
LINE
  5
2C13
330
1F
100
AcDbEntity
  8
AM_0
100
AcDbLine
 10
-99.99950918848497
 20
-4.318743335566647
 30
0.0
 11
-12.00093786918195
 21
-2.014419648798874
 31
0.0
  0
LINE
  5
2C82
330
1F
100
AcDbEntity
  8
AM_0
100
AcDbLine
 10
-99.99950918848497
 20
4.318743335566623
 30
0.0
 11
-12.00093786918195
 21
2.014419648798867
 31
0.0
  0
DIMENSION
  5
2CAA
330
1F
100
AcDbEntity
  8
AM_5
100
AcDbDimension
  2
*D9
 10
1.329529889074521
 20
-0.0000000000000036
 30
0.0
 11
-82.60839519488904
 21
-2.139084180888186
 31
0.0
 70
   162
  1
<>
  3
AM_JIS$2
100
AcDb2LineAngularDimension
 13
-48.00000000000007
 23
-2.957088266320766
 33
0.0
 14
-12.00093786918195
 24
-2.014419648798874
 34
0.0
 15
-92.38487321524642
 25
-0.0000000000000036
 35
0.0
 16
-83.56081182557533
 26
-1.295830403396148
 36
0.0
1001
GENIUS_GENDTOL_13
1000

1000
h7
1000

1040
0.0
1001
ACAD
1000
DSTYLE
1002
{
1070
   287
1070
     4
1070
   271
1070
     1
1070
   179
1070
     1
1070
   275
1070
     1
1070
   279
1070
     1
1002
}
  0
LINE
  5
2DEB
330
1F
100
AcDbEntity
  8
AM_0
100
AcDbLine
 10
-199.5
 20
4.99999999999999
 30
0.0
 11
-100.7
 21
4.99999999999999
 31
0.0
1001
GENIUS_GENODEF_13
1002
{
1000
HIER
1070
     0
1002
}
1002
{
1000
MANEDIT
1070
     0
1002
}
1002
{
1000
NOSEL
1070
     0
1002
}
1002
{
1000
BEHIND
1070
     0
1002
}
1002
{
1000
REACTOR
1002
}
1001
GENIUS_GENOBJ-N-CEN_13
1002
{
1000
OWNER
1000
GEN
1002
}
  0
LINE
  5
2DEC
330
1F
100
AcDbEntity
  8
AM_0
100
AcDbLine
 10
-199.5
 20
-5.00000000000001
 30
0.0
 11
-100.7
 21
-5.00000000000001
 31
0.0
1001
GENIUS_GENODEF_13
1002
{
1000
HIER
1070
     0
1002
}
1002
{
1000
MANEDIT
1070
     0
1002
}
1002
{
1000
NOSEL
1070
     0
1002
}
1002
{
1000
BEHIND
1070
     0
1002
}
1002
{
1000
REACTOR
1002
}
1001
GENIUS_GENOBJ-N-CEN_13
1002
{
1000
OWNER
1000
GEN
1002
}
  0
DIMENSION
  5
2DED
330
1F
100
AcDbEntity
  8
AM_5
100
AcDbDimension
  2
*D10
 10
-0.0000000000000595
 20
-43.62499999999823
 30
0.0
 11
-100.0
 21
-40.52499999999823
 31
0.0
 70
    32
  1
<>
  3
AM_JIS
100
AcDbAlignedDimension
 13
-200.0
 23
-5.62500000000001
 33
0.0
 14
-0.0000000000000568
 24
-0.0000000000000037
 34
0.0
 50
0.0000000000005089
100
AcDbRotatedDimension
1001
GENIUS_GENDTOL_13
1000

1000
H7
1000

1040
0.0
  0
LINE
  5
2DFA
330
1F
100
AcDbEntity
  8
AM_0
100
AcDbLine
 10
-200.0
 20
3.749999999999989
 30
0.0
 11
-199.5
 21
4.99999999999999
 31
0.0
1001
GENIUS_GENFIL_13
1070
     0
1040
0.5
1040
0.5
1040
0.4999999999999716
1040
45.0
1002
{
1002
}
  0
LINE
  5
2DFB
330
1F
100
AcDbEntity
  8
AM_0
100
AcDbLine
 10
-200.0
 20
-3.75000000000001
 30
0.0
 11
-199.5
 21
-5.00000000000001
 31
0.0
1001
GENIUS_GENFIL_13
1070
     0
1040
0.5
1040
0.5
1040
0.4999999999999716
1040
45.00000000000036
1002
{
1002
}
  0
LINE
  5
2DFC
330
1F
100
AcDbEntity
  8
0
100
AcDbLine
 10
-199.5
 20
-5.00000000000001
 30
0.0
 11
-199.5
 21
4.99999999999999
 31
0.0
  0
LINE
  5
2DFD
330
1F
100
AcDbEntity
  8
AM_0
100
AcDbLine
 10
-200.0
 20
-3.75000000000001
 30
0.0
 11
-200.0
 21
3.749999999999989
 31
0.0
  0
DIMENSION
  5
2DFE
330
1F
100
AcDbEntity
  8
AM_5
100
AcDbDimension
  2
*D11
 10
-214.0
 20
5.000000000000001
 30
0.0
 11
-214.0
 21
-0.0000000000000371
 31
0.0
 70
   160
  1
%%c<>
  3
AM_JIS
100
AcDbAlignedDimension
 13
-199.5
 23
-5.00000000000001
 33
0.0
 14
-199.5
 24
4.999999999999997
 34
0.0
 50
270.0
100
AcDbRotatedDimension
1001
ACAD
1000
DSTYLE
1002
{
1070
    48
1040
0.1
1070
    47
1040
0.1
1070
   274
1070
     2
1070
   272
1070
     3
1002
}
1001
GENIUS_GENDTOL_13
1000

1000
h6
1000

1040
0.0
  0
LINE
  5
2EA4
330
1F
100
AcDbEntity
  8
AM_0
100
AcDbLine
 10
-100.7
 20
-5.00000000000001
 30
0.0
 11
-100.7
 21
4.99999999999999
 31
0.0
  0
LINE
  5
2EA5
330
1F
100
AcDbEntity
  8
AM_0
100
AcDbLine
 10
-100.7
 20
-5.00000000000001
 30
0.0
 11
-100.0
 21
-4.318743335566647
 31
0.0
  0
LINE
  5
2EA8
330
1F
100
AcDbEntity
  8
AM_0
100
AcDbLine
 10
-100.7
 20
5.000000000000002
 30
0.0
 11
-99.99950918848497
 21
4.318743335566623
 31
0.0
  0
VIEWPORT
  5
110
330
101
100
AcDbEntity
 67
     1
  8
0
100
AcDbViewport
 10
420.5
 20
297.0
 30
0.0
 40
948.9782706766916
 41
628.452
 68
     1
 69
     1
1001
ACAD
1000
MVIEW
1002
{
1070
    16
1010
0.0
1020
0.0
1030
0.0
1010
0.0
1020
0.0
1030
1.0
1040
0.0
1040
628.452
1040
420.5
1040
297.0
1040
50.0
1040
0.0
1040
0.0
1070
     0
1070
   100
1070
     1
1070
     1
1070
     0
1070
     0
1070
     0
1070
     0
1040
0.0
1040
0.0
1040
0.0
1040
10.0
1040
10.0
1040
10.0
1040
10.0
1070
     0
1002
{
1002
}
1002
}
  0
ENDSEC
  0
SECTION
  2
OBJECTS
  0
DICTIONARY
  5
C
330
0
100
AcDbDictionary
  3
ACAD_GROUP
350
D
  3
ACAD_LAYOUT
350
1A
  3
ACAD_MLINESTYLE
350
17
  3
ACAD_PLOTSETTINGS
350
19
  3
ACAD_PLOTSTYLENAME
350
E
  3
ACDBVARIABLEDICTIONARY
350
34
  3
ACMDICTIONARY
350
43
  3
AMG
350
2B
  3
AMGSNAPSETTINGS
350
6E
  3
DWGPROPS
350
2FF8
  3
ACDBHEADERROUNDTRIPXREC
350
3005
  0
DICTIONARY
  5
74
330
1F
100
AcDbDictionary
280
     1
  3
ACAD_INDEX
360
2FFA
  3
ACAD_LAYOUTSELFREF
360
3028
  0
DICTIONARY
  5
302D
330
101
100
AcDbDictionary
280
     1
  3
ACAD_LAYOUTSELFREF
360
302E
  0
DICTIONARY
  5
D
102
{ACAD_REACTORS
330
C
102
}
330
C
100
AcDbDictionary
  0
DICTIONARY
  5
1A
102
{ACAD_REACTORS
330
C
102
}
330
C
100
AcDbDictionary
  0
DICTIONARY
  5
17
102
{ACAD_REACTORS
330
C
102
}
330
C
100
AcDbDictionary
  3
STANDARD
350
18
  0
DICTIONARY
  5
19
102
{ACAD_REACTORS
330
C
102
}
330
C
100
AcDbDictionary
  0
ACDBDICTIONARYWDFLT
  5
E
102
{ACAD_REACTORS
330
C
102
}
330
C
100
AcDbDictionary
281
     1
  3
Normal
350
F
100
AcDbDictionaryWithDefault
340
F
  0
DICTIONARY
  5
34
102
{ACAD_REACTORS
330
C
102
}
330
C
100
AcDbDictionary
  3
INDEXCTL
350
35
  3
SORTENTS
350
B5E
  0
DICTIONARY
  5
43
102
{ACAD_REACTORS
330
C
102
}
330
C
100
AcDbDictionary
  3
ACMSTDDICTIONARY
350
260
  0
DICTIONARY
  5
2B
102
{ACAD_REACTORS
330
C
102
}
330
C
100
AcDbDictionary
  3
ACMGSETTINGS
350
2C
  0
DICTIONARY
  5
6E
102
{ACAD_REACTORS
330
C
102
}
330
C
100
AcDbDictionary
  0
XRECORD
  5
2FF8
102
{ACAD_REACTORS
330
C
102
}
330
C
100
AcDbXrecord
  1
DWGPROPS COOKIE
  2

  3

  4

  6

  7

  8

  9

300
AmdtFileType=82
301
=
302
=
303
=
304
=
305
=
306
=
307
=
308
=
309
=
 40
0.3871450462962963
 41
2452838.620506898
 42
2453045.542439282
  1

 90
        1
  0
DICTIONARY
  5
3005
102
{ACAD_REACTORS
330
C
102
}
330
C
100
AcDbDictionary
  3
TSTACKALIGN
350
3006
  3
TSTACKSIZE
350
3007
  3
HYPERLINKBASE
350
3008
  3
STYLESHEET
350
3009
  3
LAYOUTDICT
350
300A
  3
PLOTSETDICT
350
300B
  3
PLOTSTYLNAMDICT
350
300C
  3
LWETCUNION
350
300D
  3
INSUNITS
350
300E
  3
CEPSNTYPE
350
300F
  3
FINGERPRINTGUID
350
3010
  3
VERSIONGUID
350
3011
  3
PSVPSCALE
350
3012
  3
DIMSTYLEDATA
350
3013
  3
PUCSORTHOREF
350
3014
  3
PUCSORTHOVIEW
350
3015
  3
PUCSBASE
350
3016
  3
PUCSORGTOP
350
3017
  3
PUCSORGBOTTOM
350
3018
  3
PUCSORGLEFT
350
3019
  3
PUCSORGRIGHT
350
301A
  3
PUCSORGFRONT
350
301B
  3
PUCSORGBACK
350
301C
  3
UCSORTHOREF
350
301D
  3
UCSORTHOVIEW
350
301E
  3
UCSBASE
350
301F
  3
UCSORGTOP
350
3020
  3
UCSORGBOTTOM
350
3021
  3
UCSORGLEFT
350
3022
  3
UCSORGRIGHT
350
3023
  3
UCSORGFRONT
350
3024
  3
UCSORGBACK
350
3025
  0
DICTIONARY
  5
2FFA
102
{ACAD_REACTORS
330
74
102
}
330
74
100
AcDbDictionary
  3
*A1
350
2FFB
  0
XRECORD
  5
3028
102
{ACAD_REACTORS
330
74
102
}
330
74
100
AcDbXrecord
340
1F
  0
XRECORD
  5
302E
102
{ACAD_REACTORS
330
302D
102
}
330
302D
100
AcDbXrecord
340
101
  0
MLINESTYLE
  5
18
102
{ACAD_REACTORS
330
17
102
}
330
17
100
AcDbMlineStyle
  2
STANDARD
 70
     0
  3

 62
   256
 51
90.0
 52
90.0
 71
     2
 49
0.5
 62
   256
  6
BYLAYER
 49
-0.5
 62
   256
  6
BYLAYER
  0
ACDBPLACEHOLDER
  5
F
102
{ACAD_REACTORS
330
E
102
}
330
E
100
AcDbPlaceHolder
280
     0
  0
DICTIONARYVAR
  5
35
102
{ACAD_REACTORS
330
34
102
}
330
34
100
DictionaryVariables
280
     0
  1
1
  0
DICTIONARYVAR
  5
B5E
102
{ACAD_REACTORS
330
34
102
}
330
34
100
DictionaryVariables
280
     0
  1
96
  0
DICTIONARY
  5
260
102
{ACAD_REACTORS
330
43
102
}
330
43
100
AcDbDictionary
  0
DICTIONARY
  5
2C
102
{ACAD_REACTORS
330
2B
102
}
330
2B
100
AcDbDictionary
  3
DWGSETTINGS
350
2D
  0
XRECORD
  5
3006
102
{ACAD_REACTORS
330
3005
102
}
330
3005
100
AcDbXrecord
 90
        1
  0
XRECORD
  5
3007
102
{ACAD_REACTORS
330
3005
102
}
330
3005
100
AcDbXrecord
 90
       70
  0
XRECORD
  5
3008
102
{ACAD_REACTORS
330
3005
102
}
330
3005
100
AcDbXrecord
  1

  0
XRECORD
  5
3009
102
{ACAD_REACTORS
330
3005
102
}
330
3005
100
AcDbXrecord
  1
ASAMI.ctb
  0
XRECORD
  5
300A
102
{ACAD_REACTORS
330
3005
102
}
330
3005
100
AcDbXrecord
340
1A
  0
XRECORD
  5
300B
102
{ACAD_REACTORS
330
3005
102
}
330
3005
100
AcDbXrecord
340
19
  0
XRECORD
  5
300C
102
{ACAD_REACTORS
330
3005
102
}
330
3005
100
AcDbXrecord
340
E
  0
XRECORD
  5
300D
102
{ACAD_REACTORS
330
3005
102
}
330
3005
100
AcDbXrecord
 90
    10781
  0
XRECORD
  5
300E
102
{ACAD_REACTORS
330
3005
102
}
330
3005
100
AcDbXrecord
 90
        4
  0
XRECORD
  5
300F
102
{ACAD_REACTORS
330
3005
102
}
330
3005
100
AcDbXrecord
 90
        0
  0
XRECORD
  5
3010
102
{ACAD_REACTORS
330
3005
102
}
330
3005
100
AcDbXrecord
  1
{AFB28963-8C59-40AE-9337-C84526B81ACE}
  0
XRECORD
  5
3011
102
{ACAD_REACTORS
330
3005
102
}
330
3005
100
AcDbXrecord
  1
{F61C47AA-7BC0-4D9B-864E-BE6EA15ABB66}
  0
XRECORD
  5
3012
102
{ACAD_REACTORS
330
3005
102
}
330
3005
100
AcDbXrecord
 40
0.0
  0
XRECORD
  5
3013
102
{ACAD_REACTORS
330
3005
102
}
330
3005
100
AcDbXrecord
1000
DSTYLE
1002
{
1070
    79
 70
     2
1070
   341
340
59
1070
   342
340
59
1070
   371
 70
    -1
1070
   372
 70
    -1
1002
}
  0
XRECORD
  5
3014
102
{ACAD_REACTORS
330
3005
102
}
330
3005
100
AcDbXrecord
340
0
  0
XRECORD
  5
3015
102
{ACAD_REACTORS
330
3005
102
}
330
3005
100
AcDbXrecord
 70
     0
  0
XRECORD
  5
3016
102
{ACAD_REACTORS
330
3005
102
}
330
3005
100
AcDbXrecord
340
0
  0
XRECORD
  5
3017
102
{ACAD_REACTORS
330
3005
102
}
330
3005
100
AcDbXrecord
 10
0.0
 20
0.0
 30
0.0
  0
XRECORD
  5
3018
102
{ACAD_REACTORS
330
3005
102
}
330
3005
100
AcDbXrecord
 10
0.0
 20
0.0
 30
0.0
  0
XRECORD
  5
3019
102
{ACAD_REACTORS
330
3005
102
}
330
3005
100
AcDbXrecord
 10
0.0
 20
0.0
 30
0.0
  0
XRECORD
  5
301A
102
{ACAD_REACTORS
330
3005
102
}
330
3005
100
AcDbXrecord
 10
0.0
 20
0.0
 30
0.0
  0
XRECORD
  5
301B
102
{ACAD_REACTORS
330
3005
102
}
330
3005
100
AcDbXrecord
 10
0.0
 20
0.0
 30
0.0
  0
XRECORD
  5
301C
102
{ACAD_REACTORS
330
3005
102
}
330
3005
100
AcDbXrecord
 10
0.0
 20
0.0
 30
0.0
  0
XRECORD
  5
301D
102
{ACAD_REACTORS
330
3005
102
}
330
3005
100
AcDbXrecord
340
0
  0
XRECORD
  5
301E
102
{ACAD_REACTORS
330
3005
102
}
330
3005
100
AcDbXrecord
 70
     0
  0
XRECORD
  5
301F
102
{ACAD_REACTORS
330
3005
102
}
330
3005
100
AcDbXrecord
340
0
  0
XRECORD
  5
3020
102
{ACAD_REACTORS
330
3005
102
}
330
3005
100
AcDbXrecord
 10
0.0
 20
0.0
 30
0.0
  0
XRECORD
  5
3021
102
{ACAD_REACTORS
330
3005
102
}
330
3005
100
AcDbXrecord
 10
0.0
 20
0.0
 30
0.0
  0
XRECORD
  5
3022
102
{ACAD_REACTORS
330
3005
102
}
330
3005
100
AcDbXrecord
 10
0.0
 20
0.0
 30
0.0
  0
XRECORD
  5
3023
102
{ACAD_REACTORS
330
3005
102
}
330
3005
100
AcDbXrecord
 10
0.0
 20
0.0
 30
0.0
  0
XRECORD
  5
3024
102
{ACAD_REACTORS
330
3005
102
}
330
3005
100
AcDbXrecord
 10
0.0
 20
0.0
 30
0.0
  0
XRECORD
  5
3025
102
{ACAD_REACTORS
330
3005
102
}
330
3005
100
AcDbXrecord
 10
0.0
 20
0.0
 30
0.0
  0
LAYER_INDEX
  5
2FFB
102
{ACAD_REACTORS
330
2FFA
102
}
330
2FFA
100
AcDbIndex
 40
2453151.895743726
100
AcDbLayerIndex
  8
0
360
2FFC
 90
        1
  8
AM_0
360
2FFD
 90
       43
  8
AM_11
360
2FFE
 90
        4
  8
AM_7
360
2FFF
 90
        1
  8
AM_5
360
3000
 90
        7
  8
Defpoints
360
3001
 90
        0
  8
AM_6
360
3002
 90
        1
  8
AM_CL
360
3003
 90
        0
  0
XRECORD
  5
2D
102
{ACAD_REACTORS
330
2C
102
}
330
2C
100
AcDbXrecord
  1
VERSION
140
15.0
  1
PRODUCT
  2
AutoCAD Mechanical 2000
  0
IDBUFFER
  5
2FFC
330
0
100
AcDbIdBuffer
330
2DFC
  0
IDBUFFER
  5
2FFD
330
0
100
AcDbIdBuffer
330
29E3
330
29E4
330
29E5
330
29E6
330
29E7
330
29E8
330
29E9
330
29EA
330
29EB
330
29ED
330
29EE
330
29EF
330
29F0
330
29F1
330
29F2
330
29F4
330
2C12
330
2C13
330
2C82
330
2DEB
330
2DEC
330
2DFA
330
2DFB
330
2DFD
330
2EA4
330
2EA5
330
2EA8
330
2165
330
25B1
330
25B2
330
25B3
330
25B4
330
25B5
330
25B6
330
25B8
330
25B9
330
25BB
330
25BC
330
25BE
330
25C2
330
290B
330
2910
330
29E2
  0
IDBUFFER
  5
2FFE
330
0
100
AcDbIdBuffer
330
1C97
330
1C9A
330
1CA1
330
1CB1
  0
IDBUFFER
  5
2FFF
330
0
100
AcDbIdBuffer
330
C50
  0
IDBUFFER
  5
3000
330
0
100
AcDbIdBuffer
330
194C
330
195B
330
1EF8
330
21E0
330
2CAA
330
2DED
330
2DFE
  0
IDBUFFER
  5
3001
330
0
100
AcDbIdBuffer
  0
IDBUFFER
  5
3002
330
0
100
AcDbIdBuffer
330
C58
  0
IDBUFFER
  5
3003
330
0
100
AcDbIdBuffer
  0
ENDSEC
  0
EOF
