  0
SECTION
  2
HEADER
  9
$ACADVER
  1
AC1014
  9
$ACADMAINTVER
 70
     9
  9
$DWGCODEPAGE
  3
ANSI_932
  9
$INSBASE
 10
0.0
 20
0.0
 30
0.0
  9
$EXTMIN
 10
-79.35000100000006
 20
-37.77143686518761
 30
-0.00000001
  9
$EXTMAX
 10
7.500468934590502
 20
6.328571428569894
 30
0.00000001
  9
$LIMMIN
 10
-103.4036711955902
 20
-64.62113872959736
  9
$LIMMAX
 10
36.21162028204605
 20
25.12175890481433
  9
$ORTHOMODE
 70
     0
  9
$REGENMODE
 70
     1
  9
$FILLMODE
 70
     1
  9
$QTEXTMODE
 70
     0
  9
$MIRRTEXT
 70
     0
  9
$DRAGMODE
 70
     2
  9
$LTSCALE
 40
0.3
  9
$OSMODE
 70
    55
  9
$ATTMODE
 70
     1
  9
$TEXTSIZE
 40
2.5
  9
$TRACEWID
 40
1.0
  9
$TEXTSTYLE
  7
STANDARD
  9
$CLAYER
  8
AM_0
  9
$CELTYPE
  6
BYLAYER
  9
$CECOLOR
 62
   256
  9
$CELTSCALE
 40
1.0
  9
$DELOBJ
 70
     1
  9
$DISPSILH
 70
     0
  9
$DIMSCALE
 40
0.5
  9
$DIMASZ
 40
2.5
  9
$DIMEXO
 40
1.0
  9
$DIMDLI
 40
12.0
  9
$DIMRND
 40
0.0
  9
$DIMDLE
 40
0.0
  9
$DIMEXE
 40
1.0
  9
$DIMTP
 40
0.1
  9
$DIMTM
 40
0.1
  9
$DIMTXT
 40
3.2
  9
$DIMCEN
 40
0.0
  9
$DIMTSZ
 40
0.0
  9
$DIMTOL
 70
     0
  9
$DIMLIM
 70
     0
  9
$DIMTIH
 70
     0
  9
$DIMTOH
 70
     0
  9
$DIMSE1
 70
     0
  9
$DIMSE2
 70
     0
  9
$DIMTAD
 70
     3
  9
$DIMZIN
 70
     8
  9
$DIMBLK
  1
OPEN30
  9
$DIMASO
 70
     1
  9
$DIMSHO
 70
     1
  9
$DIMPOST
  1

  9
$DIMAPOST
  1
"
  9
$DIMALT
 70
     0
  9
$DIMALTD
 70
     2
  9
$DIMALTF
 40
0.0393701
  9
$DIMLFAC
 40
1.0
  9
$DIMTOFL
 70
     1
  9
$DIMTVP
 40
0.0
  9
$DIMTIX
 70
     0
  9
$DIMSOXD
 70
     0
  9
$DIMSAH
 70
     0
  9
$DIMBLK1
  1

  9
$DIMBLK2
  1

  9
$DIMSTYLE
  2
AM_JIS
  9
$DIMCLRD
 70
   256
  9
$DIMCLRE
 70
   256
  9
$DIMCLRT
 70
     2
  9
$DIMTFAC
 40
0.71
  9
$DIMGAP
 40
1.5
  9
$DIMJUST
 70
     0
  9
$DIMSD1
 70
     0
  9
$DIMSD2
 70
     0
  9
$DIMTOLJ
 70
     0
  9
$DIMTZIN
 70
     0
  9
$DIMALTZ
 70
     0
  9
$DIMALTTZ
 70
     0
  9
$DIMFIT
 70
     3
  9
$DIMUPT
 70
     0
  9
$DIMUNIT
 70
     2
  9
$DIMDEC
 70
     3
  9
$DIMTDEC
 70
     3
  9
$DIMALTU
 70
     2
  9
$DIMALTTD
 70
     2
  9
$DIMTXSTY
  7
ASAMI
  9
$DIMAUNIT
 70
     0
  9
$LUNITS
 70
     2
  9
$LUPREC
 70
     2
  9
$SKETCHINC
 40
1.0
  9
$FILLETRAD
 40
0.5
  9
$AUNITS
 70
     0
  9
$AUPREC
 70
     0
  9
$MENU
  1
.
  9
$ELEVATION
 40
0.0
  9
$PELEVATION
 40
0.0
  9
$THICKNESS
 40
0.0
  9
$LIMCHECK
 70
     0
  9
$BLIPMODE
 70
     0
  9
$CHAMFERA
 40
2.5
  9
$CHAMFERB
 40
2.5
  9
$CHAMFERC
 40
20.0
  9
$CHAMFERD
 40
0.0
  9
$SKPOLY
 70
     0
  9
$TDCREATE
 40
2452838.620506898
  9
$TDUPDATE
 40
2453151.889944606
  9
$TDINDWG
 40
0.3433345370
  9
$TDUSRTIMER
 40
0.3433345370
  9
$USRTIMER
 70
     1
  9
$ANGBASE
 50
0.0
  9
$ANGDIR
 70
     0
  9
$PDMODE
 70
     0
  9
$PDSIZE
 40
0.0
  9
$PLINEWID
 40
0.0
  9
$COORDS
 70
     1
  9
$SPLFRAME
 70
     0
  9
$SPLINETYPE
 70
     6
  9
$SPLINESEGS
 70
     8
  9
$ATTDIA
 70
     1
  9
$ATTREQ
 70
     1
  9
$HANDLING
 70
 12289
  9
$HANDSEED
  5
2766
  9
$SURFTAB1
 70
     6
  9
$SURFTAB2
 70
     6
  9
$SURFTYPE
 70
     6
  9
$SURFU
 70
     6
  9
$SURFV
 70
     6
  9
$UCSNAME
  2

  9
$UCSORG
 10
-0.0000000000000568
 20
-0.0000000000000036
 30
0.0
  9
$UCSXDIR
 10
1.0
 20
0.0
 30
0.0
  9
$UCSYDIR
 10
0.0
 20
1.0
 30
0.0
  9
$PUCSNAME
  2

  9
$PUCSORG
 10
0.0
 20
0.0
 30
0.0
  9
$PUCSXDIR
 10
1.0
 20
0.0
 30
0.0
  9
$PUCSYDIR
 10
0.0
 20
1.0
 30
0.0
  9
$USERI1
 70
     0
  9
$USERI2
 70
     0
  9
$USERI3
 70
     0
  9
$USERI4
 70
     0
  9
$USERI5
 70
     0
  9
$USERR1
 40
0.0
  9
$USERR2
 40
0.0
  9
$USERR3
 40
0.0
  9
$USERR4
 40
0.0
  9
$USERR5
 40
0.0
  9
$WORLDVIEW
 70
     1
  9
$SHADEDGE
 70
     3
  9
$SHADEDIF
 70
    70
  9
$TILEMODE
 70
     1
  9
$MAXACTVP
 70
    64
  9
$PINSBASE
 10
0.0
 20
0.0
 30
0.0
  9
$PLIMCHECK
 70
     0
  9
$PEXTMIN
 10
1.000000000000000E+20
 20
1.000000000000000E+20
 30
1.000000000000000E+20
  9
$PEXTMAX
 10
-1.000000000000000E+20
 20
-1.000000000000000E+20
 30
-1.000000000000000E+20
  9
$PLIMMIN
 10
0.0
 20
0.0
  9
$PLIMMAX
 10
841.0
 20
594.0
  9
$UNITMODE
 70
     0
  9
$VISRETAIN
 70
     1
  9
$PLINEGEN
 70
     0
  9
$PSLTSCALE
 70
     0
  9
$TREEDEPTH
 70
  3020
  9
$PICKSTYLE
 70
     0
  9
$CMLSTYLE
  2
STANDARD
  9
$CMLJUST
 70
     0
  9
$CMLSCALE
 40
20.0
  9
$PROXYGRAPHICS
 70
     1
  9
$MEASUREMENT
 70
     1
  0
ENDSEC
  0
SECTION
  2
CLASSES
  0
CLASS
  1
ACDBDICTIONARYWDFLT
  2
AcDbDictionaryWithDefault
  3
AutoCAD 2000
 90
        0
280
     0
281
     0
  0
CLASS
  1
ACDBPLACEHOLDER
  2
AcDbPlaceHolder
  3
AutoCAD 2000
 90
        0
280
     0
281
     0
  0
CLASS
  1
LAYOUT
  2
AcDbLayout
  3
AutoCAD 2000
 90
        0
280
     0
281
     0
  0
CLASS
  1
AMGSETTINGSOBJ
  2
AmgSettingsObj
  3
"AcadM|Product Description: AutoCAD Mechanical 2000|Company: Autodesk"
 90
        0
280
     0
281
     0
  0
CLASS
  1
ACME_DOCUMENT
  2
AcMeDbDoc
  3
AcMeServices
 90
        0
280
     0
281
     0
  0
CLASS
  1
ACMESCOPE
  2
AcMeScope
  3
AcMeServices
 90
        0
280
     0
281
     0
  0
CLASS
  1
ACMECOMMANDHISTORY
  2
AcMeCommandHistory
  3
AcMeServices
 90
        0
280
     0
281
     0
  0
CLASS
  1
DICTIONARYVAR
  2
AcDbDictionaryVar
  3
AutoCAD 2000
 90
        0
280
     0
281
     0
  0
CLASS
  1
ACIMSYSVARMAN
  2
AcImSysVarManager
  3
AcMeServices
 90
        0
280
     0
281
     0
  0
CLASS
  1
ACIMREALSYSVAR
  2
AcImRealSysVar
  3
AcMeServices
 90
        0
280
     0
281
     0
  0
CLASS
  1
ACIMINTSYSVAR
  2
AcImIntSysVar
  3
AcMeServices
 90
        0
280
     0
281
     0
  0
CLASS
  1
ACMEDRAWINGMAN
  2
AcMeDrawingMan
  3
AcMeServices
 90
        0
280
     0
281
     0
  0
CLASS
  1
ACMEVIEW
  2
AcMeView
  3
AcMeServices
 90
        0
280
     0
281
     0
  0
CLASS
  1
ACDBENTITYCACHE
  2
AcMeEntityCache
  3
AcMeServices
 90
        0
280
     0
281
     0
  0
CLASS
  1
GSMANAGER
  2
AcMeGSManager
  3
AcMeServices
 90
        0
280
     0
281
     0
  0
CLASS
  1
AmdtInternalReactor
  2
AmdtInternalReactor
  3
AcMeServices
 90
        0
280
     0
281
     0
  0
CLASS
  1
ACMESTATEMGR
  2
AcMeStateMgr
  3
AcMeServices
 90
        0
280
     0
281
     0
  0
CLASS
  1
ACME_DATABASE
  2
AcMeDbDatabase
  3
AcMeServices
 90
        0
280
     0
281
     0
  0
CLASS
  1
ACRFINSADJUSTERMGR
  2
AcRfInsAdjusterMgr
  3
AcMeServices
 90
        0
280
     0
281
     0
  0
CLASS
  1
ACMDATADICTIONARY
  2
AcmDataDictionary
  3
"AcmSymBB|Product Description: AutoCAD Mechanical 2000|Company: Autodesk"
 90
        0
280
     0
281
     0
  0
CLASS
  1
ACMDATAENTRYBLOCK
  2
AcmDataEntryBlock
  3
"AcmSymBB|Product Description: AutoCAD Mechanical 2000|Company: Autodesk"
 90
        0
280
     0
281
     0
  0
CLASS
  1
AMGOBJPROPCFG
  2
AmgObjPropCfg
  3
"AmgLay|Product Description: AutoCAD Mechanical 2000|Company: Autodesk"
 90
        1
280
     0
281
     0
  0
CLASS
  1
ACAMGFILTERDAT
  2
AcAmgFilterDat
  3
"AcadM|Product Description: AutoCAD Mechanical 2000|Company: Autodesk"
 90
        0
280
     0
281
     0
  0
CLASS
  1
LAYER_INDEX
  2
AcDbLayerIndex
  3
AutoCAD 2000
 90
        0
280
     0
281
     0
  0
CLASS
  1
IDBUFFER
  2
AcDbIdBuffer
  3
AutoCAD 2000
 90
        0
280
     0
281
     0
  0
CLASS
  1
ACIMSTRSYSVAR
  2
AcImStrSysVar
  3
AcMeServices
 90
        0
280
     0
281
     0
  0
CLASS
  1
ACMSTANDARDJIS
  2
AcmStandardJIS
  3
"AcmSymBB|Product Description: AutoCAD Mechanical 2000|Company: Autodesk"
 90
        0
280
     0
281
     0
  0
CLASS
  1
ACMSURFSTANDARDJIS
  2
AcmSurfTextStdJIS
  3
"AcmSymBB|Product Description: AutoCAD Mechanical 2000|Company: Autodesk"
 90
        0
280
     0
281
     0
  0
CLASS
  1
ACMFCFSTANDARDJIS
  2
AcmFCFStdJIS
  3
"AcmSymBB|Product Description: AutoCAD Mechanical 2000|Company: Autodesk"
 90
        0
280
     0
281
     0
  0
CLASS
  1
ACMWELDSTANDARDJIS
  2
AcmWeldingStdJIS
  3
"AcmSymBB|Product Description: AutoCAD Mechanical 2000|Company: Autodesk"
 90
        0
280
     0
281
     0
  0
CLASS
  1
ACMIDSTANDARDJIS
  2
AcmIdStdJIS
  3
"AcmSymBB|Product Description: AutoCAD Mechanical 2000|Company: Autodesk"
 90
        0
280
     0
281
     0
  0
CLASS
  1
ACMDATUMSTANDARDJIS
  2
AcmDatumStdJIS
  3
"AcmSymBB|Product Description: AutoCAD Mechanical 2000|Company: Autodesk"
 90
        0
280
     0
281
     0
  0
CLASS
  1
ACMBOMSTANDARDJIS
  2
AcmBOMStdJIS
  3
"AcmSymBB|Product Description: AutoCAD Mechanical 2000|Company: Autodesk"
 90
        0
280
     0
281
     0
  0
CLASS
  1
ACMSTANDARDANSI
  2
AcmStandardANSI
  3
"AcmSymBB|Product Description: AutoCAD Mechanical 2000|Company: Autodesk"
 90
        0
280
     0
281
     0
  0
CLASS
  1
ACMSURFSTANDARDANSI
  2
AcmSurfTextStdANSI
  3
"AcmSymBB|Product Description: AutoCAD Mechanical 2000|Company: Autodesk"
 90
        0
280
     0
281
     0
  0
CLASS
  1
ACMFCFSTANDARDANSI
  2
AcmFCFStdANSI
  3
"AcmSymBB|Product Description: AutoCAD Mechanical 2000|Company: Autodesk"
 90
        0
280
     0
281
     0
  0
CLASS
  1
ACMWELDSTANDARDANSI
  2
AcmWeldingStdANSI
  3
"AcmSymBB|Product Description: AutoCAD Mechanical 2000|Company: Autodesk"
 90
        0
280
     0
281
     0
  0
CLASS
  1
ACMIDSTANDARDANSI
  2
AcmIdStdANSI
  3
"AcmSymBB|Product Description: AutoCAD Mechanical 2000|Company: Autodesk"
 90
        0
280
     0
281
     0
  0
CLASS
  1
ACMDATUMSTANDARDANSI
  2
AcmDatumStdANSI
  3
"AcmSymBB|Product Description: AutoCAD Mechanical 2000|Company: Autodesk"
 90
        0
280
     0
281
     0
  0
CLASS
  1
ACMBOMSTANDARDANSI
  2
AcmBOMStdANSI
  3
"AcmSymBB|Product Description: AutoCAD Mechanical 2000|Company: Autodesk"
 90
        0
280
     0
281
     0
  0
CLASS
  1
ACMSTANDARDBSI
  2
AcmStandardBSI
  3
"AcmSymBB|Product Description: AutoCAD Mechanical 2000|Company: Autodesk"
 90
        0
280
     0
281
     0
  0
CLASS
  1
ACMSURFSTANDARDBSI
  2
AcmSurfTextStdBSI
  3
"AcmSymBB|Product Description: AutoCAD Mechanical 2000|Company: Autodesk"
 90
        0
280
     0
281
     0
  0
CLASS
  1
ACMFCFSTANDARDBSI
  2
AcmFCFStdBSI
  3
"AcmSymBB|Product Description: AutoCAD Mechanical 2000|Company: Autodesk"
 90
        0
280
     0
281
     0
  0
CLASS
  1
ACMWELDSTANDARDBSI
  2
AcmWeldingStdBSI
  3
"AcmSymBB|Product Description: AutoCAD Mechanical 2000|Company: Autodesk"
 90
        0
280
     0
281
     0
  0
CLASS
  1
ACMIDSTANDARDBSI
  2
AcmIdStdBSI
  3
"AcmSymBB|Product Description: AutoCAD Mechanical 2000|Company: Autodesk"
 90
        0
280
     0
281
     0
  0
CLASS
  1
ACMDATUMSTANDARDBSI
  2
AcmDatumStdBSI
  3
"AcmSymBB|Product Description: AutoCAD Mechanical 2000|Company: Autodesk"
 90
        0
280
     0
281
     0
  0
CLASS
  1
ACMBOMSTANDARDBSI
  2
AcmBOMStdBSI
  3
"AcmSymBB|Product Description: AutoCAD Mechanical 2000|Company: Autodesk"
 90
        0
280
     0
281
     0
  0
CLASS
  1
LONG_TRANSACTION
  2
AcDbLongTransaction
  3
AutoCAD 2000
 90
        0
280
     0
281
     0
  0
CLASS
  1
LWPOLYLINE
  2
AcDbPolyline
  3
AutoCAD 2000
 90
        0
280
     0
281
     1
  0
CLASS
  1
HATCH
  2
AcDbHatch
  3
AutoCAD 2000
 90
        0
280
     0
281
     1
  0
CLASS
  1
XRECORD
  2
AcDbXrecord
  3
AutoCAD 2000
 90
        0
280
     0
281
     0
  0
ENDSEC
  0
SECTION
  2
TABLES
  0
TABLE
  2
VPORT
  5
8
330
0
100
AcDbSymbolTable
 70
     3
  0
VPORT
  5
2730
330
8
100
AcDbSymbolTableRecord
100
AcDbViewportTableRecord
  2
*ACTIVE
 70
     0
 10
0.0
 20
0.0
 11
1.0
 21
1.0
 12
-23.11607863786859
 22
-8.444276882243727
 13
0.0
 23
0.0
 14
2.5
 24
2.5
 15
10.0
 25
10.0
 16
0.0
 26
0.0
 36
1.0
 17
0.0
 27
0.0
 37
0.0
 40
93.7872279080509
 41
1.56570841889117
 42
50.0
 43
0.0
 44
0.0
 50
0.0
 51
0.0
 71
     0
 72
   100
 73
     1
 74
     3
 75
     0
 76
     0
 77
     0
 78
     0
  0
ENDTAB
  0
TABLE
  2
LTYPE
  5
5
330
0
100
AcDbSymbolTable
 70
    10
  0
LTYPE
  5
14
330
5
100
AcDbSymbolTableRecord
100
AcDbLinetypeTableRecord
  2
BYBLOCK
 70
     0
  3

 72
    65
 73
     0
 40
0.0
  0
LTYPE
  5
15
330
5
100
AcDbSymbolTableRecord
100
AcDbLinetypeTableRecord
  2
BYLAYER
 70
     0
  3

 72
    65
 73
     0
 40
0.0
  0
LTYPE
  5
16
330
5
100
AcDbSymbolTableRecord
100
AcDbLinetypeTableRecord
  2
CONTINUOUS
 70
     0
  3
Solid line
 72
    65
 73
     0
 40
0.0
  0
LTYPE
  5
4B
330
5
100
AcDbSymbolTableRecord
100
AcDbLinetypeTableRecord
  2
AM_ISO02W050
 70
     0
  3
__ __ __ __ __ __ __ __ __ __ __ __ __ __ __
 72
    65
 73
     2
 40
7.5
 49
6.0
 74
     0
 49
-1.5
 74
     0
  0
LTYPE
  5
4C
330
5
100
AcDbSymbolTableRecord
100
AcDbLinetypeTableRecord
  2
AM_ISO08W050
 70
     0
  3
____ . ____ . ____ . ____ . ____ . ____ . ____
 72
    65
 73
     4
 40
18.0
 49
12.0
 74
     0
 49
-1.5
 74
     0
 49
3.0
 74
     0
 49
-1.5
 74
     0
  0
LTYPE
  5
4D
330
5
100
AcDbSymbolTableRecord
100
AcDbLinetypeTableRecord
  2
AM_ISO09W050
 70
     0
  3
_____ . . _____ . . _____ . . ____ .. ____
 72
    65
 73
     6
 40
22.5
 49
12.0
 74
     0
 49
-1.5
 74
     0
 49
3.0
 74
     0
 49
-1.5
 74
     0
 49
3.0
 74
     0
 49
-1.5
 74
     0
  0
LTYPE
  5
4E
330
5
100
AcDbSymbolTableRecord
100
AcDbLinetypeTableRecord
  2
AMCONSTR
 70
     0
  3
_______________________
 72
    65
 73
     2
 40
9999.0
 49
9999.0
 74
     0
 49
0.0
 74
     0
  0
LTYPE
  5
4F
330
5
100
AcDbSymbolTableRecord
100
AcDbLinetypeTableRecord
  2
AM_ISO02W050X2
 70
     0
  3
 _ _ _ _ _ _ _ _ _ _ _ _
 72
    65
 73
     2
 40
3.75
 49
3.0
 74
     0
 49
-0.75
 74
     0
  0
LTYPE
  5
50
330
5
100
AcDbSymbolTableRecord
100
AcDbLinetypeTableRecord
  2
AM_ISO08W050X2
 70
     0
  3
__ . __ . __ . __ . __ . __
 72
    65
 73
     4
 40
9.0
 49
6.0
 74
     0
 49
-0.75
 74
     0
 49
1.5
 74
     0
 49
-0.75
 74
     0
  0
LTYPE
  5
53
330
5
100
AcDbSymbolTableRecord
100
AcDbLinetypeTableRecord
  2
AMZIGZAG
 70
     0
  3
/\/-/\/-/\/-/\/-/\/-/\/
 72
    65
 73
     2
 40
11.00009999999999
 49
0.0001
 74
     4
 75
   135
340
52
 46
0.04
 50
0.0
 44
0.0
 45
0.0
 49
-11.0
 74
     0
  0
LTYPE
  5
166
330
5
100
AcDbSymbolTableRecord
100
AcDbLinetypeTableRecord
  2
ACJISTGL
 70
     0
  3
_ _ _ _ _
 72
    65
 73
     2
 40
3.0
 49
2.0
 74
     0
 49
-1.0
 74
     0
  0
LTYPE
  5
26A
330
5
100
AcDbSymbolTableRecord
100
AcDbLinetypeTableRecord
  2
ACJISTGB
 70
     0
  3
__ . . __ . .
 72
    65
 73
     6
 40
9.0
 49
4.0
 74
     0
 49
-1.0
 74
     0
 49
1.0
 74
     0
 49
-1.0
 74
     0
 49
1.0
 74
     0
 49
-1.0
 74
     0
  0
ENDTAB
  0
TABLE
  2
LAYER
  5
2
330
0
100
AcDbSymbolTable
 70
     8
  0
LAYER
  5
10
330
2
100
AcDbSymbolTableRecord
100
AcDbLayerTableRecord
  2
0
 70
     0
 62
     7
  6
CONTINUOUS
  0
LAYER
  5
3F9
330
2
100
AcDbSymbolTableRecord
100
AcDbLayerTableRecord
  2
AM_0
 70
     0
 62
     7
  6
CONTINUOUS
  0
LAYER
  5
BD6
330
2
100
AcDbSymbolTableRecord
100
AcDbLayerTableRecord
  2
AM_11
 70
     0
 62
     3
  6
AM_ISO09W050
  0
LAYER
  5
BD7
330
2
100
AcDbSymbolTableRecord
100
AcDbLayerTableRecord
  2
AM_7
 70
     0
 62
     4
  6
AM_ISO08W050
  0
LAYER
  5
BD8
330
2
100
AcDbSymbolTableRecord
100
AcDbLayerTableRecord
  2
AM_5
 70
     0
 62
     3
  6
CONTINUOUS
  0
LAYER
  5
BD9
330
2
100
AcDbSymbolTableRecord
100
AcDbLayerTableRecord
  2
DEFPOINTS
 70
     0
 62
     7
  6
CONTINUOUS
  0
LAYER
  5
BDA
330
2
100
AcDbSymbolTableRecord
100
AcDbLayerTableRecord
  2
AM_6
 70
     0
 62
     2
  6
CONTINUOUS
  0
LAYER
  5
1F9B
330
2
100
AcDbSymbolTableRecord
100
AcDbLayerTableRecord
  2
AM_CL
 70
     0
 62
     1
  6
AMCONSTR
  0
ENDTAB
  0
TABLE
  2
STYLE
  5
3
330
0
100
AcDbSymbolTable
 70
     5
  0
STYLE
  5
11
330
3
100
AcDbSymbolTableRecord
100
AcDbTextStyleTableRecord
  2
STANDARD
 70
     0
 40
0.0
 41
1.0
 50
0.0
 71
     0
 42
2.5
  3
simplex.shx
  4
EXTFONT.SHX
  0
STYLE
  5
52
330
3
100
AcDbSymbolTableRecord
100
AcDbTextStyleTableRecord
  2

 70
     1
 40
0.0
 41
1.0
 50
0.0
 71
     0
 42
2.5
  3
ltypeshp.shx
  4

  0
STYLE
  5
6B
330
3
100
AcDbSymbolTableRecord
100
AcDbTextStyleTableRecord
  2
ASAMI
 70
     0
 40
0.0
 41
1.0
 50
0.0
 71
     0
 42
2.5
  3
simplex.shx
  4
EXTFONT.SHX
  0
STYLE
  5
262
330
3
100
AcDbSymbolTableRecord
100
AcDbTextStyleTableRecord
  2
ACJISTS
 70
     0
 40
1.0
 41
1.0
 50
0.0
 71
     0
 42
2.5
  3
simplex.shx
  4
bigfont.shx
  0
STYLE
  5
269
330
3
100
AcDbSymbolTableRecord
100
AcDbTextStyleTableRecord
  2
ACJISGDT
 70
     0
 40
0.0
 41
1.0
 50
0.0
 71
     0
 42
2.5
  3
amgdtans.shx
  4

  0
ENDTAB
  0
TABLE
  2
VIEW
  5
6
330
0
100
AcDbSymbolTable
 70
     0
  0
ENDTAB
  0
TABLE
  2
UCS
  5
7
330
0
100
AcDbSymbolTable
 70
     0
  0
ENDTAB
  0
TABLE
  2
APPID
  5
9
330
0
100
AcDbSymbolTable
 70
    13
  0
APPID
  5
12
330
9
100
AcDbSymbolTableRecord
100
AcDbRegAppTableRecord
  2
ACAD
 70
     0
  0
APPID
  5
30
330
9
100
AcDbSymbolTableRecord
100
AcDbRegAppTableRecord
  2
MCAD_NO_VIS
 70
     0
  0
APPID
  5
31
330
9
100
AcDbSymbolTableRecord
100
AcDbRegAppTableRecord
  2
ACAD_TEMP_GRAPHIC
 70
     0
  0
APPID
  5
2C2
330
9
100
AcDbSymbolTableRecord
100
AcDbRegAppTableRecord
  2
GENIUS_GENDTOL_13
 70
     0
  0
APPID
  5
339
330
9
100
AcDbSymbolTableRecord
100
AcDbRegAppTableRecord
  2
GENIUS_GENODEF_13
 70
     0
  0
APPID
  5
33A
330
9
100
AcDbSymbolTableRecord
100
AcDbRegAppTableRecord
  2
GENIUS_GENOBJ-N-RSBK_13
 70
     0
  0
APPID
  5
33B
330
9
100
AcDbSymbolTableRecord
100
AcDbRegAppTableRecord
  2
GENIUS_GENOBJ-N-LIB_13
 70
     0
  0
APPID
  5
33C
330
9
100
AcDbSymbolTableRecord
100
AcDbRegAppTableRecord
  2
GENIUS_GENSCALE_13
 70
     0
  0
APPID
  5
378
330
9
100
AcDbSymbolTableRecord
100
AcDbRegAppTableRecord
  2
GENIUS_GENDIMSH_14
 70
     0
  0
APPID
  5
BDB
330
9
100
AcDbSymbolTableRecord
100
AcDbRegAppTableRecord
  2
GENIUS_GENOBJ-N-CEN_13
 70
     0
  0
APPID
  5
BDC
330
9
100
AcDbSymbolTableRecord
100
AcDbRegAppTableRecord
  2
GENIUS_GENFIL_13
 70
     0
  0
APPID
  5
BDD
330
9
100
AcDbSymbolTableRecord
100
AcDbRegAppTableRecord
  2
GENIUS_GENOBJ-N-FIL_13
 70
     0
  0
APPID
  5
12AD
330
9
100
AcDbSymbolTableRecord
100
AcDbRegAppTableRecord
  2
GENIUS_GENOREF_13
 70
     0
  0
ENDTAB
  0
TABLE
  2
DIMSTYLE
  5
A
330
0
100
AcDbSymbolTable
 70
     8
  0
DIMSTYLE
105
58
102
{ACAD_REACTORS
330
194C
330
195B
330
212A
330
213B
330
21E0
102
}
330
A
100
AcDbSymbolTableRecord
100
AcDbDimStyleTableRecord
  2
AM_JIS
 70
     0
  3

  4
"
  5
OPEN30
  6

  7

 40
0.5
 41
2.5
 42
1.0
 43
12.0
 44
1.0
 45
0.0
 46
0.0
 47
0.1
 48
0.1
140
3.2
141
0.0
142
0.0
143
0.0393701
144
1.0
145
0.0
146
0.71
147
1.5
 71
     0
 72
     0
 73
     0
 74
     0
 75
     0
 76
     0
 77
     3
 78
     8
170
     0
171
     2
172
     1
173
     0
174
     0
175
     0
176
   256
177
   256
178
     2
270
     2
271
     3
272
     3
273
     2
274
     2
340
6B
275
     0
280
     0
281
     0
282
     0
283
     0
284
     0
285
     0
286
     0
287
     3
288
     0
  0
DIMSTYLE
105
5F
330
A
100
AcDbSymbolTableRecord
100
AcDbDimStyleTableRecord
  2
AM_JIS$3
 70
     0
  3

  4
"
  5
OPEN30
  6

  7

 40
0.5
 41
2.5
 42
1.0
 43
10.0
 44
1.0
 45
0.0
 46
0.0
 47
0.1
 48
0.1
140
3.2
141
0.0
142
0.0
143
0.0393701
144
1.0
145
0.0
146
0.71
147
1.5
 71
     0
 72
     0
 73
     0
 74
     1
 75
     0
 76
     0
 77
     3
 78
     8
170
     0
171
     2
172
     0
173
     0
174
     0
175
     0
176
   256
177
   256
178
     2
270
     2
271
     2
272
     3
273
     2
274
     2
340
6B
275
     0
280
     0
281
     0
282
     0
283
     0
284
     0
285
     0
286
     0
287
     0
288
     1
  0
DIMSTYLE
105
60
102
{ACAD_REACTORS
330
1EF8
102
}
330
A
100
AcDbSymbolTableRecord
100
AcDbDimStyleTableRecord
  2
AM_JIS$4
 70
     0
  3

  4
"
  5
OPEN30
  6

  7

 40
0.5
 41
2.5
 42
1.0
 43
10.0
 44
1.0
 45
0.0
 46
0.0
 47
0.1
 48
0.1
140
3.2
141
0.0
142
0.0
143
0.0393701
144
1.0
145
0.0
146
0.71
147
1.5
 71
     0
 72
     0
 73
     0
 74
     1
 75
     0
 76
     0
 77
     3
 78
     8
170
     0
171
     2
172
     0
173
     0
174
     0
175
     0
176
   256
177
   256
178
     2
270
     2
271
     2
272
     3
273
     2
274
     2
340
6B
275
     0
280
     0
281
     0
282
     0
283
     0
284
     0
285
     0
286
     0
287
     0
288
     1
  0
DIMSTYLE
105
61
330
A
100
AcDbSymbolTableRecord
100
AcDbDimStyleTableRecord
  2
AM_JIS$6
 70
     0
  3

  4
"
  5
OPEN30
  6

  7

 40
0.5
 41
2.5
 42
1.0
 43
10.0
 44
1.0
 45
0.0
 46
0.0
 47
0.1
 48
0.1
140
3.2
141
0.0
142
0.0
143
0.0393701
144
1.0
145
0.0
146
0.71
147
1.5
 71
     0
 72
     0
 73
     0
 74
     0
 75
     0
 76
     0
 77
     0
 78
     8
170
     0
171
     2
172
     1
173
     0
174
     0
175
     0
176
   256
177
   256
178
     2
270
     2
271
     2
272
     2
273
     2
274
     2
340
6B
275
     0
280
     0
281
     0
282
     0
283
     0
284
     0
285
     0
286
     0
287
     3
288
     0
  0
DIMSTYLE
105
62
330
A
100
AcDbSymbolTableRecord
100
AcDbDimStyleTableRecord
  2
AM_JIS$7
 70
     0
  3

  4
"
  5
OPEN30
  6

  7

 40
0.5
 41
2.5
 42
1.0
 43
10.0
 44
1.0
 45
0.0
 46
0.0
 47
0.1
 48
0.1
140
3.2
141
0.0
142
0.0
143
0.0393701
144
1.0
145
0.0
146
0.71
147
1.5
 71
     0
 72
     0
 73
     0
 74
     0
 75
     0
 76
     0
 77
     3
 78
     8
170
     0
171
     2
172
     1
173
     0
174
     0
175
     0
176
   256
177
   256
178
     2
270
     2
271
     2
272
     3
273
     2
274
     2
340
6B
275
     0
280
     0
281
     0
282
     0
283
     0
284
     0
285
     0
286
     0
287
     3
288
     0
  0
DIMSTYLE
105
63
330
A
100
AcDbSymbolTableRecord
100
AcDbDimStyleTableRecord
  2
AM_JIS$SF
 70
     0
  3

  4
"
  5
OPEN30
  6

  7

 40
0.5
 41
2.5
 42
1.0
 43
10.0
 44
1.0
 45
0.0
 46
0.0
 47
0.1
 48
0.1
140
3.2
141
0.0
142
0.0
143
0.0393701
144
1.0
145
0.0
146
0.71
147
1.5
 71
     0
 72
     0
 73
     0
 74
     0
 75
     1
 76
     1
 77
     3
 78
     8
170
     0
171
     2
172
     1
173
     0
174
     0
175
     0
176
   256
177
   256
178
     2
270
     2
271
     2
272
     2
273
     2
274
     2
340
6B
275
     0
280
     0
281
     0
282
     0
283
     0
284
     0
285
     0
286
     0
287
     3
288
     0
  0
DIMSTYLE
105
68
330
A
100
AcDbSymbolTableRecord
100
AcDbDimStyleTableRecord
  2
AM_JIS$SH
 70
     0
  3

  4
"
  5

  6
GENAXEH
  7
OPEN30
 40
0.5
 41
2.5
 42
1.0
 43
10.0
 44
1.0
 45
0.0
 46
0.0
 47
0.1
 48
0.1
140
3.2
141
0.0
142
0.0
143
0.0393701
144
2.0
145
0.0
146
0.71
147
1.5
 71
     0
 72
     0
 73
     0
 74
     0
 75
     1
 76
     1
 77
     3
 78
     8
170
     0
171
     2
172
     1
173
     1
174
     0
175
     0
176
   256
177
   256
178
     2
270
     2
271
     2
272
     2
273
     2
274
     2
340
6B
275
     0
280
     0
281
     0
282
     0
283
     0
284
     0
285
     0
286
     0
287
     3
288
     0
  0
DIMSTYLE
105
B34
102
{ACAD_REACTORS
330
22BE
102
}
330
A
100
AcDbSymbolTableRecord
100
AcDbDimStyleTableRecord
  2
AM_JIS$2
 70
     0
  3

  4
"
  5
OPEN30
  6

  7

 40
0.5
 41
2.5
 42
1.0
 43
12.0
 44
1.0
 45
0.0
 46
0.0
 47
0.1
 48
0.1
140
3.2
141
0.0
142
0.0
143
0.0393701
144
1.0
145
0.0
146
0.71
147
1.5
 71
     0
 72
     0
 73
     0
 74
     0
 75
     0
 76
     0
 77
     3
 78
     8
170
     0
171
     2
172
     1
173
     0
174
     0
175
     0
176
   256
177
   256
178
     2
270
     2
271
     3
272
     3
273
     2
274
     2
340
6B
275
     0
280
     0
281
     0
282
     0
283
     0
284
     0
285
     0
286
     0
287
     3
288
     0
  0
ENDTAB
  0
TABLE
  2
BLOCK_RECORD
  5
1
330
0
100
AcDbSymbolTable
 70
    12
  0
BLOCK_RECORD
  5
1F
102
{ACAD_XDICTIONARY
360
74
102
}
330
1
100
AcDbSymbolTableRecord
100
AcDbBlockTableRecord
  2
*MODEL_SPACE
  0
BLOCK_RECORD
  5
101
102
{ACAD_XDICTIONARY
360
2759
102
}
330
1
100
AcDbSymbolTableRecord
100
AcDbBlockTableRecord
  2
*PAPER_SPACE
  0
BLOCK_RECORD
  5
59
330
1
100
AcDbSymbolTableRecord
100
AcDbBlockTableRecord
  2
_OPEN30
  0
BLOCK_RECORD
  5
64
330
1
100
AcDbSymbolTableRecord
100
AcDbBlockTableRecord
  2
GENAXEH
  0
BLOCK_RECORD
  5
194D
330
1
100
AcDbSymbolTableRecord
100
AcDbBlockTableRecord
  2
*D5
  0
BLOCK_RECORD
  5
195C
330
1
100
AcDbSymbolTableRecord
100
AcDbBlockTableRecord
  2
*D6
  0
BLOCK_RECORD
  5
1EF9
330
1
100
AcDbSymbolTableRecord
100
AcDbBlockTableRecord
  2
*D7
  0
BLOCK_RECORD
  5
212B
330
1
100
AcDbSymbolTableRecord
100
AcDbBlockTableRecord
  2
*D8
  0
BLOCK_RECORD
  5
213C
330
1
100
AcDbSymbolTableRecord
100
AcDbBlockTableRecord
  2
*D9
  0
BLOCK_RECORD
  5
21E1
330
1
100
AcDbSymbolTableRecord
100
AcDbBlockTableRecord
  2
*D10
  0
BLOCK_RECORD
  5
22BF
330
1
100
AcDbSymbolTableRecord
100
AcDbBlockTableRecord
  2
*D11
  0
ENDTAB
  0
ENDSEC
  0
SECTION
  2
BLOCKS
  0
BLOCK
  5
20
330
1F
100
AcDbEntity
  8
0
100
AcDbBlockBegin
  2
*MODEL_SPACE
 70
     0
 10
0.0
 20
0.0
 30
0.0
  3
*MODEL_SPACE
  1

  0
ENDBLK
  5
21
330
1F
100
AcDbEntity
  8
0
100
AcDbBlockEnd
  0
BLOCK
  5
103
330
101
100
AcDbEntity
 67
     1
  8
0
100
AcDbBlockBegin
  2
*PAPER_SPACE
 70
     0
 10
0.0
 20
0.0
 30
0.0
  3
*PAPER_SPACE
  1

  0
ENDBLK
  5
104
330
101
100
AcDbEntity
 67
     1
  8
0
100
AcDbBlockEnd
  0
BLOCK
  5
5D
330
59
100
AcDbEntity
  8
0
100
AcDbBlockBegin
  2
_OPEN30
 70
     0
 10
0.0
 20
0.0
 30
0.0
  3
_OPEN30
  1

  0
LINE
  5
5A
330
59
100
AcDbEntity
  8
0
 62
     0
100
AcDbLine
 10
-1.0
 20
0.26794919
 30
0.0
 11
0.0
 21
0.0
 31
0.0
  0
LINE
  5
5B
330
59
100
AcDbEntity
  8
0
 62
     0
100
AcDbLine
 10
0.0
 20
0.0
 30
0.0
 11
-1.0
 21
-0.26794919
 31
0.0
  0
LINE
  5
5C
330
59
100
AcDbEntity
  8
0
 62
     0
100
AcDbLine
 10
0.0
 20
0.0
 30
0.0
 11
-1.0
 21
0.0
 31
0.0
  0
ENDBLK
  5
5E
330
59
100
AcDbEntity
  8
0
100
AcDbBlockEnd
  0
BLOCK
  5
66
330
64
100
AcDbEntity
  8
0
100
AcDbBlockBegin
  2
GENAXEH
 70
     0
 10
0.0
 20
0.0
 30
0.0
  3
GENAXEH
  1

  0
LINE
  5
65
330
64
100
AcDbEntity
  8
0
100
AcDbLine
 10
-1.0
 20
0.0
 30
0.0
 11
1.0
 21
0.0
 31
0.0
  0
ENDBLK
  5
67
330
64
100
AcDbEntity
  8
0
100
AcDbBlockEnd
  0
BLOCK
  5
1959
330
194D
100
AcDbEntity
  8
0
100
AcDbBlockBegin
  2
*D5
 70
     1
 10
0.0
 20
0.0
 30
0.0
  3
*D5
  1

  0
LINE
  5
26AD
330
194D
100
AcDbEntity
  8
AM_5
100
AcDbLine
 10
0.0004689345922668
 20
-0.5000000000000036
 30
0.0
 11
7.500468934590502
 21
-0.5000000000000057
 31
0.0
  0
LINE
  5
26AE
330
194D
100
AcDbEntity
  8
AM_5
100
AcDbLine
 10
0.0004689345922669
 20
0.4999999999984685
 30
0.0
 11
7.500468934590502
 21
0.4999999999984663
 31
0.0
  0
LINE
  5
26AF
330
194D
100
AcDbEntity
  8
AM_5
100
AcDbLine
 10
7.000468934590502
 20
-1.750000000000005
 30
0.0
 11
7.000468934590501
 21
-3.000000000000005
 31
0.0
  0
LINE
  5
26B0
330
194D
100
AcDbEntity
  8
AM_5
100
AcDbLine
 10
7.000468934590502
 20
1.749999999998466
 30
0.0
 11
7.000468934590504
 21
6.328571428569894
 31
0.0
  0
LINE
  5
26B1
330
194D
100
AcDbEntity
  8
AM_5
100
AcDbLine
 10
7.000468934590502
 20
-0.5000000000000055
 30
0.0
 11
7.000468934590502
 21
0.4999999999984665
 31
0.0
  0
INSERT
  5
26B2
330
194D
100
AcDbEntity
  8
AM_5
100
AcDbBlockReference
  2
_OPEN30
 10
7.000468934590502
 20
-0.5000000000000055
 30
0.0
 41
1.25
 42
1.25
 43
1.25
 50
90.0
  0
INSERT
  5
26B3
330
194D
100
AcDbEntity
  8
AM_5
100
AcDbBlockReference
  2
_OPEN30
 10
7.000468934590502
 20
0.4999999999984665
 30
0.0
 41
1.25
 42
1.25
 43
1.25
 50
270.0
  0
MTEXT
  5
26B4
330
194D
100
AcDbEntity
  8
AM_5
 62
     2
100
AcDbMText
 10
5.450468934590501
 20
4.664285714284182
 30
0.0
 40
1.6
 41
0.0
 71
     5
 72
     1
  1
%%c1
  7
ASAMI
 11
0.0000000000000001
 21
1.0
 31
0.0
1001
ACAD
1000
MTEXTBEGIN
1070
    73
1070
     1
1070
    44
1040
1.0
1070
    74
1070
     0
1000
MTEXTEND
  0
POINT
  5
26B5
330
194D
100
AcDbEntity
  8
DEFPOINTS
 62
     0
100
AcDbPoint
 10
-0.4995310654077332
 20
-0.5000000000000035
 30
0.0
  0
POINT
  5
26B6
330
194D
100
AcDbEntity
  8
DEFPOINTS
 62
     0
100
AcDbPoint
 10
-0.4995310654077331
 20
0.4999999999984686
 30
0.0
  0
POINT
  5
26B7
330
194D
100
AcDbEntity
  8
DEFPOINTS
 62
     0
100
AcDbPoint
 10
7.000468934590502
 20
0.4999999999984665
 30
0.0
  0
ENDBLK
  5
195A
330
194D
100
AcDbEntity
  8
0
100
AcDbBlockEnd
  0
BLOCK
  5
1968
330
195C
100
AcDbEntity
  8
0
100
AcDbBlockBegin
  2
*D6
 70
     1
 10
0.0
 20
0.0
 30
0.0
  3
*D6
  1

  0
LINE
  5
26D6
330
195C
100
AcDbEntity
  8
AM_5
100
AcDbLine
 10
-2.500000000000057
 20
-1.000000000000003
 30
0.0
 11
-2.500000000000058
 21
-15.02143686518761
 31
0.0
  0
LINE
  5
26D7
330
195C
100
AcDbEntity
  8
AM_5
100
AcDbLine
 10
0.0004687144845328
 20
-0.500469154489907
 30
0.0
 11
0.0004687144845319
 21
-15.02143686518761
 31
0.0
  0
LINE
  5
26D8
330
195C
100
AcDbEntity
  8
AM_5
100
AcDbLine
 10
-3.750000000000058
 20
-14.52143686518761
 30
0.0
 11
-5.000000000000058
 21
-14.52143686518761
 31
0.0
  0
LINE
  5
26D9
330
195C
100
AcDbEntity
  8
AM_5
100
AcDbLine
 10
1.250468714484531
 20
-14.52143686518761
 30
0.0
 11
7.352849666865482
 21
-14.52143686518761
 31
0.0
  0
LINE
  5
26DA
330
195C
100
AcDbEntity
  8
AM_5
100
AcDbLine
 10
-2.500000000000058
 20
-14.52143686518761
 30
0.0
 11
0.000468714484532
 21
-14.52143686518761
 31
0.0
  0
INSERT
  5
26DB
330
195C
100
AcDbEntity
  8
AM_5
100
AcDbBlockReference
  2
_OPEN30
 10
-2.500000000000058
 20
-14.52143686518761
 30
0.0
 41
1.25
 42
1.25
 43
1.25
  0
INSERT
  5
26DC
330
195C
100
AcDbEntity
  8
AM_5
100
AcDbBlockReference
  2
_OPEN30
 10
0.000468714484532
 20
-14.52143686518761
 30
0.0
 41
1.25
 42
1.25
 43
1.25
 50
180.0
  0
MTEXT
  5
26DD
330
195C
100
AcDbEntity
  8
AM_5
 62
     2
100
AcDbMText
 10
4.926659190675007
 20
-12.97143686518761
 30
0.0
 40
1.6
 41
0.0
 71
     5
 72
     1
  1
2.5
  7
ASAMI
1001
ACAD
1000
MTEXTBEGIN
1070
    73
1070
     1
1070
    44
1040
1.0
1070
    74
1070
     0
1000
MTEXTEND
  0
POINT
  5
26DE
330
195C
100
AcDbEntity
  8
DEFPOINTS
 62
     0
100
AcDbPoint
 10
-2.500000000000057
 20
-0.5000000000000036
 30
0.0
  0
POINT
  5
26DF
330
195C
100
AcDbEntity
  8
DEFPOINTS
 62
     0
100
AcDbPoint
 10
0.0004687144845328
 20
-0.000469154489907
 30
0.0
  0
POINT
  5
26E0
330
195C
100
AcDbEntity
  8
DEFPOINTS
 62
     0
100
AcDbPoint
 10
0.000468714484532
 20
-14.52143686518761
 30
0.0
  0
ENDBLK
  5
1969
330
195C
100
AcDbEntity
  8
0
100
AcDbBlockEnd
  0
BLOCK
  5
1F00
330
1EF9
100
AcDbEntity
  8
0
100
AcDbBlockBegin
  2
*D7
 70
     1
 10
0.0
 20
0.0
 30
0.0
  3
*D7
  1

  0
LINE
  5
1F4D
330
1EF9
100
AcDbEntity
  8
AM_5
100
AcDbLine
 10
0.4293269743850411
 20
-1.483146230789652
 30
0.0
 11
4.517566101912428
 21
-8.011007532299897
 31
0.0
  0
INSERT
  5
1F4E
330
1EF9
100
AcDbEntity
  8
AM_5
100
AcDbBlockReference
  2
_OPEN30
 10
-0.2341430540390327
 20
-0.4237560659386853
 30
0.0
 41
1.25
 42
1.25
 43
1.25
 50
122.0579025639659
  0
MTEXT
  5
1F4F
330
1EF9
100
AcDbEntity
  8
AM_5
 62
     2
100
AcDbMText
 10
4.11882535677597
 20
-4.454069128724405
 30
0.0
 40
1.6
 41
0.0
 71
     5
 72
     1
  1
R0.5
  7
ASAMI
 11
0.5307760227392589
 21
-0.8475121318807735
 31
0.0
1001
ACAD
1000
MTEXTBEGIN
1070
    73
1070
     1
1070
    44
1040
1.0
1070
    74
1070
     0
1000
MTEXTEND
  0
POINT
  5
1F50
330
1EF9
100
AcDbEntity
  8
DEFPOINTS
 62
     0
100
AcDbPoint
 10
-0.2341430540390327
 20
-0.4237560659386853
 30
0.0
  0
POINT
  5
1F51
330
1EF9
100
AcDbEntity
  8
DEFPOINTS
 62
     0
100
AcDbPoint
 10
-0.4995310654077333
 20
0.0000000000002185
 30
0.0
  0
ENDBLK
  5
1F01
330
1EF9
100
AcDbEntity
  8
0
100
AcDbBlockEnd
  0
BLOCK
  5
2135
330
212B
100
AcDbEntity
  8
0
100
AcDbBlockBegin
  2
*D8
 70
     1
 10
0.0
 20
0.0
 30
0.0
  3
*D8
  1

  0
LINE
  5
26FD
330
212B
100
AcDbEntity
  8
AM_5
100
AcDbLine
 10
-70.00000000000007
 20
-2.750000000000006
 30
0.0
 11
-70.00000000000007
 21
-27.02143686518754
 31
0.0
  0
LINE
  5
26FE
330
212B
100
AcDbEntity
  8
AM_5
100
AcDbLine
 10
-0.0000000000000569
 20
-0.5000000000000023
 30
0.0
 11
-0.0000000000000585
 21
-27.02143686518754
 31
0.0
  0
LINE
  5
26FF
330
212B
100
AcDbEntity
  8
AM_5
100
AcDbLine
 10
-68.75000000000007
 20
-26.52143686518754
 30
0.0
 11
-1.250000000000058
 21
-26.52143686518754
 31
0.0
  0
INSERT
  5
2700
330
212B
100
AcDbEntity
  8
AM_5
100
AcDbBlockReference
  2
_OPEN30
 10
-70.00000000000007
 20
-26.52143686518754
 30
0.0
 41
1.25
 42
1.25
 43
1.25
 50
180.0
  0
INSERT
  5
2701
330
212B
100
AcDbEntity
  8
AM_5
100
AcDbBlockReference
  2
_OPEN30
 10
-0.0000000000000585
 20
-26.52143686518754
 30
0.0
 41
1.25
 42
1.25
 43
1.25
  0
MTEXT
  5
2702
330
212B
100
AcDbEntity
  8
AM_5
 62
     2
100
AcDbMText
 10
-35.00000000000006
 20
-24.97143686518754
 30
0.0
 40
1.6
 41
0.0
 71
     5
 72
     1
  1
70
  7
ASAMI
1001
ACAD
1000
MTEXTBEGIN
1070
    73
1070
     1
1070
    44
1040
1.0
1070
    74
1070
     0
1000
MTEXTEND
  0
POINT
  5
2703
330
212B
100
AcDbEntity
  8
DEFPOINTS
 62
     0
100
AcDbPoint
 10
-70.00000000000007
 20
-2.250000000000006
 30
0.0
  0
POINT
  5
2704
330
212B
100
AcDbEntity
  8
DEFPOINTS
 62
     0
100
AcDbPoint
 10
-0.0000000000000568
 20
-0.0000000000000022
 30
0.0
  0
POINT
  5
2705
330
212B
100
AcDbEntity
  8
DEFPOINTS
 62
     0
100
AcDbPoint
 10
-0.0000000000000585
 20
-26.52143686518754
 30
0.0
  0
ENDBLK
  5
2136
330
212B
100
AcDbEntity
  8
0
100
AcDbBlockEnd
  0
BLOCK
  5
2148
330
213C
100
AcDbEntity
  8
0
100
AcDbBlockBegin
  2
*D9
 70
     1
 10
0.0
 20
0.0
 30
0.0
  3
*D9
  1

  0
LINE
  5
26B8
330
213C
100
AcDbEntity
  8
AM_5
100
AcDbLine
 10
-70.00000000000007
 20
-3.000000000000006
 30
0.0
 11
-77.50000100000007
 21
-3.000000000000003
 31
0.0
  0
LINE
  5
26B9
330
213C
100
AcDbEntity
  8
AM_5
100
AcDbLine
 10
-70.00000000000007
 20
2.999999999999998
 30
0.0
 11
-77.50000100000007
 21
3.0
 31
0.0
  0
LINE
  5
26BA
330
213C
100
AcDbEntity
  8
AM_5
100
AcDbLine
 10
-77.00000100000007
 20
-4.250000000000004
 30
0.0
 11
-77.00000100000007
 21
-5.500000000000004
 31
0.0
  0
LINE
  5
26BB
330
213C
100
AcDbEntity
  8
AM_5
100
AcDbLine
 10
-77.00000100000007
 20
4.25
 30
0.0
 11
-77.00000100000007
 21
5.5
 31
0.0
  0
LINE
  5
26BC
330
213C
100
AcDbEntity
  8
AM_5
100
AcDbLine
 10
-77.00000100000007
 20
-3.000000000000003
 30
0.0
 11
-77.00000100000007
 21
3.0
 31
0.0
  0
INSERT
  5
26BD
330
213C
100
AcDbEntity
  8
AM_5
100
AcDbBlockReference
  2
_OPEN30
 10
-77.00000100000007
 20
-3.000000000000003
 30
0.0
 41
1.25
 42
1.25
 43
1.25
 50
90.0
  0
INSERT
  5
26BE
330
213C
100
AcDbEntity
  8
AM_5
100
AcDbBlockReference
  2
_OPEN30
 10
-77.00000100000007
 20
3.0
 30
0.0
 41
1.25
 42
1.25
 43
1.25
 50
270.0
  0
MTEXT
  5
26BF
330
213C
100
AcDbEntity
  8
AM_5
 62
     2
100
AcDbMText
 10
-78.55000100000006
 20
-0.0000000000000189
 30
0.0
 40
1.6
 41
0.0
 71
     5
 72
     1
  1
%%c6
  7
ASAMI
 11
0.0000000000000001
 21
1.0
 31
0.0
1001
ACAD
1000
MTEXTBEGIN
1070
    73
1070
     1
1070
    44
1040
1.0
1070
    74
1070
     0
1000
MTEXTEND
  0
POINT
  5
26C0
330
213C
100
AcDbEntity
  8
DEFPOINTS
 62
     0
100
AcDbPoint
 10
-69.50000000000007
 20
-3.000000000000006
 30
0.0
  0
POINT
  5
26C1
330
213C
100
AcDbEntity
  8
DEFPOINTS
 62
     0
100
AcDbPoint
 10
-69.50000000000007
 20
2.999999999999998
 30
0.0
  0
POINT
  5
26C2
330
213C
100
AcDbEntity
  8
DEFPOINTS
 62
     0
100
AcDbPoint
 10
-77.00000100000007
 20
3.0
 30
0.0
  0
ENDBLK
  5
2149
330
213C
100
AcDbEntity
  8
0
100
AcDbBlockEnd
  0
BLOCK
  5
21EB
330
21E1
100
AcDbEntity
  8
0
100
AcDbBlockBegin
  2
*D10
 70
     1
 10
0.0
 20
0.0
 30
0.0
  3
*D10
  1

  0
LINE
  5
26CD
330
21E1
100
AcDbEntity
  8
AM_5
100
AcDbLine
 10
-20.02075245616141
 20
-1.420752456161344
 30
0.0
 11
-20.02075245616141
 21
-21.02143686518761
 31
0.0
  0
LINE
  5
26CE
330
21E1
100
AcDbEntity
  8
AM_5
100
AcDbLine
 10
0.0004689345905169
 20
-0.5000000000000036
 30
0.0
 11
0.0004689345905157
 21
-21.02143686518761
 31
0.0
  0
LINE
  5
26CF
330
21E1
100
AcDbEntity
  8
AM_5
100
AcDbLine
 10
-18.77075245616141
 20
-20.52143686518761
 30
0.0
 11
-1.249531065409484
 21
-20.52143686518761
 31
0.0
  0
INSERT
  5
26D0
330
21E1
100
AcDbEntity
  8
AM_5
100
AcDbBlockReference
  2
_OPEN30
 10
-20.02075245616141
 20
-20.52143686518761
 30
0.0
 41
1.25
 42
1.25
 43
1.25
 50
180.0
  0
INSERT
  5
26D1
330
21E1
100
AcDbEntity
  8
AM_5
100
AcDbBlockReference
  2
_OPEN30
 10
0.0004689345905157
 20
-20.52143686518761
 30
0.0
 41
1.25
 42
1.25
 43
1.25
  0
MTEXT
  5
26D2
330
21E1
100
AcDbEntity
  8
AM_5
 62
     2
100
AcDbMText
 10
-10.01014176078544
 20
-18.97143686518761
 30
0.0
 40
1.6
 41
0.0
 71
     5
 72
     1
  1
20
  7
ASAMI
1001
ACAD
1000
MTEXTBEGIN
1070
    73
1070
     1
1070
    44
1040
1.0
1070
    74
1070
     0
1000
MTEXTEND
  0
POINT
  5
26D3
330
21E1
100
AcDbEntity
  8
DEFPOINTS
 62
     0
100
AcDbPoint
 10
-20.02075245616141
 20
-0.9207524561613446
 30
0.0
  0
POINT
  5
26D4
330
21E1
100
AcDbEntity
  8
DEFPOINTS
 62
     0
100
AcDbPoint
 10
0.0004689345905169
 20
-0.0000000000000036
 30
0.0
  0
POINT
  5
26D5
330
21E1
100
AcDbEntity
  8
DEFPOINTS
 62
     0
100
AcDbPoint
 10
0.0004689345905157
 20
-20.52143686518761
 30
0.0
  0
ENDBLK
  5
21EC
330
21E1
100
AcDbEntity
  8
0
100
AcDbBlockEnd
  0
BLOCK
  5
22CF
330
22BF
100
AcDbEntity
  8
0
100
AcDbBlockBegin
  2
*D11
 70
     1
 10
0.0
 20
0.0
 30
0.0
  3
*D11
  1

  0
ARC
  5
275B
330
22BF
100
AcDbEntity
  8
AM_5
100
AcDbCircle
 10
15.14136523859233
 20
-0.0000000000000038
 30
0.0
 40
28.66025449220541
100
AcDbArc
 50
175.0017609135236
 51
177.5008804567618
  0
ARC
  5
275C
330
22BF
100
AcDbEntity
  8
AM_5
100
AcDbCircle
 10
15.14136523859233
 20
-0.0000000000000038
 30
0.0
 40
28.66025449220541
100
AcDbArc
 50
183.9991195432382
 51
186.4982390864764
  0
ARC
  5
275D
330
22BF
100
AcDbEntity
  8
AM_5
100
AcDbCircle
 10
15.14136523859233
 20
-0.0000000000000038
 30
0.0
 40
28.66025449220541
100
AcDbArc
 50
180.0
 51
181.4999999999999
  0
INSERT
  5
275E
330
22BF
100
AcDbEntity
  8
AM_5
100
AcDbBlockReference
  2
_OPEN30
 10
-13.51888925361307
 20
0.000000000000004
 30
0.0
 41
1.25
 42
1.25
 43
1.25
 50
268.7504402283809
  0
INSERT
  5
275F
330
22BF
100
AcDbEntity
  8
AM_5
100
AcDbBlockReference
  2
_OPEN30
 10
-13.50906810020442
 20
-0.7502380003329501
 30
0.0
 41
1.25
 42
1.25
 43
1.25
 50
92.7495597716191
  0
MTEXT
  5
2760
330
22BF
100
AcDbEntity
  8
AM_5
 62
     2
100
AcDbMText
 10
-9.36158538182428
 20
-3.293401952653856
 30
0.0
 40
1.6
 41
0.0
 71
     5
 72
     1
  1
1°30'
  7
ASAMI
  0
POINT
  5
2761
330
22BF
100
AcDbEntity
  8
DEFPOINTS
 62
     0
100
AcDbPoint
 10
-13.51779795894193
 20
-0.2501047282186675
 30
0.0
  0
POINT
  5
2762
330
22BF
100
AcDbEntity
  8
DEFPOINTS
 62
     0
100
AcDbPoint
 10
-72.38487321524641
 20
-0.0000000000000053
 30
0.0
  0
POINT
  5
2763
330
22BF
100
AcDbEntity
  8
DEFPOINTS
 62
     0
100
AcDbPoint
 10
-20.02075245616141
 20
-0.9207524561613444
 30
0.0
  0
POINT
  5
2764
330
22BF
100
AcDbEntity
  8
DEFPOINTS
 62
     0
100
AcDbPoint
 10
-4.000000000000056
 20
-0.5012342888649446
 30
0.0
  0
POINT
  5
2765
330
22BF
100
AcDbEntity
  8
DEFPOINTS
 62
     0
100
AcDbPoint
 10
1.329529889074521
 20
-0.0000000000000035
 30
0.0
  0
ENDBLK
  5
22D0
330
22BF
100
AcDbEntity
  8
0
100
AcDbBlockEnd
  0
ENDSEC
  0
SECTION
  2
ENTITIES
  0
LINE
  5
C50
330
1F
100
AcDbEntity
  8
AM_7
100
AcDbLine
 10
-72.38487321524641
 20
-0.0000000000000036
 30
0.0
 11
1.32952988907452
 21
-0.0000000000000036
 31
0.0
1001
GENIUS_GENODEF_13
1002
{
1000
HIER
1070
     0
1002
}
1002
{
1000
MANEDIT
1070
     0
1002
}
1002
{
1000
NOSEL
1070
     0
1002
}
1002
{
1000
BEHIND
1070
     0
1002
}
1002
{
1000
REACTOR
1002
}
1001
GENIUS_GENOBJ-N-CEN_13
1002
{
1000
OWNER
1000
GEN
1002
}
  0
TEXT
  5
C58
330
1F
100
AcDbEntity
  8
AM_6
100
AcDbText
 10
-50.23809523809529
 20
-37.7714368651876
 30
0.0
 40
2.5
  1
PSNB2010ZX-15
 50
0.0000000000002036
 72
     4
 11
-35.00000000000006
 21
-36.52143686518754
 31
0.0
100
AcDbText
  0
DIMENSION
  5
194C
330
1F
100
AcDbEntity
  8
AM_5
100
AcDbDimension
  2
*D5
 10
7.000468934590502
 20
0.4999999999984665
 30
0.0
 11
5.450468934590501
 21
4.664285714284182
 31
0.0
 70
    32
  1
%%c<>
  3
AM_JIS
100
AcDbAlignedDimension
 13
-0.4995310654077332
 23
-0.5000000000000035
 33
0.0
 14
-0.4995310654077331
 24
0.4999999999984686
 34
0.0
 50
90.00000000000003
100
AcDbRotatedDimension
1001
ACAD
1000
DSTYLE
1002
{
1070
    48
1040
0.05
1070
    47
1040
0.0
1070
   274
1070
     1
1070
   272
1070
     2
1002
}
1001
GENIUS_GENDTOL_13
1000

1000
H7
1000

1040
0.0
  0
DIMENSION
  5
195B
330
1F
100
AcDbEntity
  8
AM_5
100
AcDbDimension
  2
*D6
 10
0.000468714484532
 20
-14.52143686518761
 30
0.0
 11
4.926659190675007
 21
-12.97143686518761
 31
0.0
 70
    32
  1
<>
  3
AM_JIS
100
AcDbAlignedDimension
 13
-2.500000000000057
 23
-0.5000000000000036
 33
0.0
 14
0.0004687144845328
 24
-0.000469154489907
 34
0.0
 50
359.9999999999988
100
AcDbRotatedDimension
1001
GENIUS_GENDTOL_13
1000

1000
H7
1000

1040
0.0
  0
LINE
  5
1C97
330
1F
100
AcDbEntity
  8
AM_11
 48
0.4
100
AcDbLine
 10
-2.500000000000057
 20
0.5000000000019682
 30
0.0
 11
-2.500000000000057
 21
-0.4999999999980318
 31
0.0
  0
ARC
  5
1C9A
330
1F
100
AcDbEntity
  8
AM_11
100
AcDbCircle
 10
-0.4995310654077332
 20
0.0000000000002185
 30
0.0
 40
0.4999999999982501
100
AcDbArc
 50
270.0
 51
90.0
  0
LINE
  5
1CA1
330
1F
100
AcDbEntity
  8
AM_11
100
AcDbLine
 10
-2.500000000000057
 20
-0.4999999999980318
 30
0.0
 11
-0.4995310654077332
 21
-0.4999999999980318
 31
0.0
1001
GENIUS_GENODEF_13
1002
{
1000
HIER
1070
     0
1002
}
1002
{
1000
MANEDIT
1070
     0
1002
}
1002
{
1000
NOSEL
1070
     0
1002
}
1002
{
1000
BEHIND
1070
     0
1002
}
1002
{
1000
REACTOR
1002
}
1001
GENIUS_GENOBJ-N-CEN_13
1002
{
1000
OWNER
1000
GEN
1002
}
  0
LINE
  5
1CB1
330
1F
100
AcDbEntity
  8
AM_11
100
AcDbLine
 10
-2.500000000000057
 20
0.5000000000019682
 30
0.0
 11
-0.4995310654077332
 21
0.5000000000019682
 31
0.0
1001
GENIUS_GENODEF_13
1002
{
1000
HIER
1070
     0
1002
}
1002
{
1000
MANEDIT
1070
     0
1002
}
1002
{
1000
NOSEL
1070
     0
1002
}
1002
{
1000
BEHIND
1070
     0
1002
}
1002
{
1000
REACTOR
1002
}
1001
GENIUS_GENOBJ-N-CEN_13
1002
{
1000
OWNER
1000
GEN
1002
}
  0
DIMENSION
  5
1EF8
330
1F
100
AcDbEntity
  8
AM_5
100
AcDbDimension
  2
*D7
 10
-0.4995310654077333
 20
0.0000000000002185
 30
0.0
 11
2.805181552360771
 21
-5.276771963970257
 31
0.0
 70
   164
  1
<>
  3
AM_JIS$4
100
AcDbRadialDimension
 15
-0.2341430540390327
 25
-0.4237560659386853
 35
0.0
 40
0.0
1001
ACAD
1000
DSTYLE
1002
{
1070
   271
1070
     3
1070
   288
1070
     1
1070
   289
1070
     0
1070
    74
1070
     0
1002
}
1001
GENIUS_GENDTOL_13
1000

1000
h7
1000

1040
0.0
  0
LINE
  5
2062
330
1F
100
AcDbEntity
  8
AM_0
100
AcDbLine
 10
-4.000000000000056
 20
0.5012206639780445
 30
0.0
 11
-4.000000000000056
 21
-0.5012206639780516
 31
0.0
  0
LINE
  5
206E
330
1F
100
AcDbEntity
  8
AM_0
100
AcDbLine
 10
-4.000000000000056
 20
0.5012206639780443
 30
0.0
 11
-2.849297691974232
 21
0.5012206639780443
 31
0.0
  0
LINE
  5
2070
330
1F
100
AcDbEntity
  8
AM_0
100
AcDbLine
 10
-4.000000000000056
 20
-0.5012342888649444
 30
0.0
 11
-2.84911158879753
 21
-0.5012342888649444
 31
0.0
  0
LINE
  5
2128
330
1F
100
AcDbEntity
  8
AM_0
100
AcDbLine
 10
-69.50000000000007
 20
2.999999999999993
 30
0.0
 11
-22.10000000000007
 21
2.999999999999993
 31
0.0
1001
GENIUS_GENODEF_13
1002
{
1000
HIER
1070
     0
1002
}
1002
{
1000
MANEDIT
1070
     0
1002
}
1002
{
1000
NOSEL
1070
     0
1002
}
1002
{
1000
BEHIND
1070
     0
1002
}
1002
{
1000
REACTOR
1002
}
1001
GENIUS_GENOBJ-N-CEN_13
1002
{
1000
OWNER
1000
GEN
1002
}
  0
LINE
  5
2129
330
1F
100
AcDbEntity
  8
AM_0
100
AcDbLine
 10
-69.50000000000007
 20
-3.000000000000006
 30
0.0
 11
-22.10000000000007
 21
-3.000000000000006
 31
0.0
1001
GENIUS_GENODEF_13
1002
{
1000
HIER
1070
     0
1002
}
1002
{
1000
MANEDIT
1070
     0
1002
}
1002
{
1000
NOSEL
1070
     0
1002
}
1002
{
1000
BEHIND
1070
     0
1002
}
1002
{
1000
REACTOR
1002
}
1001
GENIUS_GENOBJ-N-CEN_13
1002
{
1000
OWNER
1000
GEN
1002
}
  0
DIMENSION
  5
212A
330
1F
100
AcDbEntity
  8
AM_5
100
AcDbDimension
  2
*D8
 10
-0.0000000000000585
 20
-26.52143686518754
 30
0.0
 11
-35.00000000000006
 21
-24.97143686518754
 31
0.0
 70
    32
  1
<>
  3
AM_JIS
100
AcDbAlignedDimension
 13
-70.00000000000007
 23
-2.250000000000006
 33
0.0
 14
-0.0000000000000568
 24
-0.0000000000000022
 34
0.0
 50
0.0000000000003053
100
AcDbRotatedDimension
1001
GENIUS_GENDTOL_13
1000

1000
H7
1000

1040
0.0
  0
LINE
  5
2137
330
1F
100
AcDbEntity
  8
AM_0
100
AcDbLine
 10
-70.00000000000007
 20
2.249999999999993
 30
0.0
 11
-69.50000000000007
 21
2.999999999999993
 31
0.0
1001
GENIUS_GENFIL_13
1070
     0
1040
0.5
1040
0.5
1040
0.4999999999999716
1040
45.0
1002
{
1002
}
  0
LINE
  5
2138
330
1F
100
AcDbEntity
  8
AM_0
100
AcDbLine
 10
-70.00000000000007
 20
-2.250000000000006
 30
0.0
 11
-69.50000000000007
 21
-3.000000000000006
 31
0.0
1001
GENIUS_GENFIL_13
1070
     0
1040
0.5
1040
0.5
1040
0.4999999999999716
1040
45.00000000000036
1002
{
1002
}
  0
LINE
  5
2139
330
1F
100
AcDbEntity
  8
0
100
AcDbLine
 10
-69.50000000000007
 20
-3.000000000000006
 30
0.0
 11
-69.50000000000007
 21
2.999999999999993
 31
0.0
  0
LINE
  5
213A
330
1F
100
AcDbEntity
  8
AM_0
100
AcDbLine
 10
-70.00000000000007
 20
-2.250000000000006
 30
0.0
 11
-70.00000000000007
 21
2.249999999999993
 31
0.0
  0
DIMENSION
  5
213B
330
1F
100
AcDbEntity
  8
AM_5
100
AcDbDimension
  2
*D9
 10
-77.00000100000007
 20
3.0
 30
0.0
 11
-77.00000100000007
 21
-0.0000000000000191
 31
0.0
 70
   160
  1
%%c<>
  3
AM_JIS
100
AcDbAlignedDimension
 13
-69.50000000000007
 23
-3.000000000000006
 33
0.0
 14
-69.50000000000007
 24
2.999999999999998
 34
0.0
 50
270.0
100
AcDbRotatedDimension
1001
ACAD
1000
DSTYLE
1002
{
1070
    48
1040
0.1
1070
    47
1040
0.1
1070
   274
1070
     2
1070
   272
1070
     3
1002
}
1001
GENIUS_GENDTOL_13
1000

1000
h6
1000

1040
0.0
  0
LINE
  5
2165
330
1F
100
AcDbEntity
  8
AM_0
100
AcDbLine
 10
-22.10000000000007
 20
-3.000000000000006
 30
0.0
 11
-22.10000000000007
 21
2.999999999999993
 31
0.0
  0
LINE
  5
2167
330
1F
100
AcDbEntity
  8
AM_0
100
AcDbLine
 10
-22.10000000000007
 20
-3.000000000000006
 30
0.0
 11
-20.02075245616141
 21
-0.9207524561613446
 31
0.0
  0
LINE
  5
2169
330
1F
100
AcDbEntity
  8
AM_0
100
AcDbLine
 10
-20.02075245616141
 20
-0.9207524561613446
 30
0.0
 11
-4.000000000000056
 21
-0.5012342888649446
 31
0.0
1001
GENIUS_GENODEF_13
1002
{
1000
HIER
1070
     0
1002
}
1002
{
1000
MANEDIT
1070
     0
1002
}
1002
{
1000
NOSEL
1070
     0
1002
}
1002
{
1000
BEHIND
1070
     0
1002
}
1002
{
1000
REACTOR
1002
}
1001
GENIUS_GENOBJ-N-CEN_13
1002
{
1000
OWNER
1000
GEN
1002
}
  0
LINE
  5
21C6
330
1F
100
AcDbEntity
  8
AM_0
100
AcDbLine
 10
-20.02075245616141
 20
0.9207524561613375
 30
0.0
 11
-4.000000000000056
 21
0.5012342888649375
 31
0.0
1001
GENIUS_GENODEF_13
1002
{
1000
HIER
1070
     0
1002
}
1002
{
1000
MANEDIT
1070
     0
1002
}
1002
{
1000
NOSEL
1070
     0
1002
}
1002
{
1000
BEHIND
1070
     0
1002
}
1002
{
1000
REACTOR
1002
}
1001
GENIUS_GENOBJ-N-CEN_13
1002
{
1000
OWNER
1000
GEN
1002
}
  0
LINE
  5
21C7
330
1F
100
AcDbEntity
  8
AM_0
100
AcDbLine
 10
-22.10000000000007
 20
2.999999999999999
 30
0.0
 11
-20.02075245616141
 21
0.9207524561613375
 31
0.0
  0
DIMENSION
  5
21E0
330
1F
100
AcDbEntity
  8
AM_5
100
AcDbDimension
  2
*D10
 10
0.0004689345905157
 20
-20.52143686518761
 30
0.0
 11
-10.01014176078544
 21
-18.97143686518761
 31
0.0
 70
    32
  1
<>
  3
AM_JIS
100
AcDbAlignedDimension
 13
-20.02075245616141
 23
-0.9207524561613446
 33
0.0
 14
0.0004689345905169
 24
-0.0000000000000036
 34
0.0
 50
0.0000000000001132
100
AcDbRotatedDimension
1001
GENIUS_GENDTOL_13
1000

1000
h7
1000

1040
0.0
1001
ACAD
1000
DSTYLE
1002
{
1070
   271
1070
     1
1002
}
  0
DIMENSION
  5
22BE
330
1F
100
AcDbEntity
  8
AM_5
100
AcDbDimension
  2
*D11
 10
1.329529889074521
 20
-0.0000000000000036
 30
0.0
 11
-13.4363110433415
 21
-3.841079236833166
 31
0.0
 70
   162
  1
<>
  3
AM_JIS$2
100
AcDb2LineAngularDimension
 13
-20.02075245616141
 23
-0.9207524561613446
 33
0.0
 14
-4.000000000000056
 24
-0.5012342888649446
 34
0.0
 15
-72.38487321524641
 25
-0.0000000000000036
 35
0.0
 16
-13.51779795894193
 26
-0.2501047282186675
 36
0.0
1001
GENIUS_GENDTOL_13
1000

1000
h7
1000

1040
0.0
1001
ACAD
1000
DSTYLE
1002
{
1070
   287
1070
     4
1070
   271
1070
     1
1070
   275
1070
     1
1070
   179
1070
     1
1070
   279
1070
     1
1002
}
  0
LINE
  5
246F
330
1F
100
AcDbEntity
  8
AM_0
100
AcDbLine
 10
-20.02075245616141
 20
0.9207524561613375
 30
0.0
 11
-20.02075245616141
 21
-0.9207524561613446
 31
0.0
  0
LINE
  5
2597
330
1F
100
AcDbEntity
  8
AM_0
100
AcDbLine
 10
-3.34165009897011
 20
0.283851508929024
 30
0.0
 11
-2.849297691974232
 21
0.499999999998476
 31
0.0
  0
SPLINE
  5
259A
330
1F
100
AcDbEntity
  8
AM_0
100
AcDbSpline
210
0.0
220
0.0
230
1.0
 70
     8
 71
     3
 72
     8
 73
     4
 74
     0
 42
0.0000000001
 43
0.0000000001
 40
4.071346735624547
 40
4.071346735624547
 40
4.071346735624547
 40
4.071346735624547
 40
6.816591828337566
 40
6.816591828337566
 40
6.816591828337566
 40
6.816591828337566
 10
-2.84911158879753
 20
-0.4149267435447847
 30
0.0
 10
-3.015163877784016
 20
-0.3001975305836501
 30
0.0
 10
-3.178645674893734
 20
-0.2105913785492941
 30
0.0
 10
-3.34165009897011
 20
-0.1183026982234649
 30
0.0
  0
SPLINE
  5
259C
330
1F
100
AcDbEntity
  8
AM_0
100
AcDbSpline
210
0.0
220
0.0
230
1.0
 70
     8
 71
     3
 72
     8
 73
     4
 74
     0
 42
0.0000000001
 43
0.0000000001
 40
3.359485258353905
 40
3.359485258353905
 40
3.359485258353905
 40
3.359485258353905
 40
7.218994763998551
 40
7.218994763998551
 40
7.218994763998551
 40
7.218994763998551
 10
-3.34165009897011
 20
0.283851508852519
 30
0.0
 10
-3.099921216003671
 20
0.20916280746866
 30
0.0
 10
-2.862405417291935
 20
0.1045813974494193
 30
0.0
 10
-2.624889618580198
 20
-0.0000000125698314
 30
0.0
  0
SPLINE
  5
259E
330
1F
100
AcDbEntity
  8
AM_0
100
AcDbSpline
210
0.0
220
0.0
230
1.0
 70
     8
 71
     3
 72
     8
 73
     4
 74
     2
 42
0.0000000001
 43
0.0000000001
 44
0.0000000001
 12
-1.0
 22
0.0000000000000001
 32
0.0
 40
0.0
 40
0.0
 40
0.0
 40
0.0
 40
1.415489169609654
 40
1.415489169609654
 40
1.415489169609654
 40
1.415489169609654
 10
-1.264540095252542
 20
-0.3912272657926898
 30
0.0
 10
-1.73636981845576
 20
-0.3912272657926898
 30
0.0
 10
-2.180629718518002
 20
-0.1956136391812482
 30
0.0
 10
-2.624889618580244
 20
-0.0000000125698065
 30
0.0
 11
-1.264540095252542
 21
-0.3912272657926898
 31
0.0
 11
-2.624889618580244
 21
-0.0000000125698065
 31
0.0
  0
SPLINE
  5
25A0
330
1F
100
AcDbEntity
  8
AM_0
100
AcDbSpline
210
0.0
220
0.0
230
1.0
 70
     8
 71
     3
 72
     8
 73
     4
 74
     2
 42
0.0000000001
 43
0.0000000001
 44
0.0000000001
 12
1.0
 22
-0.0000000000000002
 32
0.0
 40
0.0
 40
0.0
 40
0.0
 40
0.0
 40
1.448999654929343
 40
1.448999654929343
 40
1.448999654929343
 40
1.448999654929343
 10
-2.849297691974232
 20
0.4999999999984759
 30
0.0
 10
-2.366297806997784
 20
0.4999999999984758
 30
0.0
 10
-1.927797749488378
 20
0.2499999999993516
 30
0.0
 10
-1.489297691978972
 20
0.0000000000002274
 30
0.0
 11
-2.849297691974232
 21
0.4999999999984759
 31
0.0
 11
-1.489297691978972
 21
0.0000000000002274
 31
0.0
  0
SPLINE
  5
25A1
330
1F
100
AcDbEntity
  8
AM_0
100
AcDbSpline
210
0.0
220
0.0
230
1.0
 70
     8
 71
     3
 72
     8
 73
     4
 74
     2
 42
0.0000000001
 43
0.0000000001
 44
0.0000000001
 12
0.9998476951563912
 22
0.0174524064372833
 32
0.0
 40
0.0
 40
0.0
 40
0.0
 40
0.0
 40
1.628478045438952
 40
1.628478045438952
 40
1.628478045438952
 40
1.628478045438952
 10
-2.596675123548693
 20
0.4778748777862455
 30
0.0
 10
-2.053931783433719
 20
0.4873484980273099
 30
0.0
 10
-1.546911465856173
 20
0.2436742490137686
 30
0.0
 10
-1.039891148278627
 20
0.0000000000002274
 30
0.0
 11
-2.596675123548693
 21
0.4778748777862455
 31
0.0
 11
-1.039891148278627
 21
0.0000000000002274
 31
0.0
  0
LINE
  5
25A2
330
1F
100
AcDbEntity
  8
AM_0
100
AcDbLine
 10
-1.264540095252542
 20
-0.3912272657926898
 30
0.0
 11
-2.138325160575039
 21
-0.4217405126441705
 31
0.0
  0
SPLINE
  5
25A3
330
1F
100
AcDbEntity
  8
AM_0
100
AcDbSpline
210
0.0
220
0.0
230
1.0
 70
     8
 71
     3
 72
     8
 73
     4
 74
     0
 42
0.0000000001
 43
0.0000000001
 40
0.0
 40
0.0
 40
0.0
 40
0.0
 40
1.389839699216864
 40
1.389839699216864
 40
1.389839699216864
 40
1.389839699216864
 10
-2.676410770616612
 20
-0.4804054131598364
 30
0.0
 10
-2.585571574576661
 20
-0.4804054131598364
 30
0.0
 10
-2.496201316032728
 20
-0.4718345632212042
 30
0.0
 10
-2.408022518413272
 20
-0.4563118635142481
 30
0.0
  0
SPLINE
  5
25A6
330
1F
100
AcDbEntity
  8
AM_0
100
AcDbSpline
210
0.0
220
0.0
230
1.0
 70
     8
 71
     3
 72
     8
 73
     4
 74
     0
 42
0.0000000001
 43
0.0000000001
 40
0.0
 40
0.0
 40
0.0
 40
0.0
 40
1.293721832890842
 40
1.293721832890842
 40
1.293721832890842
 40
1.293721832890842
 10
-2.84911158879753
 20
-0.5000000126398163
 30
0.0
 10
-2.764554606243827
 20
-0.5000000126398163
 30
0.0
 10
-2.681360516964094
 20
-0.4923414322201794
 30
0.0
 10
-2.599290778339799
 20
-0.478364726912492
 30
0.0
  0
SPLINE
  5
25AE
330
1F
100
AcDbEntity
  8
AM_0
100
AcDbSpline
210
0.0
220
0.0
230
1.0
 70
     8
 71
     3
 72
     8
 73
     4
 74
     0
 42
0.0000000001
 43
0.0000000001
 40
0.0
 40
0.0
 40
0.0
 40
0.0
 40
1.748655602797241
 40
1.748655602797241
 40
1.748655602797241
 40
1.748655602797241
 10
-2.475292627835269
 20
-0.4578074622364064
 30
0.0
 10
-2.361001411950191
 20
-0.4578074622364064
 30
0.0
 10
-2.248849251080255
 20
-0.4447450116768082
 30
0.0
 10
-2.138325160575085
 20
-0.4217405126441705
 30
0.0
  0
SPLINE
  5
25AF
330
1F
100
AcDbEntity
  8
AM_0
100
AcDbSpline
210
0.0
220
0.0
230
1.0
 70
     8
 71
     3
 72
     8
 73
     4
 74
     0
 42
0.0000000001
 43
0.0000000001
 40
0.0
 40
0.0
 40
0.0
 40
0.0
 40
1.944737871874249
 40
1.944737871874249
 40
1.944737871874249
 40
1.944737871874249
 10
-1.264540095252542
 20
-0.3912272657926898
 30
0.0
 10
-1.137433044785423
 20
-0.3912272657926898
 30
0.0
 10
-1.012326789671113
 20
-0.3770312068240472
 30
0.0
 10
-0.8404496962208892
 20
-0.3376720298048838
 30
0.0
  0
LINE
  5
25B0
330
1F
100
AcDbEntity
  8
AM_0
100
AcDbLine
 10
-2.035437630317879
 20
0.4217761607566431
 30
0.0
 11
-0.6945088201916292
 21
0.4064570959037149
 31
0.0
  0
ARC
  5
25B1
330
1F
100
AcDbEntity
  8
AM_0
100
AcDbCircle
 10
-1.032464709117439
 20
-0.9827421067456253
 30
0.0
 40
1.425400092585946
100
AcDbArc
 50
43.5865880745409
 51
77.03581367599579
  0
LINE
  5
25B2
330
1F
100
AcDbEntity
  8
AM_0
100
AcDbLine
 10
-0.4204906321695852
 20
0.1229037579875687
 30
0.0
 11
-0.0806999999997871
 21
-0.0355432159625266
 31
0.0
  0
ARC
  5
25B3
330
1F
100
AcDbEntity
  8
AM_0
100
AcDbCircle
 10
-0.4978010510196214
 20
-0.0468413663556717
 30
0.0
 40
0.4999999999982505
100
AcDbArc
 50
5.375507822153728
 51
90.25198180382437
  0
SPLINE
  5
25B4
330
1F
100
AcDbEntity
  8
AM_0
100
AcDbSpline
210
0.0
220
0.0
230
1.0
 70
     8
 71
     3
 72
     8
 73
     4
 74
     0
 42
0.0000000001
 43
0.0000000001
 40
3.790408995970492
 40
3.790408995970492
 40
3.790408995970492
 40
3.790408995970492
 40
5.485524909568358
 40
5.485524909568358
 40
5.485524909568358
 40
5.485524909568358
 10
-0.4999999999969873
 20
0.4531537982426031
 30
0.0
 10
-0.5541365275067527
 20
0.4398541046744633
 30
0.0
 10
-0.6078233587107569
 20
0.4240280175707092
 30
0.0
 10
-0.6611317381649223
 20
0.4060757887975584
 30
0.0
  0
SPLINE
  5
25B5
330
1F
100
AcDbEntity
  8
AM_0
100
AcDbSpline
210
0.0
220
0.0
230
1.0
 70
     8
 71
     3
 72
     8
 73
     4
 74
     2
 42
0.0000000001
 43
0.0000000001
 44
0.0000000001
 12
0.6039933128154179
 22
-0.7969893839156561
 32
0.0
 40
0.0
 40
0.0
 40
0.0
 40
0.0
 40
0.2000356546789967
 40
0.2000356546789967
 40
0.2000356546789967
 40
0.2000356546789967
 10
-0.4999999999969447
 20
0.4531537982426031
 30
0.0
 10
-0.4597266007466886
 20
0.4000117005146769
 30
0.0
 10
-0.577117710469159
 20
0.4032343982091959
 30
0.0
 10
-0.6945088201916292
 20
0.4064570959037149
 30
0.0
 11
-0.4999999999969447
 21
0.4531537982426031
 31
0.0
 11
-0.6945088201916292
 21
0.4064570959037149
 31
0.0
  0
SPLINE
  5
25B6
330
1F
100
AcDbEntity
  8
AM_0
100
AcDbSpline
210
0.0
220
0.0
230
1.0
 70
     8
 71
     3
 72
     8
 73
     4
 74
     2
 42
0.0000000001
 43
0.0000000001
 44
0.0000000001
 12
-0.9063077870366493
 22
0.4226182617407013
 32
0.0
 13
0.9900295272873
 23
-0.1408599840241551
 33
0.0
 40
0.0
 40
0.0
 40
0.0
 40
0.0
 40
0.3886721049604252
 40
0.3886721049604252
 40
0.3886721049604252
 40
0.3886721049604252
 10
-0.4259789080411239
 20
0.125462983056515
 30
0.0
 10
-0.5433977598176436
 20
0.1802162928516731
 30
0.0
 10
-0.8227744403062519
 20
0.4247065447355016
 30
0.0
 10
-0.6945088201916754
 20
0.4064570959037149
 30
0.0
 11
-0.4259789080411239
 21
0.125462983056515
 31
0.0
 11
-0.6945088201916754
 21
0.4064570959037149
 31
0.0
  0
LINE
  5
25B8
330
1F
100
AcDbEntity
  8
AM_0
100
AcDbLine
 10
-0.0000000000000965
 20
-0.0000000000000036
 30
0.0
 11
-0.0806999999997871
 21
-0.0355432159625266
 31
0.0
  0
SPLINE
  5
25B9
330
1F
100
AcDbEntity
  8
AM_0
100
AcDbSpline
210
0.0
220
0.0
230
1.0
 70
     8
 71
     3
 72
     8
 73
     4
 74
     2
 42
0.0000000001
 43
0.0000000001
 44
0.0000000001
 12
-0.0000000000000001
 22
-1.0
 32
0.0
 13
-1.0
 23
0.0000000000000001
 33
0.0
 40
0.0
 40
0.0
 40
0.0
 40
0.0
 40
0.0875476645569451
 40
0.0875476645569451
 40
0.0875476645569451
 40
0.0875476645569451
 10
-0.3693332294309499
 20
-0.2436452889846592
 30
0.0
 10
-0.3693332294309499
 20
-0.2728278438369742
 30
0.0
 10
-0.4122542990900059
 20
-0.2933007106594232
 30
0.0
 10
-0.4414368539423208
 20
-0.2933007106594232
 30
0.0
 11
-0.3693332294309499
 21
-0.2436452889846592
 31
0.0
 11
-0.4414368539423208
 21
-0.2933007106594232
 31
0.0
  0
ARC
  5
25BB
330
1F
100
AcDbEntity
  8
AM_0
100
AcDbCircle
 10
-0.057412840648329
 20
-0.0132677187945554
 30
0.0
 40
0.3877733278411422
100
AcDbArc
 50
159.4415606715376
 51
216.4487634976257
  0
ARC
  5
25BC
330
1F
100
AcDbEntity
  8
AM_0
100
AcDbCircle
 10
-0.4978010510196214
 20
0.0468413663561016
 30
0.0
 40
0.4999999999982505
100
AcDbArc
 50
269.7480181961756
 51
354.6244921778462
  0
SPLINE
  5
25BE
330
1F
100
AcDbEntity
  8
AM_0
100
AcDbSpline
210
0.0
220
0.0
230
1.0
 70
     8
 71
     3
 72
     8
 73
     4
 74
     2
 42
0.0000000001
 43
0.0000000001
 44
0.0000000001
 12
0.0000000000000001
 22
1.0
 32
0.0
 40
0.0
 40
0.0
 40
0.0
 40
0.0
 40
0.1702429196342619
 40
0.1702429196342619
 40
0.1702429196342619
 40
0.1702429196342619
 10
-0.4999999999982629
 20
-0.4531537982418286
 30
0.0
 10
-0.4999999999982629
 20
-0.3964061583637413
 30
0.0
 10
-0.4707184269702919
 20
-0.3448534345115823
 30
0.0
 10
-0.4414368539423208
 20
-0.2933007106594232
 30
0.0
 11
-0.4999999999982629
 21
-0.4531537982418286
 31
0.0
 11
-0.4414368539423208
 21
-0.2933007106594232
 31
0.0
  0
SPLINE
  5
25C0
330
1F
100
AcDbEntity
  8
AM_0
100
AcDbSpline
210
0.0
220
0.0
230
1.0
 70
     8
 71
     3
 72
     8
 73
     4
 74
     0
 42
0.0000000001
 43
0.0000000001
 40
7.981245920543044
 40
7.981245920543044
 40
7.981245920543044
 40
7.981245920543044
 40
14.43905044399483
 40
14.43905044399483
 40
14.43905044399483
 40
14.43905044399483
 10
-0.4414368539423208
 20
-0.2933007106594232
 30
0.0
 10
-0.6431709086418671
 20
-0.2100394318533958
 30
0.0
 10
-0.841531028460249
 20
-0.1050197159265949
 30
0.0
 10
-1.039891148278627
 20
0.0000000000002274
 30
0.0
  0
SPLINE
  5
25C1
330
1F
100
AcDbEntity
  8
AM_0
100
AcDbSpline
210
0.0
220
0.0
230
1.0
 70
     8
 71
     3
 72
     8
 73
     4
 74
     0
 42
0.0000000001
 43
0.0000000001
 40
3.7904089959839
 40
3.7904089959839
 40
3.7904089959839
 40
3.7904089959839
 40
14.48999654934396
 40
14.48999654934396
 40
14.48999654934396
 40
14.48999654934396
 10
-0.4999999999982628
 20
-0.4531537982418286
 30
0.0
 10
-0.8417102696496741
 20
-0.3692060076370573
 30
0.0
 10
-1.165503980814346
 20
-0.1846030038184168
 30
0.0
 10
-1.489297691978972
 20
0.0000000000002274
 30
0.0
  0
ARC
  5
25C2
330
1F
100
AcDbEntity
  8
AM_0
100
AcDbCircle
 10
-0.4281606849183746
 20
0.1421623305867321
 30
0.0
 40
0.3902668174960424
100
AcDbArc
 50
278.6696104128123
 51
332.9129476995508
  0
LINE
  5
25E7
330
1F
100
AcDbEntity
  8
AM_0
100
AcDbLine
 10
-3.341463995793407
 20
-0.1184080635067753
 30
0.0
 11
-2.84911158879753
 21
0.0977404275626766
 31
0.0
  0
SPLINE
  5
2657
330
1F
100
AcDbEntity
  8
AM_0
100
AcDbSpline
210
0.0
220
0.0
230
1.0
 70
     8
 71
     3
 72
     8
 73
     4
 74
     0
 42
0.0000000001
 43
0.0000000001
 40
0.0
 40
0.0
 40
0.0
 40
0.0
 40
1.943319591907458
 40
1.943319591907458
 40
1.943319591907458
 40
1.943319591907458
 10
-2.475292627835269
 20
-0.4590417384615347
 30
0.0
 10
-2.602306980265309
 20
-0.4590417384615347
 30
0.0
 10
-2.726679521080458
 20
-0.4429091316035407
 30
0.0
 10
-2.84911158879753
 20
-0.414926743544916
 30
0.0
  0
LINE
  5
265B
330
1F
100
AcDbEntity
  8
AM_0
100
AcDbLine
 10
-2.84911158879753
 20
-0.4149267435447847
 30
0.0
 11
-2.84911158879753
 21
-0.5012342888649444
 31
0.0
  0
VIEWPORT
  5
110
330
101
100
AcDbEntity
 67
     1
  8
0
100
AcDbViewport
 10
420.5
 20
297.0
 30
0.0
 40
948.9782706766916
 41
628.452
 68
     1
 69
     1
1001
ACAD
1000
MVIEW
1002
{
1070
    16
1010
0.0
1020
0.0
1030
0.0
1010
0.0
1020
0.0
1030
1.0
1040
0.0
1040
628.452
1040
420.5
1040
297.0
1040
50.0
1040
0.0
1040
0.0
1070
     0
1070
   100
1070
     1
1070
     1
1070
     0
1070
     0
1070
     0
1070
     0
1040
0.0
1040
0.0
1040
0.0
1040
10.0
1040
10.0
1040
10.0
1040
10.0
1070
     0
1002
{
1002
}
1002
}
  0
ENDSEC
  0
SECTION
  2
OBJECTS
  0
DICTIONARY
  5
C
330
0
100
AcDbDictionary
  3
ACAD_GROUP
350
D
  3
ACAD_LAYOUT
350
1A
  3
ACAD_MLINESTYLE
350
17
  3
ACAD_PLOTSETTINGS
350
19
  3
ACAD_PLOTSTYLENAME
350
E
  3
ACDBVARIABLEDICTIONARY
350
34
  3
ACMDICTIONARY
350
43
  3
AMG
350
2B
  3
AMGSNAPSETTINGS
350
6E
  3
DWGPROPS
350
2724
  3
ACDBHEADERROUNDTRIPXREC
350
2731
  0
DICTIONARY
  5
74
330
1F
100
AcDbDictionary
280
     1
  3
ACAD_INDEX
360
2726
  3
ACAD_LAYOUTSELFREF
360
2754
  0
DICTIONARY
  5
2759
330
101
100
AcDbDictionary
280
     1
  3
ACAD_LAYOUTSELFREF
360
275A
  0
DICTIONARY
  5
D
102
{ACAD_REACTORS
330
C
102
}
330
C
100
AcDbDictionary
  0
DICTIONARY
  5
1A
102
{ACAD_REACTORS
330
C
102
}
330
C
100
AcDbDictionary
  0
DICTIONARY
  5
17
102
{ACAD_REACTORS
330
C
102
}
330
C
100
AcDbDictionary
  3
STANDARD
350
18
  0
DICTIONARY
  5
19
102
{ACAD_REACTORS
330
C
102
}
330
C
100
AcDbDictionary
  0
ACDBDICTIONARYWDFLT
  5
E
102
{ACAD_REACTORS
330
C
102
}
330
C
100
AcDbDictionary
281
     1
  3
Normal
350
F
100
AcDbDictionaryWithDefault
340
F
  0
DICTIONARY
  5
34
102
{ACAD_REACTORS
330
C
102
}
330
C
100
AcDbDictionary
  3
INDEXCTL
350
35
  3
SORTENTS
350
B5E
  0
DICTIONARY
  5
43
102
{ACAD_REACTORS
330
C
102
}
330
C
100
AcDbDictionary
  3
ACMSTDDICTIONARY
350
260
  0
DICTIONARY
  5
2B
102
{ACAD_REACTORS
330
C
102
}
330
C
100
AcDbDictionary
  3
ACMGSETTINGS
350
2C
  0
DICTIONARY
  5
6E
102
{ACAD_REACTORS
330
C
102
}
330
C
100
AcDbDictionary
  0
XRECORD
  5
2724
102
{ACAD_REACTORS
330
C
102
}
330
C
100
AcDbXrecord
  1
DWGPROPS COOKIE
  2

  3

  4

  6

  7

  8

  9

300
AmdtFileType=82
301
=
302
=
303
=
304
=
305
=
306
=
307
=
308
=
309
=
 40
0.3430755555555556
 41
2452838.620506898
 42
2453045.546411319
  1

 90
        1
  0
DICTIONARY
  5
2731
102
{ACAD_REACTORS
330
C
102
}
330
C
100
AcDbDictionary
  3
TSTACKALIGN
350
2732
  3
TSTACKSIZE
350
2733
  3
HYPERLINKBASE
350
2734
  3
STYLESHEET
350
2735
  3
LAYOUTDICT
350
2736
  3
PLOTSETDICT
350
2737
  3
PLOTSTYLNAMDICT
350
2738
  3
LWETCUNION
350
2739
  3
INSUNITS
350
273A
  3
CEPSNTYPE
350
273B
  3
FINGERPRINTGUID
350
273C
  3
VERSIONGUID
350
273D
  3
PSVPSCALE
350
273E
  3
DIMSTYLEDATA
350
273F
  3
PUCSORTHOREF
350
2740
  3
PUCSORTHOVIEW
350
2741
  3
PUCSBASE
350
2742
  3
PUCSORGTOP
350
2743
  3
PUCSORGBOTTOM
350
2744
  3
PUCSORGLEFT
350
2745
  3
PUCSORGRIGHT
350
2746
  3
PUCSORGFRONT
350
2747
  3
PUCSORGBACK
350
2748
  3
UCSORTHOREF
350
2749
  3
UCSORTHOVIEW
350
274A
  3
UCSBASE
350
274B
  3
UCSORGTOP
350
274C
  3
UCSORGBOTTOM
350
274D
  3
UCSORGLEFT
350
274E
  3
UCSORGRIGHT
350
274F
  3
UCSORGFRONT
350
2750
  3
UCSORGBACK
350
2751
  0
DICTIONARY
  5
2726
102
{ACAD_REACTORS
330
74
102
}
330
74
100
AcDbDictionary
  3
*A1
350
2727
  0
XRECORD
  5
2754
102
{ACAD_REACTORS
330
74
102
}
330
74
100
AcDbXrecord
340
1F
  0
XRECORD
  5
275A
102
{ACAD_REACTORS
330
2759
102
}
330
2759
100
AcDbXrecord
340
101
  0
MLINESTYLE
  5
18
102
{ACAD_REACTORS
330
17
102
}
330
17
100
AcDbMlineStyle
  2
STANDARD
 70
     0
  3

 62
   256
 51
90.0
 52
90.0
 71
     2
 49
0.5
 62
   256
  6
BYLAYER
 49
-0.5
 62
   256
  6
BYLAYER
  0
ACDBPLACEHOLDER
  5
F
102
{ACAD_REACTORS
330
E
102
}
330
E
100
AcDbPlaceHolder
280
     0
  0
DICTIONARYVAR
  5
35
102
{ACAD_REACTORS
330
34
102
}
330
34
100
DictionaryVariables
280
     0
  1
1
  0
DICTIONARYVAR
  5
B5E
102
{ACAD_REACTORS
330
34
102
}
330
34
100
DictionaryVariables
280
     0
  1
96
  0
DICTIONARY
  5
260
102
{ACAD_REACTORS
330
43
102
}
330
43
100
AcDbDictionary
  0
DICTIONARY
  5
2C
102
{ACAD_REACTORS
330
2B
102
}
330
2B
100
AcDbDictionary
  3
DWGSETTINGS
350
2D
  0
XRECORD
  5
2732
102
{ACAD_REACTORS
330
2731
102
}
330
2731
100
AcDbXrecord
 90
        1
  0
XRECORD
  5
2733
102
{ACAD_REACTORS
330
2731
102
}
330
2731
100
AcDbXrecord
 90
       70
  0
XRECORD
  5
2734
102
{ACAD_REACTORS
330
2731
102
}
330
2731
100
AcDbXrecord
  1

  0
XRECORD
  5
2735
102
{ACAD_REACTORS
330
2731
102
}
330
2731
100
AcDbXrecord
  1
ASAMI.ctb
  0
XRECORD
  5
2736
102
{ACAD_REACTORS
330
2731
102
}
330
2731
100
AcDbXrecord
340
1A
  0
XRECORD
  5
2737
102
{ACAD_REACTORS
330
2731
102
}
330
2731
100
AcDbXrecord
340
19
  0
XRECORD
  5
2738
102
{ACAD_REACTORS
330
2731
102
}
330
2731
100
AcDbXrecord
340
E
  0
XRECORD
  5
2739
102
{ACAD_REACTORS
330
2731
102
}
330
2731
100
AcDbXrecord
 90
    10781
  0
XRECORD
  5
273A
102
{ACAD_REACTORS
330
2731
102
}
330
2731
100
AcDbXrecord
 90
        4
  0
XRECORD
  5
273B
102
{ACAD_REACTORS
330
2731
102
}
330
2731
100
AcDbXrecord
 90
        0
  0
XRECORD
  5
273C
102
{ACAD_REACTORS
330
2731
102
}
330
2731
100
AcDbXrecord
  1
{AFB28963-8C59-40AE-9337-C84526B81ACE}
  0
XRECORD
  5
273D
102
{ACAD_REACTORS
330
2731
102
}
330
2731
100
AcDbXrecord
  1
{C498055E-893A-4100-8053-EFE507E94B80}
  0
XRECORD
  5
273E
102
{ACAD_REACTORS
330
2731
102
}
330
2731
100
AcDbXrecord
 40
0.0
  0
XRECORD
  5
273F
102
{ACAD_REACTORS
330
2731
102
}
330
2731
100
AcDbXrecord
1000
DSTYLE
1002
{
1070
    79
 70
     2
1070
   341
340
59
1070
   342
340
59
1070
   371
 70
    -1
1070
   372
 70
    -1
1002
}
  0
XRECORD
  5
2740
102
{ACAD_REACTORS
330
2731
102
}
330
2731
100
AcDbXrecord
340
0
  0
XRECORD
  5
2741
102
{ACAD_REACTORS
330
2731
102
}
330
2731
100
AcDbXrecord
 70
     0
  0
XRECORD
  5
2742
102
{ACAD_REACTORS
330
2731
102
}
330
2731
100
AcDbXrecord
340
0
  0
XRECORD
  5
2743
102
{ACAD_REACTORS
330
2731
102
}
330
2731
100
AcDbXrecord
 10
0.0
 20
0.0
 30
0.0
  0
XRECORD
  5
2744
102
{ACAD_REACTORS
330
2731
102
}
330
2731
100
AcDbXrecord
 10
0.0
 20
0.0
 30
0.0
  0
XRECORD
  5
2745
102
{ACAD_REACTORS
330
2731
102
}
330
2731
100
AcDbXrecord
 10
0.0
 20
0.0
 30
0.0
  0
XRECORD
  5
2746
102
{ACAD_REACTORS
330
2731
102
}
330
2731
100
AcDbXrecord
 10
0.0
 20
0.0
 30
0.0
  0
XRECORD
  5
2747
102
{ACAD_REACTORS
330
2731
102
}
330
2731
100
AcDbXrecord
 10
0.0
 20
0.0
 30
0.0
  0
XRECORD
  5
2748
102
{ACAD_REACTORS
330
2731
102
}
330
2731
100
AcDbXrecord
 10
0.0
 20
0.0
 30
0.0
  0
XRECORD
  5
2749
102
{ACAD_REACTORS
330
2731
102
}
330
2731
100
AcDbXrecord
340
0
  0
XRECORD
  5
274A
102
{ACAD_REACTORS
330
2731
102
}
330
2731
100
AcDbXrecord
 70
     0
  0
XRECORD
  5
274B
102
{ACAD_REACTORS
330
2731
102
}
330
2731
100
AcDbXrecord
340
0
  0
XRECORD
  5
274C
102
{ACAD_REACTORS
330
2731
102
}
330
2731
100
AcDbXrecord
 10
0.0
 20
0.0
 30
0.0
  0
XRECORD
  5
274D
102
{ACAD_REACTORS
330
2731
102
}
330
2731
100
AcDbXrecord
 10
0.0
 20
0.0
 30
0.0
  0
XRECORD
  5
274E
102
{ACAD_REACTORS
330
2731
102
}
330
2731
100
AcDbXrecord
 10
0.0
 20
0.0
 30
0.0
  0
XRECORD
  5
274F
102
{ACAD_REACTORS
330
2731
102
}
330
2731
100
AcDbXrecord
 10
0.0
 20
0.0
 30
0.0
  0
XRECORD
  5
2750
102
{ACAD_REACTORS
330
2731
102
}
330
2731
100
AcDbXrecord
 10
0.0
 20
0.0
 30
0.0
  0
XRECORD
  5
2751
102
{ACAD_REACTORS
330
2731
102
}
330
2731
100
AcDbXrecord
 10
0.0
 20
0.0
 30
0.0
  0
LAYER_INDEX
  5
2727
102
{ACAD_REACTORS
330
2726
102
}
330
2726
100
AcDbIndex
 40
2453151.889944606
100
AcDbLayerIndex
  8
0
360
2728
 90
        1
  8
AM_0
360
2729
 90
       43
  8
AM_11
360
272A
 90
        4
  8
AM_7
360
272B
 90
        1
  8
AM_5
360
272C
 90
        7
  8
Defpoints
360
272D
 90
        0
  8
AM_6
360
272E
 90
        1
  8
AM_CL
360
272F
 90
        0
  0
XRECORD
  5
2D
102
{ACAD_REACTORS
330
2C
102
}
330
2C
100
AcDbXrecord
  1
VERSION
140
15.0
  1
PRODUCT
  2
AutoCAD Mechanical 2000
  0
IDBUFFER
  5
2728
330
0
100
AcDbIdBuffer
330
2139
  0
IDBUFFER
  5
2729
330
0
100
AcDbIdBuffer
330
259C
330
259E
330
25A0
330
25A1
330
25A2
330
25A3
330
25A6
330
25AE
330
25AF
330
25B0
330
25B1
330
25B2
330
25B3
330
25B4
330
25B5
330
25B6
330
25B8
330
25B9
330
25BB
330
25BC
330
25BE
330
25C0
330
25C1
330
25C2
330
25E7
330
2657
330
265B
330
2062
330
206E
330
2070
330
2128
330
2129
330
2137
330
2138
330
213A
330
2165
330
2167
330
2169
330
21C6
330
21C7
330
246F
330
2597
330
259A
  0
IDBUFFER
  5
272A
330
0
100
AcDbIdBuffer
330
1C97
330
1C9A
330
1CA1
330
1CB1
  0
IDBUFFER
  5
272B
330
0
100
AcDbIdBuffer
330
C50
  0
IDBUFFER
  5
272C
330
0
100
AcDbIdBuffer
330
194C
330
195B
330
1EF8
330
212A
330
213B
330
21E0
330
22BE
  0
IDBUFFER
  5
272D
330
0
100
AcDbIdBuffer
  0
IDBUFFER
  5
272E
330
0
100
AcDbIdBuffer
330
C58
  0
IDBUFFER
  5
272F
330
0
100
AcDbIdBuffer
  0
ENDSEC
  0
EOF
