  0
SECTION
  2
HEADER
  9
$ACADVER
  1
AC1014
  9
$ACADMAINTVER
 70
     9
  9
$DWGCODEPAGE
  3
ANSI_932
  9
$INSBASE
 10
0.0
 20
0.0
 30
0.0
  9
$EXTMIN
 10
-129.35
 20
-35.87500000000003
 30
-0.00000001
  9
$EXTMAX
 10
8.004613141343721
 20
5.000000000000003
 30
0.00000001
  9
$LIMMIN
 10
-147.8687924832464
 20
-69.73801677344778
  9
$LIMMAX
 10
34.55013445324141
 20
30.90871494481757
  9
$ORTHOMODE
 70
     0
  9
$REGENMODE
 70
     1
  9
$FILLMODE
 70
     1
  9
$QTEXTMODE
 70
     0
  9
$MIRRTEXT
 70
     0
  9
$DRAGMODE
 70
     2
  9
$LTSCALE
 40
0.3
  9
$OSMODE
 70
    55
  9
$ATTMODE
 70
     1
  9
$TEXTSIZE
 40
2.5
  9
$TRACEWID
 40
1.0
  9
$TEXTSTYLE
  7
STANDARD
  9
$CLAYER
  8
AM_0
  9
$CELTYPE
  6
BYLAYER
  9
$CECOLOR
 62
   256
  9
$CELTSCALE
 40
1.0
  9
$DELOBJ
 70
     1
  9
$DISPSILH
 70
     0
  9
$DIMSCALE
 40
0.5
  9
$DIMASZ
 40
2.5
  9
$DIMEXO
 40
1.0
  9
$DIMDLI
 40
12.0
  9
$DIMRND
 40
0.0
  9
$DIMDLE
 40
0.0
  9
$DIMEXE
 40
1.0
  9
$DIMTP
 40
0.1
  9
$DIMTM
 40
0.1
  9
$DIMTXT
 40
3.2
  9
$DIMCEN
 40
0.0
  9
$DIMTSZ
 40
0.0
  9
$DIMTOL
 70
     0
  9
$DIMLIM
 70
     0
  9
$DIMTIH
 70
     0
  9
$DIMTOH
 70
     0
  9
$DIMSE1
 70
     0
  9
$DIMSE2
 70
     0
  9
$DIMTAD
 70
     3
  9
$DIMZIN
 70
     8
  9
$DIMBLK
  1
OPEN30
  9
$DIMASO
 70
     1
  9
$DIMSHO
 70
     1
  9
$DIMPOST
  1

  9
$DIMAPOST
  1
"
  9
$DIMALT
 70
     0
  9
$DIMALTD
 70
     2
  9
$DIMALTF
 40
0.0393701
  9
$DIMLFAC
 40
1.0
  9
$DIMTOFL
 70
     1
  9
$DIMTVP
 40
0.0
  9
$DIMTIX
 70
     0
  9
$DIMSOXD
 70
     0
  9
$DIMSAH
 70
     0
  9
$DIMBLK1
  1

  9
$DIMBLK2
  1

  9
$DIMSTYLE
  2
AM_JIS
  9
$DIMCLRD
 70
   256
  9
$DIMCLRE
 70
   256
  9
$DIMCLRT
 70
     2
  9
$DIMTFAC
 40
0.71
  9
$DIMGAP
 40
1.5
  9
$DIMJUST
 70
     0
  9
$DIMSD1
 70
     0
  9
$DIMSD2
 70
     0
  9
$DIMTOLJ
 70
     0
  9
$DIMTZIN
 70
     0
  9
$DIMALTZ
 70
     0
  9
$DIMALTTZ
 70
     0
  9
$DIMFIT
 70
     3
  9
$DIMUPT
 70
     0
  9
$DIMUNIT
 70
     2
  9
$DIMDEC
 70
     3
  9
$DIMTDEC
 70
     3
  9
$DIMALTU
 70
     2
  9
$DIMALTTD
 70
     2
  9
$DIMTXSTY
  7
ASAMI
  9
$DIMAUNIT
 70
     0
  9
$LUNITS
 70
     2
  9
$LUPREC
 70
     2
  9
$SKETCHINC
 40
1.0
  9
$FILLETRAD
 40
0.5
  9
$AUNITS
 70
     0
  9
$AUPREC
 70
     0
  9
$MENU
  1
.
  9
$ELEVATION
 40
0.0
  9
$PELEVATION
 40
0.0
  9
$THICKNESS
 40
0.0
  9
$LIMCHECK
 70
     0
  9
$BLIPMODE
 70
     0
  9
$CHAMFERA
 40
2.5
  9
$CHAMFERB
 40
2.5
  9
$CHAMFERC
 40
20.0
  9
$CHAMFERD
 40
0.0
  9
$SKPOLY
 70
     0
  9
$TDCREATE
 40
2452838.620506898
  9
$TDUPDATE
 40
2453151.894005578
  9
$TDINDWG
 40
0.4655504861
  9
$TDUSRTIMER
 40
0.4655504861
  9
$USRTIMER
 70
     1
  9
$ANGBASE
 50
0.0
  9
$ANGDIR
 70
     0
  9
$PDMODE
 70
     0
  9
$PDSIZE
 40
0.0
  9
$PLINEWID
 40
0.0
  9
$COORDS
 70
     1
  9
$SPLFRAME
 70
     0
  9
$SPLINETYPE
 70
     6
  9
$SPLINESEGS
 70
     8
  9
$ATTDIA
 70
     1
  9
$ATTREQ
 70
     1
  9
$HANDLING
 70
 12289
  9
$HANDSEED
  5
3608
  9
$SURFTAB1
 70
     6
  9
$SURFTAB2
 70
     6
  9
$SURFTYPE
 70
     6
  9
$SURFU
 70
     6
  9
$SURFV
 70
     6
  9
$UCSNAME
  2

  9
$UCSORG
 10
-0.0000000000000568
 20
-0.0000000000000036
 30
0.0
  9
$UCSXDIR
 10
1.0
 20
0.0
 30
0.0
  9
$UCSYDIR
 10
0.0
 20
1.0
 30
0.0
  9
$PUCSNAME
  2

  9
$PUCSORG
 10
0.0
 20
0.0
 30
0.0
  9
$PUCSXDIR
 10
1.0
 20
0.0
 30
0.0
  9
$PUCSYDIR
 10
0.0
 20
1.0
 30
0.0
  9
$USERI1
 70
     0
  9
$USERI2
 70
     0
  9
$USERI3
 70
     0
  9
$USERI4
 70
     0
  9
$USERI5
 70
     0
  9
$USERR1
 40
0.0
  9
$USERR2
 40
0.0
  9
$USERR3
 40
0.0
  9
$USERR4
 40
0.0
  9
$USERR5
 40
0.0
  9
$WORLDVIEW
 70
     1
  9
$SHADEDGE
 70
     3
  9
$SHADEDIF
 70
    70
  9
$TILEMODE
 70
     1
  9
$MAXACTVP
 70
    64
  9
$PINSBASE
 10
0.0
 20
0.0
 30
0.0
  9
$PLIMCHECK
 70
     0
  9
$PEXTMIN
 10
1.000000000000000E+20
 20
1.000000000000000E+20
 30
1.000000000000000E+20
  9
$PEXTMAX
 10
-1.000000000000000E+20
 20
-1.000000000000000E+20
 30
-1.000000000000000E+20
  9
$PLIMMIN
 10
0.0
 20
0.0
  9
$PLIMMAX
 10
841.0
 20
594.0
  9
$UNITMODE
 70
     0
  9
$VISRETAIN
 70
     1
  9
$PLINEGEN
 70
     0
  9
$PSLTSCALE
 70
     0
  9
$TREEDEPTH
 70
  3020
  9
$PICKSTYLE
 70
     0
  9
$CMLSTYLE
  2
STANDARD
  9
$CMLJUST
 70
     0
  9
$CMLSCALE
 40
20.0
  9
$PROXYGRAPHICS
 70
     1
  9
$MEASUREMENT
 70
     1
  0
ENDSEC
  0
SECTION
  2
CLASSES
  0
CLASS
  1
ACDBDICTIONARYWDFLT
  2
AcDbDictionaryWithDefault
  3
AutoCAD 2000
 90
        0
280
     0
281
     0
  0
CLASS
  1
ACDBPLACEHOLDER
  2
AcDbPlaceHolder
  3
AutoCAD 2000
 90
        0
280
     0
281
     0
  0
CLASS
  1
LAYOUT
  2
AcDbLayout
  3
AutoCAD 2000
 90
        0
280
     0
281
     0
  0
CLASS
  1
AMGSETTINGSOBJ
  2
AmgSettingsObj
  3
"AcadM|Product Description: AutoCAD Mechanical 2000|Company: Autodesk"
 90
        0
280
     0
281
     0
  0
CLASS
  1
ACME_DOCUMENT
  2
AcMeDbDoc
  3
AcMeServices
 90
        0
280
     0
281
     0
  0
CLASS
  1
ACMESCOPE
  2
AcMeScope
  3
AcMeServices
 90
        0
280
     0
281
     0
  0
CLASS
  1
ACMECOMMANDHISTORY
  2
AcMeCommandHistory
  3
AcMeServices
 90
        0
280
     0
281
     0
  0
CLASS
  1
DICTIONARYVAR
  2
AcDbDictionaryVar
  3
AutoCAD 2000
 90
        0
280
     0
281
     0
  0
CLASS
  1
ACIMSYSVARMAN
  2
AcImSysVarManager
  3
AcMeServices
 90
        0
280
     0
281
     0
  0
CLASS
  1
ACIMREALSYSVAR
  2
AcImRealSysVar
  3
AcMeServices
 90
        0
280
     0
281
     0
  0
CLASS
  1
ACIMINTSYSVAR
  2
AcImIntSysVar
  3
AcMeServices
 90
        0
280
     0
281
     0
  0
CLASS
  1
ACMEDRAWINGMAN
  2
AcMeDrawingMan
  3
AcMeServices
 90
        0
280
     0
281
     0
  0
CLASS
  1
ACMEVIEW
  2
AcMeView
  3
AcMeServices
 90
        0
280
     0
281
     0
  0
CLASS
  1
ACDBENTITYCACHE
  2
AcMeEntityCache
  3
AcMeServices
 90
        0
280
     0
281
     0
  0
CLASS
  1
GSMANAGER
  2
AcMeGSManager
  3
AcMeServices
 90
        0
280
     0
281
     0
  0
CLASS
  1
AmdtInternalReactor
  2
AmdtInternalReactor
  3
AcMeServices
 90
        0
280
     0
281
     0
  0
CLASS
  1
ACMESTATEMGR
  2
AcMeStateMgr
  3
AcMeServices
 90
        0
280
     0
281
     0
  0
CLASS
  1
ACME_DATABASE
  2
AcMeDbDatabase
  3
AcMeServices
 90
        0
280
     0
281
     0
  0
CLASS
  1
ACRFINSADJUSTERMGR
  2
AcRfInsAdjusterMgr
  3
AcMeServices
 90
        0
280
     0
281
     0
  0
CLASS
  1
ACMDATADICTIONARY
  2
AcmDataDictionary
  3
"AcmSymBB|Product Description: AutoCAD Mechanical 2000|Company: Autodesk"
 90
        0
280
     0
281
     0
  0
CLASS
  1
ACMDATAENTRYBLOCK
  2
AcmDataEntryBlock
  3
"AcmSymBB|Product Description: AutoCAD Mechanical 2000|Company: Autodesk"
 90
        0
280
     0
281
     0
  0
CLASS
  1
AMGOBJPROPCFG
  2
AmgObjPropCfg
  3
"AmgLay|Product Description: AutoCAD Mechanical 2000|Company: Autodesk"
 90
        1
280
     0
281
     0
  0
CLASS
  1
ACAMGFILTERDAT
  2
AcAmgFilterDat
  3
"AcadM|Product Description: AutoCAD Mechanical 2000|Company: Autodesk"
 90
        0
280
     0
281
     0
  0
CLASS
  1
LAYER_INDEX
  2
AcDbLayerIndex
  3
AutoCAD 2000
 90
        0
280
     0
281
     0
  0
CLASS
  1
IDBUFFER
  2
AcDbIdBuffer
  3
AutoCAD 2000
 90
        0
280
     0
281
     0
  0
CLASS
  1
ACIMSTRSYSVAR
  2
AcImStrSysVar
  3
AcMeServices
 90
        0
280
     0
281
     0
  0
CLASS
  1
ACMSTANDARDJIS
  2
AcmStandardJIS
  3
"AcmSymBB|Product Description: AutoCAD Mechanical 2000|Company: Autodesk"
 90
        0
280
     0
281
     0
  0
CLASS
  1
ACMSURFSTANDARDJIS
  2
AcmSurfTextStdJIS
  3
"AcmSymBB|Product Description: AutoCAD Mechanical 2000|Company: Autodesk"
 90
        0
280
     0
281
     0
  0
CLASS
  1
ACMFCFSTANDARDJIS
  2
AcmFCFStdJIS
  3
"AcmSymBB|Product Description: AutoCAD Mechanical 2000|Company: Autodesk"
 90
        0
280
     0
281
     0
  0
CLASS
  1
ACMWELDSTANDARDJIS
  2
AcmWeldingStdJIS
  3
"AcmSymBB|Product Description: AutoCAD Mechanical 2000|Company: Autodesk"
 90
        0
280
     0
281
     0
  0
CLASS
  1
ACMIDSTANDARDJIS
  2
AcmIdStdJIS
  3
"AcmSymBB|Product Description: AutoCAD Mechanical 2000|Company: Autodesk"
 90
        0
280
     0
281
     0
  0
CLASS
  1
ACMDATUMSTANDARDJIS
  2
AcmDatumStdJIS
  3
"AcmSymBB|Product Description: AutoCAD Mechanical 2000|Company: Autodesk"
 90
        0
280
     0
281
     0
  0
CLASS
  1
ACMBOMSTANDARDJIS
  2
AcmBOMStdJIS
  3
"AcmSymBB|Product Description: AutoCAD Mechanical 2000|Company: Autodesk"
 90
        0
280
     0
281
     0
  0
CLASS
  1
ACMSTANDARDANSI
  2
AcmStandardANSI
  3
"AcmSymBB|Product Description: AutoCAD Mechanical 2000|Company: Autodesk"
 90
        0
280
     0
281
     0
  0
CLASS
  1
ACMSURFSTANDARDANSI
  2
AcmSurfTextStdANSI
  3
"AcmSymBB|Product Description: AutoCAD Mechanical 2000|Company: Autodesk"
 90
        0
280
     0
281
     0
  0
CLASS
  1
ACMFCFSTANDARDANSI
  2
AcmFCFStdANSI
  3
"AcmSymBB|Product Description: AutoCAD Mechanical 2000|Company: Autodesk"
 90
        0
280
     0
281
     0
  0
CLASS
  1
ACMWELDSTANDARDANSI
  2
AcmWeldingStdANSI
  3
"AcmSymBB|Product Description: AutoCAD Mechanical 2000|Company: Autodesk"
 90
        0
280
     0
281
     0
  0
CLASS
  1
ACMIDSTANDARDANSI
  2
AcmIdStdANSI
  3
"AcmSymBB|Product Description: AutoCAD Mechanical 2000|Company: Autodesk"
 90
        0
280
     0
281
     0
  0
CLASS
  1
ACMDATUMSTANDARDANSI
  2
AcmDatumStdANSI
  3
"AcmSymBB|Product Description: AutoCAD Mechanical 2000|Company: Autodesk"
 90
        0
280
     0
281
     0
  0
CLASS
  1
ACMBOMSTANDARDANSI
  2
AcmBOMStdANSI
  3
"AcmSymBB|Product Description: AutoCAD Mechanical 2000|Company: Autodesk"
 90
        0
280
     0
281
     0
  0
CLASS
  1
ACMSTANDARDBSI
  2
AcmStandardBSI
  3
"AcmSymBB|Product Description: AutoCAD Mechanical 2000|Company: Autodesk"
 90
        0
280
     0
281
     0
  0
CLASS
  1
ACMSURFSTANDARDBSI
  2
AcmSurfTextStdBSI
  3
"AcmSymBB|Product Description: AutoCAD Mechanical 2000|Company: Autodesk"
 90
        0
280
     0
281
     0
  0
CLASS
  1
ACMFCFSTANDARDBSI
  2
AcmFCFStdBSI
  3
"AcmSymBB|Product Description: AutoCAD Mechanical 2000|Company: Autodesk"
 90
        0
280
     0
281
     0
  0
CLASS
  1
ACMWELDSTANDARDBSI
  2
AcmWeldingStdBSI
  3
"AcmSymBB|Product Description: AutoCAD Mechanical 2000|Company: Autodesk"
 90
        0
280
     0
281
     0
  0
CLASS
  1
ACMIDSTANDARDBSI
  2
AcmIdStdBSI
  3
"AcmSymBB|Product Description: AutoCAD Mechanical 2000|Company: Autodesk"
 90
        0
280
     0
281
     0
  0
CLASS
  1
ACMDATUMSTANDARDBSI
  2
AcmDatumStdBSI
  3
"AcmSymBB|Product Description: AutoCAD Mechanical 2000|Company: Autodesk"
 90
        0
280
     0
281
     0
  0
CLASS
  1
ACMBOMSTANDARDBSI
  2
AcmBOMStdBSI
  3
"AcmSymBB|Product Description: AutoCAD Mechanical 2000|Company: Autodesk"
 90
        0
280
     0
281
     0
  0
CLASS
  1
LONG_TRANSACTION
  2
AcDbLongTransaction
  3
AutoCAD 2000
 90
        0
280
     0
281
     0
  0
CLASS
  1
LWPOLYLINE
  2
AcDbPolyline
  3
AutoCAD 2000
 90
        0
280
     0
281
     1
  0
CLASS
  1
HATCH
  2
AcDbHatch
  3
AutoCAD 2000
 90
        0
280
     0
281
     1
  0
CLASS
  1
XRECORD
  2
AcDbXrecord
  3
AutoCAD 2000
 90
        0
280
     0
281
     0
  0
ENDSEC
  0
SECTION
  2
TABLES
  0
TABLE
  2
VPORT
  5
8
330
0
100
AcDbSymbolTable
 70
     3
  0
VPORT
  5
35D2
330
8
100
AcDbSymbolTableRecord
100
AcDbViewportTableRecord
  2
*ACTIVE
 70
     0
 10
0.0
 20
0.0
 11
1.0
 21
1.0
 12
-60.66755697001091
 22
-15.43706530012983
 13
0.0
 23
0.0
 14
2.5
 24
2.5
 15
10.0
 25
10.0
 16
0.0
 26
0.0
 36
1.0
 17
0.0
 27
0.0
 37
0.0
 40
88.07848531684442
 41
1.56570841889117
 42
50.0
 43
0.0
 44
0.0
 50
0.0
 51
0.0
 71
     0
 72
   100
 73
     1
 74
     3
 75
     0
 76
     0
 77
     0
 78
     0
  0
ENDTAB
  0
TABLE
  2
LTYPE
  5
5
330
0
100
AcDbSymbolTable
 70
    10
  0
LTYPE
  5
14
330
5
100
AcDbSymbolTableRecord
100
AcDbLinetypeTableRecord
  2
BYBLOCK
 70
     0
  3

 72
    65
 73
     0
 40
0.0
  0
LTYPE
  5
15
330
5
100
AcDbSymbolTableRecord
100
AcDbLinetypeTableRecord
  2
BYLAYER
 70
     0
  3

 72
    65
 73
     0
 40
0.0
  0
LTYPE
  5
16
330
5
100
AcDbSymbolTableRecord
100
AcDbLinetypeTableRecord
  2
CONTINUOUS
 70
     0
  3
Solid line
 72
    65
 73
     0
 40
0.0
  0
LTYPE
  5
4B
330
5
100
AcDbSymbolTableRecord
100
AcDbLinetypeTableRecord
  2
AM_ISO02W050
 70
     0
  3
__ __ __ __ __ __ __ __ __ __ __ __ __ __ __
 72
    65
 73
     2
 40
7.5
 49
6.0
 74
     0
 49
-1.5
 74
     0
  0
LTYPE
  5
4C
330
5
100
AcDbSymbolTableRecord
100
AcDbLinetypeTableRecord
  2
AM_ISO08W050
 70
     0
  3
____ . ____ . ____ . ____ . ____ . ____ . ____
 72
    65
 73
     4
 40
18.0
 49
12.0
 74
     0
 49
-1.5
 74
     0
 49
3.0
 74
     0
 49
-1.5
 74
     0
  0
LTYPE
  5
4D
330
5
100
AcDbSymbolTableRecord
100
AcDbLinetypeTableRecord
  2
AM_ISO09W050
 70
     0
  3
_____ . . _____ . . _____ . . ____ .. ____
 72
    65
 73
     6
 40
22.5
 49
12.0
 74
     0
 49
-1.5
 74
     0
 49
3.0
 74
     0
 49
-1.5
 74
     0
 49
3.0
 74
     0
 49
-1.5
 74
     0
  0
LTYPE
  5
4E
330
5
100
AcDbSymbolTableRecord
100
AcDbLinetypeTableRecord
  2
AMCONSTR
 70
     0
  3
_______________________
 72
    65
 73
     2
 40
9999.0
 49
9999.0
 74
     0
 49
0.0
 74
     0
  0
LTYPE
  5
4F
330
5
100
AcDbSymbolTableRecord
100
AcDbLinetypeTableRecord
  2
AM_ISO02W050X2
 70
     0
  3
 _ _ _ _ _ _ _ _ _ _ _ _
 72
    65
 73
     2
 40
3.75
 49
3.0
 74
     0
 49
-0.75
 74
     0
  0
LTYPE
  5
50
330
5
100
AcDbSymbolTableRecord
100
AcDbLinetypeTableRecord
  2
AM_ISO08W050X2
 70
     0
  3
__ . __ . __ . __ . __ . __
 72
    65
 73
     4
 40
9.0
 49
6.0
 74
     0
 49
-0.75
 74
     0
 49
1.5
 74
     0
 49
-0.75
 74
     0
  0
LTYPE
  5
53
330
5
100
AcDbSymbolTableRecord
100
AcDbLinetypeTableRecord
  2
AMZIGZAG
 70
     0
  3
/\/-/\/-/\/-/\/-/\/-/\/
 72
    65
 73
     2
 40
11.00009999999999
 49
0.0001
 74
     4
 75
   135
340
52
 46
0.04
 50
0.0
 44
0.0
 45
0.0
 49
-11.0
 74
     0
  0
LTYPE
  5
166
330
5
100
AcDbSymbolTableRecord
100
AcDbLinetypeTableRecord
  2
ACJISTGL
 70
     0
  3
_ _ _ _ _
 72
    65
 73
     2
 40
3.0
 49
2.0
 74
     0
 49
-1.0
 74
     0
  0
LTYPE
  5
26A
330
5
100
AcDbSymbolTableRecord
100
AcDbLinetypeTableRecord
  2
ACJISTGB
 70
     0
  3
__ . . __ . .
 72
    65
 73
     6
 40
9.0
 49
4.0
 74
     0
 49
-1.0
 74
     0
 49
1.0
 74
     0
 49
-1.0
 74
     0
 49
1.0
 74
     0
 49
-1.0
 74
     0
  0
ENDTAB
  0
TABLE
  2
LAYER
  5
2
330
0
100
AcDbSymbolTable
 70
     8
  0
LAYER
  5
10
330
2
100
AcDbSymbolTableRecord
100
AcDbLayerTableRecord
  2
0
 70
     0
 62
     7
  6
CONTINUOUS
  0
LAYER
  5
3F9
330
2
100
AcDbSymbolTableRecord
100
AcDbLayerTableRecord
  2
AM_0
 70
     0
 62
     7
  6
CONTINUOUS
  0
LAYER
  5
BD6
330
2
100
AcDbSymbolTableRecord
100
AcDbLayerTableRecord
  2
AM_11
 70
     0
 62
     3
  6
AM_ISO09W050
  0
LAYER
  5
BD7
330
2
100
AcDbSymbolTableRecord
100
AcDbLayerTableRecord
  2
AM_7
 70
     0
 62
     4
  6
AM_ISO08W050
  0
LAYER
  5
BD8
330
2
100
AcDbSymbolTableRecord
100
AcDbLayerTableRecord
  2
AM_5
 70
     0
 62
     3
  6
CONTINUOUS
  0
LAYER
  5
BD9
330
2
100
AcDbSymbolTableRecord
100
AcDbLayerTableRecord
  2
DEFPOINTS
 70
     0
 62
     7
  6
CONTINUOUS
  0
LAYER
  5
BDA
330
2
100
AcDbSymbolTableRecord
100
AcDbLayerTableRecord
  2
AM_6
 70
     0
 62
     2
  6
CONTINUOUS
  0
LAYER
  5
1F9B
330
2
100
AcDbSymbolTableRecord
100
AcDbLayerTableRecord
  2
AM_CL
 70
     0
 62
     1
  6
AMCONSTR
  0
ENDTAB
  0
TABLE
  2
STYLE
  5
3
330
0
100
AcDbSymbolTable
 70
     5
  0
STYLE
  5
11
330
3
100
AcDbSymbolTableRecord
100
AcDbTextStyleTableRecord
  2
STANDARD
 70
     0
 40
0.0
 41
1.0
 50
0.0
 71
     0
 42
2.5
  3
simplex.shx
  4
EXTFONT.SHX
  0
STYLE
  5
52
330
3
100
AcDbSymbolTableRecord
100
AcDbTextStyleTableRecord
  2

 70
     1
 40
0.0
 41
1.0
 50
0.0
 71
     0
 42
2.5
  3
ltypeshp.shx
  4

  0
STYLE
  5
6B
330
3
100
AcDbSymbolTableRecord
100
AcDbTextStyleTableRecord
  2
ASAMI
 70
     0
 40
0.0
 41
1.0
 50
0.0
 71
     0
 42
2.5
  3
simplex.shx
  4
EXTFONT.SHX
  0
STYLE
  5
262
330
3
100
AcDbSymbolTableRecord
100
AcDbTextStyleTableRecord
  2
ACJISTS
 70
     0
 40
1.0
 41
1.0
 50
0.0
 71
     0
 42
2.5
  3
simplex.shx
  4
bigfont.shx
  0
STYLE
  5
269
330
3
100
AcDbSymbolTableRecord
100
AcDbTextStyleTableRecord
  2
ACJISGDT
 70
     0
 40
0.0
 41
1.0
 50
0.0
 71
     0
 42
2.5
  3
amgdtans.shx
  4

  0
ENDTAB
  0
TABLE
  2
VIEW
  5
6
330
0
100
AcDbSymbolTable
 70
     0
  0
ENDTAB
  0
TABLE
  2
UCS
  5
7
330
0
100
AcDbSymbolTable
 70
     0
  0
ENDTAB
  0
TABLE
  2
APPID
  5
9
330
0
100
AcDbSymbolTable
 70
    13
  0
APPID
  5
12
330
9
100
AcDbSymbolTableRecord
100
AcDbRegAppTableRecord
  2
ACAD
 70
     0
  0
APPID
  5
30
330
9
100
AcDbSymbolTableRecord
100
AcDbRegAppTableRecord
  2
MCAD_NO_VIS
 70
     0
  0
APPID
  5
31
330
9
100
AcDbSymbolTableRecord
100
AcDbRegAppTableRecord
  2
ACAD_TEMP_GRAPHIC
 70
     0
  0
APPID
  5
2C2
330
9
100
AcDbSymbolTableRecord
100
AcDbRegAppTableRecord
  2
GENIUS_GENDTOL_13
 70
     0
  0
APPID
  5
339
330
9
100
AcDbSymbolTableRecord
100
AcDbRegAppTableRecord
  2
GENIUS_GENODEF_13
 70
     0
  0
APPID
  5
33A
330
9
100
AcDbSymbolTableRecord
100
AcDbRegAppTableRecord
  2
GENIUS_GENOBJ-N-RSBK_13
 70
     0
  0
APPID
  5
33B
330
9
100
AcDbSymbolTableRecord
100
AcDbRegAppTableRecord
  2
GENIUS_GENOBJ-N-LIB_13
 70
     0
  0
APPID
  5
33C
330
9
100
AcDbSymbolTableRecord
100
AcDbRegAppTableRecord
  2
GENIUS_GENSCALE_13
 70
     0
  0
APPID
  5
378
330
9
100
AcDbSymbolTableRecord
100
AcDbRegAppTableRecord
  2
GENIUS_GENDIMSH_14
 70
     0
  0
APPID
  5
BDB
330
9
100
AcDbSymbolTableRecord
100
AcDbRegAppTableRecord
  2
GENIUS_GENOBJ-N-CEN_13
 70
     0
  0
APPID
  5
BDC
330
9
100
AcDbSymbolTableRecord
100
AcDbRegAppTableRecord
  2
GENIUS_GENFIL_13
 70
     0
  0
APPID
  5
BDD
330
9
100
AcDbSymbolTableRecord
100
AcDbRegAppTableRecord
  2
GENIUS_GENOBJ-N-FIL_13
 70
     0
  0
APPID
  5
12AD
330
9
100
AcDbSymbolTableRecord
100
AcDbRegAppTableRecord
  2
GENIUS_GENOREF_13
 70
     0
  0
ENDTAB
  0
TABLE
  2
DIMSTYLE
  5
A
330
0
100
AcDbSymbolTable
 70
     8
  0
DIMSTYLE
105
58
102
{ACAD_REACTORS
330
194C
330
195B
330
21E0
330
30B9
330
30CA
102
}
330
A
100
AcDbSymbolTableRecord
100
AcDbDimStyleTableRecord
  2
AM_JIS
 70
     0
  3

  4
"
  5
OPEN30
  6

  7

 40
0.5
 41
2.5
 42
1.0
 43
12.0
 44
1.0
 45
0.0
 46
0.0
 47
0.1
 48
0.1
140
3.2
141
0.0
142
0.0
143
0.0393701
144
1.0
145
0.0
146
0.71
147
1.5
 71
     0
 72
     0
 73
     0
 74
     0
 75
     0
 76
     0
 77
     3
 78
     8
170
     0
171
     2
172
     1
173
     0
174
     0
175
     0
176
   256
177
   256
178
     2
270
     2
271
     3
272
     3
273
     2
274
     2
340
6B
275
     0
280
     0
281
     0
282
     0
283
     0
284
     0
285
     0
286
     0
287
     3
288
     0
  0
DIMSTYLE
105
5F
330
A
100
AcDbSymbolTableRecord
100
AcDbDimStyleTableRecord
  2
AM_JIS$3
 70
     0
  3

  4
"
  5
OPEN30
  6

  7

 40
0.5
 41
2.5
 42
1.0
 43
10.0
 44
1.0
 45
0.0
 46
0.0
 47
0.1
 48
0.1
140
3.2
141
0.0
142
0.0
143
0.0393701
144
1.0
145
0.0
146
0.71
147
1.5
 71
     0
 72
     0
 73
     0
 74
     1
 75
     0
 76
     0
 77
     3
 78
     8
170
     0
171
     2
172
     0
173
     0
174
     0
175
     0
176
   256
177
   256
178
     2
270
     2
271
     2
272
     3
273
     2
274
     2
340
6B
275
     0
280
     0
281
     0
282
     0
283
     0
284
     0
285
     0
286
     0
287
     0
288
     1
  0
DIMSTYLE
105
60
102
{ACAD_REACTORS
330
1EF8
102
}
330
A
100
AcDbSymbolTableRecord
100
AcDbDimStyleTableRecord
  2
AM_JIS$4
 70
     0
  3

  4
"
  5
OPEN30
  6

  7

 40
0.5
 41
2.5
 42
1.0
 43
10.0
 44
1.0
 45
0.0
 46
0.0
 47
0.1
 48
0.1
140
3.2
141
0.0
142
0.0
143
0.0393701
144
1.0
145
0.0
146
0.71
147
1.5
 71
     0
 72
     0
 73
     0
 74
     1
 75
     0
 76
     0
 77
     3
 78
     8
170
     0
171
     2
172
     0
173
     0
174
     0
175
     0
176
   256
177
   256
178
     2
270
     2
271
     2
272
     3
273
     2
274
     2
340
6B
275
     0
280
     0
281
     0
282
     0
283
     0
284
     0
285
     0
286
     0
287
     0
288
     1
  0
DIMSTYLE
105
61
330
A
100
AcDbSymbolTableRecord
100
AcDbDimStyleTableRecord
  2
AM_JIS$6
 70
     0
  3

  4
"
  5
OPEN30
  6

  7

 40
0.5
 41
2.5
 42
1.0
 43
10.0
 44
1.0
 45
0.0
 46
0.0
 47
0.1
 48
0.1
140
3.2
141
0.0
142
0.0
143
0.0393701
144
1.0
145
0.0
146
0.71
147
1.5
 71
     0
 72
     0
 73
     0
 74
     0
 75
     0
 76
     0
 77
     0
 78
     8
170
     0
171
     2
172
     1
173
     0
174
     0
175
     0
176
   256
177
   256
178
     2
270
     2
271
     2
272
     2
273
     2
274
     2
340
6B
275
     0
280
     0
281
     0
282
     0
283
     0
284
     0
285
     0
286
     0
287
     3
288
     0
  0
DIMSTYLE
105
62
330
A
100
AcDbSymbolTableRecord
100
AcDbDimStyleTableRecord
  2
AM_JIS$7
 70
     0
  3

  4
"
  5
OPEN30
  6

  7

 40
0.5
 41
2.5
 42
1.0
 43
10.0
 44
1.0
 45
0.0
 46
0.0
 47
0.1
 48
0.1
140
3.2
141
0.0
142
0.0
143
0.0393701
144
1.0
145
0.0
146
0.71
147
1.5
 71
     0
 72
     0
 73
     0
 74
     0
 75
     0
 76
     0
 77
     3
 78
     8
170
     0
171
     2
172
     1
173
     0
174
     0
175
     0
176
   256
177
   256
178
     2
270
     2
271
     2
272
     3
273
     2
274
     2
340
6B
275
     0
280
     0
281
     0
282
     0
283
     0
284
     0
285
     0
286
     0
287
     3
288
     0
  0
DIMSTYLE
105
63
330
A
100
AcDbSymbolTableRecord
100
AcDbDimStyleTableRecord
  2
AM_JIS$SF
 70
     0
  3

  4
"
  5
OPEN30
  6

  7

 40
0.5
 41
2.5
 42
1.0
 43
10.0
 44
1.0
 45
0.0
 46
0.0
 47
0.1
 48
0.1
140
3.2
141
0.0
142
0.0
143
0.0393701
144
1.0
145
0.0
146
0.71
147
1.5
 71
     0
 72
     0
 73
     0
 74
     0
 75
     1
 76
     1
 77
     3
 78
     8
170
     0
171
     2
172
     1
173
     0
174
     0
175
     0
176
   256
177
   256
178
     2
270
     2
271
     2
272
     2
273
     2
274
     2
340
6B
275
     0
280
     0
281
     0
282
     0
283
     0
284
     0
285
     0
286
     0
287
     3
288
     0
  0
DIMSTYLE
105
68
330
A
100
AcDbSymbolTableRecord
100
AcDbDimStyleTableRecord
  2
AM_JIS$SH
 70
     0
  3

  4
"
  5

  6
GENAXEH
  7
OPEN30
 40
0.5
 41
2.5
 42
1.0
 43
10.0
 44
1.0
 45
0.0
 46
0.0
 47
0.1
 48
0.1
140
3.2
141
0.0
142
0.0
143
0.0393701
144
2.0
145
0.0
146
0.71
147
1.5
 71
     0
 72
     0
 73
     0
 74
     0
 75
     1
 76
     1
 77
     3
 78
     8
170
     0
171
     2
172
     1
173
     1
174
     0
175
     0
176
   256
177
   256
178
     2
270
     2
271
     2
272
     2
273
     2
274
     2
340
6B
275
     0
280
     0
281
     0
282
     0
283
     0
284
     0
285
     0
286
     0
287
     3
288
     0
  0
DIMSTYLE
105
B34
102
{ACAD_REACTORS
330
3207
102
}
330
A
100
AcDbSymbolTableRecord
100
AcDbDimStyleTableRecord
  2
AM_JIS$2
 70
     0
  3

  4
"
  5
OPEN30
  6

  7

 40
0.5
 41
2.5
 42
1.0
 43
12.0
 44
1.0
 45
0.0
 46
0.0
 47
0.1
 48
0.1
140
3.2
141
0.0
142
0.0
143
0.0393701
144
1.0
145
0.0
146
0.71
147
1.5
 71
     0
 72
     0
 73
     0
 74
     0
 75
     0
 76
     0
 77
     3
 78
     8
170
     0
171
     2
172
     1
173
     0
174
     0
175
     0
176
   256
177
   256
178
     2
270
     2
271
     3
272
     3
273
     2
274
     2
340
6B
275
     0
280
     0
281
     0
282
     0
283
     0
284
     0
285
     0
286
     0
287
     3
288
     0
  0
ENDTAB
  0
TABLE
  2
BLOCK_RECORD
  5
1
330
0
100
AcDbSymbolTable
 70
    12
  0
BLOCK_RECORD
  5
1F
102
{ACAD_XDICTIONARY
360
74
102
}
330
1
100
AcDbSymbolTableRecord
100
AcDbBlockTableRecord
  2
*MODEL_SPACE
  0
BLOCK_RECORD
  5
101
102
{ACAD_XDICTIONARY
360
35FB
102
}
330
1
100
AcDbSymbolTableRecord
100
AcDbBlockTableRecord
  2
*PAPER_SPACE
  0
BLOCK_RECORD
  5
59
330
1
100
AcDbSymbolTableRecord
100
AcDbBlockTableRecord
  2
_OPEN30
  0
BLOCK_RECORD
  5
64
330
1
100
AcDbSymbolTableRecord
100
AcDbBlockTableRecord
  2
GENAXEH
  0
BLOCK_RECORD
  5
194D
330
1
100
AcDbSymbolTableRecord
100
AcDbBlockTableRecord
  2
*D5
  0
BLOCK_RECORD
  5
195C
330
1
100
AcDbSymbolTableRecord
100
AcDbBlockTableRecord
  2
*D6
  0
BLOCK_RECORD
  5
1EF9
330
1
100
AcDbSymbolTableRecord
100
AcDbBlockTableRecord
  2
*D7
  0
BLOCK_RECORD
  5
21E1
330
1
100
AcDbSymbolTableRecord
100
AcDbBlockTableRecord
  2
*D8
  0
BLOCK_RECORD
  5
30BA
330
1
100
AcDbSymbolTableRecord
100
AcDbBlockTableRecord
  2
*D9
  0
BLOCK_RECORD
  5
30CB
330
1
100
AcDbSymbolTableRecord
100
AcDbBlockTableRecord
  2
*D10
  0
BLOCK_RECORD
  5
3208
330
1
100
AcDbSymbolTableRecord
100
AcDbBlockTableRecord
  2
*D11
  0
ENDTAB
  0
ENDSEC
  0
SECTION
  2
BLOCKS
  0
BLOCK
  5
20
330
1F
100
AcDbEntity
  8
0
100
AcDbBlockBegin
  2
*MODEL_SPACE
 70
     0
 10
0.0
 20
0.0
 30
0.0
  3
*MODEL_SPACE
  1

  0
ENDBLK
  5
21
330
1F
100
AcDbEntity
  8
0
100
AcDbBlockEnd
  0
BLOCK
  5
103
330
101
100
AcDbEntity
 67
     1
  8
0
100
AcDbBlockBegin
  2
*PAPER_SPACE
 70
     0
 10
0.0
 20
0.0
 30
0.0
  3
*PAPER_SPACE
  1

  0
ENDBLK
  5
104
330
101
100
AcDbEntity
 67
     1
  8
0
100
AcDbBlockEnd
  0
BLOCK
  5
5D
330
59
100
AcDbEntity
  8
0
100
AcDbBlockBegin
  2
_OPEN30
 70
     0
 10
0.0
 20
0.0
 30
0.0
  3
_OPEN30
  1

  0
LINE
  5
5A
330
59
100
AcDbEntity
  8
0
 62
     0
100
AcDbLine
 10
-1.0
 20
0.26794919
 30
0.0
 11
0.0
 21
0.0
 31
0.0
  0
LINE
  5
5B
330
59
100
AcDbEntity
  8
0
 62
     0
100
AcDbLine
 10
0.0
 20
0.0
 30
0.0
 11
-1.0
 21
-0.26794919
 31
0.0
  0
LINE
  5
5C
330
59
100
AcDbEntity
  8
0
 62
     0
100
AcDbLine
 10
0.0
 20
0.0
 30
0.0
 11
-1.0
 21
0.0
 31
0.0
  0
ENDBLK
  5
5E
330
59
100
AcDbEntity
  8
0
100
AcDbBlockEnd
  0
BLOCK
  5
66
330
64
100
AcDbEntity
  8
0
100
AcDbBlockBegin
  2
GENAXEH
 70
     0
 10
0.0
 20
0.0
 30
0.0
  3
GENAXEH
  1

  0
LINE
  5
65
330
64
100
AcDbEntity
  8
0
100
AcDbLine
 10
-1.0
 20
0.0
 30
0.0
 11
1.0
 21
0.0
 31
0.0
  0
ENDBLK
  5
67
330
64
100
AcDbEntity
  8
0
100
AcDbBlockEnd
  0
BLOCK
  5
1959
330
194D
100
AcDbEntity
  8
0
100
AcDbBlockBegin
  2
*D5
 70
     1
 10
0.0
 20
0.0
 30
0.0
  3
*D5
  1

  0
LINE
  5
3560
330
194D
100
AcDbEntity
  8
AM_5
100
AcDbLine
 10
-3.494372784899178
 20
-4.009464986678221
 30
0.0
 11
7.505625454238948
 21
-4.009464986678224
 31
0.0
  0
LINE
  5
3561
330
194D
100
AcDbEntity
  8
AM_5
100
AcDbLine
 10
-3.494372784899178
 20
3.990535013309554
 30
0.0
 11
7.505625454238949
 21
3.990535013309551
 31
0.0
  0
LINE
  5
3562
330
194D
100
AcDbEntity
  8
AM_5
100
AcDbLine
 10
7.005625454238947
 20
-2.759464986678224
 30
0.0
 11
7.005625454238948
 21
2.740535013309551
 31
0.0
  0
INSERT
  5
3563
330
194D
100
AcDbEntity
  8
AM_5
100
AcDbBlockReference
  2
_OPEN30
 10
7.005625454238947
 20
-4.009464986678224
 30
0.0
 41
1.25
 42
1.25
 43
1.25
 50
270.0
  0
INSERT
  5
3564
330
194D
100
AcDbEntity
  8
AM_5
100
AcDbBlockReference
  2
_OPEN30
 10
7.005625454238948
 20
3.990535013309551
 30
0.0
 41
1.25
 42
1.25
 43
1.25
 50
90.0
  0
MTEXT
  5
3565
330
194D
100
AcDbEntity
  8
AM_5
 62
     2
100
AcDbMText
 10
5.455625454238948
 20
-0.0094649866843353
 30
0.0
 40
1.6
 41
0.0
 71
     5
 72
     1
  1
%%c8
  7
ASAMI
 11
0.0000000000000001
 21
1.0
 31
0.0
1001
ACAD
1000
MTEXTBEGIN
1070
    73
1070
     1
1070
    44
1040
1.0
1070
    74
1070
     0
1000
MTEXTEND
  0
POINT
  5
3566
330
194D
100
AcDbEntity
  8
DEFPOINTS
 62
     0
100
AcDbPoint
 10
-3.994372784899178
 20
-4.009464986678221
 30
0.0
  0
POINT
  5
3567
330
194D
100
AcDbEntity
  8
DEFPOINTS
 62
     0
100
AcDbPoint
 10
-3.994372784899178
 20
3.990535013309554
 30
0.0
  0
POINT
  5
3568
330
194D
100
AcDbEntity
  8
DEFPOINTS
 62
     0
100
AcDbPoint
 10
7.005625454238948
 20
3.990535013309551
 30
0.0
  0
ENDBLK
  5
195A
330
194D
100
AcDbEntity
  8
0
100
AcDbBlockEnd
  0
BLOCK
  5
1968
330
195C
100
AcDbEntity
  8
0
100
AcDbBlockBegin
  2
*D6
 70
     1
 10
0.0
 20
0.0
 30
0.0
  3
*D6
  1

  0
LINE
  5
357B
330
195C
100
AcDbEntity
  8
AM_5
100
AcDbLine
 10
-13.99397761360043
 20
-4.518964986662447
 30
0.0
 11
-13.99397761360043
 21
-13.12500000000036
 31
0.0
  0
LINE
  5
357C
330
195C
100
AcDbEntity
  8
AM_5
100
AcDbLine
 10
0.0056254542389497
 20
-0.5227182225974488
 30
0.0
 11
0.005625454238949
 21
-13.12500000000036
 31
0.0
  0
LINE
  5
357D
330
195C
100
AcDbEntity
  8
AM_5
100
AcDbLine
 10
-12.74397761360043
 20
-12.62500000000036
 30
0.0
 11
-1.24437454576105
 21
-12.62500000000036
 31
0.0
  0
INSERT
  5
357E
330
195C
100
AcDbEntity
  8
AM_5
100
AcDbBlockReference
  2
_OPEN30
 10
-13.99397761360043
 20
-12.62500000000036
 30
0.0
 41
1.25
 42
1.25
 43
1.25
 50
180.0
  0
INSERT
  5
357F
330
195C
100
AcDbEntity
  8
AM_5
100
AcDbBlockReference
  2
_OPEN30
 10
0.005625454238949
 20
-12.62500000000036
 30
0.0
 41
1.25
 42
1.25
 43
1.25
  0
MTEXT
  5
3580
330
195C
100
AcDbEntity
  8
AM_5
 62
     2
100
AcDbMText
 10
-6.994176079680745
 20
-11.07500000000036
 30
0.0
 40
1.6
 41
0.0
 71
     5
 72
     1
  1
14
  7
ASAMI
1001
ACAD
1000
MTEXTBEGIN
1070
    73
1070
     1
1070
    44
1040
1.0
1070
    74
1070
     0
1000
MTEXTEND
  0
POINT
  5
3581
330
195C
100
AcDbEntity
  8
DEFPOINTS
 62
     0
100
AcDbPoint
 10
-13.99397761360043
 20
-4.018964986662447
 30
0.0
  0
POINT
  5
3582
330
195C
100
AcDbEntity
  8
DEFPOINTS
 62
     0
100
AcDbPoint
 10
0.0056254542389498
 20
-0.0227182225974487
 30
0.0
  0
POINT
  5
3583
330
195C
100
AcDbEntity
  8
DEFPOINTS
 62
     0
100
AcDbPoint
 10
0.005625454238949
 20
-12.62500000000036
 30
0.0
  0
ENDBLK
  5
1969
330
195C
100
AcDbEntity
  8
0
100
AcDbBlockEnd
  0
BLOCK
  5
1F00
330
1EF9
100
AcDbEntity
  8
0
100
AcDbBlockBegin
  2
*D7
 70
     1
 10
0.0
 20
0.0
 30
0.0
  3
*D7
  1

  0
LINE
  5
359F
330
1EF9
100
AcDbEntity
  8
AM_5
100
AcDbLine
 10
-0.1960156306232523
 20
-3.643186686354029
 30
0.0
 11
7.142931992686234
 21
-10.64568069860173
 31
0.0
  0
INSERT
  5
35A0
330
1EF9
100
AcDbEntity
  8
AM_5
100
AcDbBlockReference
  2
_OPEN30
 10
-1.100386381643744
 20
-2.780276757857067
 30
0.0
 41
1.25
 42
1.25
 43
1.25
 50
136.3439260103033
  0
MTEXT
  5
35A1
330
1EF9
100
AcDbEntity
  8
AM_5
 62
     2
100
AcDbMText
 10
5.878802460912441
 20
-7.297131532834643
 30
0.0
 40
1.6
 41
0.0
 71
     5
 72
     1
  1
R4.0
  7
ASAMI
 11
0.7234966008163923
 21
-0.6903279427975706
 31
0.0
1001
ACAD
1000
MTEXTBEGIN
1070
    73
1070
     1
1070
    44
1040
1.0
1070
    74
1070
     0
1000
MTEXTEND
  0
POINT
  5
35A2
330
1EF9
100
AcDbEntity
  8
DEFPOINTS
 62
     0
100
AcDbPoint
 10
-1.100386381643744
 20
-2.780276757857067
 30
0.0
  0
POINT
  5
35A3
330
1EF9
100
AcDbEntity
  8
DEFPOINTS
 62
     0
100
AcDbPoint
 10
-3.994372784899186
 20
-0.0189649866764457
 30
0.0
  0
ENDBLK
  5
1F01
330
1EF9
100
AcDbEntity
  8
0
100
AcDbBlockEnd
  0
BLOCK
  5
21EB
330
21E1
100
AcDbEntity
  8
0
100
AcDbBlockBegin
  2
*D8
 70
     1
 10
0.0
 20
0.0
 30
0.0
  3
*D8
  1

  0
LINE
  5
3572
330
21E1
100
AcDbEntity
  8
AM_5
100
AcDbLine
 10
-54.49998007070282
 20
-5.411433754042786
 30
0.0
 11
-54.49998007070282
 21
-19.12500000000033
 31
0.0
  0
LINE
  5
3573
330
21E1
100
AcDbEntity
  8
AM_5
100
AcDbLine
 10
0.0004689345905169
 20
-0.5000000000000036
 30
0.0
 11
0.0004689345905158
 21
-19.12500000000033
 31
0.0
  0
LINE
  5
3574
330
21E1
100
AcDbEntity
  8
AM_5
100
AcDbLine
 10
-53.24998007070282
 20
-18.62500000000033
 30
0.0
 11
-1.249531065409484
 21
-18.62500000000033
 31
0.0
  0
INSERT
  5
3575
330
21E1
100
AcDbEntity
  8
AM_5
100
AcDbBlockReference
  2
_OPEN30
 10
-54.49998007070282
 20
-18.62500000000033
 30
0.0
 41
1.25
 42
1.25
 43
1.25
 50
180.0
  0
INSERT
  5
3576
330
21E1
100
AcDbEntity
  8
AM_5
100
AcDbBlockReference
  2
_OPEN30
 10
0.0004689345905158
 20
-18.62500000000033
 30
0.0
 41
1.25
 42
1.25
 43
1.25
  0
MTEXT
  5
3577
330
21E1
100
AcDbEntity
  8
AM_5
 62
     2
100
AcDbMText
 10
-27.24975556805615
 20
-17.07500000000033
 30
0.0
 40
1.6
 41
0.0
 71
     5
 72
     1
  1
54.5
  7
ASAMI
1001
ACAD
1000
MTEXTBEGIN
1070
    73
1070
     1
1070
    44
1040
1.0
1070
    74
1070
     0
1000
MTEXTEND
  0
POINT
  5
3578
330
21E1
100
AcDbEntity
  8
DEFPOINTS
 62
     0
100
AcDbPoint
 10
-54.49998007070282
 20
-4.911433754042786
 30
0.0
  0
POINT
  5
3579
330
21E1
100
AcDbEntity
  8
DEFPOINTS
 62
     0
100
AcDbPoint
 10
0.0004689345905169
 20
-0.0000000000000036
 30
0.0
  0
POINT
  5
357A
330
21E1
100
AcDbEntity
  8
DEFPOINTS
 62
     0
100
AcDbPoint
 10
0.0004689345905158
 20
-18.62500000000033
 30
0.0
  0
ENDBLK
  5
21EC
330
21E1
100
AcDbEntity
  8
0
100
AcDbBlockEnd
  0
BLOCK
  5
30C4
330
30BA
100
AcDbEntity
  8
0
100
AcDbBlockBegin
  2
*D9
 70
     1
 10
0.0
 20
0.0
 30
0.0
  3
*D9
  1

  0
LINE
  5
35A4
330
30BA
100
AcDbEntity
  8
AM_5
100
AcDbLine
 10
-120.0
 20
-4.250000000000006
 30
0.0
 11
-120.0
 21
-25.12499999999996
 31
0.0
  0
LINE
  5
35A5
330
30BA
100
AcDbEntity
  8
AM_5
100
AcDbLine
 10
-0.0000000000000569
 20
-0.4999999999999996
 30
0.0
 11
-0.0000000000000584
 21
-25.12499999999996
 31
0.0
  0
LINE
  5
35A6
330
30BA
100
AcDbEntity
  8
AM_5
100
AcDbLine
 10
-118.75
 20
-24.62499999999996
 30
0.0
 11
-1.250000000000058
 21
-24.62499999999996
 31
0.0
  0
INSERT
  5
35A7
330
30BA
100
AcDbEntity
  8
AM_5
100
AcDbBlockReference
  2
_OPEN30
 10
-120.0
 20
-24.62499999999996
 30
0.0
 41
1.25
 42
1.25
 43
1.25
 50
180.0
  0
INSERT
  5
35A8
330
30BA
100
AcDbEntity
  8
AM_5
100
AcDbBlockReference
  2
_OPEN30
 10
-0.0000000000000584
 20
-24.62499999999996
 30
0.0
 41
1.25
 42
1.25
 43
1.25
  0
MTEXT
  5
35A9
330
30BA
100
AcDbEntity
  8
AM_5
 62
     2
100
AcDbMText
 10
-60.00000000000007
 20
-23.07499999999996
 30
0.0
 40
1.6
 41
0.0
 71
     5
 72
     1
  1
120
  7
ASAMI
1001
ACAD
1000
MTEXTBEGIN
1070
    73
1070
     1
1070
    44
1040
1.0
1070
    74
1070
     0
1000
MTEXTEND
  0
POINT
  5
35AA
330
30BA
100
AcDbEntity
  8
DEFPOINTS
 62
     0
100
AcDbPoint
 10
-120.0
 20
-3.750000000000006
 30
0.0
  0
POINT
  5
35AB
330
30BA
100
AcDbEntity
  8
DEFPOINTS
 62
     0
100
AcDbPoint
 10
-0.0000000000000568
 20
0.0000000000000004
 30
0.0
  0
POINT
  5
35AC
330
30BA
100
AcDbEntity
  8
DEFPOINTS
 62
     0
100
AcDbPoint
 10
-0.0000000000000584
 20
-24.62499999999996
 30
0.0
  0
ENDBLK
  5
30C5
330
30BA
100
AcDbEntity
  8
0
100
AcDbBlockEnd
  0
BLOCK
  5
30D5
330
30CB
100
AcDbEntity
  8
0
100
AcDbBlockBegin
  2
*D10
 70
     1
 10
0.0
 20
0.0
 30
0.0
  3
*D10
  1

  0
LINE
  5
30E9
330
30CB
100
AcDbEntity
  8
AM_5
100
AcDbLine
 10
-120.0
 20
-5.000000000000006
 30
0.0
 11
-127.5
 21
-5.000000000000003
 31
0.0
  0
LINE
  5
30EA
330
30CB
100
AcDbEntity
  8
AM_5
100
AcDbLine
 10
-120.0
 20
5.0
 30
0.0
 11
-127.5
 21
5.000000000000003
 31
0.0
  0
LINE
  5
30EB
330
30CB
100
AcDbEntity
  8
AM_5
100
AcDbLine
 10
-127.0
 20
-3.750000000000003
 30
0.0
 11
-127.0
 21
3.750000000000003
 31
0.0
  0
INSERT
  5
30EC
330
30CB
100
AcDbEntity
  8
AM_5
100
AcDbBlockReference
  2
_OPEN30
 10
-127.0
 20
-5.000000000000003
 30
0.0
 41
1.25
 42
1.25
 43
1.25
 50
270.0
  0
INSERT
  5
30ED
330
30CB
100
AcDbEntity
  8
AM_5
100
AcDbBlockReference
  2
_OPEN30
 10
-127.0
 20
5.000000000000003
 30
0.0
 41
1.25
 42
1.25
 43
1.25
 50
90.0
  0
MTEXT
  5
30EE
330
30CB
100
AcDbEntity
  8
AM_5
 62
     2
100
AcDbMText
 10
-128.55
 20
-0.0000000000000275
 30
0.0
 40
1.6
 41
0.0
 71
     5
 72
     1
  1
%%c10
  7
ASAMI
 11
0.0000000000000001
 21
1.0
 31
0.0
1001
ACAD
1000
MTEXTBEGIN
1070
    73
1070
     1
1070
    44
1040
1.0
1070
    74
1070
     0
1000
MTEXTEND
  0
POINT
  5
30EF
330
30CB
100
AcDbEntity
  8
DEFPOINTS
 62
     0
100
AcDbPoint
 10
-119.5
 20
-5.000000000000006
 30
0.0
  0
POINT
  5
30F0
330
30CB
100
AcDbEntity
  8
DEFPOINTS
 62
     0
100
AcDbPoint
 10
-119.5
 20
5.0
 30
0.0
  0
POINT
  5
30F1
330
30CB
100
AcDbEntity
  8
DEFPOINTS
 62
     0
100
AcDbPoint
 10
-127.0
 20
5.000000000000003
 30
0.0
  0
ENDBLK
  5
30D6
330
30CB
100
AcDbEntity
  8
0
100
AcDbBlockEnd
  0
BLOCK
  5
3218
330
3208
100
AcDbEntity
  8
0
100
AcDbBlockBegin
  2
*D11
 70
     1
 10
0.0
 20
0.0
 30
0.0
  3
*D11
  1

  0
ARC
  5
35FD
330
3208
100
AcDbEntity
  8
AM_5
100
AcDbCircle
 10
133.0601079355974
 20
-0.0000000000000031
 30
0.0
 40
175.9391640069638
100
AcDbArc
 50
179.1858563677036
 51
179.5929281838517
  0
ARC
  5
35FE
330
3208
100
AcDbEntity
  8
AM_5
100
AcDbCircle
 10
133.0601079355974
 20
-0.0000000000000031
 30
0.0
 40
175.9391640069638
100
AcDbArc
 50
181.9070718161482
 51
182.3141436322963
  0
ARC
  5
35FF
330
3208
100
AcDbEntity
  8
AM_5
100
AcDbCircle
 10
133.0601079355974
 20
-0.0000000000000031
 30
0.0
 40
175.9391640069638
100
AcDbArc
 50
180.0
 51
181.4999999999999
  0
INSERT
  5
3600
330
3208
100
AcDbEntity
  8
AM_5
100
AcDbBlockReference
  2
_OPEN30
 10
-42.87905607136637
 20
-0.000000000000006
 30
0.0
 41
1.25
 42
1.25
 43
1.25
 50
269.7964640919258
  0
INSERT
  5
3601
330
3208
100
AcDbEntity
  8
AM_5
100
AcDbBlockReference
  2
_OPEN30
 10
-42.81876611403985
 20
-4.60555040154074
 30
0.0
 41
1.25
 42
1.25
 43
1.25
 50
91.7035359080741
  0
MTEXT
  5
3602
330
3208
100
AcDbEntity
  8
AM_5
 62
     2
100
AcDbMText
 10
-37.79752203072767
 20
-2.291893157020031
 30
0.0
 40
1.6
 41
0.0
 71
     5
 72
     1
  1
1°30'
  7
ASAMI
  0
POINT
  5
3603
330
3208
100
AcDbEntity
  8
DEFPOINTS
 62
     0
100
AcDbPoint
 10
-42.87235684710871
 20
-1.53533936026107
 30
0.0
  0
POINT
  5
3604
330
3208
100
AcDbEntity
  8
DEFPOINTS
 62
     0
100
AcDbPoint
 10
-54.4999800707028
 20
-4.911433754042784
 30
0.0
  0
POINT
  5
3605
330
3208
100
AcDbEntity
  8
DEFPOINTS
 62
     0
100
AcDbPoint
 10
-122.3848732152464
 20
-0.0000000000000038
 30
0.0
  0
POINT
  5
3606
330
3208
100
AcDbEntity
  8
DEFPOINTS
 62
     0
100
AcDbPoint
 10
1.329529889074521
 20
-0.0000000000000036
 30
0.0
  0
POINT
  5
3607
330
3208
100
AcDbEntity
  8
DEFPOINTS
 62
     0
100
AcDbPoint
 10
-20.79505759497104
 20
-4.028839297597746
 30
0.0
  0
ENDBLK
  5
3219
330
3208
100
AcDbEntity
  8
0
100
AcDbBlockEnd
  0
ENDSEC
  0
SECTION
  2
ENTITIES
  0
LINE
  5
C50
330
1F
100
AcDbEntity
  8
AM_7
100
AcDbLine
 10
-122.3848732152464
 20
-0.0000000000000036
 30
0.0
 11
1.32952988907452
 21
-0.0000000000000036
 31
0.0
1001
GENIUS_GENODEF_13
1002
{
1000
HIER
1070
     0
1002
}
1002
{
1000
MANEDIT
1070
     0
1002
}
1002
{
1000
NOSEL
1070
     0
1002
}
1002
{
1000
BEHIND
1070
     0
1002
}
1002
{
1000
REACTOR
1002
}
1001
GENIUS_GENOBJ-N-CEN_13
1002
{
1000
OWNER
1000
GEN
1002
}
  0
TEXT
  5
C58
330
1F
100
AcDbEntity
  8
AM_6
100
AcDbText
 10
-75.47619047619054
 20
-35.87500000000001
 30
0.0
 40
2.5
  1
PSNB2080ZX-15
 50
0.0000000000002036
 72
     4
 11
-60.00000000000007
 21
-34.62499999999995
 31
0.0
100
AcDbText
  0
DIMENSION
  5
194C
330
1F
100
AcDbEntity
  8
AM_5
100
AcDbDimension
  2
*D5
 10
7.005625454238948
 20
3.990535013309551
 30
0.0
 11
5.455625454238948
 21
-0.0094649866843353
 31
0.0
 70
    32
  1
%%c<>
  3
AM_JIS
100
AcDbAlignedDimension
 13
-3.994372784899178
 23
-4.009464986678221
 33
0.0
 14
-3.994372784899178
 24
3.990535013309554
 34
0.0
 50
90.00000000000003
100
AcDbRotatedDimension
1001
ACAD
1000
DSTYLE
1002
{
1070
    48
1040
0.05
1070
    47
1040
0.0
1070
   274
1070
     1
1070
   272
1070
     2
1002
}
1001
GENIUS_GENDTOL_13
1000

1000
H7
1000

1040
0.0
  0
DIMENSION
  5
195B
330
1F
100
AcDbEntity
  8
AM_5
100
AcDbDimension
  2
*D6
 10
0.005625454238949
 20
-12.62500000000036
 30
0.0
 11
-6.994176079680745
 21
-11.07500000000036
 31
0.0
 70
    32
  1
<>
  3
AM_JIS
100
AcDbAlignedDimension
 13
-13.99397761360043
 23
-4.018964986662447
 33
0.0
 14
0.0056254542389498
 24
-0.0227182225974487
 34
0.0
 50
359.9999999999988
100
AcDbRotatedDimension
1001
GENIUS_GENDTOL_13
1000

1000
H7
1000

1040
0.0
  0
ARC
  5
1C9A
330
1F
100
AcDbEntity
  8
AM_11
100
AcDbCircle
 10
-3.994372784899177
 20
-0.0094649866764449
 30
0.0
 40
3.999999999986
100
AcDbArc
 50
270.0
 51
90.0
  0
LINE
  5
1CA1
330
1F
100
AcDbEntity
  8
AM_11
100
AcDbLine
 10
-13.99397761360043
 20
-4.009464986662448
 30
0.0
 11
-3.994372784899177
 21
-4.009464986662448
 31
0.0
1001
GENIUS_GENODEF_13
1002
{
1000
HIER
1070
     0
1002
}
1002
{
1000
MANEDIT
1070
     0
1002
}
1002
{
1000
NOSEL
1070
     0
1002
}
1002
{
1000
BEHIND
1070
     0
1002
}
1002
{
1000
REACTOR
1002
}
1001
GENIUS_GENOBJ-N-CEN_13
1002
{
1000
OWNER
1000
GEN
1002
}
  0
LINE
  5
1CB1
330
1F
100
AcDbEntity
  8
AM_11
100
AcDbLine
 10
-13.99397761360043
 20
3.990535013337551
 30
0.0
 11
-3.994372784899177
 21
3.990535013337551
 31
0.0
1001
GENIUS_GENODEF_13
1002
{
1000
HIER
1070
     0
1002
}
1002
{
1000
MANEDIT
1070
     0
1002
}
1002
{
1000
NOSEL
1070
     0
1002
}
1002
{
1000
BEHIND
1070
     0
1002
}
1002
{
1000
REACTOR
1002
}
1001
GENIUS_GENOBJ-N-CEN_13
1002
{
1000
OWNER
1000
GEN
1002
}
  0
DIMENSION
  5
1EF8
330
1F
100
AcDbEntity
  8
AM_5
100
AcDbDimension
  2
*D7
 10
-3.994372784899186
 20
-0.0189649866764457
 30
0.0
 11
4.808794149576207
 21
-8.418551264100051
 31
0.0
 70
   164
  1
<>
  3
AM_JIS$4
100
AcDbRadialDimension
 15
-1.100386381643744
 25
-2.780276757857067
 35
0.0
 40
0.0
1001
GENIUS_GENDTOL_13
1000

1000
h7
1000

1040
0.0
1001
ACAD
1000
DSTYLE
1002
{
1070
    78
1070
     0
1070
   271
1070
     1
1070
   288
1070
     1
1070
   289
1070
     0
1070
    74
1070
     0
1002
}
  0
LINE
  5
2165
330
1F
100
AcDbEntity
  8
AM_0
100
AcDbLine
 10
-54.50000000000007
 20
-5.000000000000005
 30
0.0
 11
-54.50000000000007
 21
4.999999999999994
 31
0.0
  0
DIMENSION
  5
21E0
330
1F
100
AcDbEntity
  8
AM_5
100
AcDbDimension
  2
*D8
 10
0.0004689345905158
 20
-18.62500000000033
 30
0.0
 11
-27.24975556805615
 21
-17.07500000000033
 31
0.0
 70
    32
  1
<>
  3
AM_JIS
100
AcDbAlignedDimension
 13
-54.49998007070282
 23
-4.911433754042786
 33
0.0
 14
0.0004689345905169
 24
-0.0000000000000036
 34
0.0
 50
0.0000000000001132
100
AcDbRotatedDimension
1001
GENIUS_GENDTOL_13
1000

1000
h7
1000

1040
0.0
1001
ACAD
1000
DSTYLE
1002
{
1070
   271
1070
     1
1002
}
  0
ARC
  5
25B1
330
1F
100
AcDbEntity
  8
AM_0
100
AcDbCircle
 10
-8.363115617612747
 20
-8.151009227185831
 30
0.0
 40
11.69011595210118
100
AcDbArc
 50
44.33711907809943
 51
76.82999214053896
  0
LINE
  5
25B2
330
1F
100
AcDbEntity
  8
AM_0
100
AcDbLine
 10
-3.362049318993993
 20
0.9642650772223566
 30
0.0
 11
-0.6437242616356094
 21
-0.3033107143784059
 31
0.0
  0
ARC
  5
25B3
330
1F
100
AcDbEntity
  8
AM_0
100
AcDbCircle
 10
-3.980532669794283
 20
-0.3936959175235666
 30
0.0
 40
3.999999999986004
100
AcDbArc
 50
5.375507822153728
 51
90.25198180382437
  0
SPLINE
  5
25B4
330
1F
100
AcDbEntity
  8
AM_0
100
AcDbSpline
210
0.0
220
0.0
230
1.0
 70
     8
 71
     3
 72
     8
 73
     4
 74
     0
 42
0.0000000001
 43
0.0000000001
 40
3.790408995970492
 40
3.790408995970492
 40
3.790408995970492
 40
3.790408995970492
 40
5.485524909568358
 40
5.485524909568358
 40
5.485524909568358
 40
5.485524909568358
 10
-3.998124261613211
 20
3.606265399262631
 30
0.0
 10
-4.431216481691333
 20
3.499867850717512
 30
0.0
 10
-4.860711131323368
 20
3.37325915388748
 30
0.0
 10
-5.287178166956691
 20
3.229641323702273
 30
0.0
  0
SPLINE
  5
25B5
330
1F
100
AcDbEntity
  8
AM_0
100
AcDbSpline
210
0.0
220
0.0
230
1.0
 70
     8
 71
     3
 72
     8
 73
     4
 74
     2
 42
0.0000000001
 43
0.0000000001
 44
0.0000000001
 12
0.6039933128154179
 22
-0.7969893839156561
 32
0.0
 40
0.0
 40
0.0
 40
0.0
 40
0.0
 40
1.600285237431974
 40
1.600285237431974
 40
1.600285237431974
 40
1.600285237431974
 10
-3.99812426161287
 20
3.606265399262631
 30
0.0
 10
-3.675937067610821
 20
3.181128617439221
 30
0.0
 10
-4.615065945390584
 20
3.206910198995373
 30
0.0
 10
-5.554194823170346
 20
3.232691780551525
 30
0.0
 11
-3.99812426161287
 21
3.606265399262631
 31
0.0
 11
-5.554194823170346
 21
3.232691780551525
 31
0.0
  0
SPLINE
  5
25B6
330
1F
100
AcDbEntity
  8
AM_0
100
AcDbSpline
210
0.0
220
0.0
230
1.0
 70
     8
 71
     3
 72
     8
 73
     4
 74
     2
 42
0.0000000001
 43
0.0000000001
 44
0.0000000001
 12
-0.9063077870366493
 22
0.4226182617407013
 32
0.0
 13
0.9900295272873
 23
-0.140859984024155
 33
0.0
 40
0.0
 40
0.0
 40
0.0
 40
0.0
 40
3.109376839683401
 40
3.109376839683401
 40
3.109376839683401
 40
3.109376839683401
 10
-3.405955525966303
 20
0.9847388777739272
 30
0.0
 10
-4.345306340178461
 20
1.422765356135192
 30
0.0
 10
-6.580319784087328
 20
3.378687371205819
 30
0.0
 10
-5.554194823170716
 20
3.232691780551525
 30
0.0
 11
-3.405955525966303
 21
0.9847388777739272
 31
0.0
 11
-5.554194823170716
 21
3.232691780551525
 31
0.0
  0
LINE
  5
25B7
330
1F
100
AcDbEntity
  8
AM_0
100
AcDbLine
 10
0.0018757383620334
 20
-0.0189649866763739
 30
0.0
 11
-0.1821242616372536
 21
-0.2328259953607779
 31
0.0
  0
LINE
  5
25B8
330
1F
100
AcDbEntity
  8
AM_0
100
AcDbLine
 10
-0.1821242616372536
 20
-0.2328259953607779
 30
0.0
 11
-0.6437242616356094
 21
-0.3033107143784059
 31
0.0
  0
SPLINE
  5
25B9
330
1F
100
AcDbEntity
  8
AM_0
100
AcDbSpline
210
0.0
220
0.0
230
1.0
 70
     8
 71
     3
 72
     8
 73
     4
 74
     2
 42
0.0000000001
 43
0.0000000001
 44
0.0000000001
 12
-0.0000000000000001
 22
-1.0
 32
0.0
 13
-1.0
 23
0.0000000000000001
 33
0.0
 40
0.0
 40
0.0
 40
0.0
 40
0.0
 40
0.700381316455561
 40
0.700381316455561
 40
0.700381316455561
 40
0.700381316455561
 10
-2.952790097084912
 20
-1.968127298555466
 30
0.0
 10
-2.952790097084912
 20
-2.201587737373986
 30
0.0
 10
-3.296158654357359
 20
-2.365370671953578
 30
0.0
 10
-3.529619093175879
 20
-2.365370671953578
 30
0.0
 11
-2.952790097084912
 21
-1.968127298555466
 31
0.0
 11
-3.529619093175879
 21
-2.365370671953578
 31
0.0
  0
ARC
  5
25BA
330
1F
100
AcDbEntity
  8
AM_0
100
AcDbCircle
 10
-3.937817235818752
 20
0.6518499722539764
 30
0.0
 40
3.858481733012713
100
AcDbArc
 50
272.7326936991946
 51
346.7452639699606
  0
ARC
  5
25BB
330
1F
100
AcDbEntity
  8
AM_0
100
AcDbCircle
 10
-0.4574269868239447
 20
-0.1251067370346357
 30
0.0
 40
3.102186622729137
100
AcDbArc
 50
159.4415606715376
 51
216.4487634976257
  0
ARC
  5
25BC
330
1F
100
AcDbEntity
  8
AM_0
100
AcDbCircle
 10
-3.980532669794283
 20
0.3557659441706198
 30
0.0
 40
3.999999999986004
100
AcDbArc
 50
269.7480181961756
 51
354.6244921778462
  0
ARC
  5
25BD
330
1F
100
AcDbEntity
  8
AM_0
100
AcDbCircle
 10
-3.38967240118387
 20
-3.692007263796662
 30
0.0
 40
0.6103274886650039
100
AcDbArc
 50
126.6343629894024
 51
175.5069543864119
  0
SPLINE
  5
25BE
330
1F
100
AcDbEntity
  8
AM_0
100
AcDbSpline
210
0.0
220
0.0
230
1.0
 70
     8
 71
     3
 72
     8
 73
     4
 74
     2
 42
0.0000000001
 43
0.0000000001
 44
0.0000000001
 12
0.0000000000000001
 22
1.0
 32
0.0
 40
0.0
 40
0.0
 40
0.0
 40
0.0
 40
0.8663950452309631
 40
0.8663950452309631
 40
0.8663950452309631
 40
0.8663950452309631
 10
-3.753858631456265
 20
-3.202244021913153
 30
0.0
 10
-3.753858631456265
 20
-2.913445673502832
 30
0.0
 10
-3.641738862316072
 20
-2.639408172728205
 30
0.0
 10
-3.529619093175879
 20
-2.365370671953578
 30
0.0
 11
-3.753858631456265
 21
-3.202244021913153
 31
0.0
 11
-3.529619093175879
 21
-2.365370671953578
 31
0.0
  0
ARC
  5
25C2
330
1F
100
AcDbEntity
  8
AM_0
100
AcDbCircle
 10
-3.423409740984308
 20
1.118333658015663
 30
0.0
 40
3.122134539968339
100
AcDbArc
 50
278.6696104128123
 51
332.9129476995508
  0
LINE
  5
29F1
330
1F
100
AcDbEntity
  8
AM_0
100
AcDbLine
 10
-11.03040023193178
 20
3.326664685956163
 30
0.0
 11
-4.449996547078434
 21
3.232691780551525
 31
0.0
  0
LINE
  5
2C13
330
1F
100
AcDbEntity
  8
AM_0
100
AcDbLine
 10
-54.50115628682
 20
-4.955843187841379
 30
0.0
 11
-17.99897761360044
 21
-4.000000000000003
 31
0.0
  0
LINE
  5
30B7
330
1F
100
AcDbEntity
  8
AM_0
100
AcDbLine
 10
-119.5
 20
4.999999999999993
 30
0.0
 11
-54.50000000000007
 21
4.999999999999993
 31
0.0
1001
GENIUS_GENODEF_13
1002
{
1000
HIER
1070
     0
1002
}
1002
{
1000
MANEDIT
1070
     0
1002
}
1002
{
1000
NOSEL
1070
     0
1002
}
1002
{
1000
BEHIND
1070
     0
1002
}
1002
{
1000
REACTOR
1002
}
1001
GENIUS_GENOBJ-N-CEN_13
1002
{
1000
OWNER
1000
GEN
1002
}
  0
LINE
  5
30B8
330
1F
100
AcDbEntity
  8
AM_0
100
AcDbLine
 10
-119.5
 20
-5.000000000000006
 30
0.0
 11
-54.50000000000007
 21
-5.000000000000006
 31
0.0
1001
GENIUS_GENODEF_13
1002
{
1000
HIER
1070
     0
1002
}
1002
{
1000
MANEDIT
1070
     0
1002
}
1002
{
1000
NOSEL
1070
     0
1002
}
1002
{
1000
BEHIND
1070
     0
1002
}
1002
{
1000
REACTOR
1002
}
1001
GENIUS_GENOBJ-N-CEN_13
1002
{
1000
OWNER
1000
GEN
1002
}
  0
DIMENSION
  5
30B9
330
1F
100
AcDbEntity
  8
AM_5
100
AcDbDimension
  2
*D9
 10
-0.0000000000000584
 20
-24.62499999999996
 30
0.0
 11
-60.00000000000007
 21
-23.07499999999996
 31
0.0
 70
    32
  1
<>
  3
AM_JIS
100
AcDbAlignedDimension
 13
-120.0
 23
-3.750000000000006
 33
0.0
 14
-0.0000000000000568
 24
0.0000000000000004
 34
0.0
 50
0.0000000000005089
100
AcDbRotatedDimension
1001
GENIUS_GENDTOL_13
1000

1000
H7
1000

1040
0.0
  0
LINE
  5
30C6
330
1F
100
AcDbEntity
  8
AM_0
100
AcDbLine
 10
-120.0
 20
3.749999999999993
 30
0.0
 11
-119.5
 21
4.999999999999993
 31
0.0
1001
GENIUS_GENFIL_13
1070
     0
1040
0.5
1040
0.5
1040
0.4999999999999716
1040
45.0
1002
{
1002
}
  0
LINE
  5
30C7
330
1F
100
AcDbEntity
  8
AM_0
100
AcDbLine
 10
-120.0
 20
-3.750000000000006
 30
0.0
 11
-119.5
 21
-5.000000000000006
 31
0.0
1001
GENIUS_GENFIL_13
1070
     0
1040
0.5
1040
0.5
1040
0.4999999999999716
1040
45.00000000000036
1002
{
1002
}
  0
LINE
  5
30C8
330
1F
100
AcDbEntity
  8
AM_0
100
AcDbLine
 10
-120.0
 20
-3.750000000000006
 30
0.0
 11
-120.0
 21
3.749999999999993
 31
0.0
  0
LINE
  5
30C9
330
1F
100
AcDbEntity
  8
0
100
AcDbLine
 10
-119.5
 20
-5.000000000000006
 30
0.0
 11
-119.5
 21
4.999999999999993
 31
0.0
  0
DIMENSION
  5
30CA
330
1F
100
AcDbEntity
  8
AM_5
100
AcDbDimension
  2
*D10
 10
-127.0
 20
5.000000000000003
 30
0.0
 11
-127.0
 21
-0.0000000000000276
 31
0.0
 70
   160
  1
%%c<>
  3
AM_JIS
100
AcDbAlignedDimension
 13
-119.5
 23
-5.000000000000006
 33
0.0
 14
-119.5
 24
5.0
 34
0.0
 50
270.0
100
AcDbRotatedDimension
1001
ACAD
1000
DSTYLE
1002
{
1070
    48
1040
0.1
1070
    47
1040
0.1
1070
   274
1070
     2
1070
   272
1070
     3
1002
}
1001
GENIUS_GENDTOL_13
1000

1000
h6
1000

1040
0.0
  0
SPLINE
  5
3145
330
1F
100
AcDbEntity
  8
AM_0
100
AcDbSpline
210
0.0
220
0.0
230
1.0
 70
     8
 71
     3
 72
     8
 73
     4
 74
     0
 42
0.0000000001
 43
0.0000000001
 40
0.0
 40
0.0
 40
0.0
 40
0.0
 40
2.238610194515266
 40
2.238610194515266
 40
2.238610194515266
 40
2.238610194515266
 10
-7.085124584679594
 20
-3.148783113019712
 30
0.0
 10
-6.265789594712203
 20
-3.148783113019712
 30
0.0
 10
-5.461300689527925
 20
-2.998298327870637
 30
0.0
 10
-5.07652115662529
 20
-2.743994087741961
 30
0.0
  0
SPLINE
  5
3146
330
1F
100
AcDbEntity
  8
AM_0
100
AcDbSpline
210
0.0
220
0.0
230
1.0
 70
     8
 71
     3
 72
     8
 73
     4
 74
     0
 42
0.0000000001
 43
0.0000000001
 40
3.7904089959839
 40
3.7904089959839
 40
3.7904089959839
 40
3.7904089959839
 40
14.48999654934396
 40
14.48999654934396
 40
14.48999654934396
 40
14.48999654934396
 10
-3.998124261630838
 20
-3.644195372610955
 30
0.0
 10
-4.735384178260026
 20
-2.993720355359872
 30
0.0
 10
-6.530539674604137
 20
-1.793974977256652
 30
0.0
 10
-8.343727794997281
 20
-0.0189649866763739
 30
0.0
  0
SPLINE
  5
3147
330
1F
100
AcDbEntity
  8
AM_0
100
AcDbSpline
210
0.0
220
0.0
230
1.0
 70
     8
 71
     3
 72
     8
 73
     4
 74
     0
 42
0.0000000001
 43
0.0000000001
 40
5.336187364352841
 40
5.336187364352841
 40
5.336187364352841
 40
5.336187364352841
 40
14.43905044399483
 40
14.43905044399483
 40
14.43905044399483
 40
14.43905044399483
 10
-3.753858631456265
 20
-3.202244021794582
 30
0.0
 10
-4.503740003558505
 20
-2.465238710513297
 30
0.0
 10
-5.959558656663716
 20
-1.436284725317989
 30
0.0
 10
-7.344844155738371
 20
-0.0189649866763739
 30
0.0
  0
SPLINE
  5
3148
330
1F
100
AcDbEntity
  8
AM_0
100
AcDbSpline
210
0.0
220
0.0
230
1.0
 70
     8
 71
     3
 72
     8
 73
     4
 74
     0
 42
0.0000000001
 43
0.0000000001
 40
7.981245920543044
 40
7.981245920543044
 40
7.981245920543044
 40
7.981245920543044
 40
14.43905044399483
 40
14.43905044399483
 40
14.43905044399483
 40
14.43905044399483
 10
-3.529619093175879
 20
-2.365370671953578
 30
0.0
 10
-3.979658228435596
 20
-1.849509644905367
 30
0.0
 10
-4.846936139627035
 20
-1.14877237822742
 30
0.0
 10
-6.222201280613717
 20
-0.0189649866763739
 30
0.0
  0
LINE
  5
3149
330
1F
100
AcDbEntity
  8
AM_0
100
AcDbLine
 10
-17.99897761360044
 20
2.701910599035783
 30
0.0
 11
-17.99897761360044
 21
3.999999999999996
 31
0.0
  0
LINE
  5
314A
330
1F
100
AcDbEntity
  8
AM_0
100
AcDbLine
 10
-18.71657712260616
 20
2.251847084753999
 30
0.0
 11
-15.959489802408
 21
3.981035013309614
 31
0.0
  0
LINE
  5
314C
330
1F
100
AcDbEntity
  8
AM_0
100
AcDbLine
 10
-18.71553497738367
 20
-0.9662294947323955
 30
0.0
 11
-15.95844765718551
 21
0.7629584338232199
 31
0.0
  0
SPLINE
  5
314D
330
1F
100
AcDbEntity
  8
AM_0
100
AcDbSpline
210
0.0
220
0.0
230
1.0
 70
     8
 71
     3
 72
     8
 73
     4
 74
     0
 42
0.0000000001
 43
0.0000000001
 40
3.359485258353905
 40
3.359485258353905
 40
3.359485258353905
 40
3.359485258353905
 40
7.218994763998551
 40
7.218994763998551
 40
7.218994763998551
 40
7.218994763998551
 10
-18.71657712260616
 20
2.251847084141958
 30
0.0
 10
-17.36293767922671
 20
1.654337473071087
 30
0.0
 10
-16.03289077040688
 20
0.8176861929171616
 30
0.0
 10
-14.70284386158706
 20
-0.0189650872368441
 30
0.0
  0
LINE
  5
314E
330
1F
100
AcDbEntity
  8
AM_0
100
AcDbLine
 10
-17.99897761360044
 20
-0.5168195922986422
 30
0.0
 11
-17.99897761360044
 21
1.912966458381289
 31
0.0
  0
SPLINE
  5
314F
330
1F
100
AcDbEntity
  8
AM_0
100
AcDbSpline
210
0.0
220
0.0
230
1.0
 70
     8
 71
     3
 72
     8
 73
     4
 74
     0
 42
0.0000000001
 43
0.0000000001
 40
0.0
 40
0.0
 40
0.0
 40
0.0
 40
4.331715133183233
 40
4.331715133183233
 40
4.331715133183233
 40
4.331715133183233
 10
-13.48913484386181
 20
3.670865147891979
 30
0.0
 10
-10.79434014562625
 20
3.738064128402951
 30
0.0
 10
-8.310734969794566
 20
1.859549570863288
 30
0.0
 10
-6.222201280613717
 20
-0.0189649866763739
 30
0.0
  0
SPLINE
  5
3150
330
1F
100
AcDbEntity
  8
AM_0
100
AcDbSpline
210
0.0
220
0.0
230
1.0
 70
     8
 71
     3
 72
     8
 73
     4
 74
     0
 42
0.0000000001
 43
0.0000000001
 40
0.0
 40
0.0
 40
0.0
 40
0.0
 40
4.331715133183328
 40
4.331715133183328
 40
4.331715133183328
 40
4.331715133183328
 10
-14.96060616314909
 20
3.861338318917026
 30
0.0
 10
-12.26540097210835
 20
3.861338318917025
 30
0.0
 10
-9.805122563923365
 20
1.921186666120325
 30
0.0
 10
-7.344844155738371
 20
-0.0189649866763739
 30
0.0
  0
SPLINE
  5
3151
330
1F
100
AcDbEntity
  8
AM_0
100
AcDbSpline
210
0.0
220
0.0
230
1.0
 70
     8
 71
     3
 72
     8
 73
     4
 74
     0
 42
0.0000000001
 43
0.0000000001
 40
0.0
 40
0.0
 40
0.0
 40
0.0
 40
4.346998964788029
 40
4.346998964788029
 40
4.346998964788029
 40
4.346998964788029
 10
-15.959489802408
 20
3.981035013309613
 30
0.0
 10
-13.25477496887844
 20
3.981035013309612
 30
0.0
 10
-10.79925138193786
 20
1.981035013316619
 30
0.0
 10
-8.343727794997281
 20
-0.0189649866763739
 30
0.0
  0
LINE
  5
3152
330
1F
100
AcDbEntity
  8
AM_0
100
AcDbLine
 10
-6.404413154721469
 20
-3.114823527621674
 30
0.0
 11
-11.97816804287751
 21
-3.392889087831556
 31
0.0
  0
SPLINE
  5
3153
330
1F
100
AcDbEntity
  8
AM_0
100
AcDbSpline
210
0.0
220
0.0
230
1.0
 70
     8
 71
     3
 72
     8
 73
     4
 74
     0
 42
0.0000000001
 43
0.0000000001
 40
0.0
 40
0.0
 40
0.0
 40
0.0
 40
1.943319591907458
 40
1.943319591907458
 40
1.943319591907458
 40
1.943319591907458
 10
-13.86512689207076
 20
-3.69129889437047
 30
0.0
 10
-14.5763850388619
 20
-3.69129889437047
 30
0.0
 10
-15.27284950291223
 20
-3.562238039506517
 30
0.0
 10
-15.95844765718551
 20
-3.33837893503752
 30
0.0
  0
SPLINE
  5
3154
330
1F
100
AcDbEntity
  8
AM_0
100
AcDbSpline
210
0.0
220
0.0
230
1.0
 70
     8
 71
     3
 72
     8
 73
     4
 74
     0
 42
0.0000000001
 43
0.0000000001
 40
0.0
 40
0.0
 40
0.0
 40
0.0
 40
1.389839699216864
 40
1.389839699216864
 40
1.389839699216864
 40
1.389839699216864
 10
-14.99135329707112
 20
-3.862208291956883
 30
0.0
 10
-14.48266969560994
 20
-3.862208291956883
 30
0.0
 10
-13.98221188707043
 20
-3.793641492447827
 30
0.0
 10
-13.48842605120885
 20
-3.669459894792177
 30
0.0
  0
LINE
  5
3155
330
1F
100
AcDbEntity
  8
AM_0
100
AcDbLine
 10
-15.95844765718551
 20
-3.33837893503647
 30
0.0
 11
-15.95844765718551
 21
-4.000045721207849
 31
0.0
  0
SPLINE
  5
3156
330
1F
100
AcDbEntity
  8
AM_0
100
AcDbSpline
210
0.0
220
0.0
230
1.0
 70
     8
 71
     3
 72
     8
 73
     4
 74
     0
 42
0.0000000001
 43
0.0000000001
 40
0.0
 40
0.0
 40
0.0
 40
0.0
 40
1.293721832890842
 40
1.293721832890842
 40
1.293721832890842
 40
1.293721832890842
 10
-15.9584476571855
 20
-4.000000000000003
 30
0.0
 10
-15.4849433518943
 20
-4.018965087796723
 30
0.0
 10
-15.01907101043847
 20
-3.957696444439628
 30
0.0
 10
-14.55949483589788
 20
-3.845882801978129
 30
0.0
  0
SPLINE
  5
3158
330
1F
100
AcDbEntity
  8
AM_0
100
AcDbSpline
210
0.0
220
0.0
230
1.0
 70
     8
 71
     3
 72
     8
 73
     4
 74
     0
 42
0.0000000001
 43
0.0000000001
 40
0.0
 40
0.0
 40
0.0
 40
0.0
 40
1.748655602797241
 40
1.748655602797241
 40
1.748655602797241
 40
1.748655602797241
 10
-13.86512689207076
 20
-3.681424684569444
 30
0.0
 10
-13.22511608345209
 20
-3.681424684569444
 30
0.0
 10
-12.59708360859528
 20
-3.576925080092658
 30
0.0
 10
-11.97816804287777
 20
-3.392889087831556
 30
0.0
  0
LINE
  5
3159
330
1F
100
AcDbEntity
  8
AM_0
100
AcDbLine
 10
-17.99897761360044
 20
-4.000000000000003
 30
0.0
 11
-17.99897761360044
 21
-1.54477634817564
 31
0.0
  0
LINE
  5
315A
330
1F
100
AcDbEntity
  8
AM_11
 48
0.4
100
AcDbLine
 10
-13.99397761360043
 20
3.990535013337551
 30
0.0
 11
-13.99397761360043
 21
-3.971535013321837
 31
0.0
  0
SPLINE
  5
315B
330
1F
100
AcDbEntity
  8
AM_0
100
AcDbSpline
210
0.0
220
0.0
230
1.0
 70
     8
 71
     3
 72
     8
 73
     4
 74
     0
 42
0.0000000001
 43
0.0000000001
 40
0.0
 40
0.0
 40
0.0
 40
0.0
 40
4.246467508828962
 40
4.246467508828962
 40
4.246467508828962
 40
4.246467508828962
 10
-7.085124584679594
 20
-3.148783113019712
 30
0.0
 10
-9.727288466996295
 20
-3.148783113019711
 30
0.0
 10
-12.2150661642918
 20
-1.583874100128177
 30
0.0
 10
-14.70284386158732
 20
-0.0189650872366452
 30
0.0
  0
SPLINE
  5
315C
330
1F
100
AcDbEntity
  8
AM_0
100
AcDbSpline
210
0.0
220
0.0
230
1.0
 70
     8
 71
     3
 72
     8
 73
     4
 74
     0
 42
0.0000000001
 43
0.0000000001
 40
4.071346735624547
 40
4.071346735624547
 40
4.071346735624547
 40
4.071346735624547
 40
6.816591828337566
 40
6.816591828337566
 40
6.816591828337566
 40
6.816591828337566
 10
-15.95844765718551
 20
-3.33837893503647
 30
0.0
 10
-16.88831141726733
 20
-2.420545231347393
 30
0.0
 10
-17.80378087266126
 20
-1.703696015072545
 30
0.0
 10
-18.71657712260616
 20
-0.9653865724659123
 30
0.0
  0
DIMENSION
  5
3207
330
1F
100
AcDbEntity
  8
AM_5
100
AcDbDimension
  2
*D11
 10
-20.79505759497105
 20
-4.028839297597746
 30
0.0
 11
-41.73917241917294
 21
-2.344766660851403
 31
0.0
 70
   162
  1
<>
  3
AM_JIS$2
100
AcDb2LineAngularDimension
 13
-122.3848732152464
 23
-0.0000000000000036
 33
0.0
 14
1.329529889074521
 24
-0.0000000000000036
 34
0.0
 15
-54.49998007070282
 25
-4.911433754042786
 35
0.0
 16
-42.87235684710871
 26
-1.53533936026107
 36
0.0
1001
GENIUS_GENDTOL_13
1000

1000
h7
1000

1040
0.0
1001
ACAD
1000
DSTYLE
1002
{
1070
   287
1070
     4
1070
   271
1070
     1
1070
   275
1070
     1
1070
   179
1070
     1
1070
   279
1070
     1
1002
}
  0
LINE
  5
348C
330
1F
100
AcDbEntity
  8
AM_0
100
AcDbLine
 10
-17.99897761360044
 20
3.999999999999996
 30
0.0
 11
-15.959489802408
 21
3.999999999999995
 31
0.0
1001
GENIUS_GENODEF_13
1002
{
1000
HIER
1070
     0
1002
}
1002
{
1000
MANEDIT
1070
     0
1002
}
1002
{
1000
NOSEL
1070
     0
1002
}
1002
{
1000
BEHIND
1070
     0
1002
}
1002
{
1000
REACTOR
1002
}
1001
GENIUS_GENOBJ-N-CEN_13
1002
{
1000
OWNER
1000
GEN
1002
}
  0
LINE
  5
3490
330
1F
100
AcDbEntity
  8
AM_0
100
AcDbLine
 10
-17.99897761360044
 20
-4.000000000000003
 30
0.0
 11
-15.95844765718551
 21
-4.000000000000003
 31
0.0
1001
GENIUS_GENODEF_13
1002
{
1000
HIER
1070
     0
1002
}
1002
{
1000
MANEDIT
1070
     0
1002
}
1002
{
1000
NOSEL
1070
     0
1002
}
1002
{
1000
BEHIND
1070
     0
1002
}
1002
{
1000
REACTOR
1002
}
1001
GENIUS_GENOBJ-N-CEN_13
1002
{
1000
OWNER
1000
GEN
1002
}
  0
LINE
  5
3496
330
1F
100
AcDbEntity
  8
AM_0
100
AcDbLine
 10
-54.50115628682
 20
4.955843187841372
 30
0.0
 11
-17.99897761360044
 21
3.999999999999996
 31
0.0
  0
VIEWPORT
  5
110
330
101
100
AcDbEntity
 67
     1
  8
0
100
AcDbViewport
 10
420.5
 20
297.0
 30
0.0
 40
948.9782706766916
 41
628.452
 68
     1
 69
     1
1001
ACAD
1000
MVIEW
1002
{
1070
    16
1010
0.0
1020
0.0
1030
0.0
1010
0.0
1020
0.0
1030
1.0
1040
0.0
1040
628.452
1040
420.5
1040
297.0
1040
50.0
1040
0.0
1040
0.0
1070
     0
1070
   100
1070
     1
1070
     1
1070
     0
1070
     0
1070
     0
1070
     0
1040
0.0
1040
0.0
1040
0.0
1040
10.0
1040
10.0
1040
10.0
1040
10.0
1070
     0
1002
{
1002
}
1002
}
  0
ENDSEC
  0
SECTION
  2
OBJECTS
  0
DICTIONARY
  5
C
330
0
100
AcDbDictionary
  3
ACAD_GROUP
350
D
  3
ACAD_LAYOUT
350
1A
  3
ACAD_MLINESTYLE
350
17
  3
ACAD_PLOTSETTINGS
350
19
  3
ACAD_PLOTSTYLENAME
350
E
  3
ACDBVARIABLEDICTIONARY
350
34
  3
ACMDICTIONARY
350
43
  3
AMG
350
2B
  3
AMGSNAPSETTINGS
350
6E
  3
DWGPROPS
350
35C6
  3
ACDBHEADERROUNDTRIPXREC
350
35D3
  0
DICTIONARY
  5
74
330
1F
100
AcDbDictionary
280
     1
  3
ACAD_INDEX
360
35C8
  3
ACAD_LAYOUTSELFREF
360
35F6
  0
DICTIONARY
  5
35FB
330
101
100
AcDbDictionary
280
     1
  3
ACAD_LAYOUTSELFREF
360
35FC
  0
DICTIONARY
  5
D
102
{ACAD_REACTORS
330
C
102
}
330
C
100
AcDbDictionary
  0
DICTIONARY
  5
1A
102
{ACAD_REACTORS
330
C
102
}
330
C
100
AcDbDictionary
  0
DICTIONARY
  5
17
102
{ACAD_REACTORS
330
C
102
}
330
C
100
AcDbDictionary
  3
STANDARD
350
18
  0
DICTIONARY
  5
19
102
{ACAD_REACTORS
330
C
102
}
330
C
100
AcDbDictionary
  0
ACDBDICTIONARYWDFLT
  5
E
102
{ACAD_REACTORS
330
C
102
}
330
C
100
AcDbDictionary
281
     1
  3
Normal
350
F
100
AcDbDictionaryWithDefault
340
F
  0
DICTIONARY
  5
34
102
{ACAD_REACTORS
330
C
102
}
330
C
100
AcDbDictionary
  3
INDEXCTL
350
35
  3
SORTENTS
350
B5E
  0
DICTIONARY
  5
43
102
{ACAD_REACTORS
330
C
102
}
330
C
100
AcDbDictionary
  3
ACMSTDDICTIONARY
350
260
  0
DICTIONARY
  5
2B
102
{ACAD_REACTORS
330
C
102
}
330
C
100
AcDbDictionary
  3
ACMGSETTINGS
350
2C
  0
DICTIONARY
  5
6E
102
{ACAD_REACTORS
330
C
102
}
330
C
100
AcDbDictionary
  0
XRECORD
  5
35C6
102
{ACAD_REACTORS
330
C
102
}
330
C
100
AcDbXrecord
  1
DWGPROPS COOKIE
  2

  3

  4

  6

  7

  8

  9

300
AmdtFileType=82
301
=
302
=
303
=
304
=
305
=
306
=
307
=
308
=
309
=
 40
0.4652978356481482
 41
2452838.620506898
 42
2452852.426295567
  1

 90
        1
  0
DICTIONARY
  5
35D3
102
{ACAD_REACTORS
330
C
102
}
330
C
100
AcDbDictionary
  3
TSTACKALIGN
350
35D4
  3
TSTACKSIZE
350
35D5
  3
HYPERLINKBASE
350
35D6
  3
STYLESHEET
350
35D7
  3
LAYOUTDICT
350
35D8
  3
PLOTSETDICT
350
35D9
  3
PLOTSTYLNAMDICT
350
35DA
  3
LWETCUNION
350
35DB
  3
INSUNITS
350
35DC
  3
CEPSNTYPE
350
35DD
  3
FINGERPRINTGUID
350
35DE
  3
VERSIONGUID
350
35DF
  3
PSVPSCALE
350
35E0
  3
DIMSTYLEDATA
350
35E1
  3
PUCSORTHOREF
350
35E2
  3
PUCSORTHOVIEW
350
35E3
  3
PUCSBASE
350
35E4
  3
PUCSORGTOP
350
35E5
  3
PUCSORGBOTTOM
350
35E6
  3
PUCSORGLEFT
350
35E7
  3
PUCSORGRIGHT
350
35E8
  3
PUCSORGFRONT
350
35E9
  3
PUCSORGBACK
350
35EA
  3
UCSORTHOREF
350
35EB
  3
UCSORTHOVIEW
350
35EC
  3
UCSBASE
350
35ED
  3
UCSORGTOP
350
35EE
  3
UCSORGBOTTOM
350
35EF
  3
UCSORGLEFT
350
35F0
  3
UCSORGRIGHT
350
35F1
  3
UCSORGFRONT
350
35F2
  3
UCSORGBACK
350
35F3
  0
DICTIONARY
  5
35C8
102
{ACAD_REACTORS
330
74
102
}
330
74
100
AcDbDictionary
  3
*A1
350
35C9
  0
XRECORD
  5
35F6
102
{ACAD_REACTORS
330
74
102
}
330
74
100
AcDbXrecord
340
1F
  0
XRECORD
  5
35FC
102
{ACAD_REACTORS
330
35FB
102
}
330
35FB
100
AcDbXrecord
340
101
  0
MLINESTYLE
  5
18
102
{ACAD_REACTORS
330
17
102
}
330
17
100
AcDbMlineStyle
  2
STANDARD
 70
     0
  3

 62
   256
 51
90.0
 52
90.0
 71
     2
 49
0.5
 62
   256
  6
BYLAYER
 49
-0.5
 62
   256
  6
BYLAYER
  0
ACDBPLACEHOLDER
  5
F
102
{ACAD_REACTORS
330
E
102
}
330
E
100
AcDbPlaceHolder
280
     0
  0
DICTIONARYVAR
  5
35
102
{ACAD_REACTORS
330
34
102
}
330
34
100
DictionaryVariables
280
     0
  1
1
  0
DICTIONARYVAR
  5
B5E
102
{ACAD_REACTORS
330
34
102
}
330
34
100
DictionaryVariables
280
     0
  1
96
  0
DICTIONARY
  5
260
102
{ACAD_REACTORS
330
43
102
}
330
43
100
AcDbDictionary
  0
DICTIONARY
  5
2C
102
{ACAD_REACTORS
330
2B
102
}
330
2B
100
AcDbDictionary
  3
DWGSETTINGS
350
2D
  0
XRECORD
  5
35D4
102
{ACAD_REACTORS
330
35D3
102
}
330
35D3
100
AcDbXrecord
 90
        1
  0
XRECORD
  5
35D5
102
{ACAD_REACTORS
330
35D3
102
}
330
35D3
100
AcDbXrecord
 90
       70
  0
XRECORD
  5
35D6
102
{ACAD_REACTORS
330
35D3
102
}
330
35D3
100
AcDbXrecord
  1

  0
XRECORD
  5
35D7
102
{ACAD_REACTORS
330
35D3
102
}
330
35D3
100
AcDbXrecord
  1
ASAMI.ctb
  0
XRECORD
  5
35D8
102
{ACAD_REACTORS
330
35D3
102
}
330
35D3
100
AcDbXrecord
340
1A
  0
XRECORD
  5
35D9
102
{ACAD_REACTORS
330
35D3
102
}
330
35D3
100
AcDbXrecord
340
19
  0
XRECORD
  5
35DA
102
{ACAD_REACTORS
330
35D3
102
}
330
35D3
100
AcDbXrecord
340
E
  0
XRECORD
  5
35DB
102
{ACAD_REACTORS
330
35D3
102
}
330
35D3
100
AcDbXrecord
 90
    10781
  0
XRECORD
  5
35DC
102
{ACAD_REACTORS
330
35D3
102
}
330
35D3
100
AcDbXrecord
 90
        4
  0
XRECORD
  5
35DD
102
{ACAD_REACTORS
330
35D3
102
}
330
35D3
100
AcDbXrecord
 90
        0
  0
XRECORD
  5
35DE
102
{ACAD_REACTORS
330
35D3
102
}
330
35D3
100
AcDbXrecord
  1
{AFB28963-8C59-40AE-9337-C84526B81ACE}
  0
XRECORD
  5
35DF
102
{ACAD_REACTORS
330
35D3
102
}
330
35D3
100
AcDbXrecord
  1
{4E846991-9959-4AC6-9E5B-904E8852B9D7}
  0
XRECORD
  5
35E0
102
{ACAD_REACTORS
330
35D3
102
}
330
35D3
100
AcDbXrecord
 40
0.0
  0
XRECORD
  5
35E1
102
{ACAD_REACTORS
330
35D3
102
}
330
35D3
100
AcDbXrecord
1000
DSTYLE
1002
{
1070
    79
 70
     2
1070
   341
340
59
1070
   342
340
59
1070
   371
 70
    -1
1070
   372
 70
    -1
1002
}
  0
XRECORD
  5
35E2
102
{ACAD_REACTORS
330
35D3
102
}
330
35D3
100
AcDbXrecord
340
0
  0
XRECORD
  5
35E3
102
{ACAD_REACTORS
330
35D3
102
}
330
35D3
100
AcDbXrecord
 70
     0
  0
XRECORD
  5
35E4
102
{ACAD_REACTORS
330
35D3
102
}
330
35D3
100
AcDbXrecord
340
0
  0
XRECORD
  5
35E5
102
{ACAD_REACTORS
330
35D3
102
}
330
35D3
100
AcDbXrecord
 10
0.0
 20
0.0
 30
0.0
  0
XRECORD
  5
35E6
102
{ACAD_REACTORS
330
35D3
102
}
330
35D3
100
AcDbXrecord
 10
0.0
 20
0.0
 30
0.0
  0
XRECORD
  5
35E7
102
{ACAD_REACTORS
330
35D3
102
}
330
35D3
100
AcDbXrecord
 10
0.0
 20
0.0
 30
0.0
  0
XRECORD
  5
35E8
102
{ACAD_REACTORS
330
35D3
102
}
330
35D3
100
AcDbXrecord
 10
0.0
 20
0.0
 30
0.0
  0
XRECORD
  5
35E9
102
{ACAD_REACTORS
330
35D3
102
}
330
35D3
100
AcDbXrecord
 10
0.0
 20
0.0
 30
0.0
  0
XRECORD
  5
35EA
102
{ACAD_REACTORS
330
35D3
102
}
330
35D3
100
AcDbXrecord
 10
0.0
 20
0.0
 30
0.0
  0
XRECORD
  5
35EB
102
{ACAD_REACTORS
330
35D3
102
}
330
35D3
100
AcDbXrecord
340
0
  0
XRECORD
  5
35EC
102
{ACAD_REACTORS
330
35D3
102
}
330
35D3
100
AcDbXrecord
 70
     0
  0
XRECORD
  5
35ED
102
{ACAD_REACTORS
330
35D3
102
}
330
35D3
100
AcDbXrecord
340
0
  0
XRECORD
  5
35EE
102
{ACAD_REACTORS
330
35D3
102
}
330
35D3
100
AcDbXrecord
 10
0.0
 20
0.0
 30
0.0
  0
XRECORD
  5
35EF
102
{ACAD_REACTORS
330
35D3
102
}
330
35D3
100
AcDbXrecord
 10
0.0
 20
0.0
 30
0.0
  0
XRECORD
  5
35F0
102
{ACAD_REACTORS
330
35D3
102
}
330
35D3
100
AcDbXrecord
 10
0.0
 20
0.0
 30
0.0
  0
XRECORD
  5
35F1
102
{ACAD_REACTORS
330
35D3
102
}
330
35D3
100
AcDbXrecord
 10
0.0
 20
0.0
 30
0.0
  0
XRECORD
  5
35F2
102
{ACAD_REACTORS
330
35D3
102
}
330
35D3
100
AcDbXrecord
 10
0.0
 20
0.0
 30
0.0
  0
XRECORD
  5
35F3
102
{ACAD_REACTORS
330
35D3
102
}
330
35D3
100
AcDbXrecord
 10
0.0
 20
0.0
 30
0.0
  0
LAYER_INDEX
  5
35C9
102
{ACAD_REACTORS
330
35C8
102
}
330
35C8
100
AcDbIndex
 40
2453151.894005578
100
AcDbLayerIndex
  8
0
360
35CA
 90
        1
  8
AM_0
360
35CB
 90
       47
  8
AM_11
360
35CC
 90
        4
  8
AM_7
360
35CD
 90
        1
  8
AM_5
360
35CE
 90
        7
  8
Defpoints
360
35CF
 90
        0
  8
AM_6
360
35D0
 90
        1
  8
AM_CL
360
35D1
 90
        0
  0
XRECORD
  5
2D
102
{ACAD_REACTORS
330
2C
102
}
330
2C
100
AcDbXrecord
  1
VERSION
140
15.0
  1
PRODUCT
  2
AutoCAD Mechanical 2000
  0
IDBUFFER
  5
35CA
330
0
100
AcDbIdBuffer
330
30C9
  0
IDBUFFER
  5
35CB
330
0
100
AcDbIdBuffer
330
29F1
330
2C13
330
30B7
330
30B8
330
30C6
330
30C7
330
30C8
330
3145
330
3146
330
3147
330
3148
330
3149
330
314A
330
314C
330
314D
330
314E
330
314F
330
3150
330
3151
330
3152
330
3153
330
3154
330
3155
330
3156
330
3158
330
3159
330
315B
330
315C
330
348C
330
3490
330
3496
330
2165
330
25B1
330
25B2
330
25B3
330
25B4
330
25B5
330
25B6
330
25B7
330
25B8
330
25B9
330
25BA
330
25BB
330
25BC
330
25BD
330
25BE
330
25C2
  0
IDBUFFER
  5
35CC
330
0
100
AcDbIdBuffer
330
1C9A
330
1CA1
330
1CB1
330
315A
  0
IDBUFFER
  5
35CD
330
0
100
AcDbIdBuffer
330
C50
  0
IDBUFFER
  5
35CE
330
0
100
AcDbIdBuffer
330
194C
330
195B
330
1EF8
330
21E0
330
30B9
330
30CA
330
3207
  0
IDBUFFER
  5
35CF
330
0
100
AcDbIdBuffer
  0
IDBUFFER
  5
35D0
330
0
100
AcDbIdBuffer
330
C58
  0
IDBUFFER
  5
35D1
330
0
100
AcDbIdBuffer
  0
ENDSEC
  0
EOF
