  0
SECTION
  2
HEADER
  9
$ACADVER
  1
AC1014
  9
$ACADMAINTVER
 70
     9
  9
$DWGCODEPAGE
  3
ANSI_932
  9
$INSBASE
 10
0.0
 20
0.0
 30
0.0
  9
$EXTMIN
 10
-47.35
 20
-25.75000000000007
 30
-0.00000001
  9
$EXTMAX
 10
7.499999999999936
 20
9.050667900485018
 30
0.00000001
  9
$LIMMIN
 10
-55.88171191383072
 20
-42.1293283652785
  9
$LIMMAX
 10
16.13817136038687
 20
19.65594791133219
  9
$ORTHOMODE
 70
     0
  9
$REGENMODE
 70
     1
  9
$FILLMODE
 70
     1
  9
$QTEXTMODE
 70
     0
  9
$MIRRTEXT
 70
     0
  9
$DRAGMODE
 70
     2
  9
$LTSCALE
 40
1.0
  9
$OSMODE
 70
  2103
  9
$ATTMODE
 70
     1
  9
$TEXTSIZE
 40
2.5
  9
$TRACEWID
 40
1.0
  9
$TEXTSTYLE
  7
STANDARD
  9
$CLAYER
  8
AM_0
  9
$CELTYPE
  6
BYLAYER
  9
$CECOLOR
 62
   256
  9
$CELTSCALE
 40
1.0
  9
$DELOBJ
 70
     1
  9
$DISPSILH
 70
     0
  9
$DIMSCALE
 40
0.5
  9
$DIMASZ
 40
2.5
  9
$DIMEXO
 40
1.0
  9
$DIMDLI
 40
12.0
  9
$DIMRND
 40
0.0
  9
$DIMDLE
 40
0.0
  9
$DIMEXE
 40
1.0
  9
$DIMTP
 40
0.1
  9
$DIMTM
 40
0.1
  9
$DIMTXT
 40
3.2
  9
$DIMCEN
 40
0.0
  9
$DIMTSZ
 40
0.0
  9
$DIMTOL
 70
     0
  9
$DIMLIM
 70
     0
  9
$DIMTIH
 70
     0
  9
$DIMTOH
 70
     0
  9
$DIMSE1
 70
     0
  9
$DIMSE2
 70
     0
  9
$DIMTAD
 70
     3
  9
$DIMZIN
 70
     8
  9
$DIMBLK
  1
OPEN30
  9
$DIMASO
 70
     1
  9
$DIMSHO
 70
     1
  9
$DIMPOST
  1

  9
$DIMAPOST
  1
"
  9
$DIMALT
 70
     0
  9
$DIMALTD
 70
     2
  9
$DIMALTF
 40
0.0393701
  9
$DIMLFAC
 40
1.0
  9
$DIMTOFL
 70
     1
  9
$DIMTVP
 40
0.0
  9
$DIMTIX
 70
     0
  9
$DIMSOXD
 70
     0
  9
$DIMSAH
 70
     0
  9
$DIMBLK1
  1

  9
$DIMBLK2
  1

  9
$DIMSTYLE
  2
AM_JIS
  9
$DIMCLRD
 70
   256
  9
$DIMCLRE
 70
   256
  9
$DIMCLRT
 70
     2
  9
$DIMTFAC
 40
0.71
  9
$DIMGAP
 40
1.5
  9
$DIMJUST
 70
     0
  9
$DIMSD1
 70
     0
  9
$DIMSD2
 70
     0
  9
$DIMTOLJ
 70
     0
  9
$DIMTZIN
 70
     0
  9
$DIMALTZ
 70
     0
  9
$DIMALTTZ
 70
     0
  9
$DIMFIT
 70
     3
  9
$DIMUPT
 70
     0
  9
$DIMUNIT
 70
     2
  9
$DIMDEC
 70
     3
  9
$DIMTDEC
 70
     3
  9
$DIMALTU
 70
     2
  9
$DIMALTTD
 70
     2
  9
$DIMTXSTY
  7
ASAMI
  9
$DIMAUNIT
 70
     0
  9
$LUNITS
 70
     2
  9
$LUPREC
 70
     2
  9
$SKETCHINC
 40
1.0
  9
$FILLETRAD
 40
2.5
  9
$AUNITS
 70
     0
  9
$AUPREC
 70
     0
  9
$MENU
  1
.
  9
$ELEVATION
 40
0.0
  9
$PELEVATION
 40
0.0
  9
$THICKNESS
 40
0.0
  9
$LIMCHECK
 70
     0
  9
$BLIPMODE
 70
     0
  9
$CHAMFERA
 40
0.2
  9
$CHAMFERB
 40
0.2
  9
$CHAMFERC
 40
20.0
  9
$CHAMFERD
 40
0.0
  9
$SKPOLY
 70
     0
  9
$TDCREATE
 40
2452810.397252777
  9
$TDUPDATE
 40
2452839.679803958
  9
$TDINDWG
 40
0.0776446644
  9
$TDUSRTIMER
 40
0.0776446644
  9
$USRTIMER
 70
     1
  9
$ANGBASE
 50
0.0
  9
$ANGDIR
 70
     0
  9
$PDMODE
 70
     0
  9
$PDSIZE
 40
0.0
  9
$PLINEWID
 40
0.0
  9
$COORDS
 70
     2
  9
$SPLFRAME
 70
     0
  9
$SPLINETYPE
 70
     6
  9
$SPLINESEGS
 70
     8
  9
$ATTDIA
 70
     1
  9
$ATTREQ
 70
     1
  9
$HANDLING
 70
 12289
  9
$HANDSEED
  5
25CE
  9
$SURFTAB1
 70
     6
  9
$SURFTAB2
 70
     6
  9
$SURFTYPE
 70
     6
  9
$SURFU
 70
     6
  9
$SURFV
 70
     6
  9
$UCSNAME
  2

  9
$UCSORG
 10
0.0
 20
0.0
 30
0.0
  9
$UCSXDIR
 10
1.0
 20
0.0
 30
0.0
  9
$UCSYDIR
 10
0.0
 20
1.0
 30
0.0
  9
$PUCSNAME
  2

  9
$PUCSORG
 10
0.0
 20
0.0
 30
0.0
  9
$PUCSXDIR
 10
1.0
 20
0.0
 30
0.0
  9
$PUCSYDIR
 10
0.0
 20
1.0
 30
0.0
  9
$USERI1
 70
     0
  9
$USERI2
 70
     0
  9
$USERI3
 70
     0
  9
$USERI4
 70
     0
  9
$USERI5
 70
     0
  9
$USERR1
 40
0.0
  9
$USERR2
 40
0.0
  9
$USERR3
 40
0.0
  9
$USERR4
 40
0.0
  9
$USERR5
 40
0.0
  9
$WORLDVIEW
 70
     1
  9
$SHADEDGE
 70
     3
  9
$SHADEDIF
 70
    70
  9
$TILEMODE
 70
     1
  9
$MAXACTVP
 70
    64
  9
$PINSBASE
 10
0.0
 20
0.0
 30
0.0
  9
$PLIMCHECK
 70
     0
  9
$PEXTMIN
 10
1.000000000000000E+20
 20
1.000000000000000E+20
 30
1.000000000000000E+20
  9
$PEXTMAX
 10
-1.000000000000000E+20
 20
-1.000000000000000E+20
 30
-1.000000000000000E+20
  9
$PLIMMIN
 10
0.0
 20
0.0
  9
$PLIMMAX
 10
841.0
 20
594.0
  9
$UNITMODE
 70
     0
  9
$VISRETAIN
 70
     1
  9
$PLINEGEN
 70
     0
  9
$PSLTSCALE
 70
     0
  9
$TREEDEPTH
 70
  3020
  9
$PICKSTYLE
 70
     0
  9
$CMLSTYLE
  2
STANDARD
  9
$CMLJUST
 70
     0
  9
$CMLSCALE
 40
20.0
  9
$PROXYGRAPHICS
 70
     1
  9
$MEASUREMENT
 70
     1
  0
ENDSEC
  0
SECTION
  2
CLASSES
  0
CLASS
  1
ACDBDICTIONARYWDFLT
  2
AcDbDictionaryWithDefault
  3
AutoCAD 2000
 90
        0
280
     0
281
     0
  0
CLASS
  1
ACDBPLACEHOLDER
  2
AcDbPlaceHolder
  3
AutoCAD 2000
 90
        0
280
     0
281
     0
  0
CLASS
  1
LAYOUT
  2
AcDbLayout
  3
AutoCAD 2000
 90
        0
280
     0
281
     0
  0
CLASS
  1
AMGSETTINGSOBJ
  2
AmgSettingsObj
  3
"AcadM|Product Description: AutoCAD Mechanical 2000|Company: Autodesk"
 90
        0
280
     0
281
     0
  0
CLASS
  1
ACME_DOCUMENT
  2
AcMeDbDoc
  3
AcMeServices
 90
        0
280
     0
281
     0
  0
CLASS
  1
ACMESCOPE
  2
AcMeScope
  3
AcMeServices
 90
        0
280
     0
281
     0
  0
CLASS
  1
ACMECOMMANDHISTORY
  2
AcMeCommandHistory
  3
AcMeServices
 90
        0
280
     0
281
     0
  0
CLASS
  1
DICTIONARYVAR
  2
AcDbDictionaryVar
  3
AutoCAD 2000
 90
        0
280
     0
281
     0
  0
CLASS
  1
ACIMSYSVARMAN
  2
AcImSysVarManager
  3
AcMeServices
 90
        0
280
     0
281
     0
  0
CLASS
  1
ACIMREALSYSVAR
  2
AcImRealSysVar
  3
AcMeServices
 90
        0
280
     0
281
     0
  0
CLASS
  1
ACIMINTSYSVAR
  2
AcImIntSysVar
  3
AcMeServices
 90
        0
280
     0
281
     0
  0
CLASS
  1
ACMEDRAWINGMAN
  2
AcMeDrawingMan
  3
AcMeServices
 90
        0
280
     0
281
     0
  0
CLASS
  1
ACMEVIEW
  2
AcMeView
  3
AcMeServices
 90
        0
280
     0
281
     0
  0
CLASS
  1
ACDBENTITYCACHE
  2
AcMeEntityCache
  3
AcMeServices
 90
        0
280
     0
281
     0
  0
CLASS
  1
GSMANAGER
  2
AcMeGSManager
  3
AcMeServices
 90
        0
280
     0
281
     0
  0
CLASS
  1
AmdtInternalReactor
  2
AmdtInternalReactor
  3
AcMeServices
 90
        0
280
     0
281
     0
  0
CLASS
  1
ACMESTATEMGR
  2
AcMeStateMgr
  3
AcMeServices
 90
        0
280
     0
281
     0
  0
CLASS
  1
ACME_DATABASE
  2
AcMeDbDatabase
  3
AcMeServices
 90
        0
280
     0
281
     0
  0
CLASS
  1
ACRFINSADJUSTERMGR
  2
AcRfInsAdjusterMgr
  3
AcMeServices
 90
        0
280
     0
281
     0
  0
CLASS
  1
ACMDATADICTIONARY
  2
AcmDataDictionary
  3
"AcmSymBB|Product Description: AutoCAD Mechanical 2000|Company: Autodesk"
 90
        0
280
     0
281
     0
  0
CLASS
  1
ACMDATAENTRYBLOCK
  2
AcmDataEntryBlock
  3
"AcmSymBB|Product Description: AutoCAD Mechanical 2000|Company: Autodesk"
 90
        0
280
     0
281
     0
  0
CLASS
  1
AMGOBJPROPCFG
  2
AmgObjPropCfg
  3
"AmgLay|Product Description: AutoCAD Mechanical 2000|Company: Autodesk"
 90
        1
280
     0
281
     0
  0
CLASS
  1
ACAMGFILTERDAT
  2
AcAmgFilterDat
  3
"AcadM|Product Description: AutoCAD Mechanical 2000|Company: Autodesk"
 90
        0
280
     0
281
     0
  0
CLASS
  1
LAYER_INDEX
  2
AcDbLayerIndex
  3
AutoCAD 2000
 90
        0
280
     0
281
     0
  0
CLASS
  1
IDBUFFER
  2
AcDbIdBuffer
  3
AutoCAD 2000
 90
        0
280
     0
281
     0
  0
CLASS
  1
ACIMSTRSYSVAR
  2
AcImStrSysVar
  3
AcMeServices
 90
        0
280
     0
281
     0
  0
CLASS
  1
ACMSTANDARDJIS
  2
AcmStandardJIS
  3
"AcmSymBB|Product Description: AutoCAD Mechanical 2000|Company: Autodesk"
 90
        0
280
     0
281
     0
  0
CLASS
  1
ACMSURFSTANDARDJIS
  2
AcmSurfTextStdJIS
  3
"AcmSymBB|Product Description: AutoCAD Mechanical 2000|Company: Autodesk"
 90
        0
280
     0
281
     0
  0
CLASS
  1
ACMFCFSTANDARDJIS
  2
AcmFCFStdJIS
  3
"AcmSymBB|Product Description: AutoCAD Mechanical 2000|Company: Autodesk"
 90
        0
280
     0
281
     0
  0
CLASS
  1
ACMWELDSTANDARDJIS
  2
AcmWeldingStdJIS
  3
"AcmSymBB|Product Description: AutoCAD Mechanical 2000|Company: Autodesk"
 90
        0
280
     0
281
     0
  0
CLASS
  1
ACMIDSTANDARDJIS
  2
AcmIdStdJIS
  3
"AcmSymBB|Product Description: AutoCAD Mechanical 2000|Company: Autodesk"
 90
        0
280
     0
281
     0
  0
CLASS
  1
ACMDATUMSTANDARDJIS
  2
AcmDatumStdJIS
  3
"AcmSymBB|Product Description: AutoCAD Mechanical 2000|Company: Autodesk"
 90
        0
280
     0
281
     0
  0
CLASS
  1
ACMBOMSTANDARDJIS
  2
AcmBOMStdJIS
  3
"AcmSymBB|Product Description: AutoCAD Mechanical 2000|Company: Autodesk"
 90
        0
280
     0
281
     0
  0
CLASS
  1
ACMSTANDARDANSI
  2
AcmStandardANSI
  3
"AcmSymBB|Product Description: AutoCAD Mechanical 2000|Company: Autodesk"
 90
        0
280
     0
281
     0
  0
CLASS
  1
ACMSURFSTANDARDANSI
  2
AcmSurfTextStdANSI
  3
"AcmSymBB|Product Description: AutoCAD Mechanical 2000|Company: Autodesk"
 90
        0
280
     0
281
     0
  0
CLASS
  1
ACMFCFSTANDARDANSI
  2
AcmFCFStdANSI
  3
"AcmSymBB|Product Description: AutoCAD Mechanical 2000|Company: Autodesk"
 90
        0
280
     0
281
     0
  0
CLASS
  1
ACMWELDSTANDARDANSI
  2
AcmWeldingStdANSI
  3
"AcmSymBB|Product Description: AutoCAD Mechanical 2000|Company: Autodesk"
 90
        0
280
     0
281
     0
  0
CLASS
  1
ACMIDSTANDARDANSI
  2
AcmIdStdANSI
  3
"AcmSymBB|Product Description: AutoCAD Mechanical 2000|Company: Autodesk"
 90
        0
280
     0
281
     0
  0
CLASS
  1
ACMDATUMSTANDARDANSI
  2
AcmDatumStdANSI
  3
"AcmSymBB|Product Description: AutoCAD Mechanical 2000|Company: Autodesk"
 90
        0
280
     0
281
     0
  0
CLASS
  1
ACMBOMSTANDARDANSI
  2
AcmBOMStdANSI
  3
"AcmSymBB|Product Description: AutoCAD Mechanical 2000|Company: Autodesk"
 90
        0
280
     0
281
     0
  0
CLASS
  1
ACMSTANDARDBSI
  2
AcmStandardBSI
  3
"AcmSymBB|Product Description: AutoCAD Mechanical 2000|Company: Autodesk"
 90
        0
280
     0
281
     0
  0
CLASS
  1
ACMSURFSTANDARDBSI
  2
AcmSurfTextStdBSI
  3
"AcmSymBB|Product Description: AutoCAD Mechanical 2000|Company: Autodesk"
 90
        0
280
     0
281
     0
  0
CLASS
  1
ACMFCFSTANDARDBSI
  2
AcmFCFStdBSI
  3
"AcmSymBB|Product Description: AutoCAD Mechanical 2000|Company: Autodesk"
 90
        0
280
     0
281
     0
  0
CLASS
  1
ACMWELDSTANDARDBSI
  2
AcmWeldingStdBSI
  3
"AcmSymBB|Product Description: AutoCAD Mechanical 2000|Company: Autodesk"
 90
        0
280
     0
281
     0
  0
CLASS
  1
ACMIDSTANDARDBSI
  2
AcmIdStdBSI
  3
"AcmSymBB|Product Description: AutoCAD Mechanical 2000|Company: Autodesk"
 90
        0
280
     0
281
     0
  0
CLASS
  1
ACMDATUMSTANDARDBSI
  2
AcmDatumStdBSI
  3
"AcmSymBB|Product Description: AutoCAD Mechanical 2000|Company: Autodesk"
 90
        0
280
     0
281
     0
  0
CLASS
  1
ACMBOMSTANDARDBSI
  2
AcmBOMStdBSI
  3
"AcmSymBB|Product Description: AutoCAD Mechanical 2000|Company: Autodesk"
 90
        0
280
     0
281
     0
  0
CLASS
  1
LONG_TRANSACTION
  2
AcDbLongTransaction
  3
AutoCAD 2000
 90
        0
280
     0
281
     0
  0
CLASS
  1
LWPOLYLINE
  2
AcDbPolyline
  3
AutoCAD 2000
 90
        0
280
     0
281
     1
  0
CLASS
  1
HATCH
  2
AcDbHatch
  3
AutoCAD 2000
 90
        0
280
     0
281
     1
  0
CLASS
  1
XRECORD
  2
AcDbXrecord
  3
AutoCAD 2000
 90
        0
280
     0
281
     0
  0
ENDSEC
  0
SECTION
  2
TABLES
  0
TABLE
  2
VPORT
  5
8
330
0
100
AcDbSymbolTable
 70
     3
  0
VPORT
  5
25A3
330
8
100
AcDbSymbolTableRecord
100
AcDbViewportTableRecord
  2
*ACTIVE
 70
     0
 10
0.0
 20
0.0
 11
1.0
 21
1.0
 12
-19.92396957893971
 22
-8.349461555020582
 13
0.0
 23
0.0
 14
2.5
 24
2.5
 15
10.0
 25
10.0
 16
0.0
 26
0.0
 36
1.0
 17
0.0
 27
0.0
 37
0.0
 40
35.17193585065975
 41
1.56570841889117
 42
50.0
 43
0.0
 44
0.0
 50
0.0
 51
0.0
 71
     0
 72
   100
 73
     1
 74
     3
 75
     0
 76
     0
 77
     0
 78
     0
  0
ENDTAB
  0
TABLE
  2
LTYPE
  5
5
330
0
100
AcDbSymbolTable
 70
    10
  0
LTYPE
  5
14
330
5
100
AcDbSymbolTableRecord
100
AcDbLinetypeTableRecord
  2
BYBLOCK
 70
     0
  3

 72
    65
 73
     0
 40
0.0
  0
LTYPE
  5
15
330
5
100
AcDbSymbolTableRecord
100
AcDbLinetypeTableRecord
  2
BYLAYER
 70
     0
  3

 72
    65
 73
     0
 40
0.0
  0
LTYPE
  5
16
330
5
100
AcDbSymbolTableRecord
100
AcDbLinetypeTableRecord
  2
CONTINUOUS
 70
     0
  3
Solid line
 72
    65
 73
     0
 40
0.0
  0
LTYPE
  5
4B
330
5
100
AcDbSymbolTableRecord
100
AcDbLinetypeTableRecord
  2
AM_ISO02W050
 70
     0
  3
__ __ __ __ __ __ __ __ __ __ __ __ __ __ __
 72
    65
 73
     2
 40
7.5
 49
6.0
 74
     0
 49
-1.5
 74
     0
  0
LTYPE
  5
4C
330
5
100
AcDbSymbolTableRecord
100
AcDbLinetypeTableRecord
  2
AM_ISO08W050
 70
     0
  3
____ . ____ . ____ . ____ . ____ . ____ . ____
 72
    65
 73
     4
 40
18.0
 49
12.0
 74
     0
 49
-1.5
 74
     0
 49
3.0
 74
     0
 49
-1.5
 74
     0
  0
LTYPE
  5
4D
330
5
100
AcDbSymbolTableRecord
100
AcDbLinetypeTableRecord
  2
AM_ISO09W050
 70
     0
  3
_____ . . _____ . . _____ . . ____ .. ____
 72
    65
 73
     6
 40
22.5
 49
12.0
 74
     0
 49
-1.5
 74
     0
 49
3.0
 74
     0
 49
-1.5
 74
     0
 49
3.0
 74
     0
 49
-1.5
 74
     0
  0
LTYPE
  5
4E
330
5
100
AcDbSymbolTableRecord
100
AcDbLinetypeTableRecord
  2
AMCONSTR
 70
     0
  3
_______________________
 72
    65
 73
     2
 40
9999.0
 49
9999.0
 74
     0
 49
0.0
 74
     0
  0
LTYPE
  5
4F
330
5
100
AcDbSymbolTableRecord
100
AcDbLinetypeTableRecord
  2
AM_ISO02W050X2
 70
     0
  3
 _ _ _ _ _ _ _ _ _ _ _ _
 72
    65
 73
     2
 40
3.75
 49
3.0
 74
     0
 49
-0.75
 74
     0
  0
LTYPE
  5
50
330
5
100
AcDbSymbolTableRecord
100
AcDbLinetypeTableRecord
  2
AM_ISO08W050X2
 70
     0
  3
__ . __ . __ . __ . __ . __
 72
    65
 73
     4
 40
9.0
 49
6.0
 74
     0
 49
-0.75
 74
     0
 49
1.5
 74
     0
 49
-0.75
 74
     0
  0
LTYPE
  5
53
330
5
100
AcDbSymbolTableRecord
100
AcDbLinetypeTableRecord
  2
AMZIGZAG
 70
     0
  3
/\/-/\/-/\/-/\/-/\/-/\/
 72
    65
 73
     2
 40
11.00009999999999
 49
0.0001
 74
     4
 75
   135
340
52
 46
0.04
 50
0.0
 44
0.0
 45
0.0
 49
-11.0
 74
     0
  0
LTYPE
  5
166
330
5
100
AcDbSymbolTableRecord
100
AcDbLinetypeTableRecord
  2
ACJISTGL
 70
     0
  3
_ _ _ _ _
 72
    65
 73
     2
 40
3.0
 49
2.0
 74
     0
 49
-1.0
 74
     0
  0
LTYPE
  5
26A
330
5
100
AcDbSymbolTableRecord
100
AcDbLinetypeTableRecord
  2
ACJISTGB
 70
     0
  3
__ . . __ . .
 72
    65
 73
     6
 40
9.0
 49
4.0
 74
     0
 49
-1.0
 74
     0
 49
1.0
 74
     0
 49
-1.0
 74
     0
 49
1.0
 74
     0
 49
-1.0
 74
     0
  0
ENDTAB
  0
TABLE
  2
LAYER
  5
2
330
0
100
AcDbSymbolTable
 70
     7
  0
LAYER
  5
10
330
2
100
AcDbSymbolTableRecord
100
AcDbLayerTableRecord
  2
0
 70
     0
 62
     7
  6
CONTINUOUS
  0
LAYER
  5
3F9
330
2
100
AcDbSymbolTableRecord
100
AcDbLayerTableRecord
  2
AM_0
 70
     0
 62
     7
  6
CONTINUOUS
  0
LAYER
  5
BA4
330
2
100
AcDbSymbolTableRecord
100
AcDbLayerTableRecord
  2
AM_11
 70
     0
 62
     3
  6
AM_ISO09W050
  0
LAYER
  5
BA5
330
2
100
AcDbSymbolTableRecord
100
AcDbLayerTableRecord
  2
AM_7
 70
     0
 62
     4
  6
AM_ISO08W050
  0
LAYER
  5
C84
330
2
100
AcDbSymbolTableRecord
100
AcDbLayerTableRecord
  2
AM_5
 70
     0
 62
     3
  6
CONTINUOUS
  0
LAYER
  5
F05
330
2
100
AcDbSymbolTableRecord
100
AcDbLayerTableRecord
  2
AM_6
 70
     0
 62
     2
  6
CONTINUOUS
  0
LAYER
  5
F0F
330
2
100
AcDbSymbolTableRecord
100
AcDbLayerTableRecord
  2
DEFPOINTS
 70
     0
 62
     7
  6
CONTINUOUS
  0
ENDTAB
  0
TABLE
  2
STYLE
  5
3
330
0
100
AcDbSymbolTable
 70
     5
  0
STYLE
  5
11
330
3
100
AcDbSymbolTableRecord
100
AcDbTextStyleTableRecord
  2
STANDARD
 70
     0
 40
0.0
 41
1.0
 50
0.0
 71
     0
 42
2.5
  3
simplex.shx
  4
EXTFONT.SHX
  0
STYLE
  5
52
330
3
100
AcDbSymbolTableRecord
100
AcDbTextStyleTableRecord
  2

 70
     1
 40
0.0
 41
1.0
 50
0.0
 71
     0
 42
2.5
  3
ltypeshp.shx
  4

  0
STYLE
  5
6B
330
3
100
AcDbSymbolTableRecord
100
AcDbTextStyleTableRecord
  2
ASAMI
 70
     0
 40
0.0
 41
1.0
 50
0.0
 71
     0
 42
2.5
  3
simplex.shx
  4
EXTFONT.SHX
  0
STYLE
  5
262
330
3
100
AcDbSymbolTableRecord
100
AcDbTextStyleTableRecord
  2
ACJISTS
 70
     0
 40
1.0
 41
1.0
 50
0.0
 71
     0
 42
2.5
  3
simplex.shx
  4
bigfont.shx
  0
STYLE
  5
269
330
3
100
AcDbSymbolTableRecord
100
AcDbTextStyleTableRecord
  2
ACJISGDT
 70
     0
 40
0.0
 41
1.0
 50
0.0
 71
     0
 42
2.5
  3
amgdtans.shx
  4

  0
ENDTAB
  0
TABLE
  2
VIEW
  5
6
330
0
100
AcDbSymbolTable
 70
     0
  0
ENDTAB
  0
TABLE
  2
UCS
  5
7
330
0
100
AcDbSymbolTable
 70
     0
  0
ENDTAB
  0
TABLE
  2
APPID
  5
9
330
0
100
AcDbSymbolTable
 70
    13
  0
APPID
  5
12
330
9
100
AcDbSymbolTableRecord
100
AcDbRegAppTableRecord
  2
ACAD
 70
     0
  0
APPID
  5
30
330
9
100
AcDbSymbolTableRecord
100
AcDbRegAppTableRecord
  2
MCAD_NO_VIS
 70
     0
  0
APPID
  5
31
330
9
100
AcDbSymbolTableRecord
100
AcDbRegAppTableRecord
  2
ACAD_TEMP_GRAPHIC
 70
     0
  0
APPID
  5
2C2
330
9
100
AcDbSymbolTableRecord
100
AcDbRegAppTableRecord
  2
GENIUS_GENDTOL_13
 70
     0
  0
APPID
  5
339
330
9
100
AcDbSymbolTableRecord
100
AcDbRegAppTableRecord
  2
GENIUS_GENODEF_13
 70
     0
  0
APPID
  5
33A
330
9
100
AcDbSymbolTableRecord
100
AcDbRegAppTableRecord
  2
GENIUS_GENOBJ-N-RSBK_13
 70
     0
  0
APPID
  5
33B
330
9
100
AcDbSymbolTableRecord
100
AcDbRegAppTableRecord
  2
GENIUS_GENOBJ-N-LIB_13
 70
     0
  0
APPID
  5
33C
330
9
100
AcDbSymbolTableRecord
100
AcDbRegAppTableRecord
  2
GENIUS_GENSCALE_13
 70
     0
  0
APPID
  5
378
330
9
100
AcDbSymbolTableRecord
100
AcDbRegAppTableRecord
  2
GENIUS_GENDIMSH_14
 70
     0
  0
APPID
  5
BA6
330
9
100
AcDbSymbolTableRecord
100
AcDbRegAppTableRecord
  2
GENIUS_GENOBJ-N-CEN_13
 70
     0
  0
APPID
  5
BEC
330
9
100
AcDbSymbolTableRecord
100
AcDbRegAppTableRecord
  2
GENIUS_GENOREF_13
 70
     0
  0
APPID
  5
EEE
330
9
100
AcDbSymbolTableRecord
100
AcDbRegAppTableRecord
  2
GENIUS_GENFIL_13
 70
     0
  0
APPID
  5
EEF
330
9
100
AcDbSymbolTableRecord
100
AcDbRegAppTableRecord
  2
GENIUS_GENOBJ-N-CHA_13
 70
     0
  0
ENDTAB
  0
TABLE
  2
DIMSTYLE
  5
A
330
0
100
AcDbSymbolTable
 70
     8
  0
DIMSTYLE
105
58
102
{ACAD_REACTORS
330
1968
330
2029
330
217D
330
219D
102
}
330
A
100
AcDbSymbolTableRecord
100
AcDbDimStyleTableRecord
  2
AM_JIS
 70
     0
  3

  4
"
  5
OPEN30
  6

  7

 40
0.5
 41
2.5
 42
1.0
 43
12.0
 44
1.0
 45
0.0
 46
0.0
 47
0.1
 48
0.1
140
3.2
141
0.0
142
0.0
143
0.0393701
144
1.0
145
0.0
146
0.71
147
1.5
 71
     0
 72
     0
 73
     0
 74
     0
 75
     0
 76
     0
 77
     3
 78
     8
170
     0
171
     2
172
     1
173
     0
174
     0
175
     0
176
   256
177
   256
178
     2
270
     2
271
     3
272
     3
273
     2
274
     2
340
6B
275
     0
280
     0
281
     0
282
     0
283
     0
284
     0
285
     0
286
     0
287
     3
288
     0
  0
DIMSTYLE
105
5F
330
A
100
AcDbSymbolTableRecord
100
AcDbDimStyleTableRecord
  2
AM_JIS$3
 70
     0
  3

  4
"
  5
OPEN30
  6

  7

 40
0.5
 41
2.5
 42
1.0
 43
10.0
 44
1.0
 45
0.0
 46
0.0
 47
0.1
 48
0.1
140
3.2
141
0.0
142
0.0
143
0.0393701
144
1.0
145
0.0
146
0.71
147
1.5
 71
     0
 72
     0
 73
     0
 74
     1
 75
     0
 76
     0
 77
     3
 78
     8
170
     0
171
     2
172
     0
173
     0
174
     0
175
     0
176
   256
177
   256
178
     2
270
     2
271
     2
272
     3
273
     2
274
     2
340
6B
275
     0
280
     0
281
     0
282
     0
283
     0
284
     0
285
     0
286
     0
287
     0
288
     1
  0
DIMSTYLE
105
60
330
A
100
AcDbSymbolTableRecord
100
AcDbDimStyleTableRecord
  2
AM_JIS$4
 70
     0
  3

  4
"
  5
OPEN30
  6

  7

 40
0.5
 41
2.5
 42
1.0
 43
10.0
 44
1.0
 45
0.0
 46
0.0
 47
0.1
 48
0.1
140
3.2
141
0.0
142
0.0
143
0.0393701
144
1.0
145
0.0
146
0.71
147
1.5
 71
     0
 72
     0
 73
     0
 74
     1
 75
     0
 76
     0
 77
     3
 78
     8
170
     0
171
     2
172
     0
173
     0
174
     0
175
     0
176
   256
177
   256
178
     2
270
     2
271
     2
272
     3
273
     2
274
     2
340
6B
275
     0
280
     0
281
     0
282
     0
283
     0
284
     0
285
     0
286
     0
287
     0
288
     1
  0
DIMSTYLE
105
61
330
A
100
AcDbSymbolTableRecord
100
AcDbDimStyleTableRecord
  2
AM_JIS$6
 70
     0
  3

  4
"
  5
OPEN30
  6

  7

 40
0.5
 41
2.5
 42
1.0
 43
10.0
 44
1.0
 45
0.0
 46
0.0
 47
0.1
 48
0.1
140
3.2
141
0.0
142
0.0
143
0.0393701
144
1.0
145
0.0
146
0.71
147
1.5
 71
     0
 72
     0
 73
     0
 74
     0
 75
     0
 76
     0
 77
     0
 78
     8
170
     0
171
     2
172
     1
173
     0
174
     0
175
     0
176
   256
177
   256
178
     2
270
     2
271
     2
272
     2
273
     2
274
     2
340
6B
275
     0
280
     0
281
     0
282
     0
283
     0
284
     0
285
     0
286
     0
287
     3
288
     0
  0
DIMSTYLE
105
62
330
A
100
AcDbSymbolTableRecord
100
AcDbDimStyleTableRecord
  2
AM_JIS$7
 70
     0
  3

  4
"
  5
OPEN30
  6

  7

 40
0.5
 41
2.5
 42
1.0
 43
10.0
 44
1.0
 45
0.0
 46
0.0
 47
0.1
 48
0.1
140
3.2
141
0.0
142
0.0
143
0.0393701
144
1.0
145
0.0
146
0.71
147
1.5
 71
     0
 72
     0
 73
     0
 74
     0
 75
     0
 76
     0
 77
     3
 78
     8
170
     0
171
     2
172
     1
173
     0
174
     0
175
     0
176
   256
177
   256
178
     2
270
     2
271
     2
272
     3
273
     2
274
     2
340
6B
275
     0
280
     0
281
     0
282
     0
283
     0
284
     0
285
     0
286
     0
287
     3
288
     0
  0
DIMSTYLE
105
63
330
A
100
AcDbSymbolTableRecord
100
AcDbDimStyleTableRecord
  2
AM_JIS$SF
 70
     0
  3

  4
"
  5
OPEN30
  6

  7

 40
0.5
 41
2.5
 42
1.0
 43
10.0
 44
1.0
 45
0.0
 46
0.0
 47
0.1
 48
0.1
140
3.2
141
0.0
142
0.0
143
0.0393701
144
1.0
145
0.0
146
0.71
147
1.5
 71
     0
 72
     0
 73
     0
 74
     0
 75
     1
 76
     1
 77
     3
 78
     8
170
     0
171
     2
172
     1
173
     0
174
     0
175
     0
176
   256
177
   256
178
     2
270
     2
271
     2
272
     2
273
     2
274
     2
340
6B
275
     0
280
     0
281
     0
282
     0
283
     0
284
     0
285
     0
286
     0
287
     3
288
     0
  0
DIMSTYLE
105
68
330
A
100
AcDbSymbolTableRecord
100
AcDbDimStyleTableRecord
  2
AM_JIS$SH
 70
     0
  3

  4
"
  5

  6
GENAXEH
  7
OPEN30
 40
0.5
 41
2.5
 42
1.0
 43
10.0
 44
1.0
 45
0.0
 46
0.0
 47
0.1
 48
0.1
140
3.2
141
0.0
142
0.0
143
0.0393701
144
2.0
145
0.0
146
0.71
147
1.5
 71
     0
 72
     0
 73
     0
 74
     0
 75
     1
 76
     1
 77
     3
 78
     8
170
     0
171
     2
172
     1
173
     1
174
     0
175
     0
176
   256
177
   256
178
     2
270
     2
271
     2
272
     2
273
     2
274
     2
340
6B
275
     0
280
     0
281
     0
282
     0
283
     0
284
     0
285
     0
286
     0
287
     3
288
     0
  0
DIMSTYLE
105
B34
330
A
100
AcDbSymbolTableRecord
100
AcDbDimStyleTableRecord
  2
AM_JIS$2
 70
     0
  3

  4
"
  5
OPEN30
  6

  7

 40
0.5
 41
2.5
 42
1.0
 43
12.0
 44
1.0
 45
0.0
 46
0.0
 47
0.1
 48
0.1
140
3.2
141
0.0
142
0.0
143
0.0393701
144
1.0
145
0.0
146
0.71
147
1.5
 71
     0
 72
     0
 73
     0
 74
     0
 75
     0
 76
     0
 77
     3
 78
     8
170
     0
171
     2
172
     1
173
     0
174
     0
175
     0
176
   256
177
   256
178
     2
270
     2
271
     3
272
     3
273
     2
274
     2
340
6B
275
     0
280
     0
281
     0
282
     0
283
     0
284
     0
285
     0
286
     0
287
     3
288
     0
  0
ENDTAB
  0
TABLE
  2
BLOCK_RECORD
  5
1
330
0
100
AcDbSymbolTable
 70
     9
  0
BLOCK_RECORD
  5
1F
102
{ACAD_XDICTIONARY
360
74
102
}
330
1
100
AcDbSymbolTableRecord
100
AcDbBlockTableRecord
  2
*MODEL_SPACE
  0
BLOCK_RECORD
  5
101
102
{ACAD_XDICTIONARY
360
25CC
102
}
330
1
100
AcDbSymbolTableRecord
100
AcDbBlockTableRecord
  2
*PAPER_SPACE
  0
BLOCK_RECORD
  5
59
330
1
100
AcDbSymbolTableRecord
100
AcDbBlockTableRecord
  2
_OPEN30
  0
BLOCK_RECORD
  5
64
330
1
100
AcDbSymbolTableRecord
100
AcDbBlockTableRecord
  2
GENAXEH
  0
BLOCK_RECORD
  5
1969
330
1
100
AcDbSymbolTableRecord
100
AcDbBlockTableRecord
  2
*D5
  0
BLOCK_RECORD
  5
202A
330
1
100
AcDbSymbolTableRecord
100
AcDbBlockTableRecord
  2
*D6
  0
BLOCK_RECORD
  5
217E
330
1
100
AcDbSymbolTableRecord
100
AcDbBlockTableRecord
  2
*D7
  0
BLOCK_RECORD
  5
219E
330
1
100
AcDbSymbolTableRecord
100
AcDbBlockTableRecord
  2
*D8
  0
ENDTAB
  0
ENDSEC
  0
SECTION
  2
BLOCKS
  0
BLOCK
  5
20
330
1F
100
AcDbEntity
  8
0
100
AcDbBlockBegin
  2
*MODEL_SPACE
 70
     0
 10
0.0
 20
0.0
 30
0.0
  3
*MODEL_SPACE
  1

  0
ENDBLK
  5
21
330
1F
100
AcDbEntity
  8
0
100
AcDbBlockEnd
  0
BLOCK
  5
103
330
101
100
AcDbEntity
 67
     1
  8
0
100
AcDbBlockBegin
  2
*PAPER_SPACE
 70
     0
 10
0.0
 20
0.0
 30
0.0
  3
*PAPER_SPACE
  1

  0
ENDBLK
  5
104
330
101
100
AcDbEntity
 67
     1
  8
0
100
AcDbBlockEnd
  0
BLOCK
  5
5D
330
59
100
AcDbEntity
  8
0
100
AcDbBlockBegin
  2
_OPEN30
 70
     0
 10
0.0
 20
0.0
 30
0.0
  3
_OPEN30
  1

  0
LINE
  5
5A
330
59
100
AcDbEntity
  8
0
 62
     0
100
AcDbLine
 10
-1.0
 20
0.26794919
 30
0.0
 11
0.0
 21
0.0
 31
0.0
  0
LINE
  5
5B
330
59
100
AcDbEntity
  8
0
 62
     0
100
AcDbLine
 10
0.0
 20
0.0
 30
0.0
 11
-1.0
 21
-0.26794919
 31
0.0
  0
LINE
  5
5C
330
59
100
AcDbEntity
  8
0
 62
     0
100
AcDbLine
 10
0.0
 20
0.0
 30
0.0
 11
-1.0
 21
0.0
 31
0.0
  0
ENDBLK
  5
5E
330
59
100
AcDbEntity
  8
0
100
AcDbBlockEnd
  0
BLOCK
  5
66
330
64
100
AcDbEntity
  8
0
100
AcDbBlockBegin
  2
GENAXEH
 70
     0
 10
0.0
 20
0.0
 30
0.0
  3
GENAXEH
  1

  0
LINE
  5
65
330
64
100
AcDbEntity
  8
0
100
AcDbLine
 10
-1.0
 20
0.0
 30
0.0
 11
1.0
 21
0.0
 31
0.0
  0
ENDBLK
  5
67
330
64
100
AcDbEntity
  8
0
100
AcDbBlockEnd
  0
BLOCK
  5
1975
330
1969
100
AcDbEntity
  8
0
100
AcDbBlockBegin
  2
*D5
 70
     1
 10
0.0
 20
0.0
 30
0.0
  3
*D5
  1

  0
LINE
  5
22CE
330
1969
100
AcDbEntity
  8
AM_5
100
AcDbLine
 10
-38.29999999999999
 20
-1.499999999999994
 30
0.0
 11
-45.49999999999999
 21
-1.499999999999992
 31
0.0
  0
LINE
  5
22CF
330
1969
100
AcDbEntity
  8
AM_5
100
AcDbLine
 10
-38.3
 20
1.500000000000005
 30
0.0
 11
-45.49999999999999
 21
1.500000000000007
 31
0.0
  0
LINE
  5
22D0
330
1969
100
AcDbEntity
  8
AM_5
100
AcDbLine
 10
-45.0
 20
-2.749999999999992
 30
0.0
 11
-45.0
 21
-3.999999999999992
 31
0.0
  0
LINE
  5
22D1
330
1969
100
AcDbEntity
  8
AM_5
100
AcDbLine
 10
-45.0
 20
2.750000000000007
 30
0.0
 11
-45.0
 21
8.014285714285723
 31
0.0
  0
LINE
  5
22D2
330
1969
100
AcDbEntity
  8
AM_5
100
AcDbLine
 10
-45.0
 20
-1.499999999999992
 30
0.0
 11
-45.0
 21
1.500000000000007
 31
0.0
  0
INSERT
  5
22D3
330
1969
100
AcDbEntity
  8
AM_5
100
AcDbBlockReference
  2
_OPEN30
 10
-45.0
 20
-1.499999999999992
 30
0.0
 41
1.25
 42
1.25
 43
1.25
 50
90.0
  0
INSERT
  5
22D4
330
1969
100
AcDbEntity
  8
AM_5
100
AcDbBlockReference
  2
_OPEN30
 10
-45.0
 20
1.500000000000007
 30
0.0
 41
1.25
 42
1.25
 43
1.25
 50
270.0
  0
MTEXT
  5
22D5
330
1969
100
AcDbEntity
  8
AM_5
 62
     2
100
AcDbMText
 10
-46.55
 20
6.007142857142857
 30
0.0
 40
1.6
 41
0.0
 71
     5
 72
     1
  1
%%c3
  7
ASAMI
 11
0.0000000000000001
 21
1.0
 31
0.0
1001
ACAD
1000
MTEXTBEGIN
1070
    73
1070
     1
1070
    44
1040
1.0
1070
    74
1070
     0
1000
MTEXTEND
  0
POINT
  5
22D6
330
1969
100
AcDbEntity
  8
DEFPOINTS
 62
     0
100
AcDbPoint
 10
-37.79999999999999
 20
-1.499999999999994
 30
0.0
  0
POINT
  5
22D7
330
1969
100
AcDbEntity
  8
DEFPOINTS
 62
     0
100
AcDbPoint
 10
-37.79999999999999
 20
1.500000000000005
 30
0.0
  0
POINT
  5
22D8
330
1969
100
AcDbEntity
  8
DEFPOINTS
 62
     0
100
AcDbPoint
 10
-45.0
 20
1.500000000000007
 30
0.0
  0
ENDBLK
  5
1976
330
1969
100
AcDbEntity
  8
0
100
AcDbBlockEnd
  0
BLOCK
  5
2034
330
202A
100
AcDbEntity
  8
0
100
AcDbBlockBegin
  2
*D6
 70
     1
 10
0.0
 20
0.0
 30
0.0
  3
*D6
  1

  0
LINE
  5
22AC
330
202A
100
AcDbEntity
  8
AM_5
100
AcDbLine
 10
-0.0000000000000245
 20
-0.9996411108908233
 30
0.0
 11
-0.0000000000000254
 21
-15.00000000000006
 31
0.0
  0
LINE
  5
22AD
330
202A
100
AcDbEntity
  8
AM_5
100
AcDbLine
 10
-37.99999999999999
 20
-1.799999999999994
 30
0.0
 11
-37.99999999999999
 21
-15.00000000000006
 31
0.0
  0
LINE
  5
22AE
330
202A
100
AcDbEntity
  8
AM_5
100
AcDbLine
 10
-1.250000000000025
 20
-14.50000000000006
 30
0.0
 11
-36.74999999999999
 21
-14.50000000000006
 31
0.0
  0
INSERT
  5
22AF
330
202A
100
AcDbEntity
  8
AM_5
100
AcDbBlockReference
  2
_OPEN30
 10
-0.0000000000000253
 20
-14.50000000000006
 30
0.0
 41
1.25
 42
1.25
 43
1.25
  0
INSERT
  5
22B0
330
202A
100
AcDbEntity
  8
AM_5
100
AcDbBlockReference
  2
_OPEN30
 10
-37.99999999999999
 20
-14.50000000000006
 30
0.0
 41
1.25
 42
1.25
 43
1.25
 50
180.0
  0
MTEXT
  5
22B1
330
202A
100
AcDbEntity
  8
AM_5
 62
     2
100
AcDbMText
 10
-19.00000000000004
 20
-12.95000000000006
 30
0.0
 40
1.6
 41
0.0
 71
     5
 72
     1
  1
38
  7
ASAMI
1001
ACAD
1000
MTEXTBEGIN
1070
    73
1070
     1
1070
    44
1040
1.0
1070
    74
1070
     0
1000
MTEXTEND
  0
POINT
  5
22B2
330
202A
100
AcDbEntity
  8
DEFPOINTS
 62
     0
100
AcDbPoint
 10
-0.0000000000000245
 20
-0.4996411108908234
 30
0.0
  0
POINT
  5
22B3
330
202A
100
AcDbEntity
  8
DEFPOINTS
 62
     0
100
AcDbPoint
 10
-37.99999999999999
 20
-1.299999999999994
 30
0.0
  0
POINT
  5
22B4
330
202A
100
AcDbEntity
  8
DEFPOINTS
 62
     0
100
AcDbPoint
 10
-37.99999999999999
 20
-14.50000000000006
 30
0.0
  0
ENDBLK
  5
2035
330
202A
100
AcDbEntity
  8
0
100
AcDbBlockEnd
  0
BLOCK
  5
218A
330
217E
100
AcDbEntity
  8
0
100
AcDbBlockBegin
  2
*D7
 70
     1
 10
0.0
 20
0.0
 30
0.0
  3
*D7
  1

  0
LINE
  5
22D9
330
217E
100
AcDbEntity
  8
AM_5
100
AcDbLine
 10
0.4999999999999512
 20
0.2506679004850214
 30
0.0
 11
7.499999999999936
 21
0.2506679004850194
 31
0.0
  0
LINE
  5
22DA
330
217E
100
AcDbEntity
  8
AM_5
100
AcDbLine
 10
0.4999999999999512
 20
-0.2493121266798507
 30
0.0
 11
7.499999999999936
 21
-0.2493121266798527
 31
0.0
  0
LINE
  5
22DB
330
217E
100
AcDbEntity
  8
AM_5
100
AcDbLine
 10
6.999999999999936
 20
-1.499312126679852
 30
0.0
 11
6.999999999999935
 21
-2.749312126679852
 31
0.0
  0
LINE
  5
22DC
330
217E
100
AcDbEntity
  8
AM_5
100
AcDbLine
 10
6.999999999999936
 20
1.500667900485019
 30
0.0
 11
6.999999999999937
 21
9.050667900485018
 31
0.0
  0
LINE
  5
22DD
330
217E
100
AcDbEntity
  8
AM_5
100
AcDbLine
 10
6.999999999999936
 20
-0.2493121266798525
 30
0.0
 11
6.999999999999936
 21
0.2506679004850195
 31
0.0
  0
INSERT
  5
22DE
330
217E
100
AcDbEntity
  8
AM_5
100
AcDbBlockReference
  2
_OPEN30
 10
6.999999999999936
 20
-0.2493121266798525
 30
0.0
 41
1.25
 42
1.25
 43
1.25
 50
90.0
  0
INSERT
  5
22DF
330
217E
100
AcDbEntity
  8
AM_5
100
AcDbBlockReference
  2
_OPEN30
 10
6.999999999999936
 20
0.2506679004850195
 30
0.0
 41
1.25
 42
1.25
 43
1.25
 50
270.0
  0
MTEXT
  5
22E0
330
217E
100
AcDbEntity
  8
AM_5
 62
     2
100
AcDbMText
 10
5.449999999999935
 20
5.90066790048502
 30
0.0
 40
1.6
 41
0.0
 71
     5
 72
     1
  1
%%c0.5
  7
ASAMI
 11
0.0000000000000001
 21
1.0
 31
0.0
1001
ACAD
1000
MTEXTBEGIN
1070
    73
1070
     1
1070
    44
1040
1.0
1070
    74
1070
     0
1000
MTEXTEND
  0
POINT
  5
22E1
330
217E
100
AcDbEntity
  8
DEFPOINTS
 62
     0
100
AcDbPoint
 10
-0.0000000000000489
 20
0.2506679004850215
 30
0.0
  0
POINT
  5
22E2
330
217E
100
AcDbEntity
  8
DEFPOINTS
 62
     0
100
AcDbPoint
 10
-0.0000000000000489
 20
-0.2493121266798506
 30
0.0
  0
POINT
  5
22E3
330
217E
100
AcDbEntity
  8
DEFPOINTS
 62
     0
100
AcDbPoint
 10
6.999999999999936
 20
-0.2493121266798525
 30
0.0
  0
ENDBLK
  5
218B
330
217E
100
AcDbEntity
  8
0
100
AcDbBlockEnd
  0
BLOCK
  5
21AA
330
219E
100
AcDbEntity
  8
0
100
AcDbBlockBegin
  2
*D8
 70
     1
 10
0.0
 20
0.0
 30
0.0
  3
*D8
  1

  0
LINE
  5
22B5
330
219E
100
AcDbEntity
  8
AM_5
100
AcDbLine
 10
-0.0000000000000489
 20
-0.7493121538447341
 30
0.0
 11
-0.0000000000000494
 21
-8.999999999999989
 31
0.0
  0
LINE
  5
22B6
330
219E
100
AcDbEntity
  8
AM_5
100
AcDbLine
 10
-0.7500000000000489
 20
-0.7493121266798506
 30
0.0
 11
-0.7500000000000494
 21
-8.999999999999989
 31
0.0
  0
LINE
  5
22B7
330
219E
100
AcDbEntity
  8
AM_5
100
AcDbLine
 10
1.24999999999995
 20
-8.499999999999989
 30
0.0
 11
2.49999999999995
 21
-8.499999999999989
 31
0.0
  0
LINE
  5
22B8
330
219E
100
AcDbEntity
  8
AM_5
100
AcDbLine
 10
-2.000000000000049
 20
-8.499999999999989
 30
0.0
 11
-9.626190476190526
 21
-8.499999999999989
 31
0.0
  0
LINE
  5
22B9
330
219E
100
AcDbEntity
  8
AM_5
100
AcDbLine
 10
-0.0000000000000494
 20
-8.499999999999989
 30
0.0
 11
-0.7500000000000494
 21
-8.499999999999989
 31
0.0
  0
INSERT
  5
22BA
330
219E
100
AcDbEntity
  8
AM_5
100
AcDbBlockReference
  2
_OPEN30
 10
-0.0000000000000494
 20
-8.499999999999989
 30
0.0
 41
1.25
 42
1.25
 43
1.25
 50
180.0
  0
INSERT
  5
22BB
330
219E
100
AcDbEntity
  8
AM_5
100
AcDbBlockReference
  2
_OPEN30
 10
-0.7500000000000494
 20
-8.499999999999989
 30
0.0
 41
1.25
 42
1.25
 43
1.25
  0
MTEXT
  5
22BC
330
219E
100
AcDbEntity
  8
AM_5
 62
     2
100
AcDbMText
 10
-6.438095238095288
 20
-6.949999999999989
 30
0.0
 40
1.6
 41
0.0
 71
     5
 72
     1
  1
0.75
  7
ASAMI
1001
ACAD
1000
MTEXTBEGIN
1070
    73
1070
     1
1070
    44
1040
1.0
1070
    74
1070
     0
1000
MTEXTEND
  0
POINT
  5
22BD
330
219E
100
AcDbEntity
  8
DEFPOINTS
 62
     0
100
AcDbPoint
 10
-0.0000000000000489
 20
-0.249312153844734
 30
0.0
  0
POINT
  5
22BE
330
219E
100
AcDbEntity
  8
DEFPOINTS
 62
     0
100
AcDbPoint
 10
-0.7500000000000489
 20
-0.2493121266798506
 30
0.0
  0
POINT
  5
22BF
330
219E
100
AcDbEntity
  8
DEFPOINTS
 62
     0
100
AcDbPoint
 10
-0.7500000000000494
 20
-8.499999999999989
 30
0.0
  0
ENDBLK
  5
21AB
330
219E
100
AcDbEntity
  8
0
100
AcDbBlockEnd
  0
ENDSEC
  0
SECTION
  2
ENTITIES
  0
TEXT
  5
F06
330
1F
100
AcDbEntity
  8
AM_6
100
AcDbText
 10
-31.26190476190476
 20
-25.75000000000006
 30
0.0
 40
2.5
  1
S-SIT2005ZX
 72
     4
 11
-19.0
 21
-24.50000000000006
 31
0.0
100
AcDbText
  0
LINE
  5
1615
330
1F
100
AcDbEntity
  8
AM_0
100
AcDbLine
 10
-37.99999999999999
 20
-1.299999999999994
 30
0.0
 11
-38.0
 21
1.300000000000005
 31
0.0
  0
LINE
  5
1616
330
1F
100
AcDbEntity
  8
AM_0
100
AcDbLine
 10
-37.79999999999999
 20
1.500000000000005
 30
0.0
 11
-5.862570972297354
 21
1.500000000000005
 31
0.0
  0
LINE
  5
1618
330
1F
100
AcDbEntity
  8
AM_0
100
AcDbLine
 10
-5.867630586260375
 20
-1.499999999999999
 30
0.0
 11
-37.79999999999999
 21
-1.499999999999994
 31
0.0
  0
LINE
  5
1619
330
1F
100
AcDbEntity
  8
AM_0
100
AcDbLine
 10
-5.862570972297354
 20
1.500000000000005
 30
0.0
 11
-1.200000000000049
 21
0.2506678733201495
 31
0.0
  0
LINE
  5
161B
330
1F
100
AcDbEntity
  8
AM_0
100
AcDbLine
 10
-1.200000000000048
 20
-0.2493121538447339
 30
0.0
 11
-5.867630586260375
 21
-1.499999999999999
 31
0.0
  0
LINE
  5
162C
330
1F
100
AcDbEntity
  8
AM_0
100
AcDbLine
 10
-37.79999999999999
 20
1.500000000000005
 30
0.0
 11
-38.0
 21
1.300000000000005
 31
0.0
1001
GENIUS_GENFIL_13
1070
     0
1040
0.2
1040
0.2
1040
20.0
1040
0.0
1002
{
1002
}
1001
GENIUS_GENODEF_13
1002
{
1000
HIER
1070
     0
1002
}
1002
{
1000
MANEDIT
1070
     0
1002
}
1002
{
1000
NOSEL
1070
     0
1002
}
1002
{
1000
BEHIND
1070
     0
1002
}
1002
{
1000
REACTOR
1002
}
1001
GENIUS_GENOBJ-N-CHA_13
1002
{
1000
OWNER
1000
GEN
1002
}
  0
LINE
  5
162E
330
1F
100
AcDbEntity
  8
AM_0
100
AcDbLine
 10
-37.79999999999999
 20
-1.499999999999994
 30
0.0
 11
-37.99999999999999
 21
-1.299999999999994
 31
0.0
1001
GENIUS_GENFIL_13
1070
     0
1040
0.2
1040
0.2
1040
20.0
1040
0.0
1002
{
1002
}
1001
GENIUS_GENODEF_13
1002
{
1000
HIER
1070
     0
1002
}
1002
{
1000
MANEDIT
1070
     0
1002
}
1002
{
1000
NOSEL
1070
     0
1002
}
1002
{
1000
BEHIND
1070
     0
1002
}
1002
{
1000
REACTOR
1002
}
1001
GENIUS_GENOBJ-N-CHA_13
1002
{
1000
OWNER
1000
GEN
1002
}
  0
LINE
  5
162F
330
1F
100
AcDbEntity
  8
AM_0
100
AcDbLine
 10
-37.79999999999999
 20
1.500000000000005
 30
0.0
 11
-37.79999999999999
 21
-1.499999999999994
 31
0.0
  0
DIMENSION
  5
1968
330
1F
100
AcDbEntity
  8
AM_5
100
AcDbDimension
  2
*D5
 10
-45.0
 20
1.500000000000007
 30
0.0
 11
-46.55
 21
6.007142857142857
 31
0.0
 70
    32
  1
%%c<>
  3
AM_JIS
100
AcDbAlignedDimension
 13
-37.79999999999999
 23
-1.499999999999994
 33
0.0
 14
-37.79999999999999
 24
1.500000000000005
 34
0.0
 50
270.0
100
AcDbRotatedDimension
1001
GENIUS_GENDTOL_13
1000

1000
h7
1000

1040
0.0
  0
LINE
  5
1A94
330
1F
100
AcDbEntity
  8
AM_0
100
AcDbLine
 10
-5.862570972297357
 20
1.500000000000005
 30
0.0
 11
-5.862570972297358
 21
-1.499999999999998
 31
0.0
  0
DIMENSION
  5
2029
330
1F
100
AcDbEntity
  8
AM_5
100
AcDbDimension
  2
*D6
 10
-37.99999999999999
 20
-14.50000000000006
 30
0.0
 11
-19.00000000000004
 21
-14.50000000000006
 31
0.0
 70
   160
  1
<>
  3
AM_JIS
100
AcDbAlignedDimension
 13
-0.0000000000000245
 23
-0.4996411108908234
 33
0.0
 14
-37.99999999999999
 24
-1.299999999999994
 34
0.0
 50
0.0000000000001132
100
AcDbRotatedDimension
1001
GENIUS_GENDTOL_13
1000

1000
h7
1000

1040
0.0
  0
LINE
  5
20FC
330
1F
100
AcDbEntity
  8
AM_0
100
AcDbLine
 10
-1.200000000000048
 20
0.2506678733201493
 30
0.0
 11
-1.200000000000049
 21
-0.2493121266798508
 31
0.0
  0
LINE
  5
2171
330
1F
100
AcDbEntity
  8
AM_0
100
AcDbLine
 10
-1.200000000000048
 20
0.2506678733201495
 30
0.0
 11
-1.200000000000043
 21
0.2506678733201491
 31
0.0
  0
LINE
  5
2176
330
1F
100
AcDbEntity
  8
AM_0
100
AcDbLine
 10
-1.200000000000048
 20
-0.2493121266798506
 30
0.0
 11
-1.167829928108898
 21
-0.2493121266798506
 31
0.0
  0
DIMENSION
  5
217D
330
1F
100
AcDbEntity
  8
AM_5
100
AcDbDimension
  2
*D7
 10
6.999999999999936
 20
-0.2493121266798525
 30
0.0
 11
6.999999999999936
 21
5.90066790048502
 31
0.0
 70
   160
  1
%%c<>
  3
AM_JIS
100
AcDbAlignedDimension
 13
-0.0000000000000489
 23
0.2506679004850215
 33
0.0
 14
-0.0000000000000489
 24
-0.2493121266798506
 34
0.0
 50
90.00000000000003
100
AcDbRotatedDimension
1001
GENIUS_GENDTOL_13
1000

1000
h7
1000

1040
0.0
  0
DIMENSION
  5
219D
330
1F
100
AcDbEntity
  8
AM_5
100
AcDbDimension
  2
*D8
 10
-0.7500000000000494
 20
-8.499999999999989
 30
0.0
 11
-6.438095238095288
 21
-6.949999999999989
 31
0.0
 70
    32
  1
<>
  3
AM_JIS
100
AcDbAlignedDimension
 13
-0.0000000000000489
 23
-0.249312153844734
 33
0.0
 14
-0.7500000000000489
 24
-0.2493121266798506
 34
0.0
 50
0.0000000000001886
100
AcDbRotatedDimension
1001
GENIUS_GENDTOL_13
1000

1000
h7
1000

1040
0.0
  0
LINE
  5
21AC
330
1F
100
AcDbEntity
  8
AM_7
  6
AM_ISO08W050X2
100
AcDbLine
 10
0.1763243990443787
 20
0.0006778733201494
 30
0.0
 11
-38.97471029729974
 21
0.0006778733201561
 31
0.0
1001
GENIUS_GENODEF_13
1002
{
1000
HIER
1070
     0
1002
}
1002
{
1000
MANEDIT
1070
     0
1002
}
1002
{
1000
NOSEL
1070
     0
1002
}
1002
{
1000
BEHIND
1070
     0
1002
}
1002
{
1000
REACTOR
1002
}
1001
GENIUS_GENOBJ-N-CEN_13
1002
{
1000
OWNER
1000
GEN
1002
}
  0
SPLINE
  5
23DF
330
1F
100
AcDbEntity
  8
AM_0
100
AcDbSpline
210
0.0
220
0.0
230
1.0
 70
     8
 71
     3
 72
     8
 73
     4
 74
     0
 42
0.0000000001
 43
0.0000000001
 40
7.277673710817288
 40
7.277673710817288
 40
7.277673710817288
 40
7.277673710817288
 40
14.32251351011555
 40
14.32251351011555
 40
14.32251351011555
 40
14.32251351011555
 10
-0.8117016065216615
 20
0.1531353105328316
 30
0.0
 10
-0.7011628663019947
 20
0.1113189175739529
 30
0.0
 10
-0.5927709243258273
 20
0.056156697333804
 30
0.0
 10
-0.4843789823496581
 20
0.0009944770936515
 30
0.0
  0
SPLINE
  5
23E0
330
1F
100
AcDbEntity
  8
AM_0
100
AcDbSpline
210
0.0
220
0.0
230
1.0
 70
     8
 71
     3
 72
     8
 73
     4
 74
     0
 42
0.0000000001
 43
0.0000000001
 40
12.92940876879691
 40
12.92940876879691
 40
12.92940876879691
 40
12.92940876879691
 40
14.49218571129498
 40
14.49218571129498
 40
14.49218571129498
 40
14.49218571129498
 10
-0.7500000000000524
 20
0.0412761680663886
 30
0.0
 10
-0.7263609652672054
 20
0.0279534357633503
 30
0.0
 10
-0.7027498646027502
 20
0.0144739564284956
 30
0.0
 10
-0.6791387639382949
 20
0.0009944770936408
 30
0.0
  0
SPLINE
  5
23E1
330
1F
100
AcDbEntity
  8
AM_0
100
AcDbSpline
210
0.0
220
0.0
230
1.0
 70
     8
 71
     3
 72
     8
 73
     4
 74
     2
 42
0.0000000001
 43
0.0000000001
 44
0.0000000001
 12
-1.0
 22
-0.0000000000000156
 32
0.0
 40
0.0
 40
0.0
 40
0.0
 40
0.0
 40
0.7236915507891287
 40
0.7236915507891287
 40
0.7236915507891287
 40
0.7236915507891287
 10
-0.0000000000000488
 20
-0.2490055229063592
 30
0.0
 10
-0.2412305169297584
 20
-0.2490055229063629
 30
0.0
 10
-0.4601846404340267
 20
-0.1240055229063557
 30
0.0
 10
-0.6791387639382949
 20
0.0009944770936515
 30
0.0
 11
-0.0000000000000488
 21
-0.2490055229063592
 31
0.0
 11
-0.6791387639382949
 21
0.0009944770936515
 31
0.0
  0
SPLINE
  5
23E2
330
1F
100
AcDbEntity
  8
AM_0
100
AcDbSpline
210
0.0
220
0.0
230
1.0
 70
     8
 71
     3
 72
     8
 73
     4
 74
     0
 42
0.0000000001
 43
0.0000000001
 40
8.518178729170251
 40
8.518178729170251
 40
8.518178729170251
 40
8.518178729170251
 40
28.64502702023054
 40
28.64502702023054
 40
28.64502702023054
 40
28.64502702023054
 10
-0.0136135862084954
 20
-0.1964983961021828
 30
0.0
 10
-0.1747071893381369
 20
-0.1566019579994885
 30
0.0
 10
-0.3295430858439099
 20
-0.0778037404529256
 30
0.0
 10
-0.4843789823496581
 20
0.0009944770936515
 30
0.0
  0
SPLINE
  5
23E3
330
1F
100
AcDbEntity
  8
AM_0
100
AcDbSpline
210
0.0
220
0.0
230
1.0
 70
     8
 71
     3
 72
     8
 73
     4
 74
     0
 42
0.0000000001
 43
0.0000000001
 40
0.0
 40
0.0
 40
0.0
 40
0.0
 40
13.74270749910732
 40
13.74270749910732
 40
13.74270749910732
 40
13.74270749910732
 10
-0.0000000000000488
 20
0.2509944770936551
 30
0.0
 10
-0.1143775169621657
 20
0.2509944770936764
 30
0.0
 10
-0.2237470639916941
 20
0.2228931489470506
 30
0.0
 10
-0.3304831299103919
 20
0.180014512258189
 30
0.0
  0
SPLINE
  5
23E4
330
1F
100
AcDbEntity
  8
AM_0
100
AcDbSpline
210
0.0
220
0.0
230
1.0
 70
     8
 71
     3
 72
     8
 73
     4
 74
     2
 42
0.0000000001
 43
0.0000000001
 44
0.0000000001
 12
-0.753620698806369
 22
-0.6573095483336601
 32
0.0
 40
0.0
 40
0.0
 40
0.0
 40
0.0
 40
0.1902506549736259
 40
0.1902506549736259
 40
0.1902506549736259
 40
0.1902506549736259
 10
-0.0000000000000488
 20
0.2115721537607301
 30
0.0
 10
-0.0477922771832467
 20
0.1698876297304311
 30
0.0
 10
-0.1169906173247114
 20
0.1711787802965458
 30
0.0
 10
-0.1861889574661761
 20
0.1724699308626606
 30
0.0
 11
-0.0000000000000488
 21
0.2115721537607301
 31
0.0
 11
-0.1861889574661761
 21
0.1724699308626606
 31
0.0
  0
SPLINE
  5
23E5
330
1F
100
AcDbEntity
  8
AM_0
100
AcDbSpline
210
0.0
220
0.0
230
1.0
 70
     8
 71
     3
 72
     8
 73
     4
 74
     0
 42
0.0000000001
 43
0.0000000001
 40
0.0
 40
0.0
 40
0.0
 40
0.0
 40
9.827178345168029
 40
9.827178345168029
 40
9.827178345168029
 40
9.827178345168029
 10
-0.0217224531113063
 20
-0.0572228495452377
 30
0.0
 10
-0.0863534204929115
 20
-0.0070995071890364
 30
0.0
 10
-0.2296921388891588
 20
0.1530998682747751
 30
0.0
 10
-0.2081459216060333
 20
0.1736179751692676
 30
0.0
  0
SPLINE
  5
23E7
330
1F
100
AcDbEntity
  8
AM_0
100
AcDbSpline
210
0.0
220
0.0
230
1.0
 70
     8
 71
     3
 72
     8
 73
     4
 74
     0
 42
0.0000000001
 43
0.0000000001
 40
0.0
 40
0.0
 40
0.0
 40
0.0
 40
4.607356481513744
 40
4.607356481513744
 40
4.607356481513744
 40
4.607356481513744
 10
-1.167829928108901
 20
-0.2493121266798506
 30
0.0
 10
-1.091137908847183
 20
-0.2423203603017896
 30
0.0
 10
-1.009358799845774
 20
-0.2289665047600466
 30
0.0
 10
-0.9429494841094525
 20
-0.1969680848619847
 30
0.0
  0
LINE
  5
23E8
330
1F
100
AcDbEntity
  8
AM_11
100
AcDbLine
 10
-0.7500000000000489
 20
-0.2490055229063485
 30
0.0
 11
-0.7500000000000489
 21
0.2503612695466474
 31
0.0
  0
ARC
  5
23E9
330
1F
100
AcDbEntity
  8
AM_0
100
AcDbCircle
 10
-0.8894465947930601
 20
0.2719609369678618
 30
0.0
 40
0.466157431487548
100
AcDbArc
 50
228.2256592536914
 51
273.4574498611766
  0
ARC
  5
23EA
330
1F
100
AcDbEntity
  8
AM_0
100
AcDbCircle
 10
-0.8337846839299102
 20
0.4316979737047541
 30
0.0
 40
0.6257423809958183
100
AcDbArc
 50
234.1793932422927
 51
267.3845722478232
  0
LINE
  5
23EB
330
1F
100
AcDbEntity
  8
AM_0
100
AcDbLine
 10
-0.0000000000000488
 20
-0.2490055229063485
 30
0.0
 11
-0.0000000000000488
 21
0.2503612695466474
 31
0.0
  0
ARC
  5
23EC
330
1F
100
AcDbEntity
  8
AM_0
100
AcDbCircle
 10
0.8585104746989431
 20
-0.0758479722220363
 30
0.0
 40
0.8804299531456901
100
AcDbArc
 50
178.7878416354358
 51
187.0973004564752
  0
LINE
  5
23ED
330
1F
100
AcDbEntity
  8
AM_11
100
AcDbLine
 10
-0.7500000000000489
 20
-0.2490055229063485
 30
0.0
 11
-0.0000000000003615
 21
-0.2490055229063485
 31
0.0
  0
ARC
  5
23EE
330
1F
100
AcDbEntity
  8
AM_0
100
AcDbCircle
 10
-0.030389908619143
 20
-0.1926660494646561
 30
0.0
 40
0.017208482628535
100
AcDbArc
 50
347.1322733865255
 51
27.84138399044579
  0
ARC
  5
23EF
330
1F
100
AcDbEntity
  8
AM_0
100
AcDbCircle
 10
0.1706539048589066
 20
-0.1767415135848124
 30
0.0
 40
0.1853236160640972
100
AcDbArc
 50
186.119787907325
 51
202.9504029633334
  0
LINE
  5
23F0
330
1F
100
AcDbEntity
  8
AM_0
100
AcDbLine
 10
-0.9429494841094525
 20
-0.1969680848619847
 30
0.0
 11
-0.3485826175608411
 21
-0.170604917878976
 31
0.0
  0
LINE
  5
23F1
330
1F
100
AcDbEntity
  8
AM_0
100
AcDbLine
 10
-1.200000000000048
 20
-0.0756873528962073
 30
0.0
 11
-0.7496834930329852
 21
0.0406014253027175
 31
0.0
  0
LINE
  5
23F2
330
1F
100
AcDbEntity
  8
AM_0
100
AcDbLine
 10
-0.186188957466153
 20
0.1724699308626606
 30
0.0
 11
-1.200000000000049
 21
0.2506678733201495
 31
0.0
  0
LINE
  5
23F3
330
1F
100
AcDbEntity
  8
AM_0
100
AcDbLine
 10
-0.7500000000000489
 20
0.0412761680663921
 30
0.0
 11
-0.7500000000000489
 21
0.1284054803368087
 31
0.0
  0
ARC
  5
23F4
330
1F
100
AcDbEntity
  8
AM_0
100
AcDbCircle
 10
-10.193706268631
 20
-23.08578811797136
 30
0.0
 40
25.06131627819502
100
AcDbArc
 50
68.01511352666364
 51
68.53270079618944
  0
LINE
  5
23F5
330
1F
100
AcDbEntity
  8
AM_11
100
AcDbLine
 10
-0.0000000000000488
 20
0.2509944770936551
 30
0.0
 11
-0.7500000000000489
 21
0.2503612695466474
 31
0.0
  0
LINE
  5
23F6
330
1F
100
AcDbEntity
  8
AM_0
100
AcDbLine
 10
-0.0000000000000488
 20
-0.049421428098953
 30
0.0
 11
-0.0217224531113063
 21
-0.0572228495452235
 31
0.0
  0
LINE
  5
23F7
330
1F
100
AcDbEntity
  8
AM_0
100
AcDbLine
 10
-0.0000000000000488
 20
-0.049421428098953
 30
0.0
 11
-0.186188957466153
 21
0.1724699308626606
 31
0.0
  0
VIEWPORT
  5
110
330
101
100
AcDbEntity
 67
     1
  8
0
100
AcDbViewport
 10
420.5
 20
297.0
 30
0.0
 40
948.9782706766916
 41
628.452
 68
     1
 69
     1
1001
ACAD
1000
MVIEW
1002
{
1070
    16
1010
0.0
1020
0.0
1030
0.0
1010
0.0
1020
0.0
1030
1.0
1040
0.0
1040
628.452
1040
420.5
1040
297.0
1040
50.0
1040
0.0
1040
0.0
1070
     0
1070
   100
1070
     1
1070
     1
1070
     0
1070
     0
1070
     0
1070
     0
1040
0.0
1040
0.0
1040
0.0
1040
10.0
1040
10.0
1040
10.0
1040
10.0
1070
     0
1002
{
1002
}
1002
}
  0
ENDSEC
  0
SECTION
  2
OBJECTS
  0
DICTIONARY
  5
C
330
0
100
AcDbDictionary
  3
ACAD_GROUP
350
D
  3
ACAD_LAYOUT
350
1A
  3
ACAD_MLINESTYLE
350
17
  3
ACAD_PLOTSETTINGS
350
19
  3
ACAD_PLOTSTYLENAME
350
E
  3
ACDBVARIABLEDICTIONARY
350
34
  3
ACMDICTIONARY
350
43
  3
AMG
350
2B
  3
AMGSNAPSETTINGS
350
6E
  3
DWGPROPS
350
2598
  3
ACDBHEADERROUNDTRIPXREC
350
25A4
  0
DICTIONARY
  5
74
330
1F
100
AcDbDictionary
280
     1
  3
ACAD_INDEX
360
259A
  3
ACAD_LAYOUTSELFREF
360
25C7
  0
DICTIONARY
  5
25CC
330
101
100
AcDbDictionary
280
     1
  3
ACAD_LAYOUTSELFREF
360
25CD
  0
DICTIONARY
  5
D
102
{ACAD_REACTORS
330
C
102
}
330
C
100
AcDbDictionary
  0
DICTIONARY
  5
1A
102
{ACAD_REACTORS
330
C
102
}
330
C
100
AcDbDictionary
  0
DICTIONARY
  5
17
102
{ACAD_REACTORS
330
C
102
}
330
C
100
AcDbDictionary
  3
STANDARD
350
18
  0
DICTIONARY
  5
19
102
{ACAD_REACTORS
330
C
102
}
330
C
100
AcDbDictionary
  0
ACDBDICTIONARYWDFLT
  5
E
102
{ACAD_REACTORS
330
C
102
}
330
C
100
AcDbDictionary
281
     1
  3
Normal
350
F
100
AcDbDictionaryWithDefault
340
F
  0
DICTIONARY
  5
34
102
{ACAD_REACTORS
330
C
102
}
330
C
100
AcDbDictionary
  3
INDEXCTL
350
35
  3
SORTENTS
350
B5E
  0
DICTIONARY
  5
43
102
{ACAD_REACTORS
330
C
102
}
330
C
100
AcDbDictionary
  3
ACMSTDDICTIONARY
350
260
  0
DICTIONARY
  5
2B
102
{ACAD_REACTORS
330
C
102
}
330
C
100
AcDbDictionary
  3
ACMGSETTINGS
350
2C
  0
DICTIONARY
  5
6E
102
{ACAD_REACTORS
330
C
102
}
330
C
100
AcDbDictionary
  0
XRECORD
  5
2598
102
{ACAD_REACTORS
330
C
102
}
330
C
100
AcDbXrecord
  1
DWGPROPS COOKIE
  2

  3

  4

  6

  7

  8

  9

300
AmdtFileType=82
301
=
302
=
303
=
304
=
305
=
306
=
307
=
308
=
309
=
 40
0.0775923958333333
 41
2452810.397252777
 42
2452839.660917777
  1

 90
        1
  0
DICTIONARY
  5
25A4
102
{ACAD_REACTORS
330
C
102
}
330
C
100
AcDbDictionary
  3
TSTACKALIGN
350
25A5
  3
TSTACKSIZE
350
25A6
  3
HYPERLINKBASE
350
25A7
  3
STYLESHEET
350
25A8
  3
LAYOUTDICT
350
25A9
  3
PLOTSETDICT
350
25AA
  3
PLOTSTYLNAMDICT
350
25AB
  3
LWETCUNION
350
25AC
  3
INSUNITS
350
25AD
  3
CEPSNTYPE
350
25AE
  3
FINGERPRINTGUID
350
25AF
  3
VERSIONGUID
350
25B0
  3
PSVPSCALE
350
25B1
  3
DIMSTYLEDATA
350
25B2
  3
PUCSORTHOREF
350
25B3
  3
PUCSORTHOVIEW
350
25B4
  3
PUCSBASE
350
25B5
  3
PUCSORGTOP
350
25B6
  3
PUCSORGBOTTOM
350
25B7
  3
PUCSORGLEFT
350
25B8
  3
PUCSORGRIGHT
350
25B9
  3
PUCSORGFRONT
350
25BA
  3
PUCSORGBACK
350
25BB
  3
UCSORTHOREF
350
25BC
  3
UCSORTHOVIEW
350
25BD
  3
UCSBASE
350
25BE
  3
UCSORGTOP
350
25BF
  3
UCSORGBOTTOM
350
25C0
  3
UCSORGLEFT
350
25C1
  3
UCSORGRIGHT
350
25C2
  3
UCSORGFRONT
350
25C3
  3
UCSORGBACK
350
25C4
  0
DICTIONARY
  5
259A
102
{ACAD_REACTORS
330
74
102
}
330
74
100
AcDbDictionary
  3
*A1
350
259B
  0
XRECORD
  5
25C7
102
{ACAD_REACTORS
330
74
102
}
330
74
100
AcDbXrecord
340
1F
  0
XRECORD
  5
25CD
102
{ACAD_REACTORS
330
25CC
102
}
330
25CC
100
AcDbXrecord
340
101
  0
MLINESTYLE
  5
18
102
{ACAD_REACTORS
330
17
102
}
330
17
100
AcDbMlineStyle
  2
STANDARD
 70
     0
  3

 62
   256
 51
90.0
 52
90.0
 71
     2
 49
0.5
 62
   256
  6
BYLAYER
 49
-0.5
 62
   256
  6
BYLAYER
  0
ACDBPLACEHOLDER
  5
F
102
{ACAD_REACTORS
330
E
102
}
330
E
100
AcDbPlaceHolder
280
     0
  0
DICTIONARYVAR
  5
35
102
{ACAD_REACTORS
330
34
102
}
330
34
100
DictionaryVariables
280
     0
  1
1
  0
DICTIONARYVAR
  5
B5E
102
{ACAD_REACTORS
330
34
102
}
330
34
100
DictionaryVariables
280
     0
  1
96
  0
DICTIONARY
  5
260
102
{ACAD_REACTORS
330
43
102
}
330
43
100
AcDbDictionary
  0
DICTIONARY
  5
2C
102
{ACAD_REACTORS
330
2B
102
}
330
2B
100
AcDbDictionary
  3
DWGSETTINGS
350
2D
  0
XRECORD
  5
25A5
102
{ACAD_REACTORS
330
25A4
102
}
330
25A4
100
AcDbXrecord
 90
        1
  0
XRECORD
  5
25A6
102
{ACAD_REACTORS
330
25A4
102
}
330
25A4
100
AcDbXrecord
 90
       70
  0
XRECORD
  5
25A7
102
{ACAD_REACTORS
330
25A4
102
}
330
25A4
100
AcDbXrecord
  1

  0
XRECORD
  5
25A8
102
{ACAD_REACTORS
330
25A4
102
}
330
25A4
100
AcDbXrecord
  1
ASAMI.ctb
  0
XRECORD
  5
25A9
102
{ACAD_REACTORS
330
25A4
102
}
330
25A4
100
AcDbXrecord
340
1A
  0
XRECORD
  5
25AA
102
{ACAD_REACTORS
330
25A4
102
}
330
25A4
100
AcDbXrecord
340
19
  0
XRECORD
  5
25AB
102
{ACAD_REACTORS
330
25A4
102
}
330
25A4
100
AcDbXrecord
340
E
  0
XRECORD
  5
25AC
102
{ACAD_REACTORS
330
25A4
102
}
330
25A4
100
AcDbXrecord
 90
    10781
  0
XRECORD
  5
25AD
102
{ACAD_REACTORS
330
25A4
102
}
330
25A4
100
AcDbXrecord
 90
        4
  0
XRECORD
  5
25AE
102
{ACAD_REACTORS
330
25A4
102
}
330
25A4
100
AcDbXrecord
 90
        0
  0
XRECORD
  5
25AF
102
{ACAD_REACTORS
330
25A4
102
}
330
25A4
100
AcDbXrecord
  1
{AFB28963-8C59-40AE-9337-C84526B81ACE}
  0
XRECORD
  5
25B0
102
{ACAD_REACTORS
330
25A4
102
}
330
25A4
100
AcDbXrecord
  1
{1D3B1096-693D-4EB9-A701-9E6FC53867F3}
  0
XRECORD
  5
25B1
102
{ACAD_REACTORS
330
25A4
102
}
330
25A4
100
AcDbXrecord
 40
0.0
  0
XRECORD
  5
25B2
102
{ACAD_REACTORS
330
25A4
102
}
330
25A4
100
AcDbXrecord
1000
DSTYLE
1002
{
1070
    79
 70
     2
1070
   341
340
59
1070
   342
340
59
1070
   371
 70
    -1
1070
   372
 70
    -1
1002
}
  0
XRECORD
  5
25B3
102
{ACAD_REACTORS
330
25A4
102
}
330
25A4
100
AcDbXrecord
340
0
  0
XRECORD
  5
25B4
102
{ACAD_REACTORS
330
25A4
102
}
330
25A4
100
AcDbXrecord
 70
     0
  0
XRECORD
  5
25B5
102
{ACAD_REACTORS
330
25A4
102
}
330
25A4
100
AcDbXrecord
340
0
  0
XRECORD
  5
25B6
102
{ACAD_REACTORS
330
25A4
102
}
330
25A4
100
AcDbXrecord
 10
0.0
 20
0.0
 30
0.0
  0
XRECORD
  5
25B7
102
{ACAD_REACTORS
330
25A4
102
}
330
25A4
100
AcDbXrecord
 10
0.0
 20
0.0
 30
0.0
  0
XRECORD
  5
25B8
102
{ACAD_REACTORS
330
25A4
102
}
330
25A4
100
AcDbXrecord
 10
0.0
 20
0.0
 30
0.0
  0
XRECORD
  5
25B9
102
{ACAD_REACTORS
330
25A4
102
}
330
25A4
100
AcDbXrecord
 10
0.0
 20
0.0
 30
0.0
  0
XRECORD
  5
25BA
102
{ACAD_REACTORS
330
25A4
102
}
330
25A4
100
AcDbXrecord
 10
0.0
 20
0.0
 30
0.0
  0
XRECORD
  5
25BB
102
{ACAD_REACTORS
330
25A4
102
}
330
25A4
100
AcDbXrecord
 10
0.0
 20
0.0
 30
0.0
  0
XRECORD
  5
25BC
102
{ACAD_REACTORS
330
25A4
102
}
330
25A4
100
AcDbXrecord
340
0
  0
XRECORD
  5
25BD
102
{ACAD_REACTORS
330
25A4
102
}
330
25A4
100
AcDbXrecord
 70
     0
  0
XRECORD
  5
25BE
102
{ACAD_REACTORS
330
25A4
102
}
330
25A4
100
AcDbXrecord
340
0
  0
XRECORD
  5
25BF
102
{ACAD_REACTORS
330
25A4
102
}
330
25A4
100
AcDbXrecord
 10
0.0
 20
0.0
 30
0.0
  0
XRECORD
  5
25C0
102
{ACAD_REACTORS
330
25A4
102
}
330
25A4
100
AcDbXrecord
 10
0.0
 20
0.0
 30
0.0
  0
XRECORD
  5
25C1
102
{ACAD_REACTORS
330
25A4
102
}
330
25A4
100
AcDbXrecord
 10
0.0
 20
0.0
 30
0.0
  0
XRECORD
  5
25C2
102
{ACAD_REACTORS
330
25A4
102
}
330
25A4
100
AcDbXrecord
 10
0.0
 20
0.0
 30
0.0
  0
XRECORD
  5
25C3
102
{ACAD_REACTORS
330
25A4
102
}
330
25A4
100
AcDbXrecord
 10
0.0
 20
0.0
 30
0.0
  0
XRECORD
  5
25C4
102
{ACAD_REACTORS
330
25A4
102
}
330
25A4
100
AcDbXrecord
 10
0.0
 20
0.0
 30
0.0
  0
LAYER_INDEX
  5
259B
102
{ACAD_REACTORS
330
259A
102
}
330
259A
100
AcDbIndex
 40
2452839.679803958
100
AcDbLayerIndex
  8
0
360
259C
 90
        0
  8
AM_0
360
259D
 90
       33
  8
AM_11
360
259E
 90
        3
  8
AM_7
360
259F
 90
        1
  8
AM_5
360
25A0
 90
        4
  8
AM_6
360
25A1
 90
        1
  8
Defpoints
360
25A2
 90
        0
  0
XRECORD
  5
2D
102
{ACAD_REACTORS
330
2C
102
}
330
2C
100
AcDbXrecord
  1
VERSION
140
15.0
  1
PRODUCT
  2
AutoCAD Mechanical 2000
  0
IDBUFFER
  5
259C
330
0
100
AcDbIdBuffer
  0
IDBUFFER
  5
259D
330
0
100
AcDbIdBuffer
330
23E3
330
23E4
330
23E5
330
23E7
330
23E9
330
23EA
330
23EB
330
23EC
330
23EE
330
23EF
330
23F0
330
23F1
330
23F2
330
23F3
330
23F4
330
23F6
330
23F7
330
1615
330
1616
330
1618
330
1619
330
161B
330
162C
330
162E
330
162F
330
1A94
330
20FC
330
2171
330
2176
330
23DF
330
23E0
330
23E1
330
23E2
  0
IDBUFFER
  5
259E
330
0
100
AcDbIdBuffer
330
23E8
330
23ED
330
23F5
  0
IDBUFFER
  5
259F
330
0
100
AcDbIdBuffer
330
21AC
  0
IDBUFFER
  5
25A0
330
0
100
AcDbIdBuffer
330
1968
330
2029
330
217D
330
219D
  0
IDBUFFER
  5
25A1
330
0
100
AcDbIdBuffer
330
F06
  0
IDBUFFER
  5
25A2
330
0
100
AcDbIdBuffer
  0
ENDSEC
  0
EOF
