  0
SECTION
  2
HEADER
  9
$ACADVER
  1
AC1014
  9
$ACADMAINTVER
 70
     9
  9
$DWGCODEPAGE
  3
ANSI_932
  9
$INSBASE
 10
0.0
 20
0.0
 30
0.0
  9
$EXTMIN
 10
-48.90723829529717
 20
-25.75000100000007
 30
-0.00000001
  9
$EXTMAX
 10
8.087748996814738
 20
8.014285714285723
 30
0.00000001
  9
$LIMMIN
 10
-53.76379231140465
 20
-31.69460295188974
  9
$LIMMAX
 10
12.4926741171331
 20
13.60613958968804
  9
$ORTHOMODE
 70
     0
  9
$REGENMODE
 70
     1
  9
$FILLMODE
 70
     1
  9
$QTEXTMODE
 70
     0
  9
$MIRRTEXT
 70
     0
  9
$DRAGMODE
 70
     2
  9
$LTSCALE
 40
1.0
  9
$OSMODE
 70
  2103
  9
$ATTMODE
 70
     1
  9
$TEXTSIZE
 40
2.5
  9
$TRACEWID
 40
1.0
  9
$TEXTSTYLE
  7
STANDARD
  9
$CLAYER
  8
AM_0
  9
$CELTYPE
  6
BYLAYER
  9
$CECOLOR
 62
   256
  9
$CELTSCALE
 40
1.0
  9
$DELOBJ
 70
     1
  9
$DISPSILH
 70
     0
  9
$DIMSCALE
 40
0.5
  9
$DIMASZ
 40
2.5
  9
$DIMEXO
 40
1.0
  9
$DIMDLI
 40
12.0
  9
$DIMRND
 40
0.0
  9
$DIMDLE
 40
0.0
  9
$DIMEXE
 40
1.0
  9
$DIMTP
 40
0.1
  9
$DIMTM
 40
0.1
  9
$DIMTXT
 40
3.2
  9
$DIMCEN
 40
0.0
  9
$DIMTSZ
 40
0.0
  9
$DIMTOL
 70
     0
  9
$DIMLIM
 70
     0
  9
$DIMTIH
 70
     0
  9
$DIMTOH
 70
     0
  9
$DIMSE1
 70
     0
  9
$DIMSE2
 70
     0
  9
$DIMTAD
 70
     3
  9
$DIMZIN
 70
     8
  9
$DIMBLK
  1
OPEN30
  9
$DIMASO
 70
     1
  9
$DIMSHO
 70
     1
  9
$DIMPOST
  1

  9
$DIMAPOST
  1
"
  9
$DIMALT
 70
     0
  9
$DIMALTD
 70
     2
  9
$DIMALTF
 40
0.0393701
  9
$DIMLFAC
 40
1.0
  9
$DIMTOFL
 70
     1
  9
$DIMTVP
 40
0.0
  9
$DIMTIX
 70
     0
  9
$DIMSOXD
 70
     0
  9
$DIMSAH
 70
     0
  9
$DIMBLK1
  1

  9
$DIMBLK2
  1

  9
$DIMSTYLE
  2
AM_JIS
  9
$DIMCLRD
 70
   256
  9
$DIMCLRE
 70
   256
  9
$DIMCLRT
 70
     2
  9
$DIMTFAC
 40
0.71
  9
$DIMGAP
 40
1.5
  9
$DIMJUST
 70
     0
  9
$DIMSD1
 70
     0
  9
$DIMSD2
 70
     0
  9
$DIMTOLJ
 70
     0
  9
$DIMTZIN
 70
     0
  9
$DIMALTZ
 70
     0
  9
$DIMALTTZ
 70
     0
  9
$DIMFIT
 70
     3
  9
$DIMUPT
 70
     0
  9
$DIMUNIT
 70
     2
  9
$DIMDEC
 70
     3
  9
$DIMTDEC
 70
     3
  9
$DIMALTU
 70
     2
  9
$DIMALTTD
 70
     2
  9
$DIMTXSTY
  7
ASAMI
  9
$DIMAUNIT
 70
     0
  9
$LUNITS
 70
     2
  9
$LUPREC
 70
     2
  9
$SKETCHINC
 40
1.0
  9
$FILLETRAD
 40
2.5
  9
$AUNITS
 70
     0
  9
$AUPREC
 70
     0
  9
$MENU
  1
.
  9
$ELEVATION
 40
0.0
  9
$PELEVATION
 40
0.0
  9
$THICKNESS
 40
0.0
  9
$LIMCHECK
 70
     0
  9
$BLIPMODE
 70
     0
  9
$CHAMFERA
 40
0.2
  9
$CHAMFERB
 40
0.2
  9
$CHAMFERC
 40
20.0
  9
$CHAMFERD
 40
0.0
  9
$SKPOLY
 70
     0
  9
$TDCREATE
 40
2452810.397252777
  9
$TDUPDATE
 40
2452839.679629629
  9
$TDINDWG
 40
0.0568665162
  9
$TDUSRTIMER
 40
0.0568665162
  9
$USRTIMER
 70
     1
  9
$ANGBASE
 50
0.0
  9
$ANGDIR
 70
     0
  9
$PDMODE
 70
     0
  9
$PDSIZE
 40
0.0
  9
$PLINEWID
 40
0.0
  9
$COORDS
 70
     2
  9
$SPLFRAME
 70
     0
  9
$SPLINETYPE
 70
     6
  9
$SPLINESEGS
 70
     8
  9
$ATTDIA
 70
     1
  9
$ATTREQ
 70
     1
  9
$HANDLING
 70
 12289
  9
$HANDSEED
  5
23BB
  9
$SURFTAB1
 70
     6
  9
$SURFTAB2
 70
     6
  9
$SURFTYPE
 70
     6
  9
$SURFU
 70
     6
  9
$SURFV
 70
     6
  9
$UCSNAME
  2

  9
$UCSORG
 10
0.0
 20
0.0
 30
0.0
  9
$UCSXDIR
 10
1.0
 20
0.0
 30
0.0
  9
$UCSYDIR
 10
0.0
 20
1.0
 30
0.0
  9
$PUCSNAME
  2

  9
$PUCSORG
 10
0.0
 20
0.0
 30
0.0
  9
$PUCSXDIR
 10
1.0
 20
0.0
 30
0.0
  9
$PUCSYDIR
 10
0.0
 20
1.0
 30
0.0
  9
$USERI1
 70
     0
  9
$USERI2
 70
     0
  9
$USERI3
 70
     0
  9
$USERI4
 70
     0
  9
$USERI5
 70
     0
  9
$USERR1
 40
0.0
  9
$USERR2
 40
0.0
  9
$USERR3
 40
0.0
  9
$USERR4
 40
0.0
  9
$USERR5
 40
0.0
  9
$WORLDVIEW
 70
     1
  9
$SHADEDGE
 70
     3
  9
$SHADEDIF
 70
    70
  9
$TILEMODE
 70
     1
  9
$MAXACTVP
 70
    64
  9
$PINSBASE
 10
0.0
 20
0.0
 30
0.0
  9
$PLIMCHECK
 70
     0
  9
$PEXTMIN
 10
1.000000000000000E+20
 20
1.000000000000000E+20
 30
1.000000000000000E+20
  9
$PEXTMAX
 10
-1.000000000000000E+20
 20
-1.000000000000000E+20
 30
-1.000000000000000E+20
  9
$PLIMMIN
 10
0.0
 20
0.0
  9
$PLIMMAX
 10
841.0
 20
594.0
  9
$UNITMODE
 70
     0
  9
$VISRETAIN
 70
     1
  9
$PLINEGEN
 70
     0
  9
$PSLTSCALE
 70
     0
  9
$TREEDEPTH
 70
  3020
  9
$PICKSTYLE
 70
     0
  9
$CMLSTYLE
  2
STANDARD
  9
$CMLJUST
 70
     0
  9
$CMLSCALE
 40
20.0
  9
$PROXYGRAPHICS
 70
     1
  9
$MEASUREMENT
 70
     1
  0
ENDSEC
  0
SECTION
  2
CLASSES
  0
CLASS
  1
ACDBDICTIONARYWDFLT
  2
AcDbDictionaryWithDefault
  3
AutoCAD 2000
 90
        0
280
     0
281
     0
  0
CLASS
  1
ACDBPLACEHOLDER
  2
AcDbPlaceHolder
  3
AutoCAD 2000
 90
        0
280
     0
281
     0
  0
CLASS
  1
LAYOUT
  2
AcDbLayout
  3
AutoCAD 2000
 90
        0
280
     0
281
     0
  0
CLASS
  1
AMGSETTINGSOBJ
  2
AmgSettingsObj
  3
"AcadM|Product Description: AutoCAD Mechanical 2000|Company: Autodesk"
 90
        0
280
     0
281
     0
  0
CLASS
  1
ACME_DOCUMENT
  2
AcMeDbDoc
  3
AcMeServices
 90
        0
280
     0
281
     0
  0
CLASS
  1
ACMESCOPE
  2
AcMeScope
  3
AcMeServices
 90
        0
280
     0
281
     0
  0
CLASS
  1
ACMECOMMANDHISTORY
  2
AcMeCommandHistory
  3
AcMeServices
 90
        0
280
     0
281
     0
  0
CLASS
  1
DICTIONARYVAR
  2
AcDbDictionaryVar
  3
AutoCAD 2000
 90
        0
280
     0
281
     0
  0
CLASS
  1
ACIMSYSVARMAN
  2
AcImSysVarManager
  3
AcMeServices
 90
        0
280
     0
281
     0
  0
CLASS
  1
ACIMREALSYSVAR
  2
AcImRealSysVar
  3
AcMeServices
 90
        0
280
     0
281
     0
  0
CLASS
  1
ACIMINTSYSVAR
  2
AcImIntSysVar
  3
AcMeServices
 90
        0
280
     0
281
     0
  0
CLASS
  1
ACMEDRAWINGMAN
  2
AcMeDrawingMan
  3
AcMeServices
 90
        0
280
     0
281
     0
  0
CLASS
  1
ACMEVIEW
  2
AcMeView
  3
AcMeServices
 90
        0
280
     0
281
     0
  0
CLASS
  1
ACDBENTITYCACHE
  2
AcMeEntityCache
  3
AcMeServices
 90
        0
280
     0
281
     0
  0
CLASS
  1
GSMANAGER
  2
AcMeGSManager
  3
AcMeServices
 90
        0
280
     0
281
     0
  0
CLASS
  1
AmdtInternalReactor
  2
AmdtInternalReactor
  3
AcMeServices
 90
        0
280
     0
281
     0
  0
CLASS
  1
ACMESTATEMGR
  2
AcMeStateMgr
  3
AcMeServices
 90
        0
280
     0
281
     0
  0
CLASS
  1
ACME_DATABASE
  2
AcMeDbDatabase
  3
AcMeServices
 90
        0
280
     0
281
     0
  0
CLASS
  1
ACRFINSADJUSTERMGR
  2
AcRfInsAdjusterMgr
  3
AcMeServices
 90
        0
280
     0
281
     0
  0
CLASS
  1
ACMDATADICTIONARY
  2
AcmDataDictionary
  3
"AcmSymBB|Product Description: AutoCAD Mechanical 2000|Company: Autodesk"
 90
        0
280
     0
281
     0
  0
CLASS
  1
ACMDATAENTRYBLOCK
  2
AcmDataEntryBlock
  3
"AcmSymBB|Product Description: AutoCAD Mechanical 2000|Company: Autodesk"
 90
        0
280
     0
281
     0
  0
CLASS
  1
AMGOBJPROPCFG
  2
AmgObjPropCfg
  3
"AmgLay|Product Description: AutoCAD Mechanical 2000|Company: Autodesk"
 90
        1
280
     0
281
     0
  0
CLASS
  1
ACAMGFILTERDAT
  2
AcAmgFilterDat
  3
"AcadM|Product Description: AutoCAD Mechanical 2000|Company: Autodesk"
 90
        0
280
     0
281
     0
  0
CLASS
  1
LAYER_INDEX
  2
AcDbLayerIndex
  3
AutoCAD 2000
 90
        0
280
     0
281
     0
  0
CLASS
  1
IDBUFFER
  2
AcDbIdBuffer
  3
AutoCAD 2000
 90
        0
280
     0
281
     0
  0
CLASS
  1
ACIMSTRSYSVAR
  2
AcImStrSysVar
  3
AcMeServices
 90
        0
280
     0
281
     0
  0
CLASS
  1
ACMSTANDARDJIS
  2
AcmStandardJIS
  3
"AcmSymBB|Product Description: AutoCAD Mechanical 2000|Company: Autodesk"
 90
        0
280
     0
281
     0
  0
CLASS
  1
ACMSURFSTANDARDJIS
  2
AcmSurfTextStdJIS
  3
"AcmSymBB|Product Description: AutoCAD Mechanical 2000|Company: Autodesk"
 90
        0
280
     0
281
     0
  0
CLASS
  1
ACMFCFSTANDARDJIS
  2
AcmFCFStdJIS
  3
"AcmSymBB|Product Description: AutoCAD Mechanical 2000|Company: Autodesk"
 90
        0
280
     0
281
     0
  0
CLASS
  1
ACMWELDSTANDARDJIS
  2
AcmWeldingStdJIS
  3
"AcmSymBB|Product Description: AutoCAD Mechanical 2000|Company: Autodesk"
 90
        0
280
     0
281
     0
  0
CLASS
  1
ACMIDSTANDARDJIS
  2
AcmIdStdJIS
  3
"AcmSymBB|Product Description: AutoCAD Mechanical 2000|Company: Autodesk"
 90
        0
280
     0
281
     0
  0
CLASS
  1
ACMDATUMSTANDARDJIS
  2
AcmDatumStdJIS
  3
"AcmSymBB|Product Description: AutoCAD Mechanical 2000|Company: Autodesk"
 90
        0
280
     0
281
     0
  0
CLASS
  1
ACMBOMSTANDARDJIS
  2
AcmBOMStdJIS
  3
"AcmSymBB|Product Description: AutoCAD Mechanical 2000|Company: Autodesk"
 90
        0
280
     0
281
     0
  0
CLASS
  1
ACMSTANDARDANSI
  2
AcmStandardANSI
  3
"AcmSymBB|Product Description: AutoCAD Mechanical 2000|Company: Autodesk"
 90
        0
280
     0
281
     0
  0
CLASS
  1
ACMSURFSTANDARDANSI
  2
AcmSurfTextStdANSI
  3
"AcmSymBB|Product Description: AutoCAD Mechanical 2000|Company: Autodesk"
 90
        0
280
     0
281
     0
  0
CLASS
  1
ACMFCFSTANDARDANSI
  2
AcmFCFStdANSI
  3
"AcmSymBB|Product Description: AutoCAD Mechanical 2000|Company: Autodesk"
 90
        0
280
     0
281
     0
  0
CLASS
  1
ACMWELDSTANDARDANSI
  2
AcmWeldingStdANSI
  3
"AcmSymBB|Product Description: AutoCAD Mechanical 2000|Company: Autodesk"
 90
        0
280
     0
281
     0
  0
CLASS
  1
ACMIDSTANDARDANSI
  2
AcmIdStdANSI
  3
"AcmSymBB|Product Description: AutoCAD Mechanical 2000|Company: Autodesk"
 90
        0
280
     0
281
     0
  0
CLASS
  1
ACMDATUMSTANDARDANSI
  2
AcmDatumStdANSI
  3
"AcmSymBB|Product Description: AutoCAD Mechanical 2000|Company: Autodesk"
 90
        0
280
     0
281
     0
  0
CLASS
  1
ACMBOMSTANDARDANSI
  2
AcmBOMStdANSI
  3
"AcmSymBB|Product Description: AutoCAD Mechanical 2000|Company: Autodesk"
 90
        0
280
     0
281
     0
  0
CLASS
  1
ACMSTANDARDBSI
  2
AcmStandardBSI
  3
"AcmSymBB|Product Description: AutoCAD Mechanical 2000|Company: Autodesk"
 90
        0
280
     0
281
     0
  0
CLASS
  1
ACMSURFSTANDARDBSI
  2
AcmSurfTextStdBSI
  3
"AcmSymBB|Product Description: AutoCAD Mechanical 2000|Company: Autodesk"
 90
        0
280
     0
281
     0
  0
CLASS
  1
ACMFCFSTANDARDBSI
  2
AcmFCFStdBSI
  3
"AcmSymBB|Product Description: AutoCAD Mechanical 2000|Company: Autodesk"
 90
        0
280
     0
281
     0
  0
CLASS
  1
ACMWELDSTANDARDBSI
  2
AcmWeldingStdBSI
  3
"AcmSymBB|Product Description: AutoCAD Mechanical 2000|Company: Autodesk"
 90
        0
280
     0
281
     0
  0
CLASS
  1
ACMIDSTANDARDBSI
  2
AcmIdStdBSI
  3
"AcmSymBB|Product Description: AutoCAD Mechanical 2000|Company: Autodesk"
 90
        0
280
     0
281
     0
  0
CLASS
  1
ACMDATUMSTANDARDBSI
  2
AcmDatumStdBSI
  3
"AcmSymBB|Product Description: AutoCAD Mechanical 2000|Company: Autodesk"
 90
        0
280
     0
281
     0
  0
CLASS
  1
ACMBOMSTANDARDBSI
  2
AcmBOMStdBSI
  3
"AcmSymBB|Product Description: AutoCAD Mechanical 2000|Company: Autodesk"
 90
        0
280
     0
281
     0
  0
CLASS
  1
LONG_TRANSACTION
  2
AcDbLongTransaction
  3
AutoCAD 2000
 90
        0
280
     0
281
     0
  0
CLASS
  1
LWPOLYLINE
  2
AcDbPolyline
  3
AutoCAD 2000
 90
        0
280
     0
281
     1
  0
CLASS
  1
HATCH
  2
AcDbHatch
  3
AutoCAD 2000
 90
        0
280
     0
281
     1
  0
CLASS
  1
XRECORD
  2
AcDbXrecord
  3
AutoCAD 2000
 90
        0
280
     0
281
     0
  0
ENDSEC
  0
SECTION
  2
TABLES
  0
TABLE
  2
VPORT
  5
8
330
0
100
AcDbSymbolTable
 70
     3
  0
VPORT
  5
2390
330
8
100
AcDbSymbolTableRecord
100
AcDbViewportTableRecord
  2
*ACTIVE
 70
     0
 10
0.0
 20
0.0
 11
1.0
 21
1.0
 12
-20.40808541742217
 22
-8.86796678434343
 13
0.0
 23
0.0
 14
2.5
 24
2.5
 15
10.0
 25
10.0
 16
0.0
 26
0.0
 36
1.0
 17
0.0
 27
0.0
 37
0.0
 40
36.54821119943193
 41
1.56570841889117
 42
50.0
 43
0.0
 44
0.0
 50
0.0
 51
0.0
 71
     0
 72
   100
 73
     1
 74
     3
 75
     0
 76
     0
 77
     0
 78
     0
  0
ENDTAB
  0
TABLE
  2
LTYPE
  5
5
330
0
100
AcDbSymbolTable
 70
    10
  0
LTYPE
  5
14
330
5
100
AcDbSymbolTableRecord
100
AcDbLinetypeTableRecord
  2
BYBLOCK
 70
     0
  3

 72
    65
 73
     0
 40
0.0
  0
LTYPE
  5
15
330
5
100
AcDbSymbolTableRecord
100
AcDbLinetypeTableRecord
  2
BYLAYER
 70
     0
  3

 72
    65
 73
     0
 40
0.0
  0
LTYPE
  5
16
330
5
100
AcDbSymbolTableRecord
100
AcDbLinetypeTableRecord
  2
CONTINUOUS
 70
     0
  3
Solid line
 72
    65
 73
     0
 40
0.0
  0
LTYPE
  5
4B
330
5
100
AcDbSymbolTableRecord
100
AcDbLinetypeTableRecord
  2
AM_ISO02W050
 70
     0
  3
__ __ __ __ __ __ __ __ __ __ __ __ __ __ __
 72
    65
 73
     2
 40
7.5
 49
6.0
 74
     0
 49
-1.5
 74
     0
  0
LTYPE
  5
4C
330
5
100
AcDbSymbolTableRecord
100
AcDbLinetypeTableRecord
  2
AM_ISO08W050
 70
     0
  3
____ . ____ . ____ . ____ . ____ . ____ . ____
 72
    65
 73
     4
 40
18.0
 49
12.0
 74
     0
 49
-1.5
 74
     0
 49
3.0
 74
     0
 49
-1.5
 74
     0
  0
LTYPE
  5
4D
330
5
100
AcDbSymbolTableRecord
100
AcDbLinetypeTableRecord
  2
AM_ISO09W050
 70
     0
  3
_____ . . _____ . . _____ . . ____ .. ____
 72
    65
 73
     6
 40
22.5
 49
12.0
 74
     0
 49
-1.5
 74
     0
 49
3.0
 74
     0
 49
-1.5
 74
     0
 49
3.0
 74
     0
 49
-1.5
 74
     0
  0
LTYPE
  5
4E
330
5
100
AcDbSymbolTableRecord
100
AcDbLinetypeTableRecord
  2
AMCONSTR
 70
     0
  3
_______________________
 72
    65
 73
     2
 40
9999.0
 49
9999.0
 74
     0
 49
0.0
 74
     0
  0
LTYPE
  5
4F
330
5
100
AcDbSymbolTableRecord
100
AcDbLinetypeTableRecord
  2
AM_ISO02W050X2
 70
     0
  3
 _ _ _ _ _ _ _ _ _ _ _ _
 72
    65
 73
     2
 40
3.75
 49
3.0
 74
     0
 49
-0.75
 74
     0
  0
LTYPE
  5
50
330
5
100
AcDbSymbolTableRecord
100
AcDbLinetypeTableRecord
  2
AM_ISO08W050X2
 70
     0
  3
__ . __ . __ . __ . __ . __
 72
    65
 73
     4
 40
9.0
 49
6.0
 74
     0
 49
-0.75
 74
     0
 49
1.5
 74
     0
 49
-0.75
 74
     0
  0
LTYPE
  5
53
330
5
100
AcDbSymbolTableRecord
100
AcDbLinetypeTableRecord
  2
AMZIGZAG
 70
     0
  3
/\/-/\/-/\/-/\/-/\/-/\/
 72
    65
 73
     2
 40
11.00009999999999
 49
0.0001
 74
     4
 75
   135
340
52
 46
0.04
 50
0.0
 44
0.0
 45
0.0
 49
-11.0
 74
     0
  0
LTYPE
  5
166
330
5
100
AcDbSymbolTableRecord
100
AcDbLinetypeTableRecord
  2
ACJISTGL
 70
     0
  3
_ _ _ _ _
 72
    65
 73
     2
 40
3.0
 49
2.0
 74
     0
 49
-1.0
 74
     0
  0
LTYPE
  5
26A
330
5
100
AcDbSymbolTableRecord
100
AcDbLinetypeTableRecord
  2
ACJISTGB
 70
     0
  3
__ . . __ . .
 72
    65
 73
     6
 40
9.0
 49
4.0
 74
     0
 49
-1.0
 74
     0
 49
1.0
 74
     0
 49
-1.0
 74
     0
 49
1.0
 74
     0
 49
-1.0
 74
     0
  0
ENDTAB
  0
TABLE
  2
LAYER
  5
2
330
0
100
AcDbSymbolTable
 70
     8
  0
LAYER
  5
10
330
2
100
AcDbSymbolTableRecord
100
AcDbLayerTableRecord
  2
0
 70
     0
 62
     7
  6
CONTINUOUS
  0
LAYER
  5
3F9
330
2
100
AcDbSymbolTableRecord
100
AcDbLayerTableRecord
  2
AM_0
 70
     0
 62
     7
  6
CONTINUOUS
  0
LAYER
  5
BA4
330
2
100
AcDbSymbolTableRecord
100
AcDbLayerTableRecord
  2
AM_11
 70
     0
 62
     3
  6
AM_ISO09W050
  0
LAYER
  5
BA5
330
2
100
AcDbSymbolTableRecord
100
AcDbLayerTableRecord
  2
AM_7
 70
     0
 62
     4
  6
AM_ISO08W050
  0
LAYER
  5
C84
330
2
100
AcDbSymbolTableRecord
100
AcDbLayerTableRecord
  2
AM_5
 70
     0
 62
     3
  6
CONTINUOUS
  0
LAYER
  5
F05
330
2
100
AcDbSymbolTableRecord
100
AcDbLayerTableRecord
  2
AM_6
 70
     0
 62
     2
  6
CONTINUOUS
  0
LAYER
  5
F0F
330
2
100
AcDbSymbolTableRecord
100
AcDbLayerTableRecord
  2
DEFPOINTS
 70
     0
 62
     7
  6
CONTINUOUS
  0
LAYER
  5
206C
330
2
100
AcDbSymbolTableRecord
100
AcDbLayerTableRecord
  2
AM_CL
 70
     0
 62
     1
  6
AMCONSTR
  0
ENDTAB
  0
TABLE
  2
STYLE
  5
3
330
0
100
AcDbSymbolTable
 70
     5
  0
STYLE
  5
11
330
3
100
AcDbSymbolTableRecord
100
AcDbTextStyleTableRecord
  2
STANDARD
 70
     0
 40
0.0
 41
1.0
 50
0.0
 71
     0
 42
2.5
  3
simplex.shx
  4
EXTFONT.SHX
  0
STYLE
  5
52
330
3
100
AcDbSymbolTableRecord
100
AcDbTextStyleTableRecord
  2

 70
     1
 40
0.0
 41
1.0
 50
0.0
 71
     0
 42
2.5
  3
ltypeshp.shx
  4

  0
STYLE
  5
6B
330
3
100
AcDbSymbolTableRecord
100
AcDbTextStyleTableRecord
  2
ASAMI
 70
     0
 40
0.0
 41
1.0
 50
0.0
 71
     0
 42
2.5
  3
simplex.shx
  4
EXTFONT.SHX
  0
STYLE
  5
262
330
3
100
AcDbSymbolTableRecord
100
AcDbTextStyleTableRecord
  2
ACJISTS
 70
     0
 40
1.0
 41
1.0
 50
0.0
 71
     0
 42
2.5
  3
simplex.shx
  4
bigfont.shx
  0
STYLE
  5
269
330
3
100
AcDbSymbolTableRecord
100
AcDbTextStyleTableRecord
  2
ACJISGDT
 70
     0
 40
0.0
 41
1.0
 50
0.0
 71
     0
 42
2.5
  3
amgdtans.shx
  4

  0
ENDTAB
  0
TABLE
  2
VIEW
  5
6
330
0
100
AcDbSymbolTable
 70
     0
  0
ENDTAB
  0
TABLE
  2
UCS
  5
7
330
0
100
AcDbSymbolTable
 70
     0
  0
ENDTAB
  0
TABLE
  2
APPID
  5
9
330
0
100
AcDbSymbolTable
 70
    13
  0
APPID
  5
12
330
9
100
AcDbSymbolTableRecord
100
AcDbRegAppTableRecord
  2
ACAD
 70
     0
  0
APPID
  5
30
330
9
100
AcDbSymbolTableRecord
100
AcDbRegAppTableRecord
  2
MCAD_NO_VIS
 70
     0
  0
APPID
  5
31
330
9
100
AcDbSymbolTableRecord
100
AcDbRegAppTableRecord
  2
ACAD_TEMP_GRAPHIC
 70
     0
  0
APPID
  5
2C2
330
9
100
AcDbSymbolTableRecord
100
AcDbRegAppTableRecord
  2
GENIUS_GENDTOL_13
 70
     0
  0
APPID
  5
339
330
9
100
AcDbSymbolTableRecord
100
AcDbRegAppTableRecord
  2
GENIUS_GENODEF_13
 70
     0
  0
APPID
  5
33A
330
9
100
AcDbSymbolTableRecord
100
AcDbRegAppTableRecord
  2
GENIUS_GENOBJ-N-RSBK_13
 70
     0
  0
APPID
  5
33B
330
9
100
AcDbSymbolTableRecord
100
AcDbRegAppTableRecord
  2
GENIUS_GENOBJ-N-LIB_13
 70
     0
  0
APPID
  5
33C
330
9
100
AcDbSymbolTableRecord
100
AcDbRegAppTableRecord
  2
GENIUS_GENSCALE_13
 70
     0
  0
APPID
  5
378
330
9
100
AcDbSymbolTableRecord
100
AcDbRegAppTableRecord
  2
GENIUS_GENDIMSH_14
 70
     0
  0
APPID
  5
BA6
330
9
100
AcDbSymbolTableRecord
100
AcDbRegAppTableRecord
  2
GENIUS_GENOBJ-N-CEN_13
 70
     0
  0
APPID
  5
BEC
330
9
100
AcDbSymbolTableRecord
100
AcDbRegAppTableRecord
  2
GENIUS_GENOREF_13
 70
     0
  0
APPID
  5
EEE
330
9
100
AcDbSymbolTableRecord
100
AcDbRegAppTableRecord
  2
GENIUS_GENFIL_13
 70
     0
  0
APPID
  5
EEF
330
9
100
AcDbSymbolTableRecord
100
AcDbRegAppTableRecord
  2
GENIUS_GENOBJ-N-CHA_13
 70
     0
  0
ENDTAB
  0
TABLE
  2
DIMSTYLE
  5
A
330
0
100
AcDbSymbolTable
 70
     8
  0
DIMSTYLE
105
58
102
{ACAD_REACTORS
330
18B4
330
1968
330
2132
330
2152
102
}
330
A
100
AcDbSymbolTableRecord
100
AcDbDimStyleTableRecord
  2
AM_JIS
 70
     0
  3

  4
"
  5
OPEN30
  6

  7

 40
0.5
 41
2.5
 42
1.0
 43
12.0
 44
1.0
 45
0.0
 46
0.0
 47
0.1
 48
0.1
140
3.2
141
0.0
142
0.0
143
0.0393701
144
1.0
145
0.0
146
0.71
147
1.5
 71
     0
 72
     0
 73
     0
 74
     0
 75
     0
 76
     0
 77
     3
 78
     8
170
     0
171
     2
172
     1
173
     0
174
     0
175
     0
176
   256
177
   256
178
     2
270
     2
271
     3
272
     3
273
     2
274
     2
340
6B
275
     0
280
     0
281
     0
282
     0
283
     0
284
     0
285
     0
286
     0
287
     3
288
     0
  0
DIMSTYLE
105
5F
330
A
100
AcDbSymbolTableRecord
100
AcDbDimStyleTableRecord
  2
AM_JIS$3
 70
     0
  3

  4
"
  5
OPEN30
  6

  7

 40
0.5
 41
2.5
 42
1.0
 43
10.0
 44
1.0
 45
0.0
 46
0.0
 47
0.1
 48
0.1
140
3.2
141
0.0
142
0.0
143
0.0393701
144
1.0
145
0.0
146
0.71
147
1.5
 71
     0
 72
     0
 73
     0
 74
     1
 75
     0
 76
     0
 77
     3
 78
     8
170
     0
171
     2
172
     0
173
     0
174
     0
175
     0
176
   256
177
   256
178
     2
270
     2
271
     2
272
     3
273
     2
274
     2
340
6B
275
     0
280
     0
281
     0
282
     0
283
     0
284
     0
285
     0
286
     0
287
     0
288
     1
  0
DIMSTYLE
105
60
330
A
100
AcDbSymbolTableRecord
100
AcDbDimStyleTableRecord
  2
AM_JIS$4
 70
     0
  3

  4
"
  5
OPEN30
  6

  7

 40
0.5
 41
2.5
 42
1.0
 43
10.0
 44
1.0
 45
0.0
 46
0.0
 47
0.1
 48
0.1
140
3.2
141
0.0
142
0.0
143
0.0393701
144
1.0
145
0.0
146
0.71
147
1.5
 71
     0
 72
     0
 73
     0
 74
     1
 75
     0
 76
     0
 77
     3
 78
     8
170
     0
171
     2
172
     0
173
     0
174
     0
175
     0
176
   256
177
   256
178
     2
270
     2
271
     2
272
     3
273
     2
274
     2
340
6B
275
     0
280
     0
281
     0
282
     0
283
     0
284
     0
285
     0
286
     0
287
     0
288
     1
  0
DIMSTYLE
105
61
330
A
100
AcDbSymbolTableRecord
100
AcDbDimStyleTableRecord
  2
AM_JIS$6
 70
     0
  3

  4
"
  5
OPEN30
  6

  7

 40
0.5
 41
2.5
 42
1.0
 43
10.0
 44
1.0
 45
0.0
 46
0.0
 47
0.1
 48
0.1
140
3.2
141
0.0
142
0.0
143
0.0393701
144
1.0
145
0.0
146
0.71
147
1.5
 71
     0
 72
     0
 73
     0
 74
     0
 75
     0
 76
     0
 77
     0
 78
     8
170
     0
171
     2
172
     1
173
     0
174
     0
175
     0
176
   256
177
   256
178
     2
270
     2
271
     2
272
     2
273
     2
274
     2
340
6B
275
     0
280
     0
281
     0
282
     0
283
     0
284
     0
285
     0
286
     0
287
     3
288
     0
  0
DIMSTYLE
105
62
330
A
100
AcDbSymbolTableRecord
100
AcDbDimStyleTableRecord
  2
AM_JIS$7
 70
     0
  3

  4
"
  5
OPEN30
  6

  7

 40
0.5
 41
2.5
 42
1.0
 43
10.0
 44
1.0
 45
0.0
 46
0.0
 47
0.1
 48
0.1
140
3.2
141
0.0
142
0.0
143
0.0393701
144
1.0
145
0.0
146
0.71
147
1.5
 71
     0
 72
     0
 73
     0
 74
     0
 75
     0
 76
     0
 77
     3
 78
     8
170
     0
171
     2
172
     1
173
     0
174
     0
175
     0
176
   256
177
   256
178
     2
270
     2
271
     2
272
     3
273
     2
274
     2
340
6B
275
     0
280
     0
281
     0
282
     0
283
     0
284
     0
285
     0
286
     0
287
     3
288
     0
  0
DIMSTYLE
105
63
330
A
100
AcDbSymbolTableRecord
100
AcDbDimStyleTableRecord
  2
AM_JIS$SF
 70
     0
  3

  4
"
  5
OPEN30
  6

  7

 40
0.5
 41
2.5
 42
1.0
 43
10.0
 44
1.0
 45
0.0
 46
0.0
 47
0.1
 48
0.1
140
3.2
141
0.0
142
0.0
143
0.0393701
144
1.0
145
0.0
146
0.71
147
1.5
 71
     0
 72
     0
 73
     0
 74
     0
 75
     1
 76
     1
 77
     3
 78
     8
170
     0
171
     2
172
     1
173
     0
174
     0
175
     0
176
   256
177
   256
178
     2
270
     2
271
     2
272
     2
273
     2
274
     2
340
6B
275
     0
280
     0
281
     0
282
     0
283
     0
284
     0
285
     0
286
     0
287
     3
288
     0
  0
DIMSTYLE
105
68
330
A
100
AcDbSymbolTableRecord
100
AcDbDimStyleTableRecord
  2
AM_JIS$SH
 70
     0
  3

  4
"
  5

  6
GENAXEH
  7
OPEN30
 40
0.5
 41
2.5
 42
1.0
 43
10.0
 44
1.0
 45
0.0
 46
0.0
 47
0.1
 48
0.1
140
3.2
141
0.0
142
0.0
143
0.0393701
144
2.0
145
0.0
146
0.71
147
1.5
 71
     0
 72
     0
 73
     0
 74
     0
 75
     1
 76
     1
 77
     3
 78
     8
170
     0
171
     2
172
     1
173
     1
174
     0
175
     0
176
   256
177
   256
178
     2
270
     2
271
     2
272
     2
273
     2
274
     2
340
6B
275
     0
280
     0
281
     0
282
     0
283
     0
284
     0
285
     0
286
     0
287
     3
288
     0
  0
DIMSTYLE
105
B34
330
A
100
AcDbSymbolTableRecord
100
AcDbDimStyleTableRecord
  2
AM_JIS$2
 70
     0
  3

  4
"
  5
OPEN30
  6

  7

 40
0.5
 41
2.5
 42
1.0
 43
12.0
 44
1.0
 45
0.0
 46
0.0
 47
0.1
 48
0.1
140
3.2
141
0.0
142
0.0
143
0.0393701
144
1.0
145
0.0
146
0.71
147
1.5
 71
     0
 72
     0
 73
     0
 74
     0
 75
     0
 76
     0
 77
     3
 78
     8
170
     0
171
     2
172
     1
173
     0
174
     0
175
     0
176
   256
177
   256
178
     2
270
     2
271
     3
272
     3
273
     2
274
     2
340
6B
275
     0
280
     0
281
     0
282
     0
283
     0
284
     0
285
     0
286
     0
287
     3
288
     0
  0
ENDTAB
  0
TABLE
  2
BLOCK_RECORD
  5
1
330
0
100
AcDbSymbolTable
 70
     9
  0
BLOCK_RECORD
  5
1F
102
{ACAD_XDICTIONARY
360
74
102
}
330
1
100
AcDbSymbolTableRecord
100
AcDbBlockTableRecord
  2
*MODEL_SPACE
  0
BLOCK_RECORD
  5
101
102
{ACAD_XDICTIONARY
360
23B9
102
}
330
1
100
AcDbSymbolTableRecord
100
AcDbBlockTableRecord
  2
*PAPER_SPACE
  0
BLOCK_RECORD
  5
59
330
1
100
AcDbSymbolTableRecord
100
AcDbBlockTableRecord
  2
_OPEN30
  0
BLOCK_RECORD
  5
64
330
1
100
AcDbSymbolTableRecord
100
AcDbBlockTableRecord
  2
GENAXEH
  0
BLOCK_RECORD
  5
18B5
330
1
100
AcDbSymbolTableRecord
100
AcDbBlockTableRecord
  2
*D5
  0
BLOCK_RECORD
  5
1969
330
1
100
AcDbSymbolTableRecord
100
AcDbBlockTableRecord
  2
*D6
  0
BLOCK_RECORD
  5
2133
330
1
100
AcDbSymbolTableRecord
100
AcDbBlockTableRecord
  2
*D7
  0
BLOCK_RECORD
  5
2153
330
1
100
AcDbSymbolTableRecord
100
AcDbBlockTableRecord
  2
*D8
  0
ENDTAB
  0
ENDSEC
  0
SECTION
  2
BLOCKS
  0
BLOCK
  5
20
330
1F
100
AcDbEntity
  8
0
100
AcDbBlockBegin
  2
*MODEL_SPACE
 70
     0
 10
0.0
 20
0.0
 30
0.0
  3
*MODEL_SPACE
  1

  0
ENDBLK
  5
21
330
1F
100
AcDbEntity
  8
0
100
AcDbBlockEnd
  0
BLOCK
  5
103
330
101
100
AcDbEntity
 67
     1
  8
0
100
AcDbBlockBegin
  2
*PAPER_SPACE
 70
     0
 10
0.0
 20
0.0
 30
0.0
  3
*PAPER_SPACE
  1

  0
ENDBLK
  5
104
330
101
100
AcDbEntity
 67
     1
  8
0
100
AcDbBlockEnd
  0
BLOCK
  5
5D
330
59
100
AcDbEntity
  8
0
100
AcDbBlockBegin
  2
_OPEN30
 70
     0
 10
0.0
 20
0.0
 30
0.0
  3
_OPEN30
  1

  0
LINE
  5
5A
330
59
100
AcDbEntity
  8
0
 62
     0
100
AcDbLine
 10
-1.0
 20
0.26794919
 30
0.0
 11
0.0
 21
0.0
 31
0.0
  0
LINE
  5
5B
330
59
100
AcDbEntity
  8
0
 62
     0
100
AcDbLine
 10
0.0
 20
0.0
 30
0.0
 11
-1.0
 21
-0.26794919
 31
0.0
  0
LINE
  5
5C
330
59
100
AcDbEntity
  8
0
 62
     0
100
AcDbLine
 10
0.0
 20
0.0
 30
0.0
 11
-1.0
 21
0.0
 31
0.0
  0
ENDBLK
  5
5E
330
59
100
AcDbEntity
  8
0
100
AcDbBlockEnd
  0
BLOCK
  5
66
330
64
100
AcDbEntity
  8
0
100
AcDbBlockBegin
  2
GENAXEH
 70
     0
 10
0.0
 20
0.0
 30
0.0
  3
GENAXEH
  1

  0
LINE
  5
65
330
64
100
AcDbEntity
  8
0
100
AcDbLine
 10
-1.0
 20
0.0
 30
0.0
 11
1.0
 21
0.0
 31
0.0
  0
ENDBLK
  5
67
330
64
100
AcDbEntity
  8
0
100
AcDbBlockEnd
  0
BLOCK
  5
18BF
330
18B5
100
AcDbEntity
  8
0
100
AcDbBlockBegin
  2
*D5
 70
     1
 10
0.0
 20
0.0
 30
0.0
  3
*D5
  1

  0
LINE
  5
21D4
330
18B5
100
AcDbEntity
  8
AM_5
100
AcDbLine
 10
-0.0000000000000245
 20
-1.099661121759384
 30
0.0
 11
-0.0000000000000254
 21
-15.00000100000006
 31
0.0
  0
LINE
  5
21D5
330
18B5
100
AcDbEntity
  8
AM_5
100
AcDbLine
 10
-37.99999999999999
 20
-1.799999999999994
 30
0.0
 11
-37.99999999999999
 21
-15.00000100000006
 31
0.0
  0
LINE
  5
21D6
330
18B5
100
AcDbEntity
  8
AM_5
100
AcDbLine
 10
-1.250000000000025
 20
-14.50000100000006
 30
0.0
 11
-36.74999999999999
 21
-14.50000100000006
 31
0.0
  0
INSERT
  5
21D7
330
18B5
100
AcDbEntity
  8
AM_5
100
AcDbBlockReference
  2
_OPEN30
 10
-0.0000000000000254
 20
-14.50000100000006
 30
0.0
 41
1.25
 42
1.25
 43
1.25
  0
INSERT
  5
21D8
330
18B5
100
AcDbEntity
  8
AM_5
100
AcDbBlockReference
  2
_OPEN30
 10
-37.99999999999999
 20
-14.50000100000006
 30
0.0
 41
1.25
 42
1.25
 43
1.25
 50
180.0
  0
MTEXT
  5
21D9
330
18B5
100
AcDbEntity
  8
AM_5
 62
     2
100
AcDbMText
 10
-19.00000000000001
 20
-12.95000100000006
 30
0.0
 40
1.6
 41
0.0
 71
     5
 72
     1
  1
38
  7
ASAMI
1001
ACAD
1000
MTEXTBEGIN
1070
    73
1070
     1
1070
    44
1040
1.0
1070
    74
1070
     0
1000
MTEXTEND
  0
POINT
  5
21DA
330
18B5
100
AcDbEntity
  8
DEFPOINTS
 62
     0
100
AcDbPoint
 10
-0.0000000000000245
 20
-0.5996611217593847
 30
0.0
  0
POINT
  5
21DB
330
18B5
100
AcDbEntity
  8
DEFPOINTS
 62
     0
100
AcDbPoint
 10
-37.99999999999999
 20
-1.299999999999994
 30
0.0
  0
POINT
  5
21DC
330
18B5
100
AcDbEntity
  8
DEFPOINTS
 62
     0
100
AcDbPoint
 10
-37.99999999999999
 20
-14.50000100000006
 30
0.0
  0
ENDBLK
  5
18C0
330
18B5
100
AcDbEntity
  8
0
100
AcDbBlockEnd
  0
BLOCK
  5
1975
330
1969
100
AcDbEntity
  8
0
100
AcDbBlockBegin
  2
*D6
 70
     1
 10
0.0
 20
0.0
 30
0.0
  3
*D6
  1

  0
LINE
  5
21DD
330
1969
100
AcDbEntity
  8
AM_5
100
AcDbLine
 10
-38.29999999999999
 20
-1.499999999999994
 30
0.0
 11
-47.05723829529716
 21
-1.499999999999991
 31
0.0
  0
LINE
  5
21DE
330
1969
100
AcDbEntity
  8
AM_5
100
AcDbLine
 10
-38.3
 20
1.500000000000005
 30
0.0
 11
-47.05723829529716
 21
1.500000000000008
 31
0.0
  0
LINE
  5
21DF
330
1969
100
AcDbEntity
  8
AM_5
100
AcDbLine
 10
-46.55723829529716
 20
-2.749999999999992
 30
0.0
 11
-46.55723829529716
 21
-3.999999999999992
 31
0.0
  0
LINE
  5
21E0
330
1969
100
AcDbEntity
  8
AM_5
100
AcDbLine
 10
-46.55723829529716
 20
2.750000000000007
 30
0.0
 11
-46.55723829529716
 21
8.014285714285723
 31
0.0
  0
LINE
  5
21E1
330
1969
100
AcDbEntity
  8
AM_5
100
AcDbLine
 10
-46.55723829529716
 20
-1.499999999999992
 30
0.0
 11
-46.55723829529716
 21
1.500000000000007
 31
0.0
  0
INSERT
  5
21E2
330
1969
100
AcDbEntity
  8
AM_5
100
AcDbBlockReference
  2
_OPEN30
 10
-46.55723829529716
 20
-1.499999999999992
 30
0.0
 41
1.25
 42
1.25
 43
1.25
 50
90.0
  0
INSERT
  5
21E3
330
1969
100
AcDbEntity
  8
AM_5
100
AcDbBlockReference
  2
_OPEN30
 10
-46.55723829529716
 20
1.500000000000007
 30
0.0
 41
1.25
 42
1.25
 43
1.25
 50
270.0
  0
MTEXT
  5
21E4
330
1969
100
AcDbEntity
  8
AM_5
 62
     2
100
AcDbMText
 10
-48.10723829529717
 20
6.007142857142857
 30
0.0
 40
1.6
 41
0.0
 71
     5
 72
     1
  1
%%c3
  7
ASAMI
 11
0.0000000000000001
 21
1.0
 31
0.0
1001
ACAD
1000
MTEXTBEGIN
1070
    73
1070
     1
1070
    44
1040
1.0
1070
    74
1070
     0
1000
MTEXTEND
  0
POINT
  5
21E5
330
1969
100
AcDbEntity
  8
DEFPOINTS
 62
     0
100
AcDbPoint
 10
-37.79999999999999
 20
-1.499999999999994
 30
0.0
  0
POINT
  5
21E6
330
1969
100
AcDbEntity
  8
DEFPOINTS
 62
     0
100
AcDbPoint
 10
-37.79999999999999
 20
1.500000000000005
 30
0.0
  0
POINT
  5
21E7
330
1969
100
AcDbEntity
  8
DEFPOINTS
 62
     0
100
AcDbPoint
 10
-46.55723829529716
 20
1.500000000000007
 30
0.0
  0
ENDBLK
  5
1976
330
1969
100
AcDbEntity
  8
0
100
AcDbBlockEnd
  0
BLOCK
  5
213F
330
2133
100
AcDbEntity
  8
0
100
AcDbBlockBegin
  2
*D7
 70
     1
 10
0.0
 20
0.0
 30
0.0
  3
*D7
  1

  0
LINE
  5
22AC
330
2133
100
AcDbEntity
  8
AM_5
100
AcDbLine
 10
0.4999999999999463
 20
0.5003189977686877
 30
0.0
 11
8.087748996814738
 21
0.5003189977686855
 31
0.0
  0
LINE
  5
22AD
330
2133
100
AcDbEntity
  8
AM_5
100
AcDbLine
 10
0.4999999999999463
 20
-0.4996410565610569
 30
0.0
 11
8.087748996814736
 21
-0.499641056561059
 31
0.0
  0
LINE
  5
22AE
330
2133
100
AcDbEntity
  8
AM_5
100
AcDbLine
 10
7.587748996814736
 20
-1.749641056561058
 30
0.0
 11
7.587748996814736
 21
-2.999641056561058
 31
0.0
  0
LINE
  5
22AF
330
2133
100
AcDbEntity
  8
AM_5
100
AcDbLine
 10
7.587748996814736
 20
1.750318997768685
 30
0.0
 11
7.587748996814738
 21
6.328890426340114
 31
0.0
  0
LINE
  5
22B0
330
2133
100
AcDbEntity
  8
AM_5
100
AcDbLine
 10
7.587748996814736
 20
-0.4996410565610588
 30
0.0
 11
7.587748996814736
 21
0.5003189977686856
 31
0.0
  0
INSERT
  5
22B1
330
2133
100
AcDbEntity
  8
AM_5
100
AcDbBlockReference
  2
_OPEN30
 10
7.587748996814736
 20
-0.4996410565610588
 30
0.0
 41
1.25
 42
1.25
 43
1.25
 50
90.0
  0
INSERT
  5
22B2
330
2133
100
AcDbEntity
  8
AM_5
100
AcDbBlockReference
  2
_OPEN30
 10
7.587748996814736
 20
0.5003189977686856
 30
0.0
 41
1.25
 42
1.25
 43
1.25
 50
270.0
  0
MTEXT
  5
22B3
330
2133
100
AcDbEntity
  8
AM_5
 62
     2
100
AcDbMText
 10
6.037748996814736
 20
4.664604712054401
 30
0.0
 40
1.6
 41
0.0
 71
     5
 72
     1
  1
%%c1
  7
ASAMI
 11
0.0000000000000001
 21
1.0
 31
0.0
1001
ACAD
1000
MTEXTBEGIN
1070
    73
1070
     1
1070
    44
1040
1.0
1070
    74
1070
     0
1000
MTEXTEND
  0
POINT
  5
22B4
330
2133
100
AcDbEntity
  8
DEFPOINTS
 62
     0
100
AcDbPoint
 10
-0.0000000000000537
 20
0.5003189977686878
 30
0.0
  0
POINT
  5
22B5
330
2133
100
AcDbEntity
  8
DEFPOINTS
 62
     0
100
AcDbPoint
 10
-0.0000000000000537
 20
-0.4996410565610567
 30
0.0
  0
POINT
  5
22B6
330
2133
100
AcDbEntity
  8
DEFPOINTS
 62
     0
100
AcDbPoint
 10
7.587748996814736
 20
-0.4996410565610588
 30
0.0
  0
ENDBLK
  5
2140
330
2133
100
AcDbEntity
  8
0
100
AcDbBlockEnd
  0
BLOCK
  5
215F
330
2153
100
AcDbEntity
  8
0
100
AcDbBlockBegin
  2
*D8
 70
     1
 10
0.0
 20
0.0
 30
0.0
  3
*D8
  1

  0
LINE
  5
21E8
330
2153
100
AcDbEntity
  8
AM_5
100
AcDbLine
 10
-0.0000000000000538
 20
-0.9996411108908233
 30
0.0
 11
-0.0000000000000543
 21
-9.00000099999999
 31
0.0
  0
LINE
  5
21E9
330
2153
100
AcDbEntity
  8
AM_5
100
AcDbLine
 10
-1.500000000000053
 20
-0.9996410565610567
 30
0.0
 11
-1.500000000000054
 21
-9.00000099999999
 31
0.0
  0
LINE
  5
21EA
330
2153
100
AcDbEntity
  8
AM_5
100
AcDbLine
 10
1.249999999999945
 20
-8.50000099999999
 30
0.0
 11
2.499999999999945
 21
-8.50000099999999
 31
0.0
  0
LINE
  5
21EB
330
2153
100
AcDbEntity
  8
AM_5
100
AcDbLine
 10
-2.750000000000054
 20
-8.50000099999999
 30
0.0
 11
-8.5476190476191
 21
-8.50000099999999
 31
0.0
  0
LINE
  5
21EC
330
2153
100
AcDbEntity
  8
AM_5
100
AcDbLine
 10
-0.0000000000000543
 20
-8.50000099999999
 30
0.0
 11
-1.500000000000054
 21
-8.50000099999999
 31
0.0
  0
INSERT
  5
21ED
330
2153
100
AcDbEntity
  8
AM_5
100
AcDbBlockReference
  2
_OPEN30
 10
-0.0000000000000543
 20
-8.50000099999999
 30
0.0
 41
1.25
 42
1.25
 43
1.25
 50
180.0
  0
INSERT
  5
21EE
330
2153
100
AcDbEntity
  8
AM_5
100
AcDbBlockReference
  2
_OPEN30
 10
-1.500000000000054
 20
-8.50000099999999
 30
0.0
 41
1.25
 42
1.25
 43
1.25
  0
MTEXT
  5
21EF
330
2153
100
AcDbEntity
  8
AM_5
 62
     2
100
AcDbMText
 10
-6.273809523809577
 20
-6.95000099999999
 30
0.0
 40
1.6
 41
0.0
 71
     5
 72
     1
  1
1.5
  7
ASAMI
1001
ACAD
1000
MTEXTBEGIN
1070
    73
1070
     1
1070
    44
1040
1.0
1070
    74
1070
     0
1000
MTEXTEND
  0
POINT
  5
21F0
330
2153
100
AcDbEntity
  8
DEFPOINTS
 62
     0
100
AcDbPoint
 10
-0.0000000000000538
 20
-0.4996411108908234
 30
0.0
  0
POINT
  5
21F1
330
2153
100
AcDbEntity
  8
DEFPOINTS
 62
     0
100
AcDbPoint
 10
-1.500000000000053
 20
-0.4996410565610567
 30
0.0
  0
POINT
  5
21F2
330
2153
100
AcDbEntity
  8
DEFPOINTS
 62
     0
100
AcDbPoint
 10
-1.500000000000054
 20
-8.50000099999999
 30
0.0
  0
ENDBLK
  5
2160
330
2153
100
AcDbEntity
  8
0
100
AcDbBlockEnd
  0
ENDSEC
  0
SECTION
  2
ENTITIES
  0
TEXT
  5
F06
330
1F
100
AcDbEntity
  8
AM_6
100
AcDbText
 10
-31.02380952380952
 20
-25.75000100000006
 30
0.0
 40
2.5
  1
S-SIT2010ZX
 72
     4
 11
-19.0
 21
-24.50000100000006
 31
0.0
100
AcDbText
  0
LINE
  5
15E3
330
1F
100
AcDbEntity
  8
AM_7
  6
AM_ISO08W050X2
100
AcDbLine
 10
0.5877479968147341
 20
0.0003389434389434
 30
0.0
 11
-39.55723729529717
 21
0.0003389434389483
 31
0.0
1001
GENIUS_GENODEF_13
1002
{
1000
HIER
1070
     0
1002
}
1002
{
1000
MANEDIT
1070
     0
1002
}
1002
{
1000
NOSEL
1070
     0
1002
}
1002
{
1000
BEHIND
1070
     0
1002
}
1002
{
1000
REACTOR
1002
}
1001
GENIUS_GENOBJ-N-CEN_13
1002
{
1000
OWNER
1000
GEN
1002
}
  0
LINE
  5
1615
330
1F
100
AcDbEntity
  8
AM_0
100
AcDbLine
 10
-37.99999999999999
 20
-1.299999999999994
 30
0.0
 11
-38.0
 21
1.300000000000005
 31
0.0
  0
LINE
  5
1616
330
1F
100
AcDbEntity
  8
AM_0
100
AcDbLine
 10
-37.79999999999999
 20
1.500000000000005
 30
0.0
 11
-6.230860494450109
 21
1.500000000000005
 31
0.0
  0
LINE
  5
1618
330
1F
100
AcDbEntity
  8
AM_0
100
AcDbLine
 10
-6.233390402720127
 20
-1.499999999999998
 30
0.0
 11
-37.79999999999999
 21
-1.499999999999994
 31
0.0
  0
LINE
  5
1619
330
1F
100
AcDbEntity
  8
AM_0
100
AcDbLine
 10
-6.230860494450109
 20
1.500000000000005
 30
0.0
 11
-2.500000000000083
 21
0.5003189434389435
 31
0.0
  0
LINE
  5
161B
330
1F
100
AcDbEntity
  8
AM_0
100
AcDbLine
 10
-2.500000000000083
 20
-0.4996410565610569
 30
0.0
 11
-6.233390402720127
 21
-1.499999999999998
 31
0.0
  0
LINE
  5
162C
330
1F
100
AcDbEntity
  8
AM_0
100
AcDbLine
 10
-37.79999999999999
 20
1.500000000000005
 30
0.0
 11
-38.0
 21
1.300000000000005
 31
0.0
1001
GENIUS_GENFIL_13
1070
     0
1040
0.2
1040
0.2
1040
20.0
1040
0.0
1002
{
1002
}
1001
GENIUS_GENODEF_13
1002
{
1000
HIER
1070
     0
1002
}
1002
{
1000
MANEDIT
1070
     0
1002
}
1002
{
1000
NOSEL
1070
     0
1002
}
1002
{
1000
BEHIND
1070
     0
1002
}
1002
{
1000
REACTOR
1002
}
1001
GENIUS_GENOBJ-N-CHA_13
1002
{
1000
OWNER
1000
GEN
1002
}
  0
LINE
  5
162E
330
1F
100
AcDbEntity
  8
AM_0
100
AcDbLine
 10
-37.79999999999999
 20
-1.499999999999994
 30
0.0
 11
-37.99999999999999
 21
-1.299999999999994
 31
0.0
1001
GENIUS_GENFIL_13
1070
     0
1040
0.2
1040
0.2
1040
20.0
1040
0.0
1002
{
1002
}
1001
GENIUS_GENODEF_13
1002
{
1000
HIER
1070
     0
1002
}
1002
{
1000
MANEDIT
1070
     0
1002
}
1002
{
1000
NOSEL
1070
     0
1002
}
1002
{
1000
BEHIND
1070
     0
1002
}
1002
{
1000
REACTOR
1002
}
1001
GENIUS_GENOBJ-N-CHA_13
1002
{
1000
OWNER
1000
GEN
1002
}
  0
LINE
  5
162F
330
1F
100
AcDbEntity
  8
AM_0
100
AcDbLine
 10
-37.79999999999999
 20
1.500000000000005
 30
0.0
 11
-37.79999999999999
 21
-1.499999999999994
 31
0.0
  0
DIMENSION
  5
18B4
330
1F
100
AcDbEntity
  8
AM_5
100
AcDbDimension
  2
*D5
 10
-37.99999999999999
 20
-14.50000100000006
 30
0.0
 11
-19.00000000000001
 21
-12.95000100000006
 31
0.0
 70
    32
  1
<>
  3
AM_JIS
100
AcDbAlignedDimension
 13
-0.0000000000000245
 23
-0.5996611217593847
 33
0.0
 14
-37.99999999999999
 24
-1.299999999999994
 34
0.0
 50
0.0000000000001132
100
AcDbRotatedDimension
1001
GENIUS_GENDTOL_13
1000

1000
h7
1000

1040
0.0
  0
DIMENSION
  5
1968
330
1F
100
AcDbEntity
  8
AM_5
100
AcDbDimension
  2
*D6
 10
-46.55723829529716
 20
1.500000000000007
 30
0.0
 11
-48.10723829529717
 21
6.007142857142857
 31
0.0
 70
    32
  1
%%c<>
  3
AM_JIS
100
AcDbAlignedDimension
 13
-37.79999999999999
 23
-1.499999999999994
 33
0.0
 14
-37.79999999999999
 24
1.500000000000005
 34
0.0
 50
270.0
100
AcDbRotatedDimension
1001
GENIUS_GENDTOL_13
1000

1000
h7
1000

1040
0.0
  0
LINE
  5
1A94
330
1F
100
AcDbEntity
  8
AM_0
100
AcDbLine
 10
-6.230860494450109
 20
1.500000000000005
 30
0.0
 11
-6.230860494450109
 21
-1.499999999999998
 31
0.0
  0
LINE
  5
20A9
330
1F
100
AcDbEntity
  8
AM_0
100
AcDbLine
 10
-2.500000000000083
 20
0.5003189434389435
 30
0.0
 11
-2.500000000000083
 21
-0.4996410565610569
 31
0.0
  0
DIMENSION
  5
2132
330
1F
100
AcDbEntity
  8
AM_5
100
AcDbDimension
  2
*D7
 10
7.587748996814736
 20
-0.4996410565610588
 30
0.0
 11
7.587748996814736
 21
4.6646047120544
 31
0.0
 70
   160
  1
%%c<>
  3
AM_JIS
100
AcDbAlignedDimension
 13
-0.0000000000000537
 23
0.5003189977686878
 33
0.0
 14
-0.0000000000000537
 24
-0.4996410565610567
 34
0.0
 50
90.00000000000003
100
AcDbRotatedDimension
1001
GENIUS_GENDTOL_13
1000

1000
h7
1000

1040
0.0
  0
DIMENSION
  5
2152
330
1F
100
AcDbEntity
  8
AM_5
100
AcDbDimension
  2
*D8
 10
-1.500000000000054
 20
-8.50000099999999
 30
0.0
 11
-6.273809523809577
 21
-6.95000099999999
 31
0.0
 70
    32
  1
<>
  3
AM_JIS
100
AcDbAlignedDimension
 13
-0.0000000000000538
 23
-0.4996411108908234
 33
0.0
 14
-1.500000000000053
 24
-0.4996410565610567
 34
0.0
 50
0.0000000000001886
100
AcDbRotatedDimension
1001
GENIUS_GENDTOL_13
1000

1000
h7
1000

1040
0.0
  0
SPLINE
  5
221F
330
1F
100
AcDbEntity
  8
AM_0
100
AcDbSpline
210
0.0
220
0.0
230
1.0
 70
     8
 71
     3
 72
     8
 73
     4
 74
     0
 42
0.0000000001
 43
0.0000000001
 40
0.0
 40
0.0
 40
0.0
 40
0.0
 40
4.607356481513744
 40
4.607356481513744
 40
4.607356481513744
 40
4.607356481513744
 10
-2.33565985621773
 20
-0.4996410565610568
 30
0.0
 10
-2.182275817694292
 20
-0.4856575238049347
 30
0.0
 10
-2.018717599691475
 20
-0.4589498127214487
 30
0.0
 10
-1.885898968218831
 20
-0.3949529729253248
 30
0.0
  0
SPLINE
  5
2220
330
1F
100
AcDbEntity
  8
AM_0
100
AcDbSpline
210
0.0
220
0.0
230
1.0
 70
     8
 71
     3
 72
     8
 73
     4
 74
     0
 42
0.0000000001
 43
0.0000000001
 40
0.0
 40
0.0
 40
0.0
 40
0.0
 40
9.827178345168029
 40
9.827178345168029
 40
9.827178345168029
 40
9.827178345168029
 10
-0.0434449062225393
 20
-0.1154625022918308
 30
0.0
 10
-0.1727068409857497
 20
-0.0152158175794282
 30
0.0
 10
-0.4593842777782445
 20
0.3051829333481949
 30
0.0
 10
-0.4162918432119933
 20
0.3462191471371797
 30
0.0
  0
SPLINE
  5
2221
330
1F
100
AcDbEntity
  8
AM_0
100
AcDbSpline
210
0.0
220
0.0
230
1.0
 70
     8
 71
     3
 72
     8
 73
     4
 74
     2
 42
0.0000000001
 43
0.0000000001
 44
0.0000000001
 12
-0.753620698806369
 22
-0.6573095483336601
 32
0.0
 40
0.0
 40
0.0
 40
0.0
 40
0.0
 40
0.3805013099472519
 40
0.3805013099472519
 40
0.3805013099472519
 40
0.3805013099472519
 10
-0.0000000000000244
 20
0.4221275043201049
 30
0.0
 10
-0.09558455436642
 20
0.3387584562595068
 30
0.0
 10
-0.2339812346493495
 20
0.3413407573917362
 30
0.0
 10
-0.372377914932279
 20
0.3439230585239658
 30
0.0
 11
-0.0000000000000244
 21
0.4221275043201049
 31
0.0
 11
-0.372377914932279
 21
0.3439230585239658
 31
0.0
  0
SPLINE
  5
2222
330
1F
100
AcDbEntity
  8
AM_0
100
AcDbSpline
210
0.0
220
0.0
230
1.0
 70
     8
 71
     3
 72
     8
 73
     4
 74
     0
 42
0.0000000001
 43
0.0000000001
 40
0.0
 40
0.0
 40
0.0
 40
0.0
 40
13.74270749910732
 40
13.74270749910732
 40
13.74270749910732
 40
13.74270749910732
 10
-0.0000000000000244
 20
0.5009721509859548
 30
0.0
 10
-0.2287550339242581
 20
0.5009721509859974
 30
0.0
 10
-0.4474941279833149
 20
0.4447694946927458
 30
0.0
 10
-0.6609662598207105
 20
0.3590122213150225
 30
0.0
  0
SPLINE
  5
2223
330
1F
100
AcDbEntity
  8
AM_0
100
AcDbSpline
210
0.0
220
0.0
230
1.0
 70
     8
 71
     3
 72
     8
 73
     4
 74
     0
 42
0.0000000001
 43
0.0000000001
 40
8.518178729170251
 40
8.518178729170251
 40
8.518178729170251
 40
8.518178729170251
 40
28.64502702023054
 40
28.64502702023054
 40
28.64502702023054
 40
28.64502702023054
 10
-0.0272271724169175
 20
-0.394013595405721
 30
0.0
 10
-0.3494143786762005
 20
-0.3142207192003324
 30
0.0
 10
-0.6590861716877466
 20
-0.1566242841072066
 30
0.0
 10
-0.9687579646992428
 20
0.0009721509859476
 30
0.0
  0
SPLINE
  5
2224
330
1F
100
AcDbEntity
  8
AM_0
100
AcDbSpline
210
0.0
220
0.0
230
1.0
 70
     8
 71
     3
 72
     8
 73
     4
 74
     2
 42
0.0000000001
 43
0.0000000001
 44
0.0000000001
 12
-1.0
 22
-0.0000000000000156
 32
0.0
 40
0.0
 40
0.0
 40
0.0
 40
0.0
 40
1.447383101578257
 40
1.447383101578257
 40
1.447383101578257
 40
1.447383101578257
 10
-0.0000000000000244
 20
-0.4990278490140737
 30
0.0
 10
-0.4824610338594435
 20
-0.4990278490140813
 30
0.0
 10
-0.92036928086798
 20
-0.2490278490140668
 30
0.0
 10
-1.358277527876516
 20
0.0009721509859476
 30
0.0
 11
-0.0000000000000244
 21
-0.4990278490140737
 31
0.0
 11
-1.358277527876516
 21
0.0009721509859476
 31
0.0
  0
SPLINE
  5
2225
330
1F
100
AcDbEntity
  8
AM_0
100
AcDbSpline
210
0.0
220
0.0
230
1.0
 70
     8
 71
     3
 72
     8
 73
     4
 74
     0
 42
0.0000000001
 43
0.0000000001
 40
12.92940876879691
 40
12.92940876879691
 40
12.92940876879691
 40
12.92940876879691
 40
14.49218571129498
 40
14.49218571129498
 40
14.49218571129498
 40
14.49218571129498
 10
-1.500000000000031
 20
0.0815355329314217
 30
0.0
 10
-1.452721930534337
 20
0.0548900683253452
 30
0.0
 10
-1.405499729205426
 20
0.0279311096556358
 30
0.0
 10
-1.358277527876516
 20
0.0009721509859263
 30
0.0
  0
SPLINE
  5
2226
330
1F
100
AcDbEntity
  8
AM_0
100
AcDbSpline
210
0.0
220
0.0
230
1.0
 70
     8
 71
     3
 72
     8
 73
     4
 74
     0
 42
0.0000000001
 43
0.0000000001
 40
7.277673710817288
 40
7.277673710817288
 40
7.277673710817288
 40
7.277673710817288
 40
14.32251351011555
 40
14.32251351011555
 40
14.32251351011555
 40
14.32251351011555
 10
-1.623403213043249
 20
0.3052538178643077
 30
0.0
 10
-1.402325732603916
 20
0.2216210319465505
 30
0.0
 10
-1.185541848651581
 20
0.1112965914662526
 30
0.0
 10
-0.9687579646992428
 20
0.0009721509859476
 30
0.0
  0
LINE
  5
2227
330
1F
100
AcDbEntity
  8
AM_0
100
AcDbLine
 10
-0.0000000000000244
 20
-0.0998596593992615
 30
0.0
 11
-0.3723779149322328
 21
0.3439230585239658
 31
0.0
  0
LINE
  5
2228
330
1F
100
AcDbEntity
  8
AM_0
100
AcDbLine
 10
-0.0000000000000244
 20
-0.4990278490140524
 30
0.0
 11
-0.0000000000000244
 21
0.4997057358919394
 31
0.0
  0
LINE
  5
2229
330
1F
100
AcDbEntity
  8
AM_11
100
AcDbLine
 10
-1.500000000000024
 20
-0.4990278490140524
 30
0.0
 11
-1.500000000000024
 21
0.4997057358919394
 31
0.0
  0
LINE
  5
222B
330
1F
100
AcDbEntity
  8
AM_0
100
AcDbLine
 10
-1.885898968218831
 20
-0.3949529729253248
 30
0.0
 11
-0.6971652351216089
 21
-0.3422266389593075
 31
0.0
  0
LINE
  5
222C
330
1F
100
AcDbEntity
  8
AM_11
100
AcDbLine
 10
-1.500000000000024
 20
-0.4990278490140524
 30
0.0
 11
-0.0000000000006497
 21
-0.4990278490140524
 31
0.0
  0
ARC
  5
222D
330
1F
100
AcDbEntity
  8
AM_0
100
AcDbCircle
 10
-1.667569367859747
 20
0.8623791442081525
 30
0.0
 40
1.251484761991636
100
AcDbArc
 50
234.1793932422927
 51
267.3845722478232
  0
LINE
  5
222E
330
1F
100
AcDbEntity
  8
AM_0
100
AcDbLine
 10
-2.400000000000024
 20
-0.15239150899377
 30
0.0
 11
-1.499366986065897
 21
0.0801860474040796
 31
0.0
  0
ARC
  5
222F
330
1F
100
AcDbEntity
  8
AM_0
100
AcDbCircle
 10
-1.778893189586046
 20
0.5429050707343683
 30
0.0
 40
0.9323148629750958
100
AcDbArc
 50
228.2256592536914
 51
273.4574498611766
  0
LINE
  5
2230
330
1F
100
AcDbEntity
  8
AM_0
100
AcDbLine
 10
-1.500000000000024
 20
0.0815355329314288
 30
0.0
 11
-1.500000000000024
 21
0.2557941574722621
 31
0.0
  0
LINE
  5
2232
330
1F
100
AcDbEntity
  8
AM_0
100
AcDbLine
 10
-0.0000000000000244
 20
-0.0998596593992615
 30
0.0
 11
-0.0434449062225393
 21
-0.1154625022918024
 31
0.0
  0
ARC
  5
2233
330
1F
100
AcDbEntity
  8
AM_0
100
AcDbCircle
 10
0.3413078097178865
 20
-0.3544998303709802
 30
0.0
 40
0.3706472321281943
100
AcDbArc
 50
186.119787907325
 51
202.9504029633334
  0
ARC
  5
2234
330
1F
100
AcDbEntity
  8
AM_0
100
AcDbCircle
 10
-0.0607798172382128
 20
-0.3863489021306675
 30
0.0
 40
0.0344169652570699
100
AcDbArc
 50
347.1322733865255
 51
27.84138399044579
  0
ARC
  5
2235
330
1F
100
AcDbEntity
  8
AM_0
100
AcDbCircle
 10
1.717020949397959
 20
-0.1527127476454281
 30
0.0
 40
1.76085990629138
100
AcDbArc
 50
178.7878416354358
 51
187.0973004564752
  0
LINE
  5
2236
330
1F
100
AcDbEntity
  8
AM_0
100
AcDbLine
 10
-0.3723779149322328
 20
0.3439230585239658
 30
0.0
 11
-2.400000000000024
 21
0.5003189434389436
 31
0.0
  0
LINE
  5
2237
330
1F
100
AcDbEntity
  8
AM_11
100
AcDbLine
 10
-0.0000000000000244
 20
0.5009721509859548
 30
0.0
 11
-1.500000000000024
 21
0.4997057358919394
 31
0.0
  0
LINE
  5
2238
330
1F
100
AcDbEntity
  8
AM_0
100
AcDbLine
 10
-2.400000000000024
 20
0.5003189434389436
 30
0.0
 11
-2.400000000000014
 21
0.500318943438943
 31
0.0
  0
ARC
  5
2239
330
1F
100
AcDbEntity
  8
AM_0
100
AcDbCircle
 10
-20.38741253726194
 20
-46.17259303914408
 30
0.0
 40
50.12263255639004
100
AcDbArc
 50
68.01511352666364
 51
68.53270079618944
  0
LINE
  5
22A8
330
1F
100
AcDbEntity
  8
AM_0
100
AcDbLine
 10
-2.500000000000083
 20
0.5003189434389435
 30
0.0
 11
-2.400000000000024
 21
0.5003189434389436
 31
0.0
  0
LINE
  5
22A9
330
1F
100
AcDbEntity
  8
AM_0
100
AcDbLine
 10
-2.33565985621773
 20
-0.4996410565610568
 30
0.0
 11
-2.500000000000083
 21
-0.4996410565610569
 31
0.0
  0
VIEWPORT
  5
110
330
101
100
AcDbEntity
 67
     1
  8
0
100
AcDbViewport
 10
420.5
 20
297.0
 30
0.0
 40
948.9782706766916
 41
628.452
 68
     1
 69
     1
1001
ACAD
1000
MVIEW
1002
{
1070
    16
1010
0.0
1020
0.0
1030
0.0
1010
0.0
1020
0.0
1030
1.0
1040
0.0
1040
628.452
1040
420.5
1040
297.0
1040
50.0
1040
0.0
1040
0.0
1070
     0
1070
   100
1070
     1
1070
     1
1070
     0
1070
     0
1070
     0
1070
     0
1040
0.0
1040
0.0
1040
0.0
1040
10.0
1040
10.0
1040
10.0
1040
10.0
1070
     0
1002
{
1002
}
1002
}
  0
ENDSEC
  0
SECTION
  2
OBJECTS
  0
DICTIONARY
  5
C
330
0
100
AcDbDictionary
  3
ACAD_GROUP
350
D
  3
ACAD_LAYOUT
350
1A
  3
ACAD_MLINESTYLE
350
17
  3
ACAD_PLOTSETTINGS
350
19
  3
ACAD_PLOTSTYLENAME
350
E
  3
ACDBVARIABLEDICTIONARY
350
34
  3
ACMDICTIONARY
350
43
  3
AMG
350
2B
  3
AMGSNAPSETTINGS
350
6E
  3
DWGPROPS
350
2384
  3
ACDBHEADERROUNDTRIPXREC
350
2391
  0
DICTIONARY
  5
74
330
1F
100
AcDbDictionary
280
     1
  3
ACAD_INDEX
360
2386
  3
ACAD_LAYOUTSELFREF
360
23B4
  0
DICTIONARY
  5
23B9
330
101
100
AcDbDictionary
280
     1
  3
ACAD_LAYOUTSELFREF
360
23BA
  0
DICTIONARY
  5
D
102
{ACAD_REACTORS
330
C
102
}
330
C
100
AcDbDictionary
  0
DICTIONARY
  5
1A
102
{ACAD_REACTORS
330
C
102
}
330
C
100
AcDbDictionary
  0
DICTIONARY
  5
17
102
{ACAD_REACTORS
330
C
102
}
330
C
100
AcDbDictionary
  3
STANDARD
350
18
  0
DICTIONARY
  5
19
102
{ACAD_REACTORS
330
C
102
}
330
C
100
AcDbDictionary
  0
ACDBDICTIONARYWDFLT
  5
E
102
{ACAD_REACTORS
330
C
102
}
330
C
100
AcDbDictionary
281
     1
  3
Normal
350
F
100
AcDbDictionaryWithDefault
340
F
  0
DICTIONARY
  5
34
102
{ACAD_REACTORS
330
C
102
}
330
C
100
AcDbDictionary
  3
INDEXCTL
350
35
  3
SORTENTS
350
B5E
  0
DICTIONARY
  5
43
102
{ACAD_REACTORS
330
C
102
}
330
C
100
AcDbDictionary
  3
ACMSTDDICTIONARY
350
260
  0
DICTIONARY
  5
2B
102
{ACAD_REACTORS
330
C
102
}
330
C
100
AcDbDictionary
  3
ACMGSETTINGS
350
2C
  0
DICTIONARY
  5
6E
102
{ACAD_REACTORS
330
C
102
}
330
C
100
AcDbDictionary
  0
XRECORD
  5
2384
102
{ACAD_REACTORS
330
C
102
}
330
C
100
AcDbXrecord
  1
DWGPROPS COOKIE
  2

  3

  4

  6

  7

  8

  9

300
AmdtFileType=82
301
=
302
=
303
=
304
=
305
=
306
=
307
=
308
=
309
=
 40
0.0568169675925926
 41
2452810.397252777
 42
2452839.66059081
  1

 90
        1
  0
DICTIONARY
  5
2391
102
{ACAD_REACTORS
330
C
102
}
330
C
100
AcDbDictionary
  3
TSTACKALIGN
350
2392
  3
TSTACKSIZE
350
2393
  3
HYPERLINKBASE
350
2394
  3
STYLESHEET
350
2395
  3
LAYOUTDICT
350
2396
  3
PLOTSETDICT
350
2397
  3
PLOTSTYLNAMDICT
350
2398
  3
LWETCUNION
350
2399
  3
INSUNITS
350
239A
  3
CEPSNTYPE
350
239B
  3
FINGERPRINTGUID
350
239C
  3
VERSIONGUID
350
239D
  3
PSVPSCALE
350
239E
  3
DIMSTYLEDATA
350
239F
  3
PUCSORTHOREF
350
23A0
  3
PUCSORTHOVIEW
350
23A1
  3
PUCSBASE
350
23A2
  3
PUCSORGTOP
350
23A3
  3
PUCSORGBOTTOM
350
23A4
  3
PUCSORGLEFT
350
23A5
  3
PUCSORGRIGHT
350
23A6
  3
PUCSORGFRONT
350
23A7
  3
PUCSORGBACK
350
23A8
  3
UCSORTHOREF
350
23A9
  3
UCSORTHOVIEW
350
23AA
  3
UCSBASE
350
23AB
  3
UCSORGTOP
350
23AC
  3
UCSORGBOTTOM
350
23AD
  3
UCSORGLEFT
350
23AE
  3
UCSORGRIGHT
350
23AF
  3
UCSORGFRONT
350
23B0
  3
UCSORGBACK
350
23B1
  0
DICTIONARY
  5
2386
102
{ACAD_REACTORS
330
74
102
}
330
74
100
AcDbDictionary
  3
*A1
350
2387
  0
XRECORD
  5
23B4
102
{ACAD_REACTORS
330
74
102
}
330
74
100
AcDbXrecord
340
1F
  0
XRECORD
  5
23BA
102
{ACAD_REACTORS
330
23B9
102
}
330
23B9
100
AcDbXrecord
340
101
  0
MLINESTYLE
  5
18
102
{ACAD_REACTORS
330
17
102
}
330
17
100
AcDbMlineStyle
  2
STANDARD
 70
     0
  3

 62
   256
 51
90.0
 52
90.0
 71
     2
 49
0.5
 62
   256
  6
BYLAYER
 49
-0.5
 62
   256
  6
BYLAYER
  0
ACDBPLACEHOLDER
  5
F
102
{ACAD_REACTORS
330
E
102
}
330
E
100
AcDbPlaceHolder
280
     0
  0
DICTIONARYVAR
  5
35
102
{ACAD_REACTORS
330
34
102
}
330
34
100
DictionaryVariables
280
     0
  1
1
  0
DICTIONARYVAR
  5
B5E
102
{ACAD_REACTORS
330
34
102
}
330
34
100
DictionaryVariables
280
     0
  1
96
  0
DICTIONARY
  5
260
102
{ACAD_REACTORS
330
43
102
}
330
43
100
AcDbDictionary
  0
DICTIONARY
  5
2C
102
{ACAD_REACTORS
330
2B
102
}
330
2B
100
AcDbDictionary
  3
DWGSETTINGS
350
2D
  0
XRECORD
  5
2392
102
{ACAD_REACTORS
330
2391
102
}
330
2391
100
AcDbXrecord
 90
        1
  0
XRECORD
  5
2393
102
{ACAD_REACTORS
330
2391
102
}
330
2391
100
AcDbXrecord
 90
       70
  0
XRECORD
  5
2394
102
{ACAD_REACTORS
330
2391
102
}
330
2391
100
AcDbXrecord
  1

  0
XRECORD
  5
2395
102
{ACAD_REACTORS
330
2391
102
}
330
2391
100
AcDbXrecord
  1
ASAMI.ctb
  0
XRECORD
  5
2396
102
{ACAD_REACTORS
330
2391
102
}
330
2391
100
AcDbXrecord
340
1A
  0
XRECORD
  5
2397
102
{ACAD_REACTORS
330
2391
102
}
330
2391
100
AcDbXrecord
340
19
  0
XRECORD
  5
2398
102
{ACAD_REACTORS
330
2391
102
}
330
2391
100
AcDbXrecord
340
E
  0
XRECORD
  5
2399
102
{ACAD_REACTORS
330
2391
102
}
330
2391
100
AcDbXrecord
 90
    10781
  0
XRECORD
  5
239A
102
{ACAD_REACTORS
330
2391
102
}
330
2391
100
AcDbXrecord
 90
        4
  0
XRECORD
  5
239B
102
{ACAD_REACTORS
330
2391
102
}
330
2391
100
AcDbXrecord
 90
        0
  0
XRECORD
  5
239C
102
{ACAD_REACTORS
330
2391
102
}
330
2391
100
AcDbXrecord
  1
{AFB28963-8C59-40AE-9337-C84526B81ACE}
  0
XRECORD
  5
239D
102
{ACAD_REACTORS
330
2391
102
}
330
2391
100
AcDbXrecord
  1
{5B21D2DF-F4A1-4FC3-8ABF-002DFE4AB5CE}
  0
XRECORD
  5
239E
102
{ACAD_REACTORS
330
2391
102
}
330
2391
100
AcDbXrecord
 40
0.0
  0
XRECORD
  5
239F
102
{ACAD_REACTORS
330
2391
102
}
330
2391
100
AcDbXrecord
1000
DSTYLE
1002
{
1070
    79
 70
     2
1070
   341
340
59
1070
   342
340
59
1070
   371
 70
    -1
1070
   372
 70
    -1
1002
}
  0
XRECORD
  5
23A0
102
{ACAD_REACTORS
330
2391
102
}
330
2391
100
AcDbXrecord
340
0
  0
XRECORD
  5
23A1
102
{ACAD_REACTORS
330
2391
102
}
330
2391
100
AcDbXrecord
 70
     0
  0
XRECORD
  5
23A2
102
{ACAD_REACTORS
330
2391
102
}
330
2391
100
AcDbXrecord
340
0
  0
XRECORD
  5
23A3
102
{ACAD_REACTORS
330
2391
102
}
330
2391
100
AcDbXrecord
 10
0.0
 20
0.0
 30
0.0
  0
XRECORD
  5
23A4
102
{ACAD_REACTORS
330
2391
102
}
330
2391
100
AcDbXrecord
 10
0.0
 20
0.0
 30
0.0
  0
XRECORD
  5
23A5
102
{ACAD_REACTORS
330
2391
102
}
330
2391
100
AcDbXrecord
 10
0.0
 20
0.0
 30
0.0
  0
XRECORD
  5
23A6
102
{ACAD_REACTORS
330
2391
102
}
330
2391
100
AcDbXrecord
 10
0.0
 20
0.0
 30
0.0
  0
XRECORD
  5
23A7
102
{ACAD_REACTORS
330
2391
102
}
330
2391
100
AcDbXrecord
 10
0.0
 20
0.0
 30
0.0
  0
XRECORD
  5
23A8
102
{ACAD_REACTORS
330
2391
102
}
330
2391
100
AcDbXrecord
 10
0.0
 20
0.0
 30
0.0
  0
XRECORD
  5
23A9
102
{ACAD_REACTORS
330
2391
102
}
330
2391
100
AcDbXrecord
340
0
  0
XRECORD
  5
23AA
102
{ACAD_REACTORS
330
2391
102
}
330
2391
100
AcDbXrecord
 70
     0
  0
XRECORD
  5
23AB
102
{ACAD_REACTORS
330
2391
102
}
330
2391
100
AcDbXrecord
340
0
  0
XRECORD
  5
23AC
102
{ACAD_REACTORS
330
2391
102
}
330
2391
100
AcDbXrecord
 10
0.0
 20
0.0
 30
0.0
  0
XRECORD
  5
23AD
102
{ACAD_REACTORS
330
2391
102
}
330
2391
100
AcDbXrecord
 10
0.0
 20
0.0
 30
0.0
  0
XRECORD
  5
23AE
102
{ACAD_REACTORS
330
2391
102
}
330
2391
100
AcDbXrecord
 10
0.0
 20
0.0
 30
0.0
  0
XRECORD
  5
23AF
102
{ACAD_REACTORS
330
2391
102
}
330
2391
100
AcDbXrecord
 10
0.0
 20
0.0
 30
0.0
  0
XRECORD
  5
23B0
102
{ACAD_REACTORS
330
2391
102
}
330
2391
100
AcDbXrecord
 10
0.0
 20
0.0
 30
0.0
  0
XRECORD
  5
23B1
102
{ACAD_REACTORS
330
2391
102
}
330
2391
100
AcDbXrecord
 10
0.0
 20
0.0
 30
0.0
  0
LAYER_INDEX
  5
2387
102
{ACAD_REACTORS
330
2386
102
}
330
2386
100
AcDbIndex
 40
2452839.679629629
100
AcDbLayerIndex
  8
0
360
2388
 90
        0
  8
AM_0
360
2389
 90
       34
  8
AM_11
360
238A
 90
        3
  8
AM_7
360
238B
 90
        1
  8
AM_5
360
238C
 90
        4
  8
AM_6
360
238D
 90
        1
  8
Defpoints
360
238E
 90
        0
  8
AM_CL
360
238F
 90
        0
  0
XRECORD
  5
2D
102
{ACAD_REACTORS
330
2C
102
}
330
2C
100
AcDbXrecord
  1
VERSION
140
15.0
  1
PRODUCT
  2
AutoCAD Mechanical 2000
  0
IDBUFFER
  5
2388
330
0
100
AcDbIdBuffer
  0
IDBUFFER
  5
2389
330
0
100
AcDbIdBuffer
330
2225
330
2226
330
2227
330
2228
330
222B
330
222D
330
222E
330
222F
330
2230
330
2232
330
2233
330
2234
330
2235
330
2236
330
2238
330
2239
330
22A8
330
22A9
330
1615
330
1616
330
1618
330
1619
330
161B
330
162C
330
162E
330
162F
330
1A94
330
20A9
330
221F
330
2220
330
2221
330
2222
330
2223
330
2224
  0
IDBUFFER
  5
238A
330
0
100
AcDbIdBuffer
330
2229
330
222C
330
2237
  0
IDBUFFER
  5
238B
330
0
100
AcDbIdBuffer
330
15E3
  0
IDBUFFER
  5
238C
330
0
100
AcDbIdBuffer
330
18B4
330
1968
330
2132
330
2152
  0
IDBUFFER
  5
238D
330
0
100
AcDbIdBuffer
330
F06
  0
IDBUFFER
  5
238E
330
0
100
AcDbIdBuffer
  0
IDBUFFER
  5
238F
330
0
100
AcDbIdBuffer
  0
ENDSEC
  0
EOF
