  0
SECTION
  2
HEADER
  9
$ACADVER
  1
AC1014
  9
$ACADMAINTVER
 70
     9
  9
$DWGCODEPAGE
  3
ANSI_932
  9
$INSBASE
 10
0.0
 20
0.0
 30
0.0
  9
$EXTMIN
 10
-94.11929141407256
 20
-30.25000115167992
 30
-0.00000001
  9
$EXTMAX
 10
10.15831679456914
 20
6.881072457364028
 30
0.00000001
  9
$LIMMIN
 10
-124.2983730688856
 20
-63.49994123213281
  9
$LIMMAX
 10
41.44759609811274
 20
29.00662241336516
  9
$ORTHOMODE
 70
     0
  9
$REGENMODE
 70
     1
  9
$FILLMODE
 70
     1
  9
$QTEXTMODE
 70
     0
  9
$MIRRTEXT
 70
     0
  9
$DRAGMODE
 70
     2
  9
$LTSCALE
 40
0.3
  9
$OSMODE
 70
    55
  9
$ATTMODE
 70
     1
  9
$TEXTSIZE
 40
2.5
  9
$TRACEWID
 40
1.0
  9
$TEXTSTYLE
  7
STANDARD
  9
$CLAYER
  8
AM_0
  9
$CELTYPE
  6
BYLAYER
  9
$CECOLOR
 62
   256
  9
$CELTSCALE
 40
1.0
  9
$DELOBJ
 70
     1
  9
$DISPSILH
 70
     0
  9
$DIMSCALE
 40
0.5
  9
$DIMASZ
 40
2.5
  9
$DIMEXO
 40
1.0
  9
$DIMDLI
 40
12.0
  9
$DIMRND
 40
0.0
  9
$DIMDLE
 40
0.0
  9
$DIMEXE
 40
1.0
  9
$DIMTP
 40
0.1
  9
$DIMTM
 40
0.1
  9
$DIMTXT
 40
3.2
  9
$DIMCEN
 40
0.0
  9
$DIMTSZ
 40
0.0
  9
$DIMTOL
 70
     0
  9
$DIMLIM
 70
     0
  9
$DIMTIH
 70
     0
  9
$DIMTOH
 70
     0
  9
$DIMSE1
 70
     0
  9
$DIMSE2
 70
     0
  9
$DIMTAD
 70
     3
  9
$DIMZIN
 70
     8
  9
$DIMBLK
  1
OPEN30
  9
$DIMASO
 70
     1
  9
$DIMSHO
 70
     1
  9
$DIMPOST
  1

  9
$DIMAPOST
  1
"
  9
$DIMALT
 70
     0
  9
$DIMALTD
 70
     2
  9
$DIMALTF
 40
0.0393701
  9
$DIMLFAC
 40
1.0
  9
$DIMTOFL
 70
     1
  9
$DIMTVP
 40
0.0
  9
$DIMTIX
 70
     0
  9
$DIMSOXD
 70
     0
  9
$DIMSAH
 70
     0
  9
$DIMBLK1
  1

  9
$DIMBLK2
  1

  9
$DIMSTYLE
  2
AM_JIS
  9
$DIMCLRD
 70
   256
  9
$DIMCLRE
 70
   256
  9
$DIMCLRT
 70
     2
  9
$DIMTFAC
 40
0.71
  9
$DIMGAP
 40
1.5
  9
$DIMJUST
 70
     0
  9
$DIMSD1
 70
     0
  9
$DIMSD2
 70
     0
  9
$DIMTOLJ
 70
     0
  9
$DIMTZIN
 70
     0
  9
$DIMALTZ
 70
     0
  9
$DIMALTTZ
 70
     0
  9
$DIMFIT
 70
     3
  9
$DIMUPT
 70
     0
  9
$DIMUNIT
 70
     2
  9
$DIMDEC
 70
     3
  9
$DIMTDEC
 70
     3
  9
$DIMALTU
 70
     2
  9
$DIMALTTD
 70
     2
  9
$DIMTXSTY
  7
ASAMI
  9
$DIMAUNIT
 70
     0
  9
$LUNITS
 70
     2
  9
$LUPREC
 70
     2
  9
$SKETCHINC
 40
1.0
  9
$FILLETRAD
 40
0.5
  9
$AUNITS
 70
     0
  9
$AUPREC
 70
     0
  9
$MENU
  1
.
  9
$ELEVATION
 40
0.0
  9
$PELEVATION
 40
0.0
  9
$THICKNESS
 40
0.0
  9
$LIMCHECK
 70
     0
  9
$BLIPMODE
 70
     0
  9
$CHAMFERA
 40
2.5
  9
$CHAMFERB
 40
2.5
  9
$CHAMFERC
 40
20.0
  9
$CHAMFERD
 40
0.0
  9
$SKPOLY
 70
     0
  9
$TDCREATE
 40
2452838.620506898
  9
$TDUPDATE
 40
2453151.780472222
  9
$TDINDWG
 40
0.3272863426
  9
$TDUSRTIMER
 40
0.3272863426
  9
$USRTIMER
 70
     1
  9
$ANGBASE
 50
0.0
  9
$ANGDIR
 70
     0
  9
$PDMODE
 70
     0
  9
$PDSIZE
 40
0.0
  9
$PLINEWID
 40
0.0
  9
$COORDS
 70
     1
  9
$SPLFRAME
 70
     0
  9
$SPLINETYPE
 70
     6
  9
$SPLINESEGS
 70
     8
  9
$ATTDIA
 70
     1
  9
$ATTREQ
 70
     1
  9
$HANDLING
 70
 12289
  9
$HANDSEED
  5
2E36
  9
$SURFTAB1
 70
     6
  9
$SURFTAB2
 70
     6
  9
$SURFTYPE
 70
     6
  9
$SURFU
 70
     6
  9
$SURFV
 70
     6
  9
$UCSNAME
  2

  9
$UCSORG
 10
-0.0000000000000586
 20
-0.0000000000000036
 30
0.0
  9
$UCSXDIR
 10
1.0
 20
0.0
 30
0.0
  9
$UCSYDIR
 10
0.0
 20
1.0
 30
0.0
  9
$PUCSNAME
  2

  9
$PUCSORG
 10
0.0
 20
0.0
 30
0.0
  9
$PUCSXDIR
 10
1.0
 20
0.0
 30
0.0
  9
$PUCSYDIR
 10
0.0
 20
1.0
 30
0.0
  9
$USERI1
 70
     0
  9
$USERI2
 70
     0
  9
$USERI3
 70
     0
  9
$USERI4
 70
     0
  9
$USERI5
 70
     0
  9
$USERR1
 40
0.0
  9
$USERR2
 40
0.0
  9
$USERR3
 40
0.0
  9
$USERR4
 40
0.0
  9
$USERR5
 40
0.0
  9
$WORLDVIEW
 70
     1
  9
$SHADEDGE
 70
     3
  9
$SHADEDIF
 70
    70
  9
$TILEMODE
 70
     1
  9
$MAXACTVP
 70
    64
  9
$PINSBASE
 10
0.0
 20
0.0
 30
0.0
  9
$PLIMCHECK
 70
     0
  9
$PEXTMIN
 10
1.000000000000000E+20
 20
1.000000000000000E+20
 30
1.000000000000000E+20
  9
$PEXTMAX
 10
-1.000000000000000E+20
 20
-1.000000000000000E+20
 30
-1.000000000000000E+20
  9
$PLIMMIN
 10
0.0
 20
0.0
  9
$PLIMMAX
 10
841.0
 20
594.0
  9
$UNITMODE
 70
     0
  9
$VISRETAIN
 70
     1
  9
$PLINEGEN
 70
     0
  9
$PSLTSCALE
 70
     0
  9
$TREEDEPTH
 70
  3020
  9
$PICKSTYLE
 70
     0
  9
$CMLSTYLE
  2
STANDARD
  9
$CMLJUST
 70
     0
  9
$CMLSCALE
 40
20.0
  9
$PROXYGRAPHICS
 70
     1
  9
$MEASUREMENT
 70
     1
  0
ENDSEC
  0
SECTION
  2
CLASSES
  0
CLASS
  1
ACDBDICTIONARYWDFLT
  2
AcDbDictionaryWithDefault
  3
AutoCAD 2000
 90
        0
280
     0
281
     0
  0
CLASS
  1
ACDBPLACEHOLDER
  2
AcDbPlaceHolder
  3
AutoCAD 2000
 90
        0
280
     0
281
     0
  0
CLASS
  1
LAYOUT
  2
AcDbLayout
  3
AutoCAD 2000
 90
        0
280
     0
281
     0
  0
CLASS
  1
AMGSETTINGSOBJ
  2
AmgSettingsObj
  3
"AcadM|Product Description: AutoCAD Mechanical 2000|Company: Autodesk"
 90
        0
280
     0
281
     0
  0
CLASS
  1
ACME_DOCUMENT
  2
AcMeDbDoc
  3
AcMeServices
 90
        0
280
     0
281
     0
  0
CLASS
  1
ACMESCOPE
  2
AcMeScope
  3
AcMeServices
 90
        0
280
     0
281
     0
  0
CLASS
  1
ACMECOMMANDHISTORY
  2
AcMeCommandHistory
  3
AcMeServices
 90
        0
280
     0
281
     0
  0
CLASS
  1
DICTIONARYVAR
  2
AcDbDictionaryVar
  3
AutoCAD 2000
 90
        0
280
     0
281
     0
  0
CLASS
  1
ACIMSYSVARMAN
  2
AcImSysVarManager
  3
AcMeServices
 90
        0
280
     0
281
     0
  0
CLASS
  1
ACIMREALSYSVAR
  2
AcImRealSysVar
  3
AcMeServices
 90
        0
280
     0
281
     0
  0
CLASS
  1
ACIMINTSYSVAR
  2
AcImIntSysVar
  3
AcMeServices
 90
        0
280
     0
281
     0
  0
CLASS
  1
ACMEDRAWINGMAN
  2
AcMeDrawingMan
  3
AcMeServices
 90
        0
280
     0
281
     0
  0
CLASS
  1
ACMEVIEW
  2
AcMeView
  3
AcMeServices
 90
        0
280
     0
281
     0
  0
CLASS
  1
ACDBENTITYCACHE
  2
AcMeEntityCache
  3
AcMeServices
 90
        0
280
     0
281
     0
  0
CLASS
  1
GSMANAGER
  2
AcMeGSManager
  3
AcMeServices
 90
        0
280
     0
281
     0
  0
CLASS
  1
AmdtInternalReactor
  2
AmdtInternalReactor
  3
AcMeServices
 90
        0
280
     0
281
     0
  0
CLASS
  1
ACMESTATEMGR
  2
AcMeStateMgr
  3
AcMeServices
 90
        0
280
     0
281
     0
  0
CLASS
  1
ACME_DATABASE
  2
AcMeDbDatabase
  3
AcMeServices
 90
        0
280
     0
281
     0
  0
CLASS
  1
ACRFINSADJUSTERMGR
  2
AcRfInsAdjusterMgr
  3
AcMeServices
 90
        0
280
     0
281
     0
  0
CLASS
  1
ACMDATADICTIONARY
  2
AcmDataDictionary
  3
"AcmSymBB|Product Description: AutoCAD Mechanical 2000|Company: Autodesk"
 90
        0
280
     0
281
     0
  0
CLASS
  1
ACMDATAENTRYBLOCK
  2
AcmDataEntryBlock
  3
"AcmSymBB|Product Description: AutoCAD Mechanical 2000|Company: Autodesk"
 90
        0
280
     0
281
     0
  0
CLASS
  1
AMGOBJPROPCFG
  2
AmgObjPropCfg
  3
"AmgLay|Product Description: AutoCAD Mechanical 2000|Company: Autodesk"
 90
        1
280
     0
281
     0
  0
CLASS
  1
ACAMGFILTERDAT
  2
AcAmgFilterDat
  3
"AcadM|Product Description: AutoCAD Mechanical 2000|Company: Autodesk"
 90
        0
280
     0
281
     0
  0
CLASS
  1
LAYER_INDEX
  2
AcDbLayerIndex
  3
AutoCAD 2000
 90
        0
280
     0
281
     0
  0
CLASS
  1
IDBUFFER
  2
AcDbIdBuffer
  3
AutoCAD 2000
 90
        0
280
     0
281
     0
  0
CLASS
  1
ACIMSTRSYSVAR
  2
AcImStrSysVar
  3
AcMeServices
 90
        0
280
     0
281
     0
  0
CLASS
  1
ACMSTANDARDJIS
  2
AcmStandardJIS
  3
"AcmSymBB|Product Description: AutoCAD Mechanical 2000|Company: Autodesk"
 90
        0
280
     0
281
     0
  0
CLASS
  1
ACMSURFSTANDARDJIS
  2
AcmSurfTextStdJIS
  3
"AcmSymBB|Product Description: AutoCAD Mechanical 2000|Company: Autodesk"
 90
        0
280
     0
281
     0
  0
CLASS
  1
ACMFCFSTANDARDJIS
  2
AcmFCFStdJIS
  3
"AcmSymBB|Product Description: AutoCAD Mechanical 2000|Company: Autodesk"
 90
        0
280
     0
281
     0
  0
CLASS
  1
ACMWELDSTANDARDJIS
  2
AcmWeldingStdJIS
  3
"AcmSymBB|Product Description: AutoCAD Mechanical 2000|Company: Autodesk"
 90
        0
280
     0
281
     0
  0
CLASS
  1
ACMIDSTANDARDJIS
  2
AcmIdStdJIS
  3
"AcmSymBB|Product Description: AutoCAD Mechanical 2000|Company: Autodesk"
 90
        0
280
     0
281
     0
  0
CLASS
  1
ACMDATUMSTANDARDJIS
  2
AcmDatumStdJIS
  3
"AcmSymBB|Product Description: AutoCAD Mechanical 2000|Company: Autodesk"
 90
        0
280
     0
281
     0
  0
CLASS
  1
ACMBOMSTANDARDJIS
  2
AcmBOMStdJIS
  3
"AcmSymBB|Product Description: AutoCAD Mechanical 2000|Company: Autodesk"
 90
        0
280
     0
281
     0
  0
CLASS
  1
ACMSTANDARDANSI
  2
AcmStandardANSI
  3
"AcmSymBB|Product Description: AutoCAD Mechanical 2000|Company: Autodesk"
 90
        0
280
     0
281
     0
  0
CLASS
  1
ACMSURFSTANDARDANSI
  2
AcmSurfTextStdANSI
  3
"AcmSymBB|Product Description: AutoCAD Mechanical 2000|Company: Autodesk"
 90
        0
280
     0
281
     0
  0
CLASS
  1
ACMFCFSTANDARDANSI
  2
AcmFCFStdANSI
  3
"AcmSymBB|Product Description: AutoCAD Mechanical 2000|Company: Autodesk"
 90
        0
280
     0
281
     0
  0
CLASS
  1
ACMWELDSTANDARDANSI
  2
AcmWeldingStdANSI
  3
"AcmSymBB|Product Description: AutoCAD Mechanical 2000|Company: Autodesk"
 90
        0
280
     0
281
     0
  0
CLASS
  1
ACMIDSTANDARDANSI
  2
AcmIdStdANSI
  3
"AcmSymBB|Product Description: AutoCAD Mechanical 2000|Company: Autodesk"
 90
        0
280
     0
281
     0
  0
CLASS
  1
ACMDATUMSTANDARDANSI
  2
AcmDatumStdANSI
  3
"AcmSymBB|Product Description: AutoCAD Mechanical 2000|Company: Autodesk"
 90
        0
280
     0
281
     0
  0
CLASS
  1
ACMBOMSTANDARDANSI
  2
AcmBOMStdANSI
  3
"AcmSymBB|Product Description: AutoCAD Mechanical 2000|Company: Autodesk"
 90
        0
280
     0
281
     0
  0
CLASS
  1
ACMSTANDARDBSI
  2
AcmStandardBSI
  3
"AcmSymBB|Product Description: AutoCAD Mechanical 2000|Company: Autodesk"
 90
        0
280
     0
281
     0
  0
CLASS
  1
ACMSURFSTANDARDBSI
  2
AcmSurfTextStdBSI
  3
"AcmSymBB|Product Description: AutoCAD Mechanical 2000|Company: Autodesk"
 90
        0
280
     0
281
     0
  0
CLASS
  1
ACMFCFSTANDARDBSI
  2
AcmFCFStdBSI
  3
"AcmSymBB|Product Description: AutoCAD Mechanical 2000|Company: Autodesk"
 90
        0
280
     0
281
     0
  0
CLASS
  1
ACMWELDSTANDARDBSI
  2
AcmWeldingStdBSI
  3
"AcmSymBB|Product Description: AutoCAD Mechanical 2000|Company: Autodesk"
 90
        0
280
     0
281
     0
  0
CLASS
  1
ACMIDSTANDARDBSI
  2
AcmIdStdBSI
  3
"AcmSymBB|Product Description: AutoCAD Mechanical 2000|Company: Autodesk"
 90
        0
280
     0
281
     0
  0
CLASS
  1
ACMDATUMSTANDARDBSI
  2
AcmDatumStdBSI
  3
"AcmSymBB|Product Description: AutoCAD Mechanical 2000|Company: Autodesk"
 90
        0
280
     0
281
     0
  0
CLASS
  1
ACMBOMSTANDARDBSI
  2
AcmBOMStdBSI
  3
"AcmSymBB|Product Description: AutoCAD Mechanical 2000|Company: Autodesk"
 90
        0
280
     0
281
     0
  0
CLASS
  1
LONG_TRANSACTION
  2
AcDbLongTransaction
  3
AutoCAD 2000
 90
        0
280
     0
281
     0
  0
CLASS
  1
LWPOLYLINE
  2
AcDbPolyline
  3
AutoCAD 2000
 90
        0
280
     0
281
     1
  0
CLASS
  1
HATCH
  2
AcDbHatch
  3
AutoCAD 2000
 90
        0
280
     0
281
     1
  0
CLASS
  1
XRECORD
  2
AcDbXrecord
  3
AutoCAD 2000
 90
        0
280
     0
281
     0
  0
ENDSEC
  0
SECTION
  2
TABLES
  0
TABLE
  2
VPORT
  5
8
330
0
100
AcDbSymbolTable
 70
     3
  0
VPORT
  5
2E0B
330
8
100
AcDbSymbolTableRecord
100
AcDbViewportTableRecord
  2
*ACTIVE
 70
     0
 10
0.0
 20
0.0
 11
1.0
 21
1.0
 12
-41.98257282691284
 22
-11.68519890976607
 13
0.0
 23
0.0
 14
2.5
 24
2.5
 15
10.0
 25
10.0
 16
0.0
 26
0.0
 36
1.0
 17
0.0
 27
0.0
 37
0.0
 40
66.8713047948857
 41
1.56570841889117
 42
50.0
 43
0.0
 44
0.0
 50
0.0
 51
0.0
 71
     0
 72
   100
 73
     1
 74
     3
 75
     0
 76
     0
 77
     0
 78
     0
  0
ENDTAB
  0
TABLE
  2
LTYPE
  5
5
330
0
100
AcDbSymbolTable
 70
    10
  0
LTYPE
  5
14
330
5
100
AcDbSymbolTableRecord
100
AcDbLinetypeTableRecord
  2
BYBLOCK
 70
     0
  3

 72
    65
 73
     0
 40
0.0
  0
LTYPE
  5
15
330
5
100
AcDbSymbolTableRecord
100
AcDbLinetypeTableRecord
  2
BYLAYER
 70
     0
  3

 72
    65
 73
     0
 40
0.0
  0
LTYPE
  5
16
330
5
100
AcDbSymbolTableRecord
100
AcDbLinetypeTableRecord
  2
CONTINUOUS
 70
     0
  3
Solid line
 72
    65
 73
     0
 40
0.0
  0
LTYPE
  5
4B
330
5
100
AcDbSymbolTableRecord
100
AcDbLinetypeTableRecord
  2
AM_ISO02W050
 70
     0
  3
__ __ __ __ __ __ __ __ __ __ __ __ __ __ __
 72
    65
 73
     2
 40
7.5
 49
6.0
 74
     0
 49
-1.5
 74
     0
  0
LTYPE
  5
4C
330
5
100
AcDbSymbolTableRecord
100
AcDbLinetypeTableRecord
  2
AM_ISO08W050
 70
     0
  3
____ . ____ . ____ . ____ . ____ . ____ . ____
 72
    65
 73
     4
 40
18.0
 49
12.0
 74
     0
 49
-1.5
 74
     0
 49
3.0
 74
     0
 49
-1.5
 74
     0
  0
LTYPE
  5
4D
330
5
100
AcDbSymbolTableRecord
100
AcDbLinetypeTableRecord
  2
AM_ISO09W050
 70
     0
  3
_____ . . _____ . . _____ . . ____ .. ____
 72
    65
 73
     6
 40
22.5
 49
12.0
 74
     0
 49
-1.5
 74
     0
 49
3.0
 74
     0
 49
-1.5
 74
     0
 49
3.0
 74
     0
 49
-1.5
 74
     0
  0
LTYPE
  5
4E
330
5
100
AcDbSymbolTableRecord
100
AcDbLinetypeTableRecord
  2
AMCONSTR
 70
     0
  3
_______________________
 72
    65
 73
     2
 40
9999.0
 49
9999.0
 74
     0
 49
0.0
 74
     0
  0
LTYPE
  5
4F
330
5
100
AcDbSymbolTableRecord
100
AcDbLinetypeTableRecord
  2
AM_ISO02W050X2
 70
     0
  3
 _ _ _ _ _ _ _ _ _ _ _ _
 72
    65
 73
     2
 40
3.75
 49
3.0
 74
     0
 49
-0.75
 74
     0
  0
LTYPE
  5
50
330
5
100
AcDbSymbolTableRecord
100
AcDbLinetypeTableRecord
  2
AM_ISO08W050X2
 70
     0
  3
__ . __ . __ . __ . __ . __
 72
    65
 73
     4
 40
9.0
 49
6.0
 74
     0
 49
-0.75
 74
     0
 49
1.5
 74
     0
 49
-0.75
 74
     0
  0
LTYPE
  5
53
330
5
100
AcDbSymbolTableRecord
100
AcDbLinetypeTableRecord
  2
AMZIGZAG
 70
     0
  3
/\/-/\/-/\/-/\/-/\/-/\/
 72
    65
 73
     2
 40
11.00009999999999
 49
0.0001
 74
     4
 75
   135
340
52
 46
0.04
 50
0.0
 44
0.0
 45
0.0
 49
-11.0
 74
     0
  0
LTYPE
  5
166
330
5
100
AcDbSymbolTableRecord
100
AcDbLinetypeTableRecord
  2
ACJISTGL
 70
     0
  3
_ _ _ _ _
 72
    65
 73
     2
 40
3.0
 49
2.0
 74
     0
 49
-1.0
 74
     0
  0
LTYPE
  5
26A
330
5
100
AcDbSymbolTableRecord
100
AcDbLinetypeTableRecord
  2
ACJISTGB
 70
     0
  3
__ . . __ . .
 72
    65
 73
     6
 40
9.0
 49
4.0
 74
     0
 49
-1.0
 74
     0
 49
1.0
 74
     0
 49
-1.0
 74
     0
 49
1.0
 74
     0
 49
-1.0
 74
     0
  0
ENDTAB
  0
TABLE
  2
LAYER
  5
2
330
0
100
AcDbSymbolTable
 70
     8
  0
LAYER
  5
10
330
2
100
AcDbSymbolTableRecord
100
AcDbLayerTableRecord
  2
0
 70
     0
 62
     7
  6
CONTINUOUS
  0
LAYER
  5
3F9
330
2
100
AcDbSymbolTableRecord
100
AcDbLayerTableRecord
  2
AM_0
 70
     0
 62
     7
  6
CONTINUOUS
  0
LAYER
  5
BD6
330
2
100
AcDbSymbolTableRecord
100
AcDbLayerTableRecord
  2
AM_11
 70
     0
 62
     3
  6
AM_ISO09W050
  0
LAYER
  5
BD7
330
2
100
AcDbSymbolTableRecord
100
AcDbLayerTableRecord
  2
AM_7
 70
     0
 62
     4
  6
AM_ISO08W050
  0
LAYER
  5
BD8
330
2
100
AcDbSymbolTableRecord
100
AcDbLayerTableRecord
  2
AM_5
 70
     0
 62
     3
  6
CONTINUOUS
  0
LAYER
  5
BD9
330
2
100
AcDbSymbolTableRecord
100
AcDbLayerTableRecord
  2
DEFPOINTS
 70
     0
 62
     7
  6
CONTINUOUS
  0
LAYER
  5
BDA
330
2
100
AcDbSymbolTableRecord
100
AcDbLayerTableRecord
  2
AM_6
 70
     0
 62
     2
  6
CONTINUOUS
  0
LAYER
  5
22A6
330
2
100
AcDbSymbolTableRecord
100
AcDbLayerTableRecord
  2
AM_CL
 70
     0
 62
     1
  6
AMCONSTR
  0
ENDTAB
  0
TABLE
  2
STYLE
  5
3
330
0
100
AcDbSymbolTable
 70
     5
  0
STYLE
  5
11
330
3
100
AcDbSymbolTableRecord
100
AcDbTextStyleTableRecord
  2
STANDARD
 70
     0
 40
0.0
 41
1.0
 50
0.0
 71
     0
 42
2.5
  3
simplex.shx
  4
EXTFONT.SHX
  0
STYLE
  5
52
330
3
100
AcDbSymbolTableRecord
100
AcDbTextStyleTableRecord
  2

 70
     1
 40
0.0
 41
1.0
 50
0.0
 71
     0
 42
2.5
  3
ltypeshp.shx
  4

  0
STYLE
  5
6B
330
3
100
AcDbSymbolTableRecord
100
AcDbTextStyleTableRecord
  2
ASAMI
 70
     0
 40
0.0
 41
1.0
 50
0.0
 71
     0
 42
2.5
  3
simplex.shx
  4
EXTFONT.SHX
  0
STYLE
  5
262
330
3
100
AcDbSymbolTableRecord
100
AcDbTextStyleTableRecord
  2
ACJISTS
 70
     0
 40
1.0
 41
1.0
 50
0.0
 71
     0
 42
2.5
  3
simplex.shx
  4
bigfont.shx
  0
STYLE
  5
269
330
3
100
AcDbSymbolTableRecord
100
AcDbTextStyleTableRecord
  2
ACJISGDT
 70
     0
 40
0.0
 41
1.0
 50
0.0
 71
     0
 42
2.5
  3
amgdtans.shx
  4

  0
ENDTAB
  0
TABLE
  2
VIEW
  5
6
330
0
100
AcDbSymbolTable
 70
     0
  0
ENDTAB
  0
TABLE
  2
UCS
  5
7
330
0
100
AcDbSymbolTable
 70
     0
  0
ENDTAB
  0
TABLE
  2
APPID
  5
9
330
0
100
AcDbSymbolTable
 70
    13
  0
APPID
  5
12
330
9
100
AcDbSymbolTableRecord
100
AcDbRegAppTableRecord
  2
ACAD
 70
     0
  0
APPID
  5
30
330
9
100
AcDbSymbolTableRecord
100
AcDbRegAppTableRecord
  2
MCAD_NO_VIS
 70
     0
  0
APPID
  5
31
330
9
100
AcDbSymbolTableRecord
100
AcDbRegAppTableRecord
  2
ACAD_TEMP_GRAPHIC
 70
     0
  0
APPID
  5
2C2
330
9
100
AcDbSymbolTableRecord
100
AcDbRegAppTableRecord
  2
GENIUS_GENDTOL_13
 70
     0
  0
APPID
  5
339
330
9
100
AcDbSymbolTableRecord
100
AcDbRegAppTableRecord
  2
GENIUS_GENODEF_13
 70
     0
  0
APPID
  5
33A
330
9
100
AcDbSymbolTableRecord
100
AcDbRegAppTableRecord
  2
GENIUS_GENOBJ-N-RSBK_13
 70
     0
  0
APPID
  5
33B
330
9
100
AcDbSymbolTableRecord
100
AcDbRegAppTableRecord
  2
GENIUS_GENOBJ-N-LIB_13
 70
     0
  0
APPID
  5
33C
330
9
100
AcDbSymbolTableRecord
100
AcDbRegAppTableRecord
  2
GENIUS_GENSCALE_13
 70
     0
  0
APPID
  5
378
330
9
100
AcDbSymbolTableRecord
100
AcDbRegAppTableRecord
  2
GENIUS_GENDIMSH_14
 70
     0
  0
APPID
  5
BDB
330
9
100
AcDbSymbolTableRecord
100
AcDbRegAppTableRecord
  2
GENIUS_GENOBJ-N-CEN_13
 70
     0
  0
APPID
  5
BDC
330
9
100
AcDbSymbolTableRecord
100
AcDbRegAppTableRecord
  2
GENIUS_GENFIL_13
 70
     0
  0
APPID
  5
BDD
330
9
100
AcDbSymbolTableRecord
100
AcDbRegAppTableRecord
  2
GENIUS_GENOBJ-N-FIL_13
 70
     0
  0
APPID
  5
12AD
330
9
100
AcDbSymbolTableRecord
100
AcDbRegAppTableRecord
  2
GENIUS_GENOREF_13
 70
     0
  0
ENDTAB
  0
TABLE
  2
DIMSTYLE
  5
A
330
0
100
AcDbSymbolTable
 70
     8
  0
DIMSTYLE
105
58
102
{ACAD_REACTORS
330
195B
330
1E6A
330
C4F
330
194C
102
}
330
A
100
AcDbSymbolTableRecord
100
AcDbDimStyleTableRecord
  2
AM_JIS
 70
     0
  3

  4
"
  5
OPEN30
  6

  7

 40
0.5
 41
2.5
 42
1.0
 43
12.0
 44
1.0
 45
0.0
 46
0.0
 47
0.1
 48
0.1
140
3.2
141
0.0
142
0.0
143
0.0393701
144
1.0
145
0.0
146
0.71
147
1.5
 71
     0
 72
     0
 73
     0
 74
     0
 75
     0
 76
     0
 77
     3
 78
     8
170
     0
171
     2
172
     1
173
     0
174
     0
175
     0
176
   256
177
   256
178
     2
270
     2
271
     3
272
     3
273
     2
274
     2
340
6B
275
     0
280
     0
281
     0
282
     0
283
     0
284
     0
285
     0
286
     0
287
     3
288
     0
  0
DIMSTYLE
105
5F
330
A
100
AcDbSymbolTableRecord
100
AcDbDimStyleTableRecord
  2
AM_JIS$3
 70
     0
  3

  4
"
  5
OPEN30
  6

  7

 40
0.5
 41
2.5
 42
1.0
 43
10.0
 44
1.0
 45
0.0
 46
0.0
 47
0.1
 48
0.1
140
3.2
141
0.0
142
0.0
143
0.0393701
144
1.0
145
0.0
146
0.71
147
1.5
 71
     0
 72
     0
 73
     0
 74
     1
 75
     0
 76
     0
 77
     3
 78
     8
170
     0
171
     2
172
     0
173
     0
174
     0
175
     0
176
   256
177
   256
178
     2
270
     2
271
     2
272
     3
273
     2
274
     2
340
6B
275
     0
280
     0
281
     0
282
     0
283
     0
284
     0
285
     0
286
     0
287
     0
288
     1
  0
DIMSTYLE
105
60
102
{ACAD_REACTORS
330
2C05
102
}
330
A
100
AcDbSymbolTableRecord
100
AcDbDimStyleTableRecord
  2
AM_JIS$4
 70
     0
  3

  4
"
  5
OPEN30
  6

  7

 40
0.5
 41
2.5
 42
1.0
 43
10.0
 44
1.0
 45
0.0
 46
0.0
 47
0.1
 48
0.1
140
3.2
141
0.0
142
0.0
143
0.0393701
144
1.0
145
0.0
146
0.71
147
1.5
 71
     0
 72
     0
 73
     0
 74
     1
 75
     0
 76
     0
 77
     3
 78
     8
170
     0
171
     2
172
     0
173
     0
174
     0
175
     0
176
   256
177
   256
178
     2
270
     2
271
     2
272
     3
273
     2
274
     2
340
6B
275
     0
280
     0
281
     0
282
     0
283
     0
284
     0
285
     0
286
     0
287
     0
288
     1
  0
DIMSTYLE
105
61
330
A
100
AcDbSymbolTableRecord
100
AcDbDimStyleTableRecord
  2
AM_JIS$6
 70
     0
  3

  4
"
  5
OPEN30
  6

  7

 40
0.5
 41
2.5
 42
1.0
 43
10.0
 44
1.0
 45
0.0
 46
0.0
 47
0.1
 48
0.1
140
3.2
141
0.0
142
0.0
143
0.0393701
144
1.0
145
0.0
146
0.71
147
1.5
 71
     0
 72
     0
 73
     0
 74
     0
 75
     0
 76
     0
 77
     0
 78
     8
170
     0
171
     2
172
     1
173
     0
174
     0
175
     0
176
   256
177
   256
178
     2
270
     2
271
     2
272
     2
273
     2
274
     2
340
6B
275
     0
280
     0
281
     0
282
     0
283
     0
284
     0
285
     0
286
     0
287
     3
288
     0
  0
DIMSTYLE
105
62
330
A
100
AcDbSymbolTableRecord
100
AcDbDimStyleTableRecord
  2
AM_JIS$7
 70
     0
  3

  4
"
  5
OPEN30
  6

  7

 40
0.5
 41
2.5
 42
1.0
 43
10.0
 44
1.0
 45
0.0
 46
0.0
 47
0.1
 48
0.1
140
3.2
141
0.0
142
0.0
143
0.0393701
144
1.0
145
0.0
146
0.71
147
1.5
 71
     0
 72
     0
 73
     0
 74
     0
 75
     0
 76
     0
 77
     3
 78
     8
170
     0
171
     2
172
     1
173
     0
174
     0
175
     0
176
   256
177
   256
178
     2
270
     2
271
     2
272
     3
273
     2
274
     2
340
6B
275
     0
280
     0
281
     0
282
     0
283
     0
284
     0
285
     0
286
     0
287
     3
288
     0
  0
DIMSTYLE
105
63
330
A
100
AcDbSymbolTableRecord
100
AcDbDimStyleTableRecord
  2
AM_JIS$SF
 70
     0
  3

  4
"
  5
OPEN30
  6

  7

 40
0.5
 41
2.5
 42
1.0
 43
10.0
 44
1.0
 45
0.0
 46
0.0
 47
0.1
 48
0.1
140
3.2
141
0.0
142
0.0
143
0.0393701
144
1.0
145
0.0
146
0.71
147
1.5
 71
     0
 72
     0
 73
     0
 74
     0
 75
     1
 76
     1
 77
     3
 78
     8
170
     0
171
     2
172
     1
173
     0
174
     0
175
     0
176
   256
177
   256
178
     2
270
     2
271
     2
272
     2
273
     2
274
     2
340
6B
275
     0
280
     0
281
     0
282
     0
283
     0
284
     0
285
     0
286
     0
287
     3
288
     0
  0
DIMSTYLE
105
68
330
A
100
AcDbSymbolTableRecord
100
AcDbDimStyleTableRecord
  2
AM_JIS$SH
 70
     0
  3

  4
"
  5

  6
GENAXEH
  7
OPEN30
 40
0.5
 41
2.5
 42
1.0
 43
10.0
 44
1.0
 45
0.0
 46
0.0
 47
0.1
 48
0.1
140
3.2
141
0.0
142
0.0
143
0.0393701
144
2.0
145
0.0
146
0.71
147
1.5
 71
     0
 72
     0
 73
     0
 74
     0
 75
     1
 76
     1
 77
     3
 78
     8
170
     0
171
     2
172
     1
173
     1
174
     0
175
     0
176
   256
177
   256
178
     2
270
     2
271
     2
272
     2
273
     2
274
     2
340
6B
275
     0
280
     0
281
     0
282
     0
283
     0
284
     0
285
     0
286
     0
287
     3
288
     0
  0
DIMSTYLE
105
B34
330
A
100
AcDbSymbolTableRecord
100
AcDbDimStyleTableRecord
  2
AM_JIS$2
 70
     0
  3

  4
"
  5
OPEN30
  6

  7

 40
0.5
 41
2.5
 42
1.0
 43
12.0
 44
1.0
 45
0.0
 46
0.0
 47
0.1
 48
0.1
140
3.2
141
0.0
142
0.0
143
0.0393701
144
1.0
145
0.0
146
0.71
147
1.5
 71
     0
 72
     0
 73
     0
 74
     0
 75
     0
 76
     0
 77
     3
 78
     8
170
     0
171
     2
172
     1
173
     0
174
     0
175
     0
176
   256
177
   256
178
     2
270
     2
271
     3
272
     3
273
     2
274
     2
340
6B
275
     0
280
     0
281
     0
282
     0
283
     0
284
     0
285
     0
286
     0
287
     3
288
     0
  0
ENDTAB
  0
TABLE
  2
BLOCK_RECORD
  5
1
330
0
100
AcDbSymbolTable
 70
    10
  0
BLOCK_RECORD
  5
1F
102
{ACAD_XDICTIONARY
360
74
102
}
330
1
100
AcDbSymbolTableRecord
100
AcDbBlockTableRecord
  2
*MODEL_SPACE
  0
BLOCK_RECORD
  5
101
102
{ACAD_XDICTIONARY
360
2E34
102
}
330
1
100
AcDbSymbolTableRecord
100
AcDbBlockTableRecord
  2
*PAPER_SPACE
  0
BLOCK_RECORD
  5
59
330
1
100
AcDbSymbolTableRecord
100
AcDbBlockTableRecord
  2
_OPEN30
  0
BLOCK_RECORD
  5
64
330
1
100
AcDbSymbolTableRecord
100
AcDbBlockTableRecord
  2
GENAXEH
  0
BLOCK_RECORD
  5
C75
330
1
100
AcDbSymbolTableRecord
100
AcDbBlockTableRecord
  2
*D5
  0
BLOCK_RECORD
  5
194D
330
1
100
AcDbSymbolTableRecord
100
AcDbBlockTableRecord
  2
*D6
  0
BLOCK_RECORD
  5
195C
330
1
100
AcDbSymbolTableRecord
100
AcDbBlockTableRecord
  2
*D7
  0
BLOCK_RECORD
  5
1E6B
330
1
100
AcDbSymbolTableRecord
100
AcDbBlockTableRecord
  2
*D8
  0
BLOCK_RECORD
  5
2C06
330
1
100
AcDbSymbolTableRecord
100
AcDbBlockTableRecord
  2
*D9
  0
ENDTAB
  0
ENDSEC
  0
SECTION
  2
BLOCKS
  0
BLOCK
  5
20
330
1F
100
AcDbEntity
  8
0
100
AcDbBlockBegin
  2
*MODEL_SPACE
 70
     0
 10
0.0
 20
0.0
 30
0.0
  3
*MODEL_SPACE
  1

  0
ENDBLK
  5
21
330
1F
100
AcDbEntity
  8
0
100
AcDbBlockEnd
  0
BLOCK
  5
103
330
101
100
AcDbEntity
 67
     1
  8
0
100
AcDbBlockBegin
  2
*PAPER_SPACE
 70
     0
 10
0.0
 20
0.0
 30
0.0
  3
*PAPER_SPACE
  1

  0
ENDBLK
  5
104
330
101
100
AcDbEntity
 67
     1
  8
0
100
AcDbBlockEnd
  0
BLOCK
  5
5D
330
59
100
AcDbEntity
  8
0
100
AcDbBlockBegin
  2
_OPEN30
 70
     0
 10
0.0
 20
0.0
 30
0.0
  3
_OPEN30
  1

  0
LINE
  5
5A
330
59
100
AcDbEntity
  8
0
 62
     0
100
AcDbLine
 10
-1.0
 20
0.26794919
 30
0.0
 11
0.0
 21
0.0
 31
0.0
  0
LINE
  5
5B
330
59
100
AcDbEntity
  8
0
 62
     0
100
AcDbLine
 10
0.0
 20
0.0
 30
0.0
 11
-1.0
 21
-0.26794919
 31
0.0
  0
LINE
  5
5C
330
59
100
AcDbEntity
  8
0
 62
     0
100
AcDbLine
 10
0.0
 20
0.0
 30
0.0
 11
-1.0
 21
0.0
 31
0.0
  0
ENDBLK
  5
5E
330
59
100
AcDbEntity
  8
0
100
AcDbBlockEnd
  0
BLOCK
  5
66
330
64
100
AcDbEntity
  8
0
100
AcDbBlockBegin
  2
GENAXEH
 70
     0
 10
0.0
 20
0.0
 30
0.0
  3
GENAXEH
  1

  0
LINE
  5
65
330
64
100
AcDbEntity
  8
0
100
AcDbLine
 10
-1.0
 20
0.0
 30
0.0
 11
1.0
 21
0.0
 31
0.0
  0
ENDBLK
  5
67
330
64
100
AcDbEntity
  8
0
100
AcDbBlockEnd
  0
BLOCK
  5
C7F
330
C75
100
AcDbEntity
  8
0
100
AcDbBlockBegin
  2
*D5
 70
     1
 10
0.0
 20
0.0
 30
0.0
  3
*D5
  1

  0
LINE
  5
2DB7
330
C75
100
AcDbEntity
  8
AM_5
100
AcDbLine
 10
-79.99954398357992
 20
-5.000000000000009
 30
0.0
 11
-79.99954398357992
 21
-19.50000115167989
 31
0.0
  0
LINE
  5
2DB8
330
C75
100
AcDbEntity
  8
AM_5
100
AcDbLine
 10
-0.0000000000000587
 20
-0.5000000000000036
 30
0.0
 11
-0.0000000000000598
 21
-19.50000115167989
 31
0.0
  0
LINE
  5
2DB9
330
C75
100
AcDbEntity
  8
AM_5
100
AcDbLine
 10
-78.74954398357992
 20
-19.00000115167989
 30
0.0
 11
-1.250000000000059
 21
-19.00000115167989
 31
0.0
  0
INSERT
  5
2DBA
330
C75
100
AcDbEntity
  8
AM_5
100
AcDbBlockReference
  2
_OPEN30
 10
-79.99954398357992
 20
-19.00000115167989
 30
0.0
 41
1.25
 42
1.25
 43
1.25
 50
180.0
  0
INSERT
  5
2DBB
330
C75
100
AcDbEntity
  8
AM_5
100
AcDbBlockReference
  2
_OPEN30
 10
-0.0000000000000598
 20
-19.00000115167989
 30
0.0
 41
1.25
 42
1.25
 43
1.25
  0
MTEXT
  5
2DBC
330
C75
100
AcDbEntity
  8
AM_5
 62
     2
100
AcDbMText
 10
-39.99977199178999
 20
-17.45000115167989
 30
0.0
 40
1.6
 41
0.0
 71
     5
 72
     1
  1
80
  7
ASAMI
1001
ACAD
1000
MTEXTBEGIN
1070
    73
1070
     1
1070
    44
1040
1.0
1070
    74
1070
     0
1000
MTEXTEND
  0
POINT
  5
2DBD
330
C75
100
AcDbEntity
  8
DEFPOINTS
 62
     0
100
AcDbPoint
 10
-79.99954398357992
 20
-4.500000000000009
 30
0.0
  0
POINT
  5
2DBE
330
C75
100
AcDbEntity
  8
DEFPOINTS
 62
     0
100
AcDbPoint
 10
-0.0000000000000586
 20
-0.0000000000000036
 30
0.0
  0
POINT
  5
2DBF
330
C75
100
AcDbEntity
  8
DEFPOINTS
 62
     0
100
AcDbPoint
 10
-0.0000000000000598
 20
-19.00000115167989
 30
0.0
  0
ENDBLK
  5
C80
330
C75
100
AcDbEntity
  8
0
100
AcDbBlockEnd
  0
BLOCK
  5
1959
330
194D
100
AcDbEntity
  8
0
100
AcDbBlockBegin
  2
*D6
 70
     1
 10
0.0
 20
0.0
 30
0.0
  3
*D6
  1

  0
LINE
  5
2A94
330
194D
100
AcDbEntity
  8
AM_5
100
AcDbLine
 10
-5.496992506834381
 20
-5.990517506638894
 30
0.0
 11
10.15831679456913
 21
-5.990517506638899
 31
0.0
  0
LINE
  5
2A95
330
194D
100
AcDbEntity
  8
AM_5
100
AcDbLine
 10
-5.496992506834381
 20
6.009482493319107
 30
0.0
 11
10.15831679456914
 21
6.009482493319103
 31
0.0
  0
LINE
  5
2A96
330
194D
100
AcDbEntity
  8
AM_5
100
AcDbLine
 10
9.65831679456914
 20
-4.740517506638898
 30
0.0
 11
9.658316794569143
 21
4.759482493319104
 31
0.0
  0
INSERT
  5
2A97
330
194D
100
AcDbEntity
  8
AM_5
100
AcDbBlockReference
  2
_OPEN30
 10
9.65831679456914
 20
-5.990517506638898
 30
0.0
 41
1.25
 42
1.25
 43
1.25
 50
270.0
  0
INSERT
  5
2A98
330
194D
100
AcDbEntity
  8
AM_5
100
AcDbBlockReference
  2
_OPEN30
 10
9.658316794569143
 20
6.009482493319104
 30
0.0
 41
1.25
 42
1.25
 43
1.25
 50
90.0
  0
MTEXT
  5
2A99
330
194D
100
AcDbEntity
  8
AM_5
 62
     2
100
AcDbMText
 10
8.108316794569141
 20
0.0094824933401041
 30
0.0
 40
1.6
 41
0.0
 71
     5
 72
     1
  1
%%c12
  7
ASAMI
 11
0.0000000000000001
 21
1.0
 31
0.0
1001
ACAD
1000
MTEXTBEGIN
1070
    73
1070
     1
1070
    44
1040
1.0
1070
    74
1070
     0
1000
MTEXTEND
  0
POINT
  5
2A9A
330
194D
100
AcDbEntity
  8
DEFPOINTS
 62
     0
100
AcDbPoint
 10
-5.996992506834381
 20
-5.990517506638894
 30
0.0
  0
POINT
  5
2A9B
330
194D
100
AcDbEntity
  8
DEFPOINTS
 62
     0
100
AcDbPoint
 10
-5.996992506834381
 20
6.009482493319107
 30
0.0
  0
POINT
  5
2A9C
330
194D
100
AcDbEntity
  8
DEFPOINTS
 62
     0
100
AcDbPoint
 10
9.658316794569143
 20
6.009482493319104
 30
0.0
  0
ENDBLK
  5
195A
330
194D
100
AcDbEntity
  8
0
100
AcDbBlockEnd
  0
BLOCK
  5
1968
330
195C
100
AcDbEntity
  8
0
100
AcDbBlockBegin
  2
*D7
 70
     1
 10
0.0
 20
0.0
 30
0.0
  3
*D7
  1

  0
LINE
  5
2DC0
330
195C
100
AcDbEntity
  8
AM_5
100
AcDbLine
 10
-17.99967404737909
 20
-6.490517506638893
 30
0.0
 11
-17.99967404737909
 21
-13.50000115168031
 31
0.0
  0
LINE
  5
2DC1
330
195C
100
AcDbEntity
  8
AM_5
100
AcDbLine
 10
-0.0000000000000587
 20
-0.5000000000000036
 30
0.0
 11
-0.0000000000000594
 21
-13.50000115168031
 31
0.0
  0
LINE
  5
2DC2
330
195C
100
AcDbEntity
  8
AM_5
100
AcDbLine
 10
-16.74967404737909
 20
-13.00000115168031
 30
0.0
 11
-1.250000000000059
 21
-13.00000115168031
 31
0.0
  0
INSERT
  5
2DC3
330
195C
100
AcDbEntity
  8
AM_5
100
AcDbBlockReference
  2
_OPEN30
 10
-17.99967404737909
 20
-13.00000115168031
 30
0.0
 41
1.25
 42
1.25
 43
1.25
 50
180.0
  0
INSERT
  5
2DC4
330
195C
100
AcDbEntity
  8
AM_5
100
AcDbBlockReference
  2
_OPEN30
 10
-0.0000000000000594
 20
-13.00000115168031
 30
0.0
 41
1.25
 42
1.25
 43
1.25
  0
MTEXT
  5
2DC5
330
195C
100
AcDbEntity
  8
AM_5
 62
     2
100
AcDbMText
 10
-8.999837023689577
 20
-11.45000115168031
 30
0.0
 40
1.6
 41
0.0
 71
     5
 72
     1
  1
18
  7
ASAMI
1001
ACAD
1000
MTEXTBEGIN
1070
    73
1070
     1
1070
    44
1040
1.0
1070
    74
1070
     0
1000
MTEXTEND
  0
POINT
  5
2DC6
330
195C
100
AcDbEntity
  8
DEFPOINTS
 62
     0
100
AcDbPoint
 10
-17.99967404737909
 20
-5.990517506638893
 30
0.0
  0
POINT
  5
2DC7
330
195C
100
AcDbEntity
  8
DEFPOINTS
 62
     0
100
AcDbPoint
 10
-0.0000000000000586
 20
-0.0000000000000036
 30
0.0
  0
POINT
  5
2DC8
330
195C
100
AcDbEntity
  8
DEFPOINTS
 62
     0
100
AcDbPoint
 10
-0.0000000000000594
 20
-13.00000115168031
 30
0.0
  0
ENDBLK
  5
1969
330
195C
100
AcDbEntity
  8
0
100
AcDbBlockEnd
  0
BLOCK
  5
1E77
330
1E6B
100
AcDbEntity
  8
0
100
AcDbBlockBegin
  2
*D8
 70
     1
 10
0.0
 20
0.0
 30
0.0
  3
*D8
  1

  0
LINE
  5
2D80
330
1E6B
100
AcDbEntity
  8
AM_5
100
AcDbLine
 10
-79.49954398357998
 20
-6.000000000000009
 30
0.0
 11
-92.26929141407257
 21
-6.000000000000006
 31
0.0
  0
LINE
  5
2D81
330
1E6B
100
AcDbEntity
  8
AM_5
100
AcDbLine
 10
-79.49954398357998
 20
5.999999999999997
 30
0.0
 11
-92.26929141407257
 21
6.0
 31
0.0
  0
LINE
  5
2D82
330
1E6B
100
AcDbEntity
  8
AM_5
100
AcDbLine
 10
-91.76929141407256
 20
-4.750000000000006
 30
0.0
 11
-91.76929141407256
 21
4.75
 31
0.0
  0
INSERT
  5
2D83
330
1E6B
100
AcDbEntity
  8
AM_5
100
AcDbBlockReference
  2
_OPEN30
 10
-91.76929141407256
 20
-6.000000000000006
 30
0.0
 41
1.25
 42
1.25
 43
1.25
 50
270.0
  0
INSERT
  5
2D84
330
1E6B
100
AcDbEntity
  8
AM_5
100
AcDbBlockReference
  2
_OPEN30
 10
-91.76929141407256
 20
6.0
 30
0.0
 41
1.25
 42
1.25
 43
1.25
 50
90.0
  0
MTEXT
  5
2D85
330
1E6B
100
AcDbEntity
  8
AM_5
 62
     2
100
AcDbMText
 10
-93.31929141407256
 20
-0.0000000000000331
 30
0.0
 40
1.6
 41
0.0
 71
     5
 72
     1
  1
%%c12
  7
ASAMI
 11
0.0000000000000001
 21
1.0
 31
0.0
1001
ACAD
1000
MTEXTBEGIN
1070
    73
1070
     1
1070
    44
1040
1.0
1070
    74
1070
     0
1000
MTEXTEND
  0
POINT
  5
2D86
330
1E6B
100
AcDbEntity
  8
DEFPOINTS
 62
     0
100
AcDbPoint
 10
-78.99954398357998
 20
-6.000000000000009
 30
0.0
  0
POINT
  5
2D87
330
1E6B
100
AcDbEntity
  8
DEFPOINTS
 62
     0
100
AcDbPoint
 10
-78.99954398357998
 20
5.999999999999997
 30
0.0
  0
POINT
  5
2D88
330
1E6B
100
AcDbEntity
  8
DEFPOINTS
 62
     0
100
AcDbPoint
 10
-91.76929141407256
 20
6.0
 30
0.0
  0
ENDBLK
  5
1E78
330
1E6B
100
AcDbEntity
  8
0
100
AcDbBlockEnd
  0
BLOCK
  5
2C0D
330
2C06
100
AcDbEntity
  8
0
100
AcDbBlockBegin
  2
*D9
 70
     1
 10
0.0
 20
0.0
 30
0.0
  3
*D9
  1

  0
LINE
  5
2DB1
330
2C06
100
AcDbEntity
  8
AM_5
100
AcDbLine
 10
-0.9177157757351936
 20
-5.160910453837423
 30
0.0
 11
6.806004325770897
 21
-13.01854396175611
 31
0.0
  0
INSERT
  5
2DB2
330
2C06
100
AcDbEntity
  8
AM_5
100
AcDbBlockReference
  2
_OPEN30
 10
-1.793970384547938
 20
-4.269463393976647
 30
0.0
 41
1.25
 42
1.25
 43
1.25
 50
134.5075855221069
  0
MTEXT
  5
2DB3
330
2C06
100
AcDbEntity
  8
AM_5
 62
     2
100
AcDbMText
 10
5.649827261062512
 20
-9.631205835187632
 30
0.0
 40
1.6
 41
0.0
 71
     5
 72
     1
  1
R6.0
  7
ASAMI
 11
0.701003687050195
 21
-0.7131576478886225
 31
0.0
1001
ACAD
1000
MTEXTBEGIN
1070
    73
1070
     1
1070
    44
1040
1.0
1070
    74
1070
     0
1000
MTEXTEND
  0
POINT
  5
2DB4
330
2C06
100
AcDbEntity
  8
DEFPOINTS
 62
     0
100
AcDbPoint
 10
-1.793970384547938
 20
-4.269463393976647
 30
0.0
  0
POINT
  5
2DB5
330
2C06
100
AcDbEntity
  8
DEFPOINTS
 62
     0
100
AcDbPoint
 10
-5.999992506834384
 20
0.0094824933401108
 30
0.0
  0
ENDBLK
  5
2C0E
330
2C06
100
AcDbEntity
  8
0
100
AcDbBlockEnd
  0
ENDSEC
  0
SECTION
  2
ENTITIES
  0
DIMENSION
  5
C4F
330
1F
100
AcDbEntity
  8
AM_5
100
AcDbDimension
  2
*D5
 10
-0.0000000000000598
 20
-19.00000115167989
 30
0.0
 11
-39.99977199178999
 21
-17.45000115167989
 31
0.0
 70
    32
  1
<>
  3
AM_JIS
100
AcDbAlignedDimension
 13
-79.99954398357992
 23
-4.500000000000009
 33
0.0
 14
-0.0000000000000586
 24
-0.0000000000000036
 34
0.0
 50
0.0000000000002036
100
AcDbRotatedDimension
1001
GENIUS_GENDTOL_13
1000

1000
H7
1000

1040
0.0
  0
LINE
  5
C50
330
1F
100
AcDbEntity
  8
AM_7
100
AcDbLine
 10
-84.7692904140726
 20
-0.0000000000000036
 30
0.0
 11
2.658315794569177
 21
-0.0000000000000036
 31
0.0
1001
GENIUS_GENODEF_13
1002
{
1000
HIER
1070
     0
1002
}
1002
{
1000
MANEDIT
1070
     0
1002
}
1002
{
1000
NOSEL
1070
     0
1002
}
1002
{
1000
BEHIND
1070
     0
1002
}
1002
{
1000
REACTOR
1002
}
1001
GENIUS_GENOBJ-N-CEN_13
1002
{
1000
OWNER
1000
GEN
1002
}
  0
TEXT
  5
C58
330
1F
100
AcDbEntity
  8
AM_6
100
AcDbText
 10
-53.03548627750426
 20
-30.25000115167994
 30
0.0
 40
2.5
  1
S-SNB2120ZX
 50
0.0000000000002036
 72
     4
 11
-39.99977199178999
 21
-29.00000115167989
 31
0.0
100
AcDbText
  0
DIMENSION
  5
194C
330
1F
100
AcDbEntity
  8
AM_5
100
AcDbDimension
  2
*D6
 10
9.658316794569143
 20
6.009482493319104
 30
0.0
 11
8.108316794569141
 21
0.0094824933401041
 31
0.0
 70
    32
  1
%%c<>
  3
AM_JIS
100
AcDbAlignedDimension
 13
-5.996992506834381
 23
-5.990517506638894
 33
0.0
 14
-5.996992506834381
 24
6.009482493319107
 34
0.0
 50
90.0
100
AcDbRotatedDimension
1001
GENIUS_GENDTOL_13
1000

1000
H7
1000

1040
0.0
  0
DIMENSION
  5
195B
330
1F
100
AcDbEntity
  8
AM_5
100
AcDbDimension
  2
*D7
 10
-0.0000000000000594
 20
-13.00000115168031
 30
0.0
 11
-8.999837023689577
 21
-11.45000115168031
 31
0.0
 70
    32
  1
<>
  3
AM_JIS
100
AcDbAlignedDimension
 13
-17.99967404737909
 23
-5.990517506638893
 33
0.0
 14
-0.0000000000000586
 24
-0.0000000000000036
 34
0.0
 50
359.9999999999988
100
AcDbRotatedDimension
1001
GENIUS_GENDTOL_13
1000

1000
H7
1000

1040
0.0
  0
ARC
  5
1C9A
330
1F
100
AcDbEntity
  8
AM_5
100
AcDbCircle
 10
-5.999992506834384
 20
0.0094824933401103
 30
0.0
 40
5.999999999978999
100
AcDbArc
 50
270.0
 51
90.0
  0
LINE
  5
1CA1
330
1F
100
AcDbEntity
  8
AM_11
 48
0.5
100
AcDbLine
 10
-17.99967404737909
 20
-5.990517506638893
 30
0.0
 11
-5.999992725835848
 21
-5.990517506638893
 31
0.0
1001
GENIUS_GENODEF_13
1002
{
1000
HIER
1070
     0
1002
}
1002
{
1000
MANEDIT
1070
     0
1002
}
1002
{
1000
NOSEL
1070
     0
1002
}
1002
{
1000
BEHIND
1070
     0
1002
}
1002
{
1000
REACTOR
1002
}
1001
GENIUS_GENOBJ-N-CEN_13
1002
{
1000
OWNER
1000
GEN
1002
}
  0
LINE
  5
1CB1
330
1F
100
AcDbEntity
  8
AM_11
 48
0.5
100
AcDbLine
 10
-17.99967404737909
 20
6.009482493361106
 30
0.0
 11
-5.999992506834384
 21
6.009482493361106
 31
0.0
1001
GENIUS_GENODEF_13
1002
{
1000
HIER
1070
     0
1002
}
1002
{
1000
MANEDIT
1070
     0
1002
}
1002
{
1000
NOSEL
1070
     0
1002
}
1002
{
1000
BEHIND
1070
     0
1002
}
1002
{
1000
REACTOR
1002
}
1001
GENIUS_GENOBJ-N-CEN_13
1002
{
1000
OWNER
1000
GEN
1002
}
  0
LINE
  5
1E64
330
1F
100
AcDbEntity
  8
AM_0
100
AcDbLine
 10
-78.99954398357998
 20
5.999999999999985
 30
0.0
 11
-28.27203279306734
 21
5.999999999999985
 31
0.0
1001
GENIUS_GENODEF_13
1002
{
1000
HIER
1070
     0
1002
}
1002
{
1000
MANEDIT
1070
     0
1002
}
1002
{
1000
NOSEL
1070
     0
1002
}
1002
{
1000
BEHIND
1070
     0
1002
}
1002
{
1000
REACTOR
1002
}
1001
GENIUS_GENOBJ-N-CEN_13
1002
{
1000
OWNER
1000
GEN
1002
}
  0
LINE
  5
1E65
330
1F
100
AcDbEntity
  8
AM_0
100
AcDbLine
 10
-78.99954398357998
 20
-6.000000000000009
 30
0.0
 11
-28.35276754398434
 21
-6.000000000000009
 31
0.0
1001
GENIUS_GENODEF_13
1002
{
1000
HIER
1070
     0
1002
}
1002
{
1000
MANEDIT
1070
     0
1002
}
1002
{
1000
NOSEL
1070
     0
1002
}
1002
{
1000
BEHIND
1070
     0
1002
}
1002
{
1000
REACTOR
1002
}
1001
GENIUS_GENOBJ-N-CEN_13
1002
{
1000
OWNER
1000
GEN
1002
}
  0
LINE
  5
1E66
330
1F
100
AcDbEntity
  8
AM_0
100
AcDbLine
 10
-79.99954398357992
 20
4.499999999999988
 30
0.0
 11
-78.99954398357998
 21
5.999999999999985
 31
0.0
1001
GENIUS_GENFIL_13
1070
     0
1040
0.5
1040
0.5
1040
0.4999999999999716
1040
45.0
1002
{
1002
}
  0
LINE
  5
1E67
330
1F
100
AcDbEntity
  8
AM_0
100
AcDbLine
 10
-79.99954398357992
 20
-4.500000000000009
 30
0.0
 11
-78.99954398357998
 21
-6.000000000000009
 31
0.0
1001
GENIUS_GENFIL_13
1070
     0
1040
0.5
1040
0.5
1040
0.4999999999999716
1040
45.00000000000036
1002
{
1002
}
  0
LINE
  5
1E68
330
1F
100
AcDbEntity
  8
0
100
AcDbLine
 10
-78.99954398357998
 20
-6.000000000000009
 30
0.0
 11
-78.99954398357998
 21
5.999999999999985
 31
0.0
  0
LINE
  5
1E69
330
1F
100
AcDbEntity
  8
AM_0
100
AcDbLine
 10
-79.99954398357992
 20
-4.500000000000009
 30
0.0
 11
-79.99954398357992
 21
4.499999999999988
 31
0.0
  0
DIMENSION
  5
1E6A
330
1F
100
AcDbEntity
  8
AM_5
100
AcDbDimension
  2
*D8
 10
-91.76929141407256
 20
6.0
 30
0.0
 11
-91.76929141407256
 21
-0.0000000000000333
 31
0.0
 70
   160
  1
%%c<>
  3
AM_JIS
100
AcDbAlignedDimension
 13
-78.99954398357998
 23
-6.000000000000009
 33
0.0
 14
-78.99954398357998
 24
5.999999999999997
 34
0.0
 50
270.0
100
AcDbRotatedDimension
1001
ACAD
1000
DSTYLE
1002
{
1070
    48
1040
0.1
1070
    47
1040
0.1
1070
   274
1070
     2
1070
   272
1070
     3
1002
}
1001
GENIUS_GENDTOL_13
1000

1000
h6
1000

1040
0.0
  0
DIMENSION
  5
2C05
330
1F
100
AcDbEntity
  8
AM_5
100
AcDbDimension
  2
*D9
 10
-5.999992506834384
 20
0.0094824933401108
 30
0.0
 11
4.544432906835147
 21
-10.71776155011543
 31
0.0
 70
   164
  1
<>
  3
AM_JIS$4
100
AcDbRadialDimension
 15
-1.793970384547938
 25
-4.269463393976647
 35
0.0
 40
0.0
1001
GENIUS_GENDTOL_13
1000

1000
h7
1000

1040
0.0
1001
ACAD
1000
DSTYLE
1002
{
1070
    78
1070
     0
1070
   271
1070
     1
1070
   288
1070
     1
1070
   289
1070
     0
1070
    74
1070
     0
1002
}
  0
LINE
  5
2CE5
330
1F
100
AcDbEntity
  8
AM_0
100
AcDbLine
 10
-0.2365650058753787
 20
-0.3113090196864956
 30
0.0
 11
-0.8300507201589789
 21
-0.4170360982129378
 31
0.0
  0
LINE
  5
2CE6
330
1F
100
AcDbEntity
  8
AM_0
100
AcDbLine
 10
0.0000064226951331
 20
0.0094824933401103
 30
0.0
 11
-0.2365650058753787
 21
-0.3113090196864956
 31
0.0
  0
SPLINE
  5
2CE7
330
1F
100
AcDbEntity
  8
AM_0
100
AcDbSpline
210
0.0
220
0.0
230
1.0
 70
     8
 71
     3
 72
     8
 73
     4
 74
     0
 42
0.0000000001
 43
0.0000000001
 40
3.790408995970492
 40
3.790408995970492
 40
3.790408995970492
 40
3.790408995970492
 40
5.485524909568358
 40
5.485524909568358
 40
5.485524909568358
 40
5.485524909568358
 10
-5.1428507201302
 20
5.447328072248614
 30
0.0
 10
-5.69968357451633
 20
5.287731749430937
 30
0.0
 10
-6.251890981186087
 20
5.097818704185888
 30
0.0
 10
-6.800205741286074
 20
4.882391958908078
 30
0.0
  0
SPLINE
  5
2CE8
330
1F
100
AcDbEntity
  8
AM_0
100
AcDbSpline
210
0.0
220
0.0
230
1.0
 70
     8
 71
     3
 72
     8
 73
     4
 74
     0
 42
0.0000000001
 43
0.0000000001
 40
0.0
 40
0.0
 40
0.0
 40
0.0
 40
2.400427856148001
 40
2.400427856148001
 40
2.400427856148001
 40
2.400427856148001
 10
-5.142850720129724
 20
5.447328072248614
 30
0.0
 10
-4.728610042127084
 20
4.80962289951349
 30
0.0
 10
-5.936061456415371
 20
4.848295271847723
 30
0.0
 10
-7.143512870703657
 20
4.886967644181956
 30
0.0
  0
ELLIPSE
  5
2CE9
330
1F
100
AcDbEntity
  8
AM_0
100
AcDbEllipse
 10
-5.12023295922015
 20
-0.5526139029306787
 30
0.0
 11
0.0000000000000011
 21
5.999999999979004
 31
0.0
210
0.0
220
0.0
230
1.0
 40
0.8571428571428572
 41
-1.476976016331602
 42
0.0043979121318491
  0
SPLINE
  5
2CEA
330
1F
100
AcDbEntity
  8
AM_0
100
AcDbSpline
210
0.0
220
0.0
230
1.0
 70
     8
 71
     3
 72
     8
 73
     4
 74
     0
 42
0.0000000001
 43
0.0000000001
 40
0.0
 40
0.0
 40
0.0
 40
0.0
 40
1.293721832890842
 40
1.293721832890842
 40
1.293721832890842
 40
1.293721832890842
 10
-28.35276754398432
 20
-6.00000000000001
 30
0.0
 10
-25.37036745698271
 20
-6.000000151679987
 30
0.0
 10
-24.300722306543
 20
-5.908097186644321
 30
0.0
 10
-23.24553318580918
 20
-5.740376722952079
 30
0.0
  0
SPLINE
  5
2CEB
330
1F
100
AcDbEntity
  8
AM_0
100
AcDbSpline
210
0.0
220
0.0
230
1.0
 70
     8
 71
     3
 72
     8
 73
     4
 74
     0
 42
0.0000000001
 43
0.0000000001
 40
0.3950956770951979
 40
0.3950956770951979
 40
0.3950956770951979
 40
0.3950956770951979
 40
1.389839699216864
 40
1.389839699216864
 40
1.389839699216864
 40
1.389839699216864
 10
-23.24553318580916
 20
-5.740376722952136
 30
0.0
 10
-22.4170875024683
 20
-5.699648122282058
 30
0.0
 10
-21.59779713727044
 20
-5.609062307626311
 30
0.0
 10
-20.78635407302943
 20
-5.475742362173152
 30
0.0
  0
SPLINE
  5
2CEC
330
1F
100
AcDbEntity
  8
AM_0
100
AcDbSpline
210
0.0
220
0.0
230
1.0
 70
     8
 71
     3
 72
     8
 73
     4
 74
     0
 42
0.0000000001
 43
0.0000000001
 40
0.3443266156513821
 40
0.3443266156513821
 40
0.3443266156513821
 40
0.3443266156513821
 40
1.748655602797241
 40
1.748655602797241
 40
1.748655602797241
 40
1.748655602797241
 10
-20.78635407355962
 20
-5.475742362194759
 30
0.0
 10
-19.61473175186395
 20
-5.427332872496439
 30
0.0
 10
-18.46001281891384
 20
-5.282582532251931
 30
0.0
 10
-15.10295928751198
 20
-4.730478459593109
 30
0.0
  0
SPLINE
  5
2CED
330
1F
100
AcDbEntity
  8
AM_0
100
AcDbSpline
210
0.0
220
0.0
230
1.0
 70
     8
 71
     3
 72
     8
 73
     4
 74
     0
 42
0.0000000001
 43
0.0000000001
 40
0.0
 40
0.0
 40
0.0
 40
0.0
 40
2.238610194515266
 40
2.238610194515266
 40
2.238610194515266
 40
2.238610194515266
 10
-14.97335786212293
 20
-4.685244696174898
 30
0.0
 10
-13.09216076021843
 20
-4.685244696174898
 30
0.0
 10
-11.24505034081935
 20
-4.459517518451285
 30
0.0
 10
-8.582098454476664
 20
-4.078061158258272
 30
0.0
  0
LINE
  5
2CEE
330
1F
100
AcDbEntity
  8
AM_0
100
AcDbLine
 10
-13.41044112482916
 20
-4.63430531807784
 30
0.0
 11
-16.79547745019481
 21
-4.826651601108379
 31
0.0
  0
LINE
  5
2CEF
330
1F
100
AcDbEntity
  8
AM_0
100
AcDbLine
 10
-22.15681375255687
 20
5.087068760276737
 30
0.0
 11
-7.143512870703659
 21
4.886967644181959
 31
0.0
  0
ELLIPSE
  5
2CF0
330
1F
100
AcDbEntity
  8
AM_0
100
AcDbEllipse
 10
-10.75498246355815
 20
-12.18858386742407
 30
0.0
 11
0.0000000000000096
 21
17.53517392815177
 31
0.0
210
0.0
220
0.0
230
1.0
 40
0.8571428571428571
 41
-0.7969676180332665
 42
-0.2298599996611264
  0
SPLINE
  5
2CF1
330
1F
100
AcDbEntity
  8
AM_0
100
AcDbSpline
210
0.0
220
0.0
230
1.0
 70
     8
 71
     3
 72
     8
 73
     4
 74
     0
 42
0.0000000001
 43
0.0000000001
 40
0.0
 40
0.0
 40
0.0
 40
0.0
 40
4.664065259525107
 40
4.664065259525107
 40
4.664065259525107
 40
4.664065259525107
 10
-4.381490917155586
 20
1.515038290015559
 30
0.0
 10
-5.589227678285504
 20
2.172078007557457
 30
0.0
 10
-8.462816391882627
 20
5.105961030163396
 30
0.0
 10
-7.143512870704124
 20
4.886967644181956
 30
0.0
  0
LINE
  5
2CF2
330
1F
100
AcDbEntity
  8
AM_0
100
AcDbLine
 10
-4.325040079619759
 20
1.484327589188206
 30
0.0
 11
-0.8300507201589789
 21
-0.4170360982129378
 31
0.0
  0
ELLIPSE
  5
2CF3
330
1F
100
AcDbEntity
  8
AM_0
100
AcDbEllipse
 10
-4.403932050750164
 20
1.715430460378167
 30
0.0
 11
0.0000000000000098
 21
4.683201809952509
 31
0.0
210
0.0
220
0.0
230
1.0
 40
0.8571428571428569
 41
3.292905900158553
 42
4.239630733081948
  0
ELLIPSE
  5
2CF4
330
1F
100
AcDbEntity
  8
AM_0
100
AcDbEllipse
 10
-4.360555471006761
 20
-5.500080922340321
 30
0.0
 11
0.000000000000008
 21
0.9154912329975072
 31
0.0
210
0.0
220
0.0
230
1.0
 40
0.8571428571428556
 41
0.6393902535358365
 42
1.492377887395503
  0
ELLIPSE
  5
2CF5
330
1F
100
AcDbEntity
  8
AM_0
100
AcDbEllipse
 10
-5.065313115537315
 20
1.015704931735635
 30
0.0
 11
0.0000000000000065
 21
5.787722599519068
 31
0.0
210
0.0
220
0.0
230
1.0
 40
0.8571428571428569
 41
3.189287156089243
 42
4.481050195177781
  0
ELLIPSE
  5
2CF6
330
1F
100
AcDbEntity
  8
AM_0
100
AcDbEllipse
 10
-5.12023295922015
 20
0.5715788896106009
 30
0.0
 11
0.0000000000000011
 21
5.999999999979004
 31
0.0
210
0.0
220
0.0
230
1.0
 40
0.8571428571428572
 41
3.137194741457943
 42
4.618568669921396
  0
SPLINE
  5
2CF7
330
1F
100
AcDbEntity
  8
AM_0
100
AcDbSpline
210
0.0
220
0.0
230
1.0
 70
     8
 71
     3
 72
     8
 73
     4
 74
     0
 42
0.0000000001
 43
0.0000000001
 40
0.0
 40
0.0
 40
0.0
 40
0.0
 40
1.299592567846441
 40
1.299592567846441
 40
1.299592567846441
 40
1.299592567846441
 10
-4.828794909928403
 20
-4.765436059515059
 30
0.0
 10
-4.828794909928403
 20
-4.332238536899579
 30
0.0
 10
-4.684640921033873
 20
-3.921182285737637
 30
0.0
 10
-4.540486932139344
 20
-3.510126034575697
 30
0.0
  0
SPLINE
  5
2CF8
330
1F
100
AcDbEntity
  8
AM_0
100
AcDbSpline
210
0.0
220
0.0
230
1.0
 70
     8
 71
     3
 72
     8
 73
     4
 74
     0
 42
0.0000000001
 43
0.0000000001
 40
0.0
 40
0.0
 40
0.0
 40
0.0
 40
1.050571974683377
 40
1.050571974683377
 40
1.050571974683377
 40
1.050571974683377
 10
-3.798849651450921
 20
-2.91426097447853
 30
0.0
 10
-3.798849651450921
 20
-3.264451632706322
 30
0.0
 10
-4.240323510801236
 20
-3.510126034575697
 30
0.0
 10
-4.540486932139344
 20
-3.510126034575697
 30
0.0
  0
ELLIPSE
  5
2CF9
330
1F
100
AcDbEntity
  8
AM_0
100
AcDbEllipse
 10
-0.5905256525439908
 20
-0.1497301321972824
 30
0.0
 11
0.0000000000000022
 21
4.6532799340937
 31
0.0
210
0.0
220
0.0
230
1.0
 40
0.857142857142858
 41
1.211983871441737
 42
2.20694725810919
  0
SPLINE
  5
2CFA
330
1F
100
AcDbEntity
  8
AM_0
100
AcDbSpline
210
0.0
220
0.0
230
1.0
 70
     8
 71
     3
 72
     8
 73
     4
 74
     0
 42
0.0000000001
 43
0.0000000001
 40
7.981245920543044
 40
7.981245920543044
 40
7.981245920543044
 40
7.981245920543044
 40
14.43905044399483
 40
14.43905044399483
 40
14.43905044399483
 40
14.43905044399483
 10
-4.390534034118542
 20
-3.510126034575697
 30
0.0
 10
-6.881103254975348
 20
-2.303805324042833
 30
0.0
 10
-9.304076015049721
 20
-0.8409056307348437
 30
0.0
 10
-11.75067771633011
 20
0.5006215747708898
 30
0.0
  0
SPLINE
  5
2CFB
330
1F
100
AcDbEntity
  8
AM_0
100
AcDbSpline
210
0.0
220
0.0
230
1.0
 70
     8
 71
     3
 72
     8
 73
     4
 74
     0
 42
0.0000000001
 43
0.0000000001
 40
3.7904089959839
 40
3.7904089959839
 40
3.7904089959839
 40
3.7904089959839
 40
14.48999654934396
 40
14.48999654934396
 40
14.48999654934396
 40
14.48999654934396
 10
-5.138296283725378
 20
-5.381867790786644
 30
0.0
 10
-9.602413934599548
 20
-3.998889965272683
 30
0.0
 10
-13.08638123084474
 20
-1.787706121632023
 30
0.0
 10
-16.87290783879503
 20
0.9888568198298949
 30
0.0
  0
LINE
  5
2CFC
330
1F
100
AcDbEntity
  8
AM_11
 48
0.5
100
AcDbLine
 10
-17.99967404737909
 20
6.009482493361106
 30
0.0
 11
-17.99967404737909
 21
-5.990517506638893
 31
0.0
  0
SPLINE
  5
2CFD
330
1F
100
AcDbEntity
  8
AM_0
100
AcDbSpline
210
0.0
220
0.0
230
1.0
 70
     8
 71
     3
 72
     8
 73
     4
 74
     0
 42
0.0000000001
 43
0.0000000001
 40
4.071346735624547
 40
4.071346735624547
 40
4.071346735624547
 40
4.071346735624547
 40
6.91280490763674
 40
6.91280490763674
 40
6.91280490763674
 40
6.91280490763674
 10
-28.35276754398434
 20
-6.00000000000001
 30
0.0
 10
-31.85364201835983
 20
-6.00000000000001
 30
0.0
 10
-34.02083265063518
 20
-5.518979879017132
 30
0.0
 10
-34.40575382719028
 20
-3.523233713070651
 30
0.0
  0
ELLIPSE
  5
2CFE
330
1F
100
AcDbEntity
  8
AM_0
100
AcDbEllipse
 10
-28.05406631753607
 20
-9.610038071470958
 30
0.0
 11
-9.103594594364968
 21
0.0000000000000309
 31
0.0
210
0.0
220
0.0
230
1.0
 40
0.9333273478091301
 41
-1.5379790867995
 42
-0.798597612771535
  0
SPLINE
  5
2CFF
330
1F
100
AcDbEntity
  8
AM_0
100
AcDbSpline
210
0.0
220
0.0
230
1.0
 70
     8
 71
     3
 72
     8
 73
     4
 74
     0
 42
0.0000000001
 43
0.0000000001
 40
0.0
 40
0.0
 40
0.0
 40
0.0
 40
17.64836150091755
 40
17.64836150091755
 40
17.64836150091755
 40
17.64836150091755
 10
-16.79547745019481
 20
-4.826651601108375
 30
0.0
 10
-23.09466448867458
 20
-4.621345289773103
 30
0.0
 10
-28.57980444431441
 20
-1.129814985470628
 30
0.0
 10
-34.06494439995421
 20
2.361715318831846
 30
0.0
  0
ELLIPSE
  5
2D00
330
1F
100
AcDbEntity
  8
AM_0
100
AcDbEllipse
 10
-28.27132893256053
 20
0.1633674855639029
 30
0.0
 11
6.254105195457994
 21
0.0000000000000226
 31
0.0
210
0.0
220
0.0
230
1.0
 40
0.9333273478091307
 41
1.55777433395239
 42
2.755453484347745
  0
SPLINE
  5
2D01
330
1F
100
AcDbEntity
  8
AM_0
100
AcDbSpline
210
0.0
220
0.0
230
1.0
 70
     8
 71
     3
 72
     8
 73
     4
 74
     0
 42
0.0000000001
 43
0.0000000001
 40
0.0
 40
0.0
 40
0.0
 40
0.0
 40
11.51199025993078
 40
11.51199025993078
 40
11.51199025993078
 40
11.51199025993078
 10
-25.97007419972325
 20
5.627485798919765
 30
0.0
 10
-21.87426805398492
 20
5.293040445050406
 30
0.0
 10
-18.28286934464507
 20
3.130241746231697
 30
0.0
 10
-14.68744135655584
 20
0.8083405180165641
 30
0.0
  0
SPLINE
  5
2D02
330
1F
100
AcDbEntity
  8
AM_0
100
AcDbSpline
210
0.0
220
0.0
230
1.0
 70
     8
 71
     3
 72
     8
 73
     4
 74
     0
 42
0.0000000001
 43
0.0000000001
 40
0.0
 40
0.0
 40
0.0
 40
0.0
 40
11.69088918922736
 40
11.69088918922736
 40
11.69088918922736
 40
11.69088918922736
 10
-28.18989032113661
 20
5.999999999999989
 30
0.0
 10
-24.0304344226158
 20
5.660357289777426
 30
0.0
 10
-20.45167113070541
 20
3.32460705480366
 30
0.0
 10
-16.87290783879503
 20
0.9888568198298944
 30
0.0
  0
SPLINE
  5
2D03
330
1F
100
AcDbEntity
  8
AM_0
100
AcDbSpline
210
0.0
220
0.0
230
1.0
 70
     8
 71
     3
 72
     8
 73
     4
 74
     0
 42
0.0000000001
 43
0.0000000001
 40
5.336187364352841
 40
5.336187364352841
 40
5.336187364352841
 40
5.336187364352841
 40
14.43905044399483
 40
14.43905044399483
 40
14.43905044399483
 40
14.43905044399483
 10
-4.750594732528411
 20
-4.733401027947476
 30
0.0
 10
-8.445825824786098
 20
-3.329363180514724
 30
0.0
 10
-11.82214693073552
 20
-1.21195421309364
 30
0.0
 10
-14.68744135655584
 20
0.8083405180165641
 30
0.0
  0
SPLINE
  5
2D04
330
1F
100
AcDbEntity
  8
AM_0
100
AcDbSpline
210
0.0
220
0.0
230
1.0
 70
     8
 71
     3
 72
     8
 73
     4
 74
     0
 42
0.0000000001
 43
0.0000000001
 40
0.0
 40
0.0
 40
0.0
 40
0.0
 40
12.33082961416466
 40
12.33082961416466
 40
12.33082961416466
 40
12.33082961416466
 10
-23.86879626496573
 20
5.294975838484262
 30
0.0
 10
-19.47562797238884
 20
5.008257441076338
 30
0.0
 10
-15.557363429204
 20
2.819082452971925
 30
0.0
 10
-11.75067771633011
 20
0.5006215747708893
 30
0.0
  0
VIEWPORT
  5
110
330
101
100
AcDbEntity
 67
     1
  8
0
100
AcDbViewport
 10
420.5
 20
297.0
 30
0.0
 40
948.9782706766916
 41
628.452
 68
     1
 69
     1
1001
ACAD
1000
MVIEW
1002
{
1070
    16
1010
0.0
1020
0.0
1030
0.0
1010
0.0
1020
0.0
1030
1.0
1040
0.0
1040
628.452
1040
420.5
1040
297.0
1040
50.0
1040
0.0
1040
0.0
1070
     0
1070
   100
1070
     1
1070
     1
1070
     0
1070
     0
1070
     0
1070
     0
1040
0.0
1040
0.0
1040
0.0
1040
10.0
1040
10.0
1040
10.0
1040
10.0
1070
     0
1002
{
1002
}
1002
}
  0
ENDSEC
  0
SECTION
  2
OBJECTS
  0
DICTIONARY
  5
C
330
0
100
AcDbDictionary
  3
ACAD_GROUP
350
D
  3
ACAD_LAYOUT
350
1A
  3
ACAD_MLINESTYLE
350
17
  3
ACAD_PLOTSETTINGS
350
19
  3
ACAD_PLOTSTYLENAME
350
E
  3
ACDBVARIABLEDICTIONARY
350
34
  3
ACMDICTIONARY
350
43
  3
AMG
350
2B
  3
AMGSNAPSETTINGS
350
6E
  3
DWGPROPS
350
2DFF
  3
ACDBHEADERROUNDTRIPXREC
350
2E0C
  0
DICTIONARY
  5
74
330
1F
100
AcDbDictionary
280
     1
  3
ACAD_INDEX
360
2E01
  3
ACAD_LAYOUTSELFREF
360
2E2F
  0
DICTIONARY
  5
2E34
330
101
100
AcDbDictionary
280
     1
  3
ACAD_LAYOUTSELFREF
360
2E35
  0
DICTIONARY
  5
D
102
{ACAD_REACTORS
330
C
102
}
330
C
100
AcDbDictionary
  0
DICTIONARY
  5
1A
102
{ACAD_REACTORS
330
C
102
}
330
C
100
AcDbDictionary
  0
DICTIONARY
  5
17
102
{ACAD_REACTORS
330
C
102
}
330
C
100
AcDbDictionary
  3
STANDARD
350
18
  0
DICTIONARY
  5
19
102
{ACAD_REACTORS
330
C
102
}
330
C
100
AcDbDictionary
  0
ACDBDICTIONARYWDFLT
  5
E
102
{ACAD_REACTORS
330
C
102
}
330
C
100
AcDbDictionary
281
     1
  3
Normal
350
F
100
AcDbDictionaryWithDefault
340
F
  0
DICTIONARY
  5
34
102
{ACAD_REACTORS
330
C
102
}
330
C
100
AcDbDictionary
  3
INDEXCTL
350
35
  3
SORTENTS
350
B5E
  0
DICTIONARY
  5
43
102
{ACAD_REACTORS
330
C
102
}
330
C
100
AcDbDictionary
  3
ACMSTDDICTIONARY
350
260
  0
DICTIONARY
  5
2B
102
{ACAD_REACTORS
330
C
102
}
330
C
100
AcDbDictionary
  3
ACMGSETTINGS
350
2C
  0
DICTIONARY
  5
6E
102
{ACAD_REACTORS
330
C
102
}
330
C
100
AcDbDictionary
  0
XRECORD
  5
2DFF
102
{ACAD_REACTORS
330
C
102
}
330
C
100
AcDbXrecord
  1
DWGPROPS COOKIE
  2

  3

  4

  6

  7

  8

  9

300
AmdtFileType=82
301
=
302
=
303
=
304
=
305
=
306
=
307
=
308
=
309
=
 40
0.3270825231481482
 41
2452838.620506898
 42
2452850.740027303
  1

 90
        1
  0
DICTIONARY
  5
2E0C
102
{ACAD_REACTORS
330
C
102
}
330
C
100
AcDbDictionary
  3
TSTACKALIGN
350
2E0D
  3
TSTACKSIZE
350
2E0E
  3
HYPERLINKBASE
350
2E0F
  3
STYLESHEET
350
2E10
  3
LAYOUTDICT
350
2E11
  3
PLOTSETDICT
350
2E12
  3
PLOTSTYLNAMDICT
350
2E13
  3
LWETCUNION
350
2E14
  3
INSUNITS
350
2E15
  3
CEPSNTYPE
350
2E16
  3
FINGERPRINTGUID
350
2E17
  3
VERSIONGUID
350
2E18
  3
PSVPSCALE
350
2E19
  3
DIMSTYLEDATA
350
2E1A
  3
PUCSORTHOREF
350
2E1B
  3
PUCSORTHOVIEW
350
2E1C
  3
PUCSBASE
350
2E1D
  3
PUCSORGTOP
350
2E1E
  3
PUCSORGBOTTOM
350
2E1F
  3
PUCSORGLEFT
350
2E20
  3
PUCSORGRIGHT
350
2E21
  3
PUCSORGFRONT
350
2E22
  3
PUCSORGBACK
350
2E23
  3
UCSORTHOREF
350
2E24
  3
UCSORTHOVIEW
350
2E25
  3
UCSBASE
350
2E26
  3
UCSORGTOP
350
2E27
  3
UCSORGBOTTOM
350
2E28
  3
UCSORGLEFT
350
2E29
  3
UCSORGRIGHT
350
2E2A
  3
UCSORGFRONT
350
2E2B
  3
UCSORGBACK
350
2E2C
  0
DICTIONARY
  5
2E01
102
{ACAD_REACTORS
330
74
102
}
330
74
100
AcDbDictionary
  3
*A1
350
2E02
  0
XRECORD
  5
2E2F
102
{ACAD_REACTORS
330
74
102
}
330
74
100
AcDbXrecord
340
1F
  0
XRECORD
  5
2E35
102
{ACAD_REACTORS
330
2E34
102
}
330
2E34
100
AcDbXrecord
340
101
  0
MLINESTYLE
  5
18
102
{ACAD_REACTORS
330
17
102
}
330
17
100
AcDbMlineStyle
  2
STANDARD
 70
     0
  3

 62
   256
 51
90.0
 52
90.0
 71
     2
 49
0.5
 62
   256
  6
BYLAYER
 49
-0.5
 62
   256
  6
BYLAYER
  0
ACDBPLACEHOLDER
  5
F
102
{ACAD_REACTORS
330
E
102
}
330
E
100
AcDbPlaceHolder
280
     0
  0
DICTIONARYVAR
  5
35
102
{ACAD_REACTORS
330
34
102
}
330
34
100
DictionaryVariables
280
     0
  1
1
  0
DICTIONARYVAR
  5
B5E
102
{ACAD_REACTORS
330
34
102
}
330
34
100
DictionaryVariables
280
     0
  1
96
  0
DICTIONARY
  5
260
102
{ACAD_REACTORS
330
43
102
}
330
43
100
AcDbDictionary
  0
DICTIONARY
  5
2C
102
{ACAD_REACTORS
330
2B
102
}
330
2B
100
AcDbDictionary
  3
DWGSETTINGS
350
2D
  0
XRECORD
  5
2E0D
102
{ACAD_REACTORS
330
2E0C
102
}
330
2E0C
100
AcDbXrecord
 90
        1
  0
XRECORD
  5
2E0E
102
{ACAD_REACTORS
330
2E0C
102
}
330
2E0C
100
AcDbXrecord
 90
       70
  0
XRECORD
  5
2E0F
102
{ACAD_REACTORS
330
2E0C
102
}
330
2E0C
100
AcDbXrecord
  1

  0
XRECORD
  5
2E10
102
{ACAD_REACTORS
330
2E0C
102
}
330
2E0C
100
AcDbXrecord
  1
ASAMI.ctb
  0
XRECORD
  5
2E11
102
{ACAD_REACTORS
330
2E0C
102
}
330
2E0C
100
AcDbXrecord
340
1A
  0
XRECORD
  5
2E12
102
{ACAD_REACTORS
330
2E0C
102
}
330
2E0C
100
AcDbXrecord
340
19
  0
XRECORD
  5
2E13
102
{ACAD_REACTORS
330
2E0C
102
}
330
2E0C
100
AcDbXrecord
340
E
  0
XRECORD
  5
2E14
102
{ACAD_REACTORS
330
2E0C
102
}
330
2E0C
100
AcDbXrecord
 90
    10781
  0
XRECORD
  5
2E15
102
{ACAD_REACTORS
330
2E0C
102
}
330
2E0C
100
AcDbXrecord
 90
        4
  0
XRECORD
  5
2E16
102
{ACAD_REACTORS
330
2E0C
102
}
330
2E0C
100
AcDbXrecord
 90
        0
  0
XRECORD
  5
2E17
102
{ACAD_REACTORS
330
2E0C
102
}
330
2E0C
100
AcDbXrecord
  1
{AFB28963-8C59-40AE-9337-C84526B81ACE}
  0
XRECORD
  5
2E18
102
{ACAD_REACTORS
330
2E0C
102
}
330
2E0C
100
AcDbXrecord
  1
{35AF03ED-6624-4C4D-BD09-DD7A9E7C94C2}
  0
XRECORD
  5
2E19
102
{ACAD_REACTORS
330
2E0C
102
}
330
2E0C
100
AcDbXrecord
 40
0.0
  0
XRECORD
  5
2E1A
102
{ACAD_REACTORS
330
2E0C
102
}
330
2E0C
100
AcDbXrecord
1000
DSTYLE
1002
{
1070
    79
 70
     2
1070
   341
340
59
1070
   342
340
59
1070
   371
 70
    -1
1070
   372
 70
    -1
1002
}
  0
XRECORD
  5
2E1B
102
{ACAD_REACTORS
330
2E0C
102
}
330
2E0C
100
AcDbXrecord
340
0
  0
XRECORD
  5
2E1C
102
{ACAD_REACTORS
330
2E0C
102
}
330
2E0C
100
AcDbXrecord
 70
     0
  0
XRECORD
  5
2E1D
102
{ACAD_REACTORS
330
2E0C
102
}
330
2E0C
100
AcDbXrecord
340
0
  0
XRECORD
  5
2E1E
102
{ACAD_REACTORS
330
2E0C
102
}
330
2E0C
100
AcDbXrecord
 10
0.0
 20
0.0
 30
0.0
  0
XRECORD
  5
2E1F
102
{ACAD_REACTORS
330
2E0C
102
}
330
2E0C
100
AcDbXrecord
 10
0.0
 20
0.0
 30
0.0
  0
XRECORD
  5
2E20
102
{ACAD_REACTORS
330
2E0C
102
}
330
2E0C
100
AcDbXrecord
 10
0.0
 20
0.0
 30
0.0
  0
XRECORD
  5
2E21
102
{ACAD_REACTORS
330
2E0C
102
}
330
2E0C
100
AcDbXrecord
 10
0.0
 20
0.0
 30
0.0
  0
XRECORD
  5
2E22
102
{ACAD_REACTORS
330
2E0C
102
}
330
2E0C
100
AcDbXrecord
 10
0.0
 20
0.0
 30
0.0
  0
XRECORD
  5
2E23
102
{ACAD_REACTORS
330
2E0C
102
}
330
2E0C
100
AcDbXrecord
 10
0.0
 20
0.0
 30
0.0
  0
XRECORD
  5
2E24
102
{ACAD_REACTORS
330
2E0C
102
}
330
2E0C
100
AcDbXrecord
340
0
  0
XRECORD
  5
2E25
102
{ACAD_REACTORS
330
2E0C
102
}
330
2E0C
100
AcDbXrecord
 70
     0
  0
XRECORD
  5
2E26
102
{ACAD_REACTORS
330
2E0C
102
}
330
2E0C
100
AcDbXrecord
340
0
  0
XRECORD
  5
2E27
102
{ACAD_REACTORS
330
2E0C
102
}
330
2E0C
100
AcDbXrecord
 10
0.0
 20
0.0
 30
0.0
  0
XRECORD
  5
2E28
102
{ACAD_REACTORS
330
2E0C
102
}
330
2E0C
100
AcDbXrecord
 10
0.0
 20
0.0
 30
0.0
  0
XRECORD
  5
2E29
102
{ACAD_REACTORS
330
2E0C
102
}
330
2E0C
100
AcDbXrecord
 10
0.0
 20
0.0
 30
0.0
  0
XRECORD
  5
2E2A
102
{ACAD_REACTORS
330
2E0C
102
}
330
2E0C
100
AcDbXrecord
 10
0.0
 20
0.0
 30
0.0
  0
XRECORD
  5
2E2B
102
{ACAD_REACTORS
330
2E0C
102
}
330
2E0C
100
AcDbXrecord
 10
0.0
 20
0.0
 30
0.0
  0
XRECORD
  5
2E2C
102
{ACAD_REACTORS
330
2E0C
102
}
330
2E0C
100
AcDbXrecord
 10
0.0
 20
0.0
 30
0.0
  0
LAYER_INDEX
  5
2E02
102
{ACAD_REACTORS
330
2E01
102
}
330
2E01
100
AcDbIndex
 40
2453151.780472222
100
AcDbLayerIndex
  8
0
360
2E03
 90
        1
  8
AM_0
360
2E04
 90
       36
  8
AM_11
360
2E05
 90
        3
  8
AM_7
360
2E06
 90
        1
  8
AM_5
360
2E07
 90
        6
  8
Defpoints
360
2E08
 90
        0
  8
AM_6
360
2E09
 90
        1
  8
AM_CL
360
2E0A
 90
        0
  0
XRECORD
  5
2D
102
{ACAD_REACTORS
330
2C
102
}
330
2C
100
AcDbXrecord
  1
VERSION
140
15.0
  1
PRODUCT
  2
AutoCAD Mechanical 2000
  0
IDBUFFER
  5
2E03
330
0
100
AcDbIdBuffer
330
1E68
  0
IDBUFFER
  5
2E04
330
0
100
AcDbIdBuffer
330
2CF0
330
2CF1
330
2CF2
330
2CF3
330
2CF4
330
2CF5
330
2CF6
330
2CF7
330
2CF8
330
2CF9
330
2CFA
330
2CFB
330
2CFD
330
2CFE
330
2CFF
330
2D00
330
2D01
330
2D02
330
2D03
330
2D04
330
1E64
330
1E65
330
1E66
330
1E67
330
1E69
330
2CE5
330
2CE6
330
2CE7
330
2CE8
330
2CE9
330
2CEA
330
2CEB
330
2CEC
330
2CED
330
2CEE
330
2CEF
  0
IDBUFFER
  5
2E05
330
0
100
AcDbIdBuffer
330
1CA1
330
1CB1
330
2CFC
  0
IDBUFFER
  5
2E06
330
0
100
AcDbIdBuffer
330
C50
  0
IDBUFFER
  5
2E07
330
0
100
AcDbIdBuffer
330
C4F
330
194C
330
195B
330
1C9A
330
1E6A
330
2C05
  0
IDBUFFER
  5
2E08
330
0
100
AcDbIdBuffer
  0
IDBUFFER
  5
2E09
330
0
100
AcDbIdBuffer
330
C58
  0
IDBUFFER
  5
2E0A
330
0
100
AcDbIdBuffer
  0
ENDSEC
  0
EOF
