  0
SECTION
  2
HEADER
  9
$ACADVER
  1
AC1014
  9
$ACADMAINTVER
 70
     9
  9
$DWGCODEPAGE
  3
ANSI_932
  9
$INSBASE
 10
0.0
 20
0.0
 30
0.0
  9
$EXTMIN
 10
-51.40619512995955
 20
-25.75000100000008
 30
-0.00000001
  9
$EXTMAX
 10
8.841627940564762
 20
3.999999999999923
 30
0.00000001
  9
$LIMMIN
 10
-55.37106531681274
 20
-33.27885950800356
  9
$LIMMAX
 10
11.9136427525969
 20
14.69680186750361
  9
$ORTHOMODE
 70
     0
  9
$REGENMODE
 70
     1
  9
$FILLMODE
 70
     1
  9
$QTEXTMODE
 70
     0
  9
$MIRRTEXT
 70
     0
  9
$DRAGMODE
 70
     2
  9
$LTSCALE
 40
1.0
  9
$OSMODE
 70
    55
  9
$ATTMODE
 70
     1
  9
$TEXTSIZE
 40
2.5
  9
$TRACEWID
 40
1.0
  9
$TEXTSTYLE
  7
STANDARD
  9
$CLAYER
  8
AM_0
  9
$CELTYPE
  6
BYLAYER
  9
$CECOLOR
 62
   256
  9
$CELTSCALE
 40
1.0
  9
$DELOBJ
 70
     1
  9
$DISPSILH
 70
     0
  9
$DIMSCALE
 40
0.5
  9
$DIMASZ
 40
2.5
  9
$DIMEXO
 40
1.0
  9
$DIMDLI
 40
12.0
  9
$DIMRND
 40
0.0
  9
$DIMDLE
 40
0.0
  9
$DIMEXE
 40
1.0
  9
$DIMTP
 40
0.1
  9
$DIMTM
 40
0.1
  9
$DIMTXT
 40
3.2
  9
$DIMCEN
 40
0.0
  9
$DIMTSZ
 40
0.0
  9
$DIMTOL
 70
     0
  9
$DIMLIM
 70
     0
  9
$DIMTIH
 70
     0
  9
$DIMTOH
 70
     0
  9
$DIMSE1
 70
     0
  9
$DIMSE2
 70
     0
  9
$DIMTAD
 70
     3
  9
$DIMZIN
 70
     8
  9
$DIMBLK
  1
OPEN30
  9
$DIMASO
 70
     1
  9
$DIMSHO
 70
     1
  9
$DIMPOST
  1

  9
$DIMAPOST
  1
"
  9
$DIMALT
 70
     0
  9
$DIMALTD
 70
     2
  9
$DIMALTF
 40
0.0393701
  9
$DIMLFAC
 40
1.0
  9
$DIMTOFL
 70
     1
  9
$DIMTVP
 40
0.0
  9
$DIMTIX
 70
     0
  9
$DIMSOXD
 70
     0
  9
$DIMSAH
 70
     0
  9
$DIMBLK1
  1

  9
$DIMBLK2
  1

  9
$DIMSTYLE
  2
AM_JIS
  9
$DIMCLRD
 70
   256
  9
$DIMCLRE
 70
   256
  9
$DIMCLRT
 70
     2
  9
$DIMTFAC
 40
0.71
  9
$DIMGAP
 40
1.5
  9
$DIMJUST
 70
     0
  9
$DIMSD1
 70
     0
  9
$DIMSD2
 70
     0
  9
$DIMTOLJ
 70
     0
  9
$DIMTZIN
 70
     0
  9
$DIMALTZ
 70
     0
  9
$DIMALTTZ
 70
     0
  9
$DIMFIT
 70
     3
  9
$DIMUPT
 70
     0
  9
$DIMUNIT
 70
     2
  9
$DIMDEC
 70
     3
  9
$DIMTDEC
 70
     3
  9
$DIMALTU
 70
     2
  9
$DIMALTTD
 70
     2
  9
$DIMTXSTY
  7
ASAMI
  9
$DIMAUNIT
 70
     0
  9
$LUNITS
 70
     2
  9
$LUPREC
 70
     2
  9
$SKETCHINC
 40
1.0
  9
$FILLETRAD
 40
2.5
  9
$AUNITS
 70
     0
  9
$AUPREC
 70
     0
  9
$MENU
  1
.
  9
$ELEVATION
 40
0.0
  9
$PELEVATION
 40
0.0
  9
$THICKNESS
 40
0.0
  9
$LIMCHECK
 70
     0
  9
$BLIPMODE
 70
     0
  9
$CHAMFERA
 40
0.3
  9
$CHAMFERB
 40
0.3
  9
$CHAMFERC
 40
20.0
  9
$CHAMFERD
 40
0.0
  9
$SKPOLY
 70
     0
  9
$TDCREATE
 40
2452838.430434386
  9
$TDUPDATE
 40
2453151.772911041
  9
$TDINDWG
 40
0.1941762731
  9
$TDUSRTIMER
 40
0.1941762731
  9
$USRTIMER
 70
     1
  9
$ANGBASE
 50
0.0
  9
$ANGDIR
 70
     0
  9
$PDMODE
 70
     0
  9
$PDSIZE
 40
0.0
  9
$PLINEWID
 40
0.0
  9
$COORDS
 70
     1
  9
$SPLFRAME
 70
     0
  9
$SPLINETYPE
 70
     6
  9
$SPLINESEGS
 70
     8
  9
$ATTDIA
 70
     1
  9
$ATTREQ
 70
     1
  9
$HANDLING
 70
 12289
  9
$HANDSEED
  5
4E90
  9
$SURFTAB1
 70
     6
  9
$SURFTAB2
 70
     6
  9
$SURFTYPE
 70
     6
  9
$SURFU
 70
     6
  9
$SURFV
 70
     6
  9
$UCSNAME
  2

  9
$UCSORG
 10
0.0
 20
0.0
 30
0.0
  9
$UCSXDIR
 10
1.0
 20
0.0
 30
0.0
  9
$UCSYDIR
 10
0.0
 20
1.0
 30
0.0
  9
$PUCSNAME
  2

  9
$PUCSORG
 10
0.0
 20
0.0
 30
0.0
  9
$PUCSXDIR
 10
1.0
 20
0.0
 30
0.0
  9
$PUCSYDIR
 10
0.0
 20
1.0
 30
0.0
  9
$USERI1
 70
     0
  9
$USERI2
 70
     0
  9
$USERI3
 70
     0
  9
$USERI4
 70
     0
  9
$USERI5
 70
     0
  9
$USERR1
 40
0.0
  9
$USERR2
 40
0.0
  9
$USERR3
 40
0.0
  9
$USERR4
 40
0.0
  9
$USERR5
 40
0.0
  9
$WORLDVIEW
 70
     1
  9
$SHADEDGE
 70
     3
  9
$SHADEDIF
 70
    70
  9
$TILEMODE
 70
     1
  9
$MAXACTVP
 70
    64
  9
$PINSBASE
 10
0.0
 20
0.0
 30
0.0
  9
$PLIMCHECK
 70
     0
  9
$PEXTMIN
 10
1.000000000000000E+20
 20
1.000000000000000E+20
 30
1.000000000000000E+20
  9
$PEXTMAX
 10
-1.000000000000000E+20
 20
-1.000000000000000E+20
 30
-1.000000000000000E+20
  9
$PLIMMIN
 10
0.0
 20
0.0
  9
$PLIMMAX
 10
841.0
 20
594.0
  9
$UNITMODE
 70
     0
  9
$VISRETAIN
 70
     1
  9
$PLINEGEN
 70
     0
  9
$PSLTSCALE
 70
     0
  9
$TREEDEPTH
 70
  3020
  9
$PICKSTYLE
 70
     0
  9
$CMLSTYLE
  2
STANDARD
  9
$CMLJUST
 70
     0
  9
$CMLSCALE
 40
20.0
  9
$PROXYGRAPHICS
 70
     1
  9
$MEASUREMENT
 70
     1
  0
ENDSEC
  0
SECTION
  2
CLASSES
  0
CLASS
  1
ACDBDICTIONARYWDFLT
  2
AcDbDictionaryWithDefault
  3
AutoCAD 2000
 90
        0
280
     0
281
     0
  0
CLASS
  1
ACDBPLACEHOLDER
  2
AcDbPlaceHolder
  3
AutoCAD 2000
 90
        0
280
     0
281
     0
  0
CLASS
  1
LAYOUT
  2
AcDbLayout
  3
AutoCAD 2000
 90
        0
280
     0
281
     0
  0
CLASS
  1
AMGSETTINGSOBJ
  2
AmgSettingsObj
  3
"AcadM|Product Description: AutoCAD Mechanical 2000|Company: Autodesk"
 90
        0
280
     0
281
     0
  0
CLASS
  1
ACME_DOCUMENT
  2
AcMeDbDoc
  3
AcMeServices
 90
        0
280
     0
281
     0
  0
CLASS
  1
ACMESCOPE
  2
AcMeScope
  3
AcMeServices
 90
        0
280
     0
281
     0
  0
CLASS
  1
ACMECOMMANDHISTORY
  2
AcMeCommandHistory
  3
AcMeServices
 90
        0
280
     0
281
     0
  0
CLASS
  1
DICTIONARYVAR
  2
AcDbDictionaryVar
  3
AutoCAD 2000
 90
        0
280
     0
281
     0
  0
CLASS
  1
ACIMSYSVARMAN
  2
AcImSysVarManager
  3
AcMeServices
 90
        0
280
     0
281
     0
  0
CLASS
  1
ACIMREALSYSVAR
  2
AcImRealSysVar
  3
AcMeServices
 90
        0
280
     0
281
     0
  0
CLASS
  1
ACIMINTSYSVAR
  2
AcImIntSysVar
  3
AcMeServices
 90
        0
280
     0
281
     0
  0
CLASS
  1
ACMEDRAWINGMAN
  2
AcMeDrawingMan
  3
AcMeServices
 90
        0
280
     0
281
     0
  0
CLASS
  1
ACMEVIEW
  2
AcMeView
  3
AcMeServices
 90
        0
280
     0
281
     0
  0
CLASS
  1
ACDBENTITYCACHE
  2
AcMeEntityCache
  3
AcMeServices
 90
        0
280
     0
281
     0
  0
CLASS
  1
GSMANAGER
  2
AcMeGSManager
  3
AcMeServices
 90
        0
280
     0
281
     0
  0
CLASS
  1
AmdtInternalReactor
  2
AmdtInternalReactor
  3
AcMeServices
 90
        0
280
     0
281
     0
  0
CLASS
  1
ACMESTATEMGR
  2
AcMeStateMgr
  3
AcMeServices
 90
        0
280
     0
281
     0
  0
CLASS
  1
ACME_DATABASE
  2
AcMeDbDatabase
  3
AcMeServices
 90
        0
280
     0
281
     0
  0
CLASS
  1
ACRFINSADJUSTERMGR
  2
AcRfInsAdjusterMgr
  3
AcMeServices
 90
        0
280
     0
281
     0
  0
CLASS
  1
ACMDATADICTIONARY
  2
AcmDataDictionary
  3
"AcmSymBB|Product Description: AutoCAD Mechanical 2000|Company: Autodesk"
 90
        0
280
     0
281
     0
  0
CLASS
  1
ACMDATAENTRYBLOCK
  2
AcmDataEntryBlock
  3
"AcmSymBB|Product Description: AutoCAD Mechanical 2000|Company: Autodesk"
 90
        0
280
     0
281
     0
  0
CLASS
  1
AMGOBJPROPCFG
  2
AmgObjPropCfg
  3
"AmgLay|Product Description: AutoCAD Mechanical 2000|Company: Autodesk"
 90
        1
280
     0
281
     0
  0
CLASS
  1
ACAMGFILTERDAT
  2
AcAmgFilterDat
  3
"AcadM|Product Description: AutoCAD Mechanical 2000|Company: Autodesk"
 90
        0
280
     0
281
     0
  0
CLASS
  1
LAYER_INDEX
  2
AcDbLayerIndex
  3
AutoCAD 2000
 90
        0
280
     0
281
     0
  0
CLASS
  1
IDBUFFER
  2
AcDbIdBuffer
  3
AutoCAD 2000
 90
        0
280
     0
281
     0
  0
CLASS
  1
ACIMSTRSYSVAR
  2
AcImStrSysVar
  3
AcMeServices
 90
        0
280
     0
281
     0
  0
CLASS
  1
ACMSTANDARDJIS
  2
AcmStandardJIS
  3
"AcmSymBB|Product Description: AutoCAD Mechanical 2000|Company: Autodesk"
 90
        0
280
     0
281
     0
  0
CLASS
  1
ACMSURFSTANDARDJIS
  2
AcmSurfTextStdJIS
  3
"AcmSymBB|Product Description: AutoCAD Mechanical 2000|Company: Autodesk"
 90
        0
280
     0
281
     0
  0
CLASS
  1
ACMFCFSTANDARDJIS
  2
AcmFCFStdJIS
  3
"AcmSymBB|Product Description: AutoCAD Mechanical 2000|Company: Autodesk"
 90
        0
280
     0
281
     0
  0
CLASS
  1
ACMWELDSTANDARDJIS
  2
AcmWeldingStdJIS
  3
"AcmSymBB|Product Description: AutoCAD Mechanical 2000|Company: Autodesk"
 90
        0
280
     0
281
     0
  0
CLASS
  1
ACMIDSTANDARDJIS
  2
AcmIdStdJIS
  3
"AcmSymBB|Product Description: AutoCAD Mechanical 2000|Company: Autodesk"
 90
        0
280
     0
281
     0
  0
CLASS
  1
ACMDATUMSTANDARDJIS
  2
AcmDatumStdJIS
  3
"AcmSymBB|Product Description: AutoCAD Mechanical 2000|Company: Autodesk"
 90
        0
280
     0
281
     0
  0
CLASS
  1
ACMBOMSTANDARDJIS
  2
AcmBOMStdJIS
  3
"AcmSymBB|Product Description: AutoCAD Mechanical 2000|Company: Autodesk"
 90
        0
280
     0
281
     0
  0
CLASS
  1
ACMSTANDARDANSI
  2
AcmStandardANSI
  3
"AcmSymBB|Product Description: AutoCAD Mechanical 2000|Company: Autodesk"
 90
        0
280
     0
281
     0
  0
CLASS
  1
ACMSURFSTANDARDANSI
  2
AcmSurfTextStdANSI
  3
"AcmSymBB|Product Description: AutoCAD Mechanical 2000|Company: Autodesk"
 90
        0
280
     0
281
     0
  0
CLASS
  1
ACMFCFSTANDARDANSI
  2
AcmFCFStdANSI
  3
"AcmSymBB|Product Description: AutoCAD Mechanical 2000|Company: Autodesk"
 90
        0
280
     0
281
     0
  0
CLASS
  1
ACMWELDSTANDARDANSI
  2
AcmWeldingStdANSI
  3
"AcmSymBB|Product Description: AutoCAD Mechanical 2000|Company: Autodesk"
 90
        0
280
     0
281
     0
  0
CLASS
  1
ACMIDSTANDARDANSI
  2
AcmIdStdANSI
  3
"AcmSymBB|Product Description: AutoCAD Mechanical 2000|Company: Autodesk"
 90
        0
280
     0
281
     0
  0
CLASS
  1
ACMDATUMSTANDARDANSI
  2
AcmDatumStdANSI
  3
"AcmSymBB|Product Description: AutoCAD Mechanical 2000|Company: Autodesk"
 90
        0
280
     0
281
     0
  0
CLASS
  1
ACMBOMSTANDARDANSI
  2
AcmBOMStdANSI
  3
"AcmSymBB|Product Description: AutoCAD Mechanical 2000|Company: Autodesk"
 90
        0
280
     0
281
     0
  0
CLASS
  1
ACMSTANDARDBSI
  2
AcmStandardBSI
  3
"AcmSymBB|Product Description: AutoCAD Mechanical 2000|Company: Autodesk"
 90
        0
280
     0
281
     0
  0
CLASS
  1
ACMSURFSTANDARDBSI
  2
AcmSurfTextStdBSI
  3
"AcmSymBB|Product Description: AutoCAD Mechanical 2000|Company: Autodesk"
 90
        0
280
     0
281
     0
  0
CLASS
  1
ACMFCFSTANDARDBSI
  2
AcmFCFStdBSI
  3
"AcmSymBB|Product Description: AutoCAD Mechanical 2000|Company: Autodesk"
 90
        0
280
     0
281
     0
  0
CLASS
  1
ACMWELDSTANDARDBSI
  2
AcmWeldingStdBSI
  3
"AcmSymBB|Product Description: AutoCAD Mechanical 2000|Company: Autodesk"
 90
        0
280
     0
281
     0
  0
CLASS
  1
ACMIDSTANDARDBSI
  2
AcmIdStdBSI
  3
"AcmSymBB|Product Description: AutoCAD Mechanical 2000|Company: Autodesk"
 90
        0
280
     0
281
     0
  0
CLASS
  1
ACMDATUMSTANDARDBSI
  2
AcmDatumStdBSI
  3
"AcmSymBB|Product Description: AutoCAD Mechanical 2000|Company: Autodesk"
 90
        0
280
     0
281
     0
  0
CLASS
  1
ACMBOMSTANDARDBSI
  2
AcmBOMStdBSI
  3
"AcmSymBB|Product Description: AutoCAD Mechanical 2000|Company: Autodesk"
 90
        0
280
     0
281
     0
  0
CLASS
  1
LONG_TRANSACTION
  2
AcDbLongTransaction
  3
AutoCAD 2000
 90
        0
280
     0
281
     0
  0
CLASS
  1
LWPOLYLINE
  2
AcDbPolyline
  3
AutoCAD 2000
 90
        0
280
     0
281
     1
  0
CLASS
  1
HATCH
  2
AcDbHatch
  3
AutoCAD 2000
 90
        0
280
     0
281
     1
  0
CLASS
  1
XRECORD
  2
AcDbXrecord
  3
AutoCAD 2000
 90
        0
280
     0
281
     0
  0
ENDSEC
  0
SECTION
  2
TABLES
  0
TABLE
  2
VPORT
  5
8
330
0
100
AcDbSymbolTable
 70
     3
  0
VPORT
  5
4E5F
330
8
100
AcDbSymbolTableRecord
100
AcDbViewportTableRecord
  2
*ACTIVE
 70
     0
 10
0.0
 20
0.0
 11
1.0
 21
1.0
 12
-15.93503083741634
 22
-8.250485074954649
 13
0.0
 23
0.0
 14
2.5
 24
2.5
 15
10.0
 25
10.0
 16
0.0
 26
0.0
 36
1.0
 17
0.0
 27
0.0
 37
0.0
 40
52.49730081640798
 41
1.56570841889117
 42
50.0
 43
0.0
 44
0.0
 50
0.0
 51
0.0
 71
     0
 72
   100
 73
     1
 74
     3
 75
     0
 76
     0
 77
     0
 78
     0
  0
ENDTAB
  0
TABLE
  2
LTYPE
  5
5
330
0
100
AcDbSymbolTable
 70
    10
  0
LTYPE
  5
14
330
5
100
AcDbSymbolTableRecord
100
AcDbLinetypeTableRecord
  2
BYBLOCK
 70
     0
  3

 72
    65
 73
     0
 40
0.0
  0
LTYPE
  5
15
330
5
100
AcDbSymbolTableRecord
100
AcDbLinetypeTableRecord
  2
BYLAYER
 70
     0
  3

 72
    65
 73
     0
 40
0.0
  0
LTYPE
  5
16
330
5
100
AcDbSymbolTableRecord
100
AcDbLinetypeTableRecord
  2
CONTINUOUS
 70
     0
  3
Solid line
 72
    65
 73
     0
 40
0.0
  0
LTYPE
  5
4B
330
5
100
AcDbSymbolTableRecord
100
AcDbLinetypeTableRecord
  2
AM_ISO02W050
 70
     0
  3
__ __ __ __ __ __ __ __ __ __ __ __ __ __ __
 72
    65
 73
     2
 40
7.5
 49
6.0
 74
     0
 49
-1.5
 74
     0
  0
LTYPE
  5
4C
330
5
100
AcDbSymbolTableRecord
100
AcDbLinetypeTableRecord
  2
AM_ISO08W050
 70
     0
  3
____ . ____ . ____ . ____ . ____ . ____ . ____
 72
    65
 73
     4
 40
18.0
 49
12.0
 74
     0
 49
-1.5
 74
     0
 49
3.0
 74
     0
 49
-1.5
 74
     0
  0
LTYPE
  5
4D
330
5
100
AcDbSymbolTableRecord
100
AcDbLinetypeTableRecord
  2
AM_ISO09W050
 70
     0
  3
_____ . . _____ . . _____ . . ____ .. ____
 72
    65
 73
     6
 40
22.5
 49
12.0
 74
     0
 49
-1.5
 74
     0
 49
3.0
 74
     0
 49
-1.5
 74
     0
 49
3.0
 74
     0
 49
-1.5
 74
     0
  0
LTYPE
  5
4E
330
5
100
AcDbSymbolTableRecord
100
AcDbLinetypeTableRecord
  2
AMCONSTR
 70
     0
  3
_______________________
 72
    65
 73
     2
 40
9999.0
 49
9999.0
 74
     0
 49
0.0
 74
     0
  0
LTYPE
  5
4F
330
5
100
AcDbSymbolTableRecord
100
AcDbLinetypeTableRecord
  2
AM_ISO02W050X2
 70
     0
  3
 _ _ _ _ _ _ _ _ _ _ _ _
 72
    65
 73
     2
 40
3.75
 49
3.0
 74
     0
 49
-0.75
 74
     0
  0
LTYPE
  5
50
330
5
100
AcDbSymbolTableRecord
100
AcDbLinetypeTableRecord
  2
AM_ISO08W050X2
 70
     0
  3
__ . __ . __ . __ . __ . __
 72
    65
 73
     4
 40
9.0
 49
6.0
 74
     0
 49
-0.75
 74
     0
 49
1.5
 74
     0
 49
-0.75
 74
     0
  0
LTYPE
  5
53
330
5
100
AcDbSymbolTableRecord
100
AcDbLinetypeTableRecord
  2
AMZIGZAG
 70
     0
  3
/\/-/\/-/\/-/\/-/\/-/\/
 72
    65
 73
     2
 40
11.00009999999999
 49
0.0001
 74
     4
 75
   135
340
52
 46
0.04
 50
0.0
 44
0.0
 45
0.0
 49
-11.0
 74
     0
  0
LTYPE
  5
166
330
5
100
AcDbSymbolTableRecord
100
AcDbLinetypeTableRecord
  2
ACJISTGL
 70
     0
  3
_ _ _ _ _
 72
    65
 73
     2
 40
3.0
 49
2.0
 74
     0
 49
-1.0
 74
     0
  0
LTYPE
  5
26A
330
5
100
AcDbSymbolTableRecord
100
AcDbLinetypeTableRecord
  2
ACJISTGB
 70
     0
  3
__ . . __ . .
 72
    65
 73
     6
 40
9.0
 49
4.0
 74
     0
 49
-1.0
 74
     0
 49
1.0
 74
     0
 49
-1.0
 74
     0
 49
1.0
 74
     0
 49
-1.0
 74
     0
  0
ENDTAB
  0
TABLE
  2
LAYER
  5
2
330
0
100
AcDbSymbolTable
 70
     7
  0
LAYER
  5
10
330
2
100
AcDbSymbolTableRecord
100
AcDbLayerTableRecord
  2
0
 70
     0
 62
     7
  6
CONTINUOUS
  0
LAYER
  5
3F9
330
2
100
AcDbSymbolTableRecord
100
AcDbLayerTableRecord
  2
AM_0
 70
     0
 62
     7
  6
CONTINUOUS
  0
LAYER
  5
BDD
330
2
100
AcDbSymbolTableRecord
100
AcDbLayerTableRecord
  2
AM_11
 70
     0
 62
     3
  6
AM_ISO09W050
  0
LAYER
  5
BDE
330
2
100
AcDbSymbolTableRecord
100
AcDbLayerTableRecord
  2
AM_7
 70
     0
 62
     4
  6
AM_ISO08W050
  0
LAYER
  5
BDF
330
2
100
AcDbSymbolTableRecord
100
AcDbLayerTableRecord
  2
AM_5
 70
     0
 62
     3
  6
CONTINUOUS
  0
LAYER
  5
BE0
330
2
100
AcDbSymbolTableRecord
100
AcDbLayerTableRecord
  2
DEFPOINTS
 70
     0
 62
     7
  6
CONTINUOUS
  0
LAYER
  5
14FF
330
2
100
AcDbSymbolTableRecord
100
AcDbLayerTableRecord
  2
AM_6
 70
     0
 62
     2
  6
CONTINUOUS
  0
ENDTAB
  0
TABLE
  2
STYLE
  5
3
330
0
100
AcDbSymbolTable
 70
     5
  0
STYLE
  5
11
330
3
100
AcDbSymbolTableRecord
100
AcDbTextStyleTableRecord
  2
STANDARD
 70
     0
 40
0.0
 41
1.0
 50
0.0
 71
     0
 42
2.5
  3
simplex.shx
  4
EXTFONT.SHX
  0
STYLE
  5
52
330
3
100
AcDbSymbolTableRecord
100
AcDbTextStyleTableRecord
  2

 70
     1
 40
0.0
 41
1.0
 50
0.0
 71
     0
 42
2.5
  3
ltypeshp.shx
  4

  0
STYLE
  5
6B
330
3
100
AcDbSymbolTableRecord
100
AcDbTextStyleTableRecord
  2
ASAMI
 70
     0
 40
0.0
 41
1.0
 50
0.0
 71
     0
 42
2.5
  3
simplex.shx
  4
EXTFONT.SHX
  0
STYLE
  5
262
330
3
100
AcDbSymbolTableRecord
100
AcDbTextStyleTableRecord
  2
ACJISTS
 70
     0
 40
1.0
 41
1.0
 50
0.0
 71
     0
 42
2.5
  3
simplex.shx
  4
bigfont.shx
  0
STYLE
  5
269
330
3
100
AcDbSymbolTableRecord
100
AcDbTextStyleTableRecord
  2
ACJISGDT
 70
     0
 40
0.0
 41
1.0
 50
0.0
 71
     0
 42
2.5
  3
amgdtans.shx
  4

  0
ENDTAB
  0
TABLE
  2
VIEW
  5
6
330
0
100
AcDbSymbolTable
 70
     0
  0
ENDTAB
  0
TABLE
  2
UCS
  5
7
330
0
100
AcDbSymbolTable
 70
     0
  0
ENDTAB
  0
TABLE
  2
APPID
  5
9
330
0
100
AcDbSymbolTable
 70
    14
  0
APPID
  5
12
330
9
100
AcDbSymbolTableRecord
100
AcDbRegAppTableRecord
  2
ACAD
 70
     0
  0
APPID
  5
30
330
9
100
AcDbSymbolTableRecord
100
AcDbRegAppTableRecord
  2
MCAD_NO_VIS
 70
     0
  0
APPID
  5
31
330
9
100
AcDbSymbolTableRecord
100
AcDbRegAppTableRecord
  2
ACAD_TEMP_GRAPHIC
 70
     0
  0
APPID
  5
2C2
330
9
100
AcDbSymbolTableRecord
100
AcDbRegAppTableRecord
  2
GENIUS_GENDTOL_13
 70
     0
  0
APPID
  5
339
330
9
100
AcDbSymbolTableRecord
100
AcDbRegAppTableRecord
  2
GENIUS_GENODEF_13
 70
     0
  0
APPID
  5
33A
330
9
100
AcDbSymbolTableRecord
100
AcDbRegAppTableRecord
  2
GENIUS_GENOBJ-N-RSBK_13
 70
     0
  0
APPID
  5
33B
330
9
100
AcDbSymbolTableRecord
100
AcDbRegAppTableRecord
  2
GENIUS_GENOBJ-N-LIB_13
 70
     0
  0
APPID
  5
33C
330
9
100
AcDbSymbolTableRecord
100
AcDbRegAppTableRecord
  2
GENIUS_GENSCALE_13
 70
     0
  0
APPID
  5
378
330
9
100
AcDbSymbolTableRecord
100
AcDbRegAppTableRecord
  2
GENIUS_GENDIMSH_14
 70
     0
  0
APPID
  5
BE1
330
9
100
AcDbSymbolTableRecord
100
AcDbRegAppTableRecord
  2
GENIUS_GENFIL_13
 70
     0
  0
APPID
  5
BE2
330
9
100
AcDbSymbolTableRecord
100
AcDbRegAppTableRecord
  2
GENIUS_GENOBJ-N-CHA_13
 70
     0
  0
APPID
  5
151B
330
9
100
AcDbSymbolTableRecord
100
AcDbRegAppTableRecord
  2
DCO15
 70
     0
  0
APPID
  5
1860
330
9
100
AcDbSymbolTableRecord
100
AcDbRegAppTableRecord
  2
GENIUS_GENOBJ-N-CEN_13
 70
     0
  0
APPID
  5
359C
330
9
100
AcDbSymbolTableRecord
100
AcDbRegAppTableRecord
  2
GENIUS_GENOBJ-N-FIL_13
 70
     0
  0
ENDTAB
  0
TABLE
  2
DIMSTYLE
  5
A
330
0
100
AcDbSymbolTable
 70
     8
  0
DIMSTYLE
105
58
102
{ACAD_REACTORS
330
4047
330
412A
330
42F4
330
4664
102
}
330
A
100
AcDbSymbolTableRecord
100
AcDbDimStyleTableRecord
  2
AM_JIS
 70
     0
  3

  4
"
  5
OPEN30
  6

  7

 40
0.5
 41
2.5
 42
1.0
 43
12.0
 44
1.0
 45
0.0
 46
0.0
 47
0.1
 48
0.1
140
3.2
141
0.0
142
0.0
143
0.0393701
144
1.0
145
0.0
146
0.71
147
1.5
 71
     0
 72
     0
 73
     0
 74
     0
 75
     0
 76
     0
 77
     3
 78
     8
170
     0
171
     2
172
     1
173
     0
174
     0
175
     0
176
   256
177
   256
178
     2
270
     2
271
     3
272
     3
273
     2
274
     2
340
6B
275
     0
280
     0
281
     0
282
     0
283
     0
284
     0
285
     0
286
     0
287
     3
288
     0
  0
DIMSTYLE
105
5F
330
A
100
AcDbSymbolTableRecord
100
AcDbDimStyleTableRecord
  2
AM_JIS$3
 70
     0
  3

  4
"
  5
OPEN30
  6

  7

 40
0.5
 41
2.5
 42
1.0
 43
10.0
 44
1.0
 45
0.0
 46
0.0
 47
0.1
 48
0.1
140
3.2
141
0.0
142
0.0
143
0.0393701
144
1.0
145
0.0
146
0.71
147
1.5
 71
     0
 72
     0
 73
     0
 74
     1
 75
     0
 76
     0
 77
     3
 78
     8
170
     0
171
     2
172
     0
173
     0
174
     0
175
     0
176
   256
177
   256
178
     2
270
     2
271
     2
272
     3
273
     2
274
     2
340
6B
275
     0
280
     0
281
     0
282
     0
283
     0
284
     0
285
     0
286
     0
287
     0
288
     1
  0
DIMSTYLE
105
60
102
{ACAD_REACTORS
330
4D98
102
}
330
A
100
AcDbSymbolTableRecord
100
AcDbDimStyleTableRecord
  2
AM_JIS$4
 70
     0
  3

  4
"
  5
OPEN30
  6

  7

 40
0.5
 41
2.5
 42
1.0
 43
10.0
 44
1.0
 45
0.0
 46
0.0
 47
0.1
 48
0.1
140
3.2
141
0.0
142
0.0
143
0.0393701
144
1.0
145
0.0
146
0.71
147
1.5
 71
     0
 72
     0
 73
     0
 74
     1
 75
     0
 76
     0
 77
     3
 78
     8
170
     0
171
     2
172
     0
173
     0
174
     0
175
     0
176
   256
177
   256
178
     2
270
     2
271
     2
272
     3
273
     2
274
     2
340
6B
275
     0
280
     0
281
     0
282
     0
283
     0
284
     0
285
     0
286
     0
287
     0
288
     1
  0
DIMSTYLE
105
61
330
A
100
AcDbSymbolTableRecord
100
AcDbDimStyleTableRecord
  2
AM_JIS$6
 70
     0
  3

  4
"
  5
OPEN30
  6

  7

 40
0.5
 41
2.5
 42
1.0
 43
10.0
 44
1.0
 45
0.0
 46
0.0
 47
0.1
 48
0.1
140
3.2
141
0.0
142
0.0
143
0.0393701
144
1.0
145
0.0
146
0.71
147
1.5
 71
     0
 72
     0
 73
     0
 74
     0
 75
     0
 76
     0
 77
     0
 78
     8
170
     0
171
     2
172
     1
173
     0
174
     0
175
     0
176
   256
177
   256
178
     2
270
     2
271
     2
272
     2
273
     2
274
     2
340
6B
275
     0
280
     0
281
     0
282
     0
283
     0
284
     0
285
     0
286
     0
287
     3
288
     0
  0
DIMSTYLE
105
62
330
A
100
AcDbSymbolTableRecord
100
AcDbDimStyleTableRecord
  2
AM_JIS$7
 70
     0
  3

  4
"
  5
OPEN30
  6

  7

 40
0.5
 41
2.5
 42
1.0
 43
10.0
 44
1.0
 45
0.0
 46
0.0
 47
0.1
 48
0.1
140
3.2
141
0.0
142
0.0
143
0.0393701
144
1.0
145
0.0
146
0.71
147
1.5
 71
     0
 72
     0
 73
     0
 74
     0
 75
     0
 76
     0
 77
     3
 78
     8
170
     0
171
     2
172
     1
173
     0
174
     0
175
     0
176
   256
177
   256
178
     2
270
     2
271
     2
272
     3
273
     2
274
     2
340
6B
275
     0
280
     0
281
     0
282
     0
283
     0
284
     0
285
     0
286
     0
287
     3
288
     0
  0
DIMSTYLE
105
63
330
A
100
AcDbSymbolTableRecord
100
AcDbDimStyleTableRecord
  2
AM_JIS$SF
 70
     0
  3

  4
"
  5
OPEN30
  6

  7

 40
0.5
 41
2.5
 42
1.0
 43
10.0
 44
1.0
 45
0.0
 46
0.0
 47
0.1
 48
0.1
140
3.2
141
0.0
142
0.0
143
0.0393701
144
1.0
145
0.0
146
0.71
147
1.5
 71
     0
 72
     0
 73
     0
 74
     0
 75
     1
 76
     1
 77
     3
 78
     8
170
     0
171
     2
172
     1
173
     0
174
     0
175
     0
176
   256
177
   256
178
     2
270
     2
271
     2
272
     2
273
     2
274
     2
340
6B
275
     0
280
     0
281
     0
282
     0
283
     0
284
     0
285
     0
286
     0
287
     3
288
     0
  0
DIMSTYLE
105
68
330
A
100
AcDbSymbolTableRecord
100
AcDbDimStyleTableRecord
  2
AM_JIS$SH
 70
     0
  3

  4
"
  5

  6
GENAXEH
  7
OPEN30
 40
0.5
 41
2.5
 42
1.0
 43
10.0
 44
1.0
 45
0.0
 46
0.0
 47
0.1
 48
0.1
140
3.2
141
0.0
142
0.0
143
0.0393701
144
2.0
145
0.0
146
0.71
147
1.5
 71
     0
 72
     0
 73
     0
 74
     0
 75
     1
 76
     1
 77
     3
 78
     8
170
     0
171
     2
172
     1
173
     1
174
     0
175
     0
176
   256
177
   256
178
     2
270
     2
271
     2
272
     2
273
     2
274
     2
340
6B
275
     0
280
     0
281
     0
282
     0
283
     0
284
     0
285
     0
286
     0
287
     3
288
     0
  0
DIMSTYLE
105
B34
330
A
100
AcDbSymbolTableRecord
100
AcDbDimStyleTableRecord
  2
AM_JIS$2
 70
     0
  3

  4
"
  5
OPEN30
  6

  7

 40
0.5
 41
2.5
 42
1.0
 43
12.0
 44
1.0
 45
0.0
 46
0.0
 47
0.1
 48
0.1
140
3.2
141
0.0
142
0.0
143
0.0393701
144
1.0
145
0.0
146
0.71
147
1.5
 71
     0
 72
     0
 73
     0
 74
     0
 75
     0
 76
     0
 77
     3
 78
     8
170
     0
171
     2
172
     1
173
     0
174
     0
175
     0
176
   256
177
   256
178
     2
270
     2
271
     3
272
     3
273
     2
274
     2
340
6B
275
     0
280
     0
281
     0
282
     0
283
     0
284
     0
285
     0
286
     0
287
     3
288
     0
  0
ENDTAB
  0
TABLE
  2
BLOCK_RECORD
  5
1
330
0
100
AcDbSymbolTable
 70
    10
  0
BLOCK_RECORD
  5
1F
102
{ACAD_XDICTIONARY
360
74
102
}
330
1
100
AcDbSymbolTableRecord
100
AcDbBlockTableRecord
  2
*MODEL_SPACE
  0
BLOCK_RECORD
  5
101
102
{ACAD_XDICTIONARY
360
4E88
102
}
330
1
100
AcDbSymbolTableRecord
100
AcDbBlockTableRecord
  2
*PAPER_SPACE
  0
BLOCK_RECORD
  5
59
330
1
100
AcDbSymbolTableRecord
100
AcDbBlockTableRecord
  2
_OPEN30
  0
BLOCK_RECORD
  5
64
330
1
100
AcDbSymbolTableRecord
100
AcDbBlockTableRecord
  2
GENAXEH
  0
BLOCK_RECORD
  5
4048
330
1
100
AcDbSymbolTableRecord
100
AcDbBlockTableRecord
  2
*D5
  0
BLOCK_RECORD
  5
412B
330
1
100
AcDbSymbolTableRecord
100
AcDbBlockTableRecord
  2
*D6
  0
BLOCK_RECORD
  5
42F5
330
1
100
AcDbSymbolTableRecord
100
AcDbBlockTableRecord
  2
*D7
  0
BLOCK_RECORD
  5
4665
330
1
100
AcDbSymbolTableRecord
100
AcDbBlockTableRecord
  2
*D8
  0
BLOCK_RECORD
  5
4D99
330
1
100
AcDbSymbolTableRecord
100
AcDbBlockTableRecord
  2
*D9
  0
ENDTAB
  0
ENDSEC
  0
SECTION
  2
BLOCKS
  0
BLOCK
  5
20
330
1F
100
AcDbEntity
  8
0
100
AcDbBlockBegin
  2
*MODEL_SPACE
 70
     0
 10
0.0
 20
0.0
 30
0.0
  3
*MODEL_SPACE
  1

  0
ENDBLK
  5
21
330
1F
100
AcDbEntity
  8
0
100
AcDbBlockEnd
  0
BLOCK
  5
103
330
101
100
AcDbEntity
 67
     1
  8
0
100
AcDbBlockBegin
  2
*PAPER_SPACE
 70
     0
 10
0.0
 20
0.0
 30
0.0
  3
*PAPER_SPACE
  1

  0
ENDBLK
  5
104
330
101
100
AcDbEntity
 67
     1
  8
0
100
AcDbBlockEnd
  0
BLOCK
  5
5D
330
59
100
AcDbEntity
  8
0
100
AcDbBlockBegin
  2
_OPEN30
 70
     0
 10
0.0
 20
0.0
 30
0.0
  3
_OPEN30
  1

  0
LINE
  5
5A
330
59
100
AcDbEntity
  8
0
 62
     0
100
AcDbLine
 10
-1.0
 20
0.26794919
 30
0.0
 11
0.0
 21
0.0
 31
0.0
  0
LINE
  5
5B
330
59
100
AcDbEntity
  8
0
 62
     0
100
AcDbLine
 10
0.0
 20
0.0
 30
0.0
 11
-1.0
 21
-0.26794919
 31
0.0
  0
LINE
  5
5C
330
59
100
AcDbEntity
  8
0
 62
     0
100
AcDbLine
 10
0.0
 20
0.0
 30
0.0
 11
-1.0
 21
0.0
 31
0.0
  0
ENDBLK
  5
5E
330
59
100
AcDbEntity
  8
0
100
AcDbBlockEnd
  0
BLOCK
  5
66
330
64
100
AcDbEntity
  8
0
100
AcDbBlockBegin
  2
GENAXEH
 70
     0
 10
0.0
 20
0.0
 30
0.0
  3
GENAXEH
  1

  0
LINE
  5
65
330
64
100
AcDbEntity
  8
0
100
AcDbLine
 10
-1.0
 20
0.0
 30
0.0
 11
1.0
 21
0.0
 31
0.0
  0
ENDBLK
  5
67
330
64
100
AcDbEntity
  8
0
100
AcDbBlockEnd
  0
BLOCK
  5
4052
330
4048
100
AcDbEntity
  8
0
100
AcDbBlockBegin
  2
*D5
 70
     1
 10
0.0
 20
0.0
 30
0.0
  3
*D5
  1

  0
LINE
  5
480D
330
4048
100
AcDbEntity
  8
AM_5
100
AcDbLine
 10
-39.99999999999998
 20
-1.700000000000046
 30
0.0
 11
-39.99999999999998
 21
-15.00000100000006
 31
0.0
  0
LINE
  5
480E
330
4048
100
AcDbEntity
  8
AM_5
100
AcDbLine
 10
0.0000000000000006
 20
-0.5000000000000005
 30
0.0
 11
-0.0000000000000003
 21
-15.00000100000006
 31
0.0
  0
LINE
  5
480F
330
4048
100
AcDbEntity
  8
AM_5
100
AcDbLine
 10
-38.74999999999998
 20
-14.50000100000006
 30
0.0
 11
-1.25
 21
-14.50000100000006
 31
0.0
  0
INSERT
  5
4810
330
4048
100
AcDbEntity
  8
AM_5
100
AcDbBlockReference
  2
_OPEN30
 10
-39.99999999999998
 20
-14.50000100000006
 30
0.0
 41
1.25
 42
1.25
 43
1.25
 50
180.0
  0
INSERT
  5
4811
330
4048
100
AcDbEntity
  8
AM_5
100
AcDbBlockReference
  2
_OPEN30
 10
-0.0000000000000002
 20
-14.50000100000006
 30
0.0
 41
1.25
 42
1.25
 43
1.25
  0
MTEXT
  5
4812
330
4048
100
AcDbEntity
  8
AM_5
 62
     2
100
AcDbMText
 10
-19.99999999999999
 20
-12.95000100000006
 30
0.0
 40
1.6
 41
0.0
 71
     5
 72
     1
  1
40
  7
ASAMI
1001
ACAD
1000
MTEXTBEGIN
1070
    73
1070
     1
1070
    44
1040
1.0
1070
    74
1070
     0
1000
MTEXTEND
  0
POINT
  5
4813
330
4048
100
AcDbEntity
  8
DEFPOINTS
 62
     0
100
AcDbPoint
 10
-39.99999999999998
 20
-1.200000000000046
 30
0.0
  0
POINT
  5
4814
330
4048
100
AcDbEntity
  8
DEFPOINTS
 62
     0
100
AcDbPoint
 10
0.0000000000000007
 20
-0.0000000000000005
 30
0.0
  0
POINT
  5
4815
330
4048
100
AcDbEntity
  8
DEFPOINTS
 62
     0
100
AcDbPoint
 10
-0.0000000000000002
 20
-14.50000100000006
 30
0.0
  0
ENDBLK
  5
4053
330
4048
100
AcDbEntity
  8
0
100
AcDbBlockEnd
  0
BLOCK
  5
4135
330
412B
100
AcDbEntity
  8
0
100
AcDbBlockBegin
  2
*D6
 70
     1
 10
0.0
 20
0.0
 30
0.0
  3
*D6
  1

  0
LINE
  5
4D1E
330
412B
100
AcDbEntity
  8
AM_5
100
AcDbLine
 10
-0.0000000000000142
 20
-0.5000000000000111
 30
0.0
 11
-0.0000000000000148
 21
-9.000001000000064
 31
0.0
  0
LINE
  5
4D1F
330
412B
100
AcDbEntity
  8
AM_5
100
AcDbLine
 10
-0.700000000000017
 20
-0.8500000000000023
 30
0.0
 11
-0.7000000000000175
 21
-9.000001000000064
 31
0.0
  0
LINE
  5
4D20
330
412B
100
AcDbEntity
  8
AM_5
100
AcDbLine
 10
1.249999999999985
 20
-8.500001000000064
 30
0.0
 11
2.499999999999985
 21
-8.500001000000064
 31
0.0
  0
LINE
  5
4D21
330
412B
100
AcDbEntity
  8
AM_5
100
AcDbLine
 10
-1.950000000000017
 20
-8.500001000000064
 30
0.0
 11
-8.052380952380968
 21
-8.500001000000064
 31
0.0
  0
LINE
  5
4D22
330
412B
100
AcDbEntity
  8
AM_5
100
AcDbLine
 10
-0.0000000000000147
 20
-8.500001000000064
 30
0.0
 11
-0.7000000000000174
 21
-8.500001000000064
 31
0.0
  0
INSERT
  5
4D23
330
412B
100
AcDbEntity
  8
AM_5
100
AcDbBlockReference
  2
_OPEN30
 10
-0.0000000000000147
 20
-8.500001000000064
 30
0.0
 41
1.25
 42
1.25
 43
1.25
 50
180.0
  0
INSERT
  5
4D24
330
412B
100
AcDbEntity
  8
AM_5
100
AcDbBlockReference
  2
_OPEN30
 10
-0.7000000000000174
 20
-8.500001000000064
 30
0.0
 41
1.25
 42
1.25
 43
1.25
  0
MTEXT
  5
4D25
330
412B
100
AcDbEntity
  8
AM_5
 62
     2
100
AcDbMText
 10
-5.626190476190492
 20
-6.950001000000065
 30
0.0
 40
1.6
 41
0.0
 71
     5
 72
     1
  1
0.7
  7
ASAMI
1001
ACAD
1000
MTEXTBEGIN
1070
    73
1070
     1
1070
    44
1040
1.0
1070
    74
1070
     0
1000
MTEXTEND
  0
POINT
  5
4D26
330
412B
100
AcDbEntity
  8
DEFPOINTS
 62
     0
100
AcDbPoint
 10
-0.0000000000000142
 20
-0.0000000000000111
 30
0.0
  0
POINT
  5
4D27
330
412B
100
AcDbEntity
  8
DEFPOINTS
 62
     0
100
AcDbPoint
 10
-0.700000000000017
 20
-0.3500000000000023
 30
0.0
  0
POINT
  5
4D28
330
412B
100
AcDbEntity
  8
DEFPOINTS
 62
     0
100
AcDbPoint
 10
-0.7000000000000174
 20
-8.500001000000064
 30
0.0
  0
ENDBLK
  5
4136
330
412B
100
AcDbEntity
  8
0
100
AcDbBlockEnd
  0
BLOCK
  5
42FF
330
42F5
100
AcDbEntity
  8
0
100
AcDbBlockBegin
  2
*D7
 70
     1
 10
0.0
 20
0.0
 30
0.0
  3
*D7
  1

  0
LINE
  5
4D85
330
42F5
100
AcDbEntity
  8
AM_5
100
AcDbLine
 10
0.15
 20
0.3499999999999999
 30
0.0
 11
8.841627940564762
 21
0.3499999999999975
 31
0.0
  0
LINE
  5
4D86
330
42F5
100
AcDbEntity
  8
AM_5
100
AcDbLine
 10
0.1500000000000007
 20
-0.3500000000000001
 30
0.0
 11
8.841627940564762
 21
-0.3500000000000025
 31
0.0
  0
LINE
  5
4D87
330
42F5
100
AcDbEntity
  8
AM_5
100
AcDbLine
 10
8.341627940564762
 20
1.599999999999997
 30
0.0
 11
8.341627940564762
 21
2.849999999999997
 31
0.0
  0
LINE
  5
4D88
330
42F5
100
AcDbEntity
  8
AM_5
100
AcDbLine
 10
8.341627940564762
 20
-1.600000000000002
 30
0.0
 11
8.341627940564761
 21
-9.15
 31
0.0
  0
LINE
  5
4D89
330
42F5
100
AcDbEntity
  8
AM_5
100
AcDbLine
 10
8.341627940564762
 20
0.3499999999999976
 30
0.0
 11
8.341627940564762
 21
-0.3500000000000024
 31
0.0
  0
INSERT
  5
4D8A
330
42F5
100
AcDbEntity
  8
AM_5
100
AcDbBlockReference
  2
_OPEN30
 10
8.341627940564762
 20
0.3499999999999976
 30
0.0
 41
1.25
 42
1.25
 43
1.25
 50
270.0
  0
INSERT
  5
4D8B
330
42F5
100
AcDbEntity
  8
AM_5
100
AcDbBlockReference
  2
_OPEN30
 10
8.341627940564762
 20
-0.3500000000000024
 30
0.0
 41
1.25
 42
1.25
 43
1.25
 50
90.0
  0
MTEXT
  5
4D8C
330
42F5
100
AcDbEntity
  8
AM_5
 62
     2
100
AcDbMText
 10
6.791627940564762
 20
-6.0
 30
0.0
 40
1.6
 41
0.0
 71
     5
 72
     1
  1
%%c0.7
  7
ASAMI
 11
0.0000000000000001
 21
1.0
 31
0.0
1001
ACAD
1000
MTEXTBEGIN
1070
    73
1070
     1
1070
    44
1040
1.0
1070
    74
1070
     0
1000
MTEXTEND
  0
POINT
  5
4D8D
330
42F5
100
AcDbEntity
  8
DEFPOINTS
 62
     0
100
AcDbPoint
 10
-0.35
 20
0.3500000000000001
 30
0.0
  0
POINT
  5
4D8E
330
42F5
100
AcDbEntity
  8
DEFPOINTS
 62
     0
100
AcDbPoint
 10
-0.3499999999999993
 20
-0.35
 30
0.0
  0
POINT
  5
4D8F
330
42F5
100
AcDbEntity
  8
DEFPOINTS
 62
     0
100
AcDbPoint
 10
8.341627940564762
 20
-0.3500000000000024
 30
0.0
  0
ENDBLK
  5
4300
330
42F5
100
AcDbEntity
  8
0
100
AcDbBlockEnd
  0
BLOCK
  5
4671
330
4665
100
AcDbEntity
  8
0
100
AcDbBlockBegin
  2
*D8
 70
     1
 10
0.0
 20
0.0
 30
0.0
  3
*D8
  1

  0
LINE
  5
4816
330
4665
100
AcDbEntity
  8
AM_5
100
AcDbLine
 10
-40.19999999999999
 20
1.499999999999921
 30
0.0
 11
-49.55619512995955
 21
1.499999999999924
 31
0.0
  0
LINE
  5
4817
330
4665
100
AcDbEntity
  8
AM_5
100
AcDbLine
 10
-40.19999999999998
 20
-1.500000000000044
 30
0.0
 11
-49.55619512995955
 21
-1.500000000000041
 31
0.0
  0
LINE
  5
4818
330
4665
100
AcDbEntity
  8
AM_5
100
AcDbLine
 10
-49.05619512995954
 20
2.749999999999924
 30
0.0
 11
-49.05619512995954
 21
3.999999999999923
 31
0.0
  0
LINE
  5
4819
330
4665
100
AcDbEntity
  8
AM_5
100
AcDbLine
 10
-49.05619512995954
 20
-2.750000000000042
 30
0.0
 11
-49.05619512995954
 21
-8.014285714285756
 31
0.0
  0
LINE
  5
481A
330
4665
100
AcDbEntity
  8
AM_5
100
AcDbLine
 10
-49.05619512995954
 20
1.499999999999923
 30
0.0
 11
-49.05619512995954
 21
-1.500000000000042
 31
0.0
  0
INSERT
  5
481B
330
4665
100
AcDbEntity
  8
AM_5
100
AcDbBlockReference
  2
_OPEN30
 10
-49.05619512995954
 20
1.499999999999923
 30
0.0
 41
1.25
 42
1.25
 43
1.25
 50
270.0
  0
INSERT
  5
481C
330
4665
100
AcDbEntity
  8
AM_5
100
AcDbBlockReference
  2
_OPEN30
 10
-49.05619512995954
 20
-1.500000000000042
 30
0.0
 41
1.25
 42
1.25
 43
1.25
 50
90.0
  0
MTEXT
  5
481D
330
4665
100
AcDbEntity
  8
AM_5
 62
     2
100
AcDbMText
 10
-50.60619512995955
 20
-6.007142857142907
 30
0.0
 40
1.6
 41
0.0
 71
     5
 72
     1
  1
%%c3
  7
ASAMI
 11
0.0000000000000001
 21
1.0
 31
0.0
1001
ACAD
1000
MTEXTBEGIN
1070
    73
1070
     1
1070
    44
1040
1.0
1070
    74
1070
     0
1000
MTEXTEND
  0
POINT
  5
481E
330
4665
100
AcDbEntity
  8
DEFPOINTS
 62
     0
100
AcDbPoint
 10
-39.69999999999999
 20
1.499999999999921
 30
0.0
  0
POINT
  5
481F
330
4665
100
AcDbEntity
  8
DEFPOINTS
 62
     0
100
AcDbPoint
 10
-39.69999999999998
 20
-1.500000000000044
 30
0.0
  0
POINT
  5
4820
330
4665
100
AcDbEntity
  8
DEFPOINTS
 62
     0
100
AcDbPoint
 10
-49.05619512995954
 20
-1.500000000000042
 30
0.0
  0
ENDBLK
  5
4672
330
4665
100
AcDbEntity
  8
0
100
AcDbBlockEnd
  0
BLOCK
  5
4D9F
330
4D99
100
AcDbEntity
  8
0
100
AcDbBlockBegin
  2
*D9
 70
     1
 10
0.0
 20
0.0
 30
0.0
  3
*D9
  1

  0
LINE
  5
4E8A
330
4D99
100
AcDbEntity
  8
AM_5
100
AcDbLine
 10
3.90390815757245
 20
-9.950116687706421
 30
0.0
 11
0.278684029445474
 21
-1.465993826514824
 31
0.0
  0
MTEXT
  5
4E8B
330
4D99
100
AcDbEntity
  8
AM_5
 62
     2
100
AcDbMText
 10
3.762208433191299
 20
-5.673748507085367
 30
0.0
 40
1.6
 41
0.0
 71
     5
 72
     1
  1
R0.35
  7
ASAMI
 11
0.3929275184034399
 21
-0.9195694456001213
 31
0.0
  0
LINE
  5
4E8C
330
4D99
100
AcDbEntity
  8
AM_5
100
AcDbLine
 10
-0.3500000000000302
 20
0.0053172864453698
 30
0.0
 11
-0.212475368558826
 21
-0.3165320195146731
 31
0.0
  0
INSERT
  5
4E8D
330
4D99
100
AcDbEntity
  8
AM_5
100
AcDbBlockReference
  2
_OPEN30
 10
-0.212475368558826
 20
-0.3165320195146731
 30
0.0
 41
1.25
 42
1.25
 43
1.25
 50
113.1367812294807
  0
POINT
  5
4E8E
330
4D99
100
AcDbEntity
  8
DEFPOINTS
 62
     0
100
AcDbPoint
 10
-0.212475368558826
 20
-0.3165320195146731
 30
0.0
  0
POINT
  5
4E8F
330
4D99
100
AcDbEntity
  8
DEFPOINTS
 62
     0
100
AcDbPoint
 10
-0.3500000000000302
 20
0.0053172864453698
 30
0.0
  0
ENDBLK
  5
4DA0
330
4D99
100
AcDbEntity
  8
0
100
AcDbBlockEnd
  0
ENDSEC
  0
SECTION
  2
ENTITIES
  0
TEXT
  5
1500
330
1F
100
AcDbEntity
  8
AM_6
100
AcDbText
 10
-30.7738095238095
 20
-25.75000100000006
 30
0.0
 40
2.5
  1
S-SSB2007
 72
     4
 11
-19.99999999999998
 21
-24.50000100000006
 31
0.0
100
AcDbText
  0
LINE
  5
3EE8
330
1F
100
AcDbEntity
  8
AM_7
  6
AM_ISO08W050X2
100
AcDbLine
 10
1.341626940564765
 20
0.0
 30
0.0
 11
-42.05619412995955
 21
-0.0000000000000426
 31
0.0
1001
GENIUS_GENODEF_13
1002
{
1000
HIER
1070
     0
1002
}
1002
{
1000
MANEDIT
1070
     0
1002
}
1002
{
1000
NOSEL
1070
     0
1002
}
1002
{
1000
BEHIND
1070
     0
1002
}
1002
{
1000
REACTOR
1002
}
1001
GENIUS_GENOBJ-N-CEN_13
1002
{
1000
OWNER
1000
GEN
1002
}
  0
DIMENSION
  5
4047
330
1F
100
AcDbEntity
  8
AM_5
100
AcDbDimension
  2
*D5
 10
-0.0000000000000002
 20
-14.50000100000006
 30
0.0
 11
-19.99999999999999
 21
-12.95000100000006
 31
0.0
 70
    32
  1
<>
  3
AM_JIS
100
AcDbAlignedDimension
 13
-39.99999999999998
 23
-1.200000000000046
 33
0.0
 14
0.0000000000000007
 24
-0.0000000000000005
 34
0.0
 50
0.0000000000001132
100
AcDbRotatedDimension
1001
GENIUS_GENDTOL_13
1000

1000
h7
1000

1040
0.0
  0
DIMENSION
  5
412A
330
1F
100
AcDbEntity
  8
AM_5
100
AcDbDimension
  2
*D6
 10
-0.7000000000000174
 20
-8.500001000000064
 30
0.0
 11
-5.626190476190492
 21
-6.950001000000065
 31
0.0
 70
    32
  1
<>
  3
AM_JIS
100
AcDbAlignedDimension
 13
-0.0000000000000142
 23
-0.0000000000000111
 33
0.0
 14
-0.700000000000017
 24
-0.3500000000000023
 34
0.0
 50
0.0000000000001132
100
AcDbRotatedDimension
1001
GENIUS_GENDTOL_13
1000

1000
h7
1000

1040
0.0
  0
DIMENSION
  5
42F4
330
1F
100
AcDbEntity
  8
AM_5
100
AcDbDimension
  2
*D7
 10
8.341627940564762
 20
-0.3500000000000024
 30
0.0
 11
6.791627940564762
 21
-6.0
 31
0.0
 70
    32
  1
%%c<>
  3
AM_JIS
100
AcDbAlignedDimension
 13
-0.35
 23
0.3500000000000001
 33
0.0
 14
-0.3499999999999993
 24
-0.35
 34
0.0
 50
90.0
100
AcDbRotatedDimension
1001
GENIUS_GENDTOL_13
1000

1000
h7
1000

1040
0.0
  0
LINE
  5
465E
330
1F
100
AcDbEntity
  8
AM_0
100
AcDbLine
 10
-7.221974092561136
 20
-1.499999999999839
 30
0.0
 11
-39.69999999999998
 21
-1.500000000000044
 31
0.0
  0
LINE
  5
4660
330
1F
100
AcDbEntity
  8
AM_0
100
AcDbLine
 10
-39.69999999999999
 20
1.499999999999921
 30
0.0
 11
-39.69999999999998
 21
-1.500000000000048
 31
0.0
  0
LINE
  5
4661
330
1F
100
AcDbEntity
  8
AM_0
100
AcDbLine
 10
-39.99999999999999
 20
1.199999999999919
 30
0.0
 11
-39.99999999999998
 21
-1.200000000000046
 31
0.0
  0
LINE
  5
4663
330
1F
100
AcDbEntity
  8
AM_0
100
AcDbLine
 10
-7.221974092561146
 20
1.500000000000129
 30
0.0
 11
-39.69999999999999
 21
1.499999999999921
 31
0.0
  0
DIMENSION
  5
4664
330
1F
100
AcDbEntity
  8
AM_5
100
AcDbDimension
  2
*D8
 10
-49.05619512995954
 20
-1.500000000000042
 30
0.0
 11
-50.60619512995955
 21
-6.007142857142907
 31
0.0
 70
    32
  1
%%c<>
  3
AM_JIS
100
AcDbAlignedDimension
 13
-39.69999999999999
 23
1.499999999999921
 33
0.0
 14
-39.69999999999998
 24
-1.500000000000044
 34
0.0
 50
270.0
100
AcDbRotatedDimension
1001
GENIUS_GENDTOL_13
1000

1000
h7
1000

1040
0.0
  0
LINE
  5
46F6
330
1F
100
AcDbEntity
  8
AM_0
100
AcDbLine
 10
-39.69999999999999
 20
1.499999999999921
 30
0.0
 11
-39.99999999999999
 21
1.199999999999919
 31
0.0
1001
GENIUS_GENFIL_13
1070
     0
1040
0.3
1040
0.3
1040
20.0
1040
0.0
1002
{
1002
}
1001
GENIUS_GENODEF_13
1002
{
1000
HIER
1070
     0
1002
}
1002
{
1000
MANEDIT
1070
     0
1002
}
1002
{
1000
NOSEL
1070
     0
1002
}
1002
{
1000
BEHIND
1070
     0
1002
}
1002
{
1000
REACTOR
1002
}
1001
GENIUS_GENOBJ-N-CHA_13
1002
{
1000
OWNER
1000
GEN
1002
}
  0
LINE
  5
46FB
330
1F
100
AcDbEntity
  8
AM_0
100
AcDbLine
 10
-39.99999999999998
 20
-1.200000000000046
 30
0.0
 11
-39.69999999999998
 21
-1.500000000000044
 31
0.0
1001
GENIUS_GENFIL_13
1070
     0
1040
0.3
1040
0.3
1040
20.0
1040
0.0
1002
{
1002
}
1001
GENIUS_GENODEF_13
1002
{
1000
HIER
1070
     0
1002
}
1002
{
1000
MANEDIT
1070
     0
1002
}
1002
{
1000
NOSEL
1070
     0
1002
}
1002
{
1000
BEHIND
1070
     0
1002
}
1002
{
1000
REACTOR
1002
}
1001
GENIUS_GENOBJ-N-CHA_13
1002
{
1000
OWNER
1000
GEN
1002
}
  0
LINE
  5
475D
330
1F
100
AcDbEntity
  8
AM_0
100
AcDbLine
 10
-7.221974092561146
 20
1.500000000000129
 30
0.0
 11
-7.221974092561137
 21
-1.499999999999839
 31
0.0
  0
LINE
  5
4776
330
1F
100
AcDbEntity
  8
AM_0
100
AcDbLine
 10
-1.311352938030333
 20
0.4577980177101298
 30
0.0
 11
-7.221974092561145
 21
1.500000000000128
 31
0.0
  0
LINE
  5
4778
330
1F
100
AcDbEntity
  8
AM_0
100
AcDbLine
 10
-0.6999999999999976
 20
-0.3500000000000019
 30
0.0
 11
-7.221974092561135
 21
-1.500000000000138
 31
0.0
  0
SPLINE
  5
4C61
330
1F
100
AcDbEntity
  8
AM_0
100
AcDbSpline
210
0.0
220
0.0
230
1.0
 70
     8
 71
     3
 72
     8
 73
     4
 74
     0
 42
0.0000000001
 43
0.0000000001
 40
1.794922859428793
 40
1.794922859428793
 40
1.794922859428793
 40
1.794922859428793
 40
6.932195611885338
 40
6.932195611885338
 40
6.932195611885338
 40
6.932195611885338
 10
-0.3499999999997749
 20
-0.3446827135542957
 30
0.0
 10
-0.4684180500305284
 20
-0.326673603940626
 30
0.0
 10
-0.5792312984199814
 20
-0.2936260477716153
 30
0.0
 10
-0.6999999999999992
 20
-0.2478016171562045
 30
0.0
  0
SPLINE
  5
4C63
330
1F
100
AcDbEntity
  8
AM_0
100
AcDbSpline
210
0.0
220
0.0
230
1.0
 70
     8
 71
     3
 72
     8
 73
     4
 74
     0
 42
0.0000000001
 43
0.0000000001
 40
6.513172597598655
 40
6.513172597598655
 40
6.513172597598655
 40
6.513172597598655
 40
11.78103907609898
 40
11.78103907609898
 40
11.78103907609898
 40
11.78103907609898
 10
-0.3499999999999956
 20
-0.2642748216051924
 30
0.0
 10
-0.4892567793522536
 20
-0.2184689713577219
 30
0.0
 10
-0.5939458956587349
 20
-0.1826167909365469
 30
0.0
 10
-0.6999999999999992
 20
-0.1351081584371478
 30
0.0
  0
SPLINE
  5
4C64
330
1F
100
AcDbEntity
  8
AM_0
100
AcDbSpline
210
0.0
220
0.0
230
1.0
 70
     8
 71
     3
 72
     8
 73
     4
 74
     0
 42
0.0000000001
 43
0.0000000001
 40
1.794922859432252
 40
1.794922859432252
 40
1.794922859432252
 40
1.794922859432252
 40
7.780064853036185
 40
7.780064853036185
 40
7.780064853036185
 40
7.780064853036185
 10
-0.3499999999999956
 20
0.3446827135542561
 30
0.0
 10
-0.4412008888650688
 20
0.3330713068911095
 30
0.0
 10
-0.5756921255574291
 20
0.3031455607834854
 30
0.0
 10
-0.6642674543513018
 20
0.271988316396203
 30
0.0
  0
SPLINE
  5
4C65
330
1F
100
AcDbEntity
  8
AM_0
100
AcDbSpline
210
0.0
220
0.0
230
1.0
 70
     8
 71
     3
 72
     8
 73
     4
 74
     2
 42
0.0000000001
 43
0.0000000001
 44
0.0000000001
 12
-0.8789112757303589
 22
0.4769852926391261
 32
0.0
 13
0.9988106394578339
 23
0.0487576302319218
 33
0.0
 40
0.0
 40
0.0
 40
0.0
 40
0.0
 40
0.1510214902230567
 40
0.1510214902230567
 40
0.1510214902230567
 40
0.1510214902230567
 10
-0.3659446952475491
 20
0.09721961541944
 30
0.0
 10
-0.4101895254590981
 20
0.1212312919890539
 30
0.0
 10
-0.465770005321872
 20
0.2374284229756359
 30
0.0
 10
-0.4154893815813498
 20
0.2398829063014258
 30
0.0
 11
-0.3659446952475491
 21
0.09721961541944
 31
0.0
 11
-0.4154893815813498
 21
0.2398829063014258
 31
0.0
  0
SPLINE
  5
4C66
330
1F
100
AcDbEntity
  8
AM_0
100
AcDbSpline
210
0.0
220
0.0
230
1.0
 70
     8
 71
     3
 72
     8
 73
     4
 74
     2
 42
0.0000000001
 43
0.0000000001
 44
0.0000000001
 12
0.421692687695876
 22
-0.9067388141818064
 32
0.0
 13
-0.9928045895078733
 23
-0.1197457600589821
 33
0.0
 40
0.0
 40
0.0
 40
0.0
 40
0.0
 40
0.1235793619526421
 40
0.1235793619526421
 40
0.1235793619526421
 40
0.1235793619526421
 10
-0.3499999999999956
 20
0.3446827135542561
 30
0.0
 10
-0.3326291622381452
 20
0.3073313121828284
 30
0.0
 10
-0.374592662346442
 20
0.2448156078428084
 30
0.0
 10
-0.415489381584788
 20
0.2398829063012673
 30
0.0
 11
-0.3499999999999956
 21
0.3446827135542561
 31
0.0
 11
-0.415489381584788
 21
0.2398829063012673
 31
0.0
  0
SPLINE
  5
4C67
330
1F
100
AcDbEntity
  8
AM_0
100
AcDbSpline
210
0.0
220
0.0
230
1.0
 70
     8
 71
     3
 72
     9
 73
     5
 74
     3
 42
0.0000000001
 43
0.0000000001
 44
0.0000000001
 12
0.5867325161912575
 22
-0.8097808064185491
 32
0.0
 13
-0.8994987856269101
 23
0.4369232594583561
 33
0.0
 40
0.0
 40
0.0
 40
0.0
 40
0.0
 40
0.0313609228169258
 40
0.0934263667261091
 40
0.0934263667261091
 40
0.0934263667261091
 40
0.0934263667261091
 10
-0.3070489735238457
 20
-0.2129819418564943
 30
0.0
 10
-0.3009154824723609
 20
-0.2214470996460677
 30
0.0
 10
-0.2744579110847214
 20
-0.251712753894559
 30
0.0
 10
-0.3313907361914272
 20
-0.2733141002893691
 30
0.0
 10
-0.3499999999999956
 20
-0.2642748216051924
 30
0.0
 11
-0.3070489735238457
 21
-0.2129819418564943
 31
0.0
 11
-0.2925494313618093
 21
-0.2407896882056773
 31
0.0
 11
-0.3499999999999956
 21
-0.2642748216051924
 31
0.0
  0
ARC
  5
4C68
330
1F
100
AcDbEntity
  8
AM_0
100
AcDbCircle
 10
-1.263309210728466
 20
3.108119768894723
 30
0.0
 40
3.503699416746821
100
AcDbArc
 50
279.2519149359382
 51
282.5199022762564
  0
LINE
  5
4C69
330
1F
100
AcDbEntity
  8
AM_0
100
AcDbLine
 10
-0.6999999999999976
 20
0.2765996875633183
 30
0.0
 11
-0.4154893815813825
 21
0.2398829063014258
 31
0.0
  0
LINE
  5
4C6A
330
1F
100
AcDbEntity
  8
AM_11
100
AcDbLine
 10
-0.6999999999999976
 20
-0.3500000000000019
 30
0.0
 11
-0.3499999999999956
 21
-0.3500000000000003
 31
0.0
  0
LINE
  5
4C6B
330
1F
100
AcDbEntity
  8
AM_11
100
AcDbLine
 10
-0.3499999999999956
 20
0.3499999999999917
 30
0.0
 11
-0.6999999999999976
 21
0.3499999999999917
 31
0.0
  0
ARC
  5
4C6F
330
1F
100
AcDbEntity
  8
AM_0
100
AcDbCircle
 10
-0.4388817032150243
 20
0.6784697636526112
 30
0.0
 40
0.8544540948627814
100
AcDbArc
 50
195.7898850740521
 51
252.2059374660802
  0
LINE
  5
4C70
330
1F
100
AcDbEntity
  8
AM_11
100
AcDbLine
 10
-0.6999999999999976
 20
-0.3500000000000003
 30
0.0
 11
-0.6999999999999976
 21
0.3499999999999917
 31
0.0
  0
LINE
  5
4C71
330
1F
100
AcDbEntity
  8
AM_0
100
AcDbLine
 10
-0.6999999999999976
 20
-0.1351081584371478
 30
0.0
 11
-0.7000000000000427
 21
-0.2478016171562146
 31
0.0
  0
POLYLINE
  5
4C72
330
1F
100
AcDbEntity
  8
AM_0
100
AcDb2dPolyline
 66
     1
 10
0.0
 20
0.0
 30
0.0
  0
VERTEX
  5
4C73
330
4C72
100
AcDbEntity
  8
AM_0
100
AcDbVertex
100
AcDb2dVertex
 10
-0.699999999999982
 20
-0.2478016171562107
 30
0.0
 42
0.0159809323087668
  0
VERTEX
  5
4C74
330
4C72
100
AcDbEntity
  8
AM_0
100
AcDbVertex
100
AcDb2dVertex
 10
-0.7838756075174212
 20
-0.2556146499579066
 30
0.0
 42
0.0260500087038934
  0
VERTEX
  5
4C75
330
4C72
100
AcDbEntity
  8
AM_0
100
AcDbVertex
100
AcDb2dVertex
 10
-0.8352224852740073
 20
-0.2616283463645186
 30
0.0
 42
0.0130428312885885
  0
VERTEX
  5
4C76
330
4C72
100
AcDbEntity
  8
AM_0
100
AcDbVertex
100
AcDb2dVertex
 10
-0.9546580959447339
 20
-0.2884741779289177
 30
0.0
 42
0.0322710141744365
  0
VERTEX
  5
4C77
330
4C72
100
AcDbEntity
  8
AM_0
100
AcDbVertex
100
AcDb2dVertex
 10
-1.001106889722866
 20
-0.3056404867187038
 30
0.0
 42
0.066302819305777
  0
VERTEX
  5
4C78
330
4C72
100
AcDbEntity
  8
AM_0
100
AcDbVertex
100
AcDb2dVertex
 10
-1.033484767617502
 20
-0.3255333180562652
 30
0.0
 42
0.141835538265495
  0
VERTEX
  5
4C79
330
4C72
100
AcDbEntity
  8
AM_0
100
AcDbVertex
100
AcDb2dVertex
 10
-1.043756069666301
 20
-0.3403661277154585
 30
0.0
 42
0.3019338394559296
  0
VERTEX
  5
4C7A
330
4C72
100
AcDbEntity
  8
AM_0
100
AcDbVertex
100
AcDb2dVertex
 10
-1.038114285823049
 20
-0.3613546643809542
 30
0.0
 42
0.1448123473042558
  0
VERTEX
  5
4C7B
330
4C72
100
AcDbEntity
  8
AM_0
100
AcDbVertex
100
AcDb2dVertex
 10
-0.9996476643235968
 20
-0.3791882181734614
 30
0.0
 42
0.0233293908839008
  0
VERTEX
  5
4C7C
330
4C72
100
AcDbEntity
  8
AM_0
100
AcDbVertex
100
AcDb2dVertex
 10
-0.9657411158736309
 20
-0.382584725178165
 30
0.0
 42
0.0034172218502885
  0
VERTEX
  5
4C7D
330
4C72
100
AcDbEntity
  8
AM_0
100
AcDbVertex
100
AcDb2dVertex
 10
-0.9016565114377897
 20
-0.3855574838020272
 30
0.0
 42
0.0093933844226459
  0
SEQEND
  5
4C7E
330
4C72
100
AcDbEntity
  8
AM_0
  0
ARC
  5
4C7F
330
1F
100
AcDbEntity
  8
AM_0
100
AcDbCircle
 10
-4.264686496739495
 20
-10.62851702347149
 30
0.0
 40
11.47294906732039
100
AcDbArc
 50
71.89836262596879
 51
75.08314152666779
  0
ARC
  5
4C80
330
1F
100
AcDbEntity
  8
AM_0
100
AcDbCircle
 10
-0.3499596069046456
 20
-0.0053172864457281
 30
0.0
 40
0.35
100
AcDbArc
 50
0.8704851212057665
 51
90.0
  0
ARC
  5
4C81
330
1F
100
AcDbEntity
  8
AM_11
100
AcDbCircle
 10
-0.3500000000000019
 20
0.0
 30
0.0
 40
0.35
100
AcDbArc
 50
270.0
 51
90.0
  0
ARC
  5
4C83
330
1F
100
AcDbEntity
  8
AM_0
100
AcDbCircle
 10
-0.0143598638988549
 20
0.0032806489184424
 30
0.0
 40
0.3639181543448643
100
AcDbArc
 50
165.040742132377
 51
216.4600123166024
  0
LINE
  5
4C84
330
1F
100
AcDbEntity
  8
AM_0
100
AcDbLine
 10
0.0
 20
0.0
 30
0.0
 11
-0.4154893815813498
 21
0.2398829063014258
 31
0.0
  0
LINE
  5
4C85
330
1F
100
AcDbEntity
  8
AM_0
100
AcDbLine
 10
-0.0490000000000179
 20
-0.0123343276178546
 30
0.0
 11
-0.3659446952475491
 21
0.09721961541944
 31
0.0
  0
LINE
  5
4C86
330
1F
100
AcDbEntity
  8
AM_0
100
AcDbLine
 10
-0.0000000000000019
 20
0.0
 30
0.0
 11
-0.0490000000000179
 21
-0.0123343276178546
 31
0.0
  0
ARC
  5
4C87
330
1F
100
AcDbEntity
  8
AM_0
100
AcDbCircle
 10
-0.3387345884235557
 20
0.0940279847367979
 30
0.0
 40
0.3086406862654241
100
AcDbArc
 50
275.8924707062756
 51
339.8416840647174
  0
ARC
  5
4C88
330
1F
100
AcDbEntity
  8
AM_0
100
AcDbCircle
 10
-0.3499596069046735
 20
0.0053172864453773
 30
0.0
 40
0.35
100
AcDbArc
 50
270.0000000000781
 51
359.1295148788724
  0
LINE
  5
4C8B
330
1F
100
AcDbEntity
  8
AM_0
100
AcDbLine
 10
-0.3499999999997749
 20
-0.3446827135542956
 30
0.0
 11
-0.3500000000000298
 21
-0.2642748216051924
 31
0.0
  0
DIMENSION
  5
4D98
330
1F
100
AcDbEntity
  8
AM_5
100
AcDbDimension
  2
*D9
 10
-0.3500000000000302
 20
0.0053172864453698
 30
0.0
 11
3.762208433191299
 21
-5.673748507085367
 31
0.0
 70
    36
  1
<>
  3
AM_JIS$4
100
AcDbRadialDimension
 15
-0.212475368558826
 25
-0.3165320195146731
 35
0.0
 40
0.0
1001
GENIUS_GENDTOL_13
1000

1000
h7
1000

1040
0.0
1001
ACAD
1000
DSTYLE
1002
{
1070
   287
1070
     3
1070
   271
1070
     3
1070
   288
1070
     1
1070
   289
1070
     3
1070
   172
1070
     1
1070
    74
1070
     0
1002
}
  0
VIEWPORT
  5
110
330
101
100
AcDbEntity
 67
     1
  8
0
100
AcDbViewport
 10
420.5
 20
297.0
 30
0.0
 40
948.9782706766916
 41
628.452
 68
     1
 69
     1
1001
ACAD
1000
MVIEW
1002
{
1070
    16
1010
0.0
1020
0.0
1030
0.0
1010
0.0
1020
0.0
1030
1.0
1040
0.0
1040
628.452
1040
420.5
1040
297.0
1040
50.0
1040
0.0
1040
0.0
1070
     0
1070
   100
1070
     1
1070
     1
1070
     0
1070
     0
1070
     0
1070
     0
1040
0.0
1040
0.0
1040
0.0
1040
10.0
1040
10.0
1040
10.0
1040
10.0
1070
     0
1002
{
1002
}
1002
}
  0
ENDSEC
  0
SECTION
  2
OBJECTS
  0
DICTIONARY
  5
C
330
0
100
AcDbDictionary
  3
ACAD_GROUP
350
D
  3
ACAD_LAYOUT
350
1A
  3
ACAD_MLINESTYLE
350
17
  3
ACAD_PLOTSETTINGS
350
19
  3
ACAD_PLOTSTYLENAME
350
E
  3
ACDBVARIABLEDICTIONARY
350
34
  3
ACMDICTIONARY
350
43
  3
AMG
350
2B
  3
AMGSNAPSETTINGS
350
6E
  3
ASE_INDEX_DICTIONARY
350
151A
  3
DWGPROPS
350
4E54
  3
ACDBHEADERROUNDTRIPXREC
350
4E60
  0
DICTIONARY
  5
74
330
1F
100
AcDbDictionary
280
     1
  3
ACAD_INDEX
360
4E56
  3
ACAD_LAYOUTSELFREF
360
4E83
  0
DICTIONARY
  5
4E88
330
101
100
AcDbDictionary
280
     1
  3
ACAD_LAYOUTSELFREF
360
4E89
  0
DICTIONARY
  5
D
102
{ACAD_REACTORS
330
C
102
}
330
C
100
AcDbDictionary
  0
DICTIONARY
  5
1A
102
{ACAD_REACTORS
330
C
102
}
330
C
100
AcDbDictionary
  0
DICTIONARY
  5
17
102
{ACAD_REACTORS
330
C
102
}
330
C
100
AcDbDictionary
  3
STANDARD
350
18
  0
DICTIONARY
  5
19
102
{ACAD_REACTORS
330
C
102
}
330
C
100
AcDbDictionary
  0
ACDBDICTIONARYWDFLT
  5
E
102
{ACAD_REACTORS
330
C
102
}
330
C
100
AcDbDictionary
281
     1
  3
Normal
350
F
100
AcDbDictionaryWithDefault
340
F
  0
DICTIONARY
  5
34
102
{ACAD_REACTORS
330
C
102
}
330
C
100
AcDbDictionary
  3
INDEXCTL
350
35
  3
SORTENTS
350
B5E
  0
DICTIONARY
  5
43
102
{ACAD_REACTORS
330
C
102
}
330
C
100
AcDbDictionary
  3
ACMSTDDICTIONARY
350
260
  0
DICTIONARY
  5
2B
102
{ACAD_REACTORS
330
C
102
}
330
C
100
AcDbDictionary
  3
ACMGSETTINGS
350
2C
  0
DICTIONARY
  5
6E
102
{ACAD_REACTORS
330
C
102
}
330
C
100
AcDbDictionary
  0
DICTIONARY
  5
151A
102
{ACAD_REACTORS
330
C
102
}
330
C
100
AcDbDictionary
  3
ASEBLOCKHIERARCHYINDEXRECORD
350
151C
1001
DCO15
1040
1471862535.906
  0
XRECORD
  5
4E54
102
{ACAD_REACTORS
330
C
102
}
330
C
100
AcDbXrecord
  1
DWGPROPS COOKIE
  2

  3

  4

  6

  7

  8

  9

300
AmdtFileType=82
301
=
302
=
303
=
304
=
305
=
306
=
307
=
308
=
309
=
 40
0.1939782523148148
 41
2452838.430434386
 42
2453045.627570254
  1

 90
        1
  0
DICTIONARY
  5
4E60
102
{ACAD_REACTORS
330
C
102
}
330
C
100
AcDbDictionary
  3
TSTACKALIGN
350
4E61
  3
TSTACKSIZE
350
4E62
  3
HYPERLINKBASE
350
4E63
  3
STYLESHEET
350
4E64
  3
LAYOUTDICT
350
4E65
  3
PLOTSETDICT
350
4E66
  3
PLOTSTYLNAMDICT
350
4E67
  3
LWETCUNION
350
4E68
  3
INSUNITS
350
4E69
  3
CEPSNTYPE
350
4E6A
  3
FINGERPRINTGUID
350
4E6B
  3
VERSIONGUID
350
4E6C
  3
PSVPSCALE
350
4E6D
  3
DIMSTYLEDATA
350
4E6E
  3
PUCSORTHOREF
350
4E6F
  3
PUCSORTHOVIEW
350
4E70
  3
PUCSBASE
350
4E71
  3
PUCSORGTOP
350
4E72
  3
PUCSORGBOTTOM
350
4E73
  3
PUCSORGLEFT
350
4E74
  3
PUCSORGRIGHT
350
4E75
  3
PUCSORGFRONT
350
4E76
  3
PUCSORGBACK
350
4E77
  3
UCSORTHOREF
350
4E78
  3
UCSORTHOVIEW
350
4E79
  3
UCSBASE
350
4E7A
  3
UCSORGTOP
350
4E7B
  3
UCSORGBOTTOM
350
4E7C
  3
UCSORGLEFT
350
4E7D
  3
UCSORGRIGHT
350
4E7E
  3
UCSORGFRONT
350
4E7F
  3
UCSORGBACK
350
4E80
  0
DICTIONARY
  5
4E56
102
{ACAD_REACTORS
330
74
102
}
330
74
100
AcDbDictionary
  3
*A1
350
4E57
  0
XRECORD
  5
4E83
102
{ACAD_REACTORS
330
74
102
}
330
74
100
AcDbXrecord
340
1F
  0
XRECORD
  5
4E89
102
{ACAD_REACTORS
330
4E88
102
}
330
4E88
100
AcDbXrecord
340
101
  0
MLINESTYLE
  5
18
102
{ACAD_REACTORS
330
17
102
}
330
17
100
AcDbMlineStyle
  2
STANDARD
 70
     0
  3

 62
   256
 51
90.0
 52
90.0
 71
     2
 49
0.5
 62
   256
  6
BYLAYER
 49
-0.5
 62
   256
  6
BYLAYER
  0
ACDBPLACEHOLDER
  5
F
102
{ACAD_REACTORS
330
E
102
}
330
E
100
AcDbPlaceHolder
280
     0
  0
DICTIONARYVAR
  5
35
102
{ACAD_REACTORS
330
34
102
}
330
34
100
DictionaryVariables
280
     0
  1
1
  0
DICTIONARYVAR
  5
B5E
102
{ACAD_REACTORS
330
34
102
}
330
34
100
DictionaryVariables
280
     0
  1
96
  0
DICTIONARY
  5
260
102
{ACAD_REACTORS
330
43
102
}
330
43
100
AcDbDictionary
  0
DICTIONARY
  5
2C
102
{ACAD_REACTORS
330
2B
102
}
330
2B
100
AcDbDictionary
  3
DWGSETTINGS
350
2D
  0
XRECORD
  5
151C
102
{ACAD_REACTORS
330
151A
102
}
330
151A
100
AcDbXrecord
330
0
330
0
330
0
330
0
330
0
330
0
330
0
330
0
  0
XRECORD
  5
4E61
102
{ACAD_REACTORS
330
4E60
102
}
330
4E60
100
AcDbXrecord
 90
        1
  0
XRECORD
  5
4E62
102
{ACAD_REACTORS
330
4E60
102
}
330
4E60
100
AcDbXrecord
 90
       70
  0
XRECORD
  5
4E63
102
{ACAD_REACTORS
330
4E60
102
}
330
4E60
100
AcDbXrecord
  1

  0
XRECORD
  5
4E64
102
{ACAD_REACTORS
330
4E60
102
}
330
4E60
100
AcDbXrecord
  1
ASAMI.ctb
  0
XRECORD
  5
4E65
102
{ACAD_REACTORS
330
4E60
102
}
330
4E60
100
AcDbXrecord
340
1A
  0
XRECORD
  5
4E66
102
{ACAD_REACTORS
330
4E60
102
}
330
4E60
100
AcDbXrecord
340
19
  0
XRECORD
  5
4E67
102
{ACAD_REACTORS
330
4E60
102
}
330
4E60
100
AcDbXrecord
340
E
  0
XRECORD
  5
4E68
102
{ACAD_REACTORS
330
4E60
102
}
330
4E60
100
AcDbXrecord
 90
    10781
  0
XRECORD
  5
4E69
102
{ACAD_REACTORS
330
4E60
102
}
330
4E60
100
AcDbXrecord
 90
        4
  0
XRECORD
  5
4E6A
102
{ACAD_REACTORS
330
4E60
102
}
330
4E60
100
AcDbXrecord
 90
        0
  0
XRECORD
  5
4E6B
102
{ACAD_REACTORS
330
4E60
102
}
330
4E60
100
AcDbXrecord
  1
{AFB28963-8C59-40AE-9337-C84526B81ACE}
  0
XRECORD
  5
4E6C
102
{ACAD_REACTORS
330
4E60
102
}
330
4E60
100
AcDbXrecord
  1
{B5A00F21-D8B5-4C1B-B65C-65D695468AD1}
  0
XRECORD
  5
4E6D
102
{ACAD_REACTORS
330
4E60
102
}
330
4E60
100
AcDbXrecord
 40
0.0
  0
XRECORD
  5
4E6E
102
{ACAD_REACTORS
330
4E60
102
}
330
4E60
100
AcDbXrecord
1000
DSTYLE
1002
{
1070
    79
 70
     2
1070
   341
340
59
1070
   342
340
59
1070
   371
 70
    -1
1070
   372
 70
    -1
1002
}
  0
XRECORD
  5
4E6F
102
{ACAD_REACTORS
330
4E60
102
}
330
4E60
100
AcDbXrecord
340
0
  0
XRECORD
  5
4E70
102
{ACAD_REACTORS
330
4E60
102
}
330
4E60
100
AcDbXrecord
 70
     0
  0
XRECORD
  5
4E71
102
{ACAD_REACTORS
330
4E60
102
}
330
4E60
100
AcDbXrecord
340
0
  0
XRECORD
  5
4E72
102
{ACAD_REACTORS
330
4E60
102
}
330
4E60
100
AcDbXrecord
 10
0.0
 20
0.0
 30
0.0
  0
XRECORD
  5
4E73
102
{ACAD_REACTORS
330
4E60
102
}
330
4E60
100
AcDbXrecord
 10
0.0
 20
0.0
 30
0.0
  0
XRECORD
  5
4E74
102
{ACAD_REACTORS
330
4E60
102
}
330
4E60
100
AcDbXrecord
 10
0.0
 20
0.0
 30
0.0
  0
XRECORD
  5
4E75
102
{ACAD_REACTORS
330
4E60
102
}
330
4E60
100
AcDbXrecord
 10
0.0
 20
0.0
 30
0.0
  0
XRECORD
  5
4E76
102
{ACAD_REACTORS
330
4E60
102
}
330
4E60
100
AcDbXrecord
 10
0.0
 20
0.0
 30
0.0
  0
XRECORD
  5
4E77
102
{ACAD_REACTORS
330
4E60
102
}
330
4E60
100
AcDbXrecord
 10
0.0
 20
0.0
 30
0.0
  0
XRECORD
  5
4E78
102
{ACAD_REACTORS
330
4E60
102
}
330
4E60
100
AcDbXrecord
340
0
  0
XRECORD
  5
4E79
102
{ACAD_REACTORS
330
4E60
102
}
330
4E60
100
AcDbXrecord
 70
     0
  0
XRECORD
  5
4E7A
102
{ACAD_REACTORS
330
4E60
102
}
330
4E60
100
AcDbXrecord
340
0
  0
XRECORD
  5
4E7B
102
{ACAD_REACTORS
330
4E60
102
}
330
4E60
100
AcDbXrecord
 10
0.0
 20
0.0
 30
0.0
  0
XRECORD
  5
4E7C
102
{ACAD_REACTORS
330
4E60
102
}
330
4E60
100
AcDbXrecord
 10
0.0
 20
0.0
 30
0.0
  0
XRECORD
  5
4E7D
102
{ACAD_REACTORS
330
4E60
102
}
330
4E60
100
AcDbXrecord
 10
0.0
 20
0.0
 30
0.0
  0
XRECORD
  5
4E7E
102
{ACAD_REACTORS
330
4E60
102
}
330
4E60
100
AcDbXrecord
 10
0.0
 20
0.0
 30
0.0
  0
XRECORD
  5
4E7F
102
{ACAD_REACTORS
330
4E60
102
}
330
4E60
100
AcDbXrecord
 10
0.0
 20
0.0
 30
0.0
  0
XRECORD
  5
4E80
102
{ACAD_REACTORS
330
4E60
102
}
330
4E60
100
AcDbXrecord
 10
0.0
 20
0.0
 30
0.0
  0
LAYER_INDEX
  5
4E57
102
{ACAD_REACTORS
330
4E56
102
}
330
4E56
100
AcDbIndex
 40
2453151.772911041
100
AcDbLayerIndex
  8
0
360
4E58
 90
        0
  8
AM_0
360
4E59
 90
       29
  8
AM_11
360
4E5A
 90
        4
  8
AM_7
360
4E5B
 90
        1
  8
AM_5
360
4E5C
 90
        5
  8
Defpoints
360
4E5D
 90
        0
  8
AM_6
360
4E5E
 90
        1
  0
XRECORD
  5
2D
102
{ACAD_REACTORS
330
2C
102
}
330
2C
100
AcDbXrecord
  1
VERSION
140
15.0
  1
PRODUCT
  2
AutoCAD Mechanical 2000
  0
IDBUFFER
  5
4E58
330
0
100
AcDbIdBuffer
  0
IDBUFFER
  5
4E59
330
0
100
AcDbIdBuffer
330
4C69
330
4C6F
330
4C71
330
4C72
330
4C7F
330
4C80
330
4C83
330
4C84
330
4C85
330
4C86
330
4C87
330
4C88
330
4C8B
330
465E
330
4660
330
4661
330
4663
330
46F6
330
46FB
330
475D
330
4776
330
4778
330
4C61
330
4C63
330
4C64
330
4C65
330
4C66
330
4C67
330
4C68
  0
IDBUFFER
  5
4E5A
330
0
100
AcDbIdBuffer
330
4C6A
330
4C6B
330
4C70
330
4C81
  0
IDBUFFER
  5
4E5B
330
0
100
AcDbIdBuffer
330
3EE8
  0
IDBUFFER
  5
4E5C
330
0
100
AcDbIdBuffer
330
4047
330
412A
330
42F4
330
4664
330
4D98
  0
IDBUFFER
  5
4E5D
330
0
100
AcDbIdBuffer
  0
IDBUFFER
  5
4E5E
330
0
100
AcDbIdBuffer
330
1500
  0
ENDSEC
  0
EOF
