  0
SECTION
  2
HEADER
  9
$ACADVER
  1
AC1014
  9
$ACADMAINTVER
 70
     9
  9
$DWGCODEPAGE
  3
ANSI_932
  9
$INSBASE
 10
0.0
 20
0.0
 30
0.0
  9
$EXTMIN
 10
-61.40619512995955
 20
-25.75000099999996
 30
-0.00000001
  9
$EXTMAX
 10
8.841627940564762
 20
3.999999999999923
 30
0.00000001
  9
$LIMMIN
 10
-64.59939751435678
 20
-33.44184856464693
  9
$LIMMAX
 10
11.9043852594433
 20
13.60260968473585
  9
$ORTHOMODE
 70
     0
  9
$REGENMODE
 70
     1
  9
$FILLMODE
 70
     1
  9
$QTEXTMODE
 70
     0
  9
$MIRRTEXT
 70
     0
  9
$DRAGMODE
 70
     2
  9
$LTSCALE
 40
1.0
  9
$OSMODE
 70
    55
  9
$ATTMODE
 70
     1
  9
$TEXTSIZE
 40
2.5
  9
$TRACEWID
 40
1.0
  9
$TEXTSTYLE
  7
STANDARD
  9
$CLAYER
  8
AM_0
  9
$CELTYPE
  6
BYLAYER
  9
$CECOLOR
 62
   256
  9
$CELTSCALE
 40
1.0
  9
$DELOBJ
 70
     1
  9
$DISPSILH
 70
     0
  9
$DIMSCALE
 40
0.5
  9
$DIMASZ
 40
2.5
  9
$DIMEXO
 40
1.0
  9
$DIMDLI
 40
12.0
  9
$DIMRND
 40
0.0
  9
$DIMDLE
 40
0.0
  9
$DIMEXE
 40
1.0
  9
$DIMTP
 40
0.1
  9
$DIMTM
 40
0.1
  9
$DIMTXT
 40
3.2
  9
$DIMCEN
 40
0.0
  9
$DIMTSZ
 40
0.0
  9
$DIMTOL
 70
     0
  9
$DIMLIM
 70
     0
  9
$DIMTIH
 70
     0
  9
$DIMTOH
 70
     0
  9
$DIMSE1
 70
     0
  9
$DIMSE2
 70
     0
  9
$DIMTAD
 70
     3
  9
$DIMZIN
 70
     8
  9
$DIMBLK
  1
OPEN30
  9
$DIMASO
 70
     1
  9
$DIMSHO
 70
     1
  9
$DIMPOST
  1

  9
$DIMAPOST
  1
"
  9
$DIMALT
 70
     0
  9
$DIMALTD
 70
     2
  9
$DIMALTF
 40
0.0393701
  9
$DIMLFAC
 40
1.0
  9
$DIMTOFL
 70
     1
  9
$DIMTVP
 40
0.0
  9
$DIMTIX
 70
     0
  9
$DIMSOXD
 70
     0
  9
$DIMSAH
 70
     0
  9
$DIMBLK1
  1

  9
$DIMBLK2
  1

  9
$DIMSTYLE
  2
AM_JIS
  9
$DIMCLRD
 70
   256
  9
$DIMCLRE
 70
   256
  9
$DIMCLRT
 70
     2
  9
$DIMTFAC
 40
0.71
  9
$DIMGAP
 40
1.5
  9
$DIMJUST
 70
     0
  9
$DIMSD1
 70
     0
  9
$DIMSD2
 70
     0
  9
$DIMTOLJ
 70
     0
  9
$DIMTZIN
 70
     0
  9
$DIMALTZ
 70
     0
  9
$DIMALTTZ
 70
     0
  9
$DIMFIT
 70
     3
  9
$DIMUPT
 70
     0
  9
$DIMUNIT
 70
     2
  9
$DIMDEC
 70
     3
  9
$DIMTDEC
 70
     3
  9
$DIMALTU
 70
     2
  9
$DIMALTTD
 70
     2
  9
$DIMTXSTY
  7
ASAMI
  9
$DIMAUNIT
 70
     0
  9
$LUNITS
 70
     2
  9
$LUPREC
 70
     2
  9
$SKETCHINC
 40
1.0
  9
$FILLETRAD
 40
2.5
  9
$AUNITS
 70
     0
  9
$AUPREC
 70
     0
  9
$MENU
  1
.
  9
$ELEVATION
 40
0.0
  9
$PELEVATION
 40
0.0
  9
$THICKNESS
 40
0.0
  9
$LIMCHECK
 70
     0
  9
$BLIPMODE
 70
     0
  9
$CHAMFERA
 40
0.3
  9
$CHAMFERB
 40
0.3
  9
$CHAMFERC
 40
20.0
  9
$CHAMFERD
 40
0.0
  9
$SKPOLY
 70
     0
  9
$TDCREATE
 40
2452838.430434386
  9
$TDUPDATE
 40
2453151.775270162
  9
$TDINDWG
 40
0.1740852199
  9
$TDUSRTIMER
 40
0.1740852199
  9
$USRTIMER
 70
     1
  9
$ANGBASE
 50
0.0
  9
$ANGDIR
 70
     0
  9
$PDMODE
 70
     0
  9
$PDSIZE
 40
0.0
  9
$PLINEWID
 40
0.0
  9
$COORDS
 70
     1
  9
$SPLFRAME
 70
     0
  9
$SPLINETYPE
 70
     6
  9
$SPLINESEGS
 70
     8
  9
$ATTDIA
 70
     1
  9
$ATTREQ
 70
     1
  9
$HANDLING
 70
 12289
  9
$HANDSEED
  5
5105
  9
$SURFTAB1
 70
     6
  9
$SURFTAB2
 70
     6
  9
$SURFTYPE
 70
     6
  9
$SURFU
 70
     6
  9
$SURFV
 70
     6
  9
$UCSNAME
  2

  9
$UCSORG
 10
0.0
 20
0.0
 30
0.0
  9
$UCSXDIR
 10
1.0
 20
0.0
 30
0.0
  9
$UCSYDIR
 10
0.0
 20
1.0
 30
0.0
  9
$PUCSNAME
  2

  9
$PUCSORG
 10
0.0
 20
0.0
 30
0.0
  9
$PUCSXDIR
 10
1.0
 20
0.0
 30
0.0
  9
$PUCSYDIR
 10
0.0
 20
1.0
 30
0.0
  9
$USERI1
 70
     0
  9
$USERI2
 70
     0
  9
$USERI3
 70
     0
  9
$USERI4
 70
     0
  9
$USERI5
 70
     0
  9
$USERR1
 40
0.0
  9
$USERR2
 40
0.0
  9
$USERR3
 40
0.0
  9
$USERR4
 40
0.0
  9
$USERR5
 40
0.0
  9
$WORLDVIEW
 70
     1
  9
$SHADEDGE
 70
     3
  9
$SHADEDIF
 70
    70
  9
$TILEMODE
 70
     1
  9
$MAXACTVP
 70
    64
  9
$PINSBASE
 10
0.0
 20
0.0
 30
0.0
  9
$PLIMCHECK
 70
     0
  9
$PEXTMIN
 10
1.000000000000000E+20
 20
1.000000000000000E+20
 30
1.000000000000000E+20
  9
$PEXTMAX
 10
-1.000000000000000E+20
 20
-1.000000000000000E+20
 30
-1.000000000000000E+20
  9
$PLIMMIN
 10
0.0
 20
0.0
  9
$PLIMMAX
 10
841.0
 20
594.0
  9
$UNITMODE
 70
     0
  9
$VISRETAIN
 70
     1
  9
$PLINEGEN
 70
     0
  9
$PSLTSCALE
 70
     0
  9
$TREEDEPTH
 70
  3020
  9
$PICKSTYLE
 70
     0
  9
$CMLSTYLE
  2
STANDARD
  9
$CMLJUST
 70
     0
  9
$CMLSCALE
 40
20.0
  9
$PROXYGRAPHICS
 70
     1
  9
$MEASUREMENT
 70
     1
  0
ENDSEC
  0
SECTION
  2
CLASSES
  0
CLASS
  1
ACDBDICTIONARYWDFLT
  2
AcDbDictionaryWithDefault
  3
AutoCAD 2000
 90
        0
280
     0
281
     0
  0
CLASS
  1
ACDBPLACEHOLDER
  2
AcDbPlaceHolder
  3
AutoCAD 2000
 90
        0
280
     0
281
     0
  0
CLASS
  1
LAYOUT
  2
AcDbLayout
  3
AutoCAD 2000
 90
        0
280
     0
281
     0
  0
CLASS
  1
AMGSETTINGSOBJ
  2
AmgSettingsObj
  3
"AcadM|Product Description: AutoCAD Mechanical 2000|Company: Autodesk"
 90
        0
280
     0
281
     0
  0
CLASS
  1
ACME_DOCUMENT
  2
AcMeDbDoc
  3
AcMeServices
 90
        0
280
     0
281
     0
  0
CLASS
  1
ACMESCOPE
  2
AcMeScope
  3
AcMeServices
 90
        0
280
     0
281
     0
  0
CLASS
  1
ACMECOMMANDHISTORY
  2
AcMeCommandHistory
  3
AcMeServices
 90
        0
280
     0
281
     0
  0
CLASS
  1
DICTIONARYVAR
  2
AcDbDictionaryVar
  3
AutoCAD 2000
 90
        0
280
     0
281
     0
  0
CLASS
  1
ACIMSYSVARMAN
  2
AcImSysVarManager
  3
AcMeServices
 90
        0
280
     0
281
     0
  0
CLASS
  1
ACIMREALSYSVAR
  2
AcImRealSysVar
  3
AcMeServices
 90
        0
280
     0
281
     0
  0
CLASS
  1
ACIMINTSYSVAR
  2
AcImIntSysVar
  3
AcMeServices
 90
        0
280
     0
281
     0
  0
CLASS
  1
ACMEDRAWINGMAN
  2
AcMeDrawingMan
  3
AcMeServices
 90
        0
280
     0
281
     0
  0
CLASS
  1
ACMEVIEW
  2
AcMeView
  3
AcMeServices
 90
        0
280
     0
281
     0
  0
CLASS
  1
ACDBENTITYCACHE
  2
AcMeEntityCache
  3
AcMeServices
 90
        0
280
     0
281
     0
  0
CLASS
  1
GSMANAGER
  2
AcMeGSManager
  3
AcMeServices
 90
        0
280
     0
281
     0
  0
CLASS
  1
AmdtInternalReactor
  2
AmdtInternalReactor
  3
AcMeServices
 90
        0
280
     0
281
     0
  0
CLASS
  1
ACMESTATEMGR
  2
AcMeStateMgr
  3
AcMeServices
 90
        0
280
     0
281
     0
  0
CLASS
  1
ACME_DATABASE
  2
AcMeDbDatabase
  3
AcMeServices
 90
        0
280
     0
281
     0
  0
CLASS
  1
ACRFINSADJUSTERMGR
  2
AcRfInsAdjusterMgr
  3
AcMeServices
 90
        0
280
     0
281
     0
  0
CLASS
  1
ACMDATADICTIONARY
  2
AcmDataDictionary
  3
"AcmSymBB|Product Description: AutoCAD Mechanical 2000|Company: Autodesk"
 90
        0
280
     0
281
     0
  0
CLASS
  1
ACMDATAENTRYBLOCK
  2
AcmDataEntryBlock
  3
"AcmSymBB|Product Description: AutoCAD Mechanical 2000|Company: Autodesk"
 90
        0
280
     0
281
     0
  0
CLASS
  1
AMGOBJPROPCFG
  2
AmgObjPropCfg
  3
"AmgLay|Product Description: AutoCAD Mechanical 2000|Company: Autodesk"
 90
        1
280
     0
281
     0
  0
CLASS
  1
ACAMGFILTERDAT
  2
AcAmgFilterDat
  3
"AcadM|Product Description: AutoCAD Mechanical 2000|Company: Autodesk"
 90
        0
280
     0
281
     0
  0
CLASS
  1
LAYER_INDEX
  2
AcDbLayerIndex
  3
AutoCAD 2000
 90
        0
280
     0
281
     0
  0
CLASS
  1
IDBUFFER
  2
AcDbIdBuffer
  3
AutoCAD 2000
 90
        0
280
     0
281
     0
  0
CLASS
  1
ACIMSTRSYSVAR
  2
AcImStrSysVar
  3
AcMeServices
 90
        0
280
     0
281
     0
  0
CLASS
  1
ACMSTANDARDJIS
  2
AcmStandardJIS
  3
"AcmSymBB|Product Description: AutoCAD Mechanical 2000|Company: Autodesk"
 90
        0
280
     0
281
     0
  0
CLASS
  1
ACMSURFSTANDARDJIS
  2
AcmSurfTextStdJIS
  3
"AcmSymBB|Product Description: AutoCAD Mechanical 2000|Company: Autodesk"
 90
        0
280
     0
281
     0
  0
CLASS
  1
ACMFCFSTANDARDJIS
  2
AcmFCFStdJIS
  3
"AcmSymBB|Product Description: AutoCAD Mechanical 2000|Company: Autodesk"
 90
        0
280
     0
281
     0
  0
CLASS
  1
ACMWELDSTANDARDJIS
  2
AcmWeldingStdJIS
  3
"AcmSymBB|Product Description: AutoCAD Mechanical 2000|Company: Autodesk"
 90
        0
280
     0
281
     0
  0
CLASS
  1
ACMIDSTANDARDJIS
  2
AcmIdStdJIS
  3
"AcmSymBB|Product Description: AutoCAD Mechanical 2000|Company: Autodesk"
 90
        0
280
     0
281
     0
  0
CLASS
  1
ACMDATUMSTANDARDJIS
  2
AcmDatumStdJIS
  3
"AcmSymBB|Product Description: AutoCAD Mechanical 2000|Company: Autodesk"
 90
        0
280
     0
281
     0
  0
CLASS
  1
ACMBOMSTANDARDJIS
  2
AcmBOMStdJIS
  3
"AcmSymBB|Product Description: AutoCAD Mechanical 2000|Company: Autodesk"
 90
        0
280
     0
281
     0
  0
CLASS
  1
ACMSTANDARDANSI
  2
AcmStandardANSI
  3
"AcmSymBB|Product Description: AutoCAD Mechanical 2000|Company: Autodesk"
 90
        0
280
     0
281
     0
  0
CLASS
  1
ACMSURFSTANDARDANSI
  2
AcmSurfTextStdANSI
  3
"AcmSymBB|Product Description: AutoCAD Mechanical 2000|Company: Autodesk"
 90
        0
280
     0
281
     0
  0
CLASS
  1
ACMFCFSTANDARDANSI
  2
AcmFCFStdANSI
  3
"AcmSymBB|Product Description: AutoCAD Mechanical 2000|Company: Autodesk"
 90
        0
280
     0
281
     0
  0
CLASS
  1
ACMWELDSTANDARDANSI
  2
AcmWeldingStdANSI
  3
"AcmSymBB|Product Description: AutoCAD Mechanical 2000|Company: Autodesk"
 90
        0
280
     0
281
     0
  0
CLASS
  1
ACMIDSTANDARDANSI
  2
AcmIdStdANSI
  3
"AcmSymBB|Product Description: AutoCAD Mechanical 2000|Company: Autodesk"
 90
        0
280
     0
281
     0
  0
CLASS
  1
ACMDATUMSTANDARDANSI
  2
AcmDatumStdANSI
  3
"AcmSymBB|Product Description: AutoCAD Mechanical 2000|Company: Autodesk"
 90
        0
280
     0
281
     0
  0
CLASS
  1
ACMBOMSTANDARDANSI
  2
AcmBOMStdANSI
  3
"AcmSymBB|Product Description: AutoCAD Mechanical 2000|Company: Autodesk"
 90
        0
280
     0
281
     0
  0
CLASS
  1
ACMSTANDARDBSI
  2
AcmStandardBSI
  3
"AcmSymBB|Product Description: AutoCAD Mechanical 2000|Company: Autodesk"
 90
        0
280
     0
281
     0
  0
CLASS
  1
ACMSURFSTANDARDBSI
  2
AcmSurfTextStdBSI
  3
"AcmSymBB|Product Description: AutoCAD Mechanical 2000|Company: Autodesk"
 90
        0
280
     0
281
     0
  0
CLASS
  1
ACMFCFSTANDARDBSI
  2
AcmFCFStdBSI
  3
"AcmSymBB|Product Description: AutoCAD Mechanical 2000|Company: Autodesk"
 90
        0
280
     0
281
     0
  0
CLASS
  1
ACMWELDSTANDARDBSI
  2
AcmWeldingStdBSI
  3
"AcmSymBB|Product Description: AutoCAD Mechanical 2000|Company: Autodesk"
 90
        0
280
     0
281
     0
  0
CLASS
  1
ACMIDSTANDARDBSI
  2
AcmIdStdBSI
  3
"AcmSymBB|Product Description: AutoCAD Mechanical 2000|Company: Autodesk"
 90
        0
280
     0
281
     0
  0
CLASS
  1
ACMDATUMSTANDARDBSI
  2
AcmDatumStdBSI
  3
"AcmSymBB|Product Description: AutoCAD Mechanical 2000|Company: Autodesk"
 90
        0
280
     0
281
     0
  0
CLASS
  1
ACMBOMSTANDARDBSI
  2
AcmBOMStdBSI
  3
"AcmSymBB|Product Description: AutoCAD Mechanical 2000|Company: Autodesk"
 90
        0
280
     0
281
     0
  0
CLASS
  1
LONG_TRANSACTION
  2
AcDbLongTransaction
  3
AutoCAD 2000
 90
        0
280
     0
281
     0
  0
CLASS
  1
LWPOLYLINE
  2
AcDbPolyline
  3
AutoCAD 2000
 90
        0
280
     0
281
     1
  0
CLASS
  1
HATCH
  2
AcDbHatch
  3
AutoCAD 2000
 90
        0
280
     0
281
     1
  0
CLASS
  1
XRECORD
  2
AcDbXrecord
  3
AutoCAD 2000
 90
        0
280
     0
281
     0
  0
ENDSEC
  0
SECTION
  2
TABLES
  0
TABLE
  2
VPORT
  5
8
330
0
100
AcDbSymbolTable
 70
     3
  0
VPORT
  5
50D4
330
8
100
AcDbSymbolTableRecord
100
AcDbViewportTableRecord
  2
*ACTIVE
 70
     0
 10
0.0
 20
0.0
 11
1.0
 21
1.0
 12
-23.81695035656741
 22
-3.601167588234069
 13
0.0
 23
0.0
 14
2.5
 24
2.5
 15
10.0
 25
10.0
 16
0.0
 26
0.0
 36
1.0
 17
0.0
 27
0.0
 37
0.0
 40
65.75918893906656
 41
1.56570841889117
 42
50.0
 43
0.0
 44
0.0
 50
0.0
 51
0.0
 71
     0
 72
   100
 73
     1
 74
     3
 75
     0
 76
     0
 77
     0
 78
     0
  0
ENDTAB
  0
TABLE
  2
LTYPE
  5
5
330
0
100
AcDbSymbolTable
 70
    10
  0
LTYPE
  5
14
330
5
100
AcDbSymbolTableRecord
100
AcDbLinetypeTableRecord
  2
BYBLOCK
 70
     0
  3

 72
    65
 73
     0
 40
0.0
  0
LTYPE
  5
15
330
5
100
AcDbSymbolTableRecord
100
AcDbLinetypeTableRecord
  2
BYLAYER
 70
     0
  3

 72
    65
 73
     0
 40
0.0
  0
LTYPE
  5
16
330
5
100
AcDbSymbolTableRecord
100
AcDbLinetypeTableRecord
  2
CONTINUOUS
 70
     0
  3
Solid line
 72
    65
 73
     0
 40
0.0
  0
LTYPE
  5
4B
330
5
100
AcDbSymbolTableRecord
100
AcDbLinetypeTableRecord
  2
AM_ISO02W050
 70
     0
  3
__ __ __ __ __ __ __ __ __ __ __ __ __ __ __
 72
    65
 73
     2
 40
7.5
 49
6.0
 74
     0
 49
-1.5
 74
     0
  0
LTYPE
  5
4C
330
5
100
AcDbSymbolTableRecord
100
AcDbLinetypeTableRecord
  2
AM_ISO08W050
 70
     0
  3
____ . ____ . ____ . ____ . ____ . ____ . ____
 72
    65
 73
     4
 40
18.0
 49
12.0
 74
     0
 49
-1.5
 74
     0
 49
3.0
 74
     0
 49
-1.5
 74
     0
  0
LTYPE
  5
4D
330
5
100
AcDbSymbolTableRecord
100
AcDbLinetypeTableRecord
  2
AM_ISO09W050
 70
     0
  3
_____ . . _____ . . _____ . . ____ .. ____
 72
    65
 73
     6
 40
22.5
 49
12.0
 74
     0
 49
-1.5
 74
     0
 49
3.0
 74
     0
 49
-1.5
 74
     0
 49
3.0
 74
     0
 49
-1.5
 74
     0
  0
LTYPE
  5
4E
330
5
100
AcDbSymbolTableRecord
100
AcDbLinetypeTableRecord
  2
AMCONSTR
 70
     0
  3
_______________________
 72
    65
 73
     2
 40
9999.0
 49
9999.0
 74
     0
 49
0.0
 74
     0
  0
LTYPE
  5
4F
330
5
100
AcDbSymbolTableRecord
100
AcDbLinetypeTableRecord
  2
AM_ISO02W050X2
 70
     0
  3
 _ _ _ _ _ _ _ _ _ _ _ _
 72
    65
 73
     2
 40
3.75
 49
3.0
 74
     0
 49
-0.75
 74
     0
  0
LTYPE
  5
50
330
5
100
AcDbSymbolTableRecord
100
AcDbLinetypeTableRecord
  2
AM_ISO08W050X2
 70
     0
  3
__ . __ . __ . __ . __ . __
 72
    65
 73
     4
 40
9.0
 49
6.0
 74
     0
 49
-0.75
 74
     0
 49
1.5
 74
     0
 49
-0.75
 74
     0
  0
LTYPE
  5
53
330
5
100
AcDbSymbolTableRecord
100
AcDbLinetypeTableRecord
  2
AMZIGZAG
 70
     0
  3
/\/-/\/-/\/-/\/-/\/-/\/
 72
    65
 73
     2
 40
11.00009999999999
 49
0.0001
 74
     4
 75
   135
340
52
 46
0.04
 50
0.0
 44
0.0
 45
0.0
 49
-11.0
 74
     0
  0
LTYPE
  5
166
330
5
100
AcDbSymbolTableRecord
100
AcDbLinetypeTableRecord
  2
ACJISTGL
 70
     0
  3
_ _ _ _ _
 72
    65
 73
     2
 40
3.0
 49
2.0
 74
     0
 49
-1.0
 74
     0
  0
LTYPE
  5
26A
330
5
100
AcDbSymbolTableRecord
100
AcDbLinetypeTableRecord
  2
ACJISTGB
 70
     0
  3
__ . . __ . .
 72
    65
 73
     6
 40
9.0
 49
4.0
 74
     0
 49
-1.0
 74
     0
 49
1.0
 74
     0
 49
-1.0
 74
     0
 49
1.0
 74
     0
 49
-1.0
 74
     0
  0
ENDTAB
  0
TABLE
  2
LAYER
  5
2
330
0
100
AcDbSymbolTable
 70
     7
  0
LAYER
  5
10
330
2
100
AcDbSymbolTableRecord
100
AcDbLayerTableRecord
  2
0
 70
     0
 62
     7
  6
CONTINUOUS
  0
LAYER
  5
3F9
330
2
100
AcDbSymbolTableRecord
100
AcDbLayerTableRecord
  2
AM_0
 70
     0
 62
     7
  6
CONTINUOUS
  0
LAYER
  5
BDD
330
2
100
AcDbSymbolTableRecord
100
AcDbLayerTableRecord
  2
AM_11
 70
     0
 62
     3
  6
AM_ISO09W050
  0
LAYER
  5
BDE
330
2
100
AcDbSymbolTableRecord
100
AcDbLayerTableRecord
  2
AM_7
 70
     0
 62
     4
  6
AM_ISO08W050
  0
LAYER
  5
BDF
330
2
100
AcDbSymbolTableRecord
100
AcDbLayerTableRecord
  2
AM_5
 70
     0
 62
     3
  6
CONTINUOUS
  0
LAYER
  5
BE0
330
2
100
AcDbSymbolTableRecord
100
AcDbLayerTableRecord
  2
DEFPOINTS
 70
     0
 62
     7
  6
CONTINUOUS
  0
LAYER
  5
14FF
330
2
100
AcDbSymbolTableRecord
100
AcDbLayerTableRecord
  2
AM_6
 70
     0
 62
     2
  6
CONTINUOUS
  0
ENDTAB
  0
TABLE
  2
STYLE
  5
3
330
0
100
AcDbSymbolTable
 70
     5
  0
STYLE
  5
11
330
3
100
AcDbSymbolTableRecord
100
AcDbTextStyleTableRecord
  2
STANDARD
 70
     0
 40
0.0
 41
1.0
 50
0.0
 71
     0
 42
2.5
  3
simplex.shx
  4
EXTFONT.SHX
  0
STYLE
  5
52
330
3
100
AcDbSymbolTableRecord
100
AcDbTextStyleTableRecord
  2

 70
     1
 40
0.0
 41
1.0
 50
0.0
 71
     0
 42
2.5
  3
ltypeshp.shx
  4

  0
STYLE
  5
6B
330
3
100
AcDbSymbolTableRecord
100
AcDbTextStyleTableRecord
  2
ASAMI
 70
     0
 40
0.0
 41
1.0
 50
0.0
 71
     0
 42
2.5
  3
simplex.shx
  4
EXTFONT.SHX
  0
STYLE
  5
262
330
3
100
AcDbSymbolTableRecord
100
AcDbTextStyleTableRecord
  2
ACJISTS
 70
     0
 40
1.0
 41
1.0
 50
0.0
 71
     0
 42
2.5
  3
simplex.shx
  4
bigfont.shx
  0
STYLE
  5
269
330
3
100
AcDbSymbolTableRecord
100
AcDbTextStyleTableRecord
  2
ACJISGDT
 70
     0
 40
0.0
 41
1.0
 50
0.0
 71
     0
 42
2.5
  3
amgdtans.shx
  4

  0
ENDTAB
  0
TABLE
  2
VIEW
  5
6
330
0
100
AcDbSymbolTable
 70
     0
  0
ENDTAB
  0
TABLE
  2
UCS
  5
7
330
0
100
AcDbSymbolTable
 70
     0
  0
ENDTAB
  0
TABLE
  2
APPID
  5
9
330
0
100
AcDbSymbolTable
 70
    14
  0
APPID
  5
12
330
9
100
AcDbSymbolTableRecord
100
AcDbRegAppTableRecord
  2
ACAD
 70
     0
  0
APPID
  5
30
330
9
100
AcDbSymbolTableRecord
100
AcDbRegAppTableRecord
  2
MCAD_NO_VIS
 70
     0
  0
APPID
  5
31
330
9
100
AcDbSymbolTableRecord
100
AcDbRegAppTableRecord
  2
ACAD_TEMP_GRAPHIC
 70
     0
  0
APPID
  5
2C2
330
9
100
AcDbSymbolTableRecord
100
AcDbRegAppTableRecord
  2
GENIUS_GENDTOL_13
 70
     0
  0
APPID
  5
339
330
9
100
AcDbSymbolTableRecord
100
AcDbRegAppTableRecord
  2
GENIUS_GENODEF_13
 70
     0
  0
APPID
  5
33A
330
9
100
AcDbSymbolTableRecord
100
AcDbRegAppTableRecord
  2
GENIUS_GENOBJ-N-RSBK_13
 70
     0
  0
APPID
  5
33B
330
9
100
AcDbSymbolTableRecord
100
AcDbRegAppTableRecord
  2
GENIUS_GENOBJ-N-LIB_13
 70
     0
  0
APPID
  5
33C
330
9
100
AcDbSymbolTableRecord
100
AcDbRegAppTableRecord
  2
GENIUS_GENSCALE_13
 70
     0
  0
APPID
  5
378
330
9
100
AcDbSymbolTableRecord
100
AcDbRegAppTableRecord
  2
GENIUS_GENDIMSH_14
 70
     0
  0
APPID
  5
BE1
330
9
100
AcDbSymbolTableRecord
100
AcDbRegAppTableRecord
  2
GENIUS_GENFIL_13
 70
     0
  0
APPID
  5
BE2
330
9
100
AcDbSymbolTableRecord
100
AcDbRegAppTableRecord
  2
GENIUS_GENOBJ-N-CHA_13
 70
     0
  0
APPID
  5
151B
330
9
100
AcDbSymbolTableRecord
100
AcDbRegAppTableRecord
  2
DCO15
 70
     0
  0
APPID
  5
1860
330
9
100
AcDbSymbolTableRecord
100
AcDbRegAppTableRecord
  2
GENIUS_GENOBJ-N-CEN_13
 70
     0
  0
APPID
  5
359C
330
9
100
AcDbSymbolTableRecord
100
AcDbRegAppTableRecord
  2
GENIUS_GENOBJ-N-FIL_13
 70
     0
  0
ENDTAB
  0
TABLE
  2
DIMSTYLE
  5
A
330
0
100
AcDbSymbolTable
 70
     8
  0
DIMSTYLE
105
58
102
{ACAD_REACTORS
330
4047
330
42F4
330
4664
330
4E2A
102
}
330
A
100
AcDbSymbolTableRecord
100
AcDbDimStyleTableRecord
  2
AM_JIS
 70
     0
  3

  4
"
  5
OPEN30
  6

  7

 40
0.5
 41
2.5
 42
1.0
 43
12.0
 44
1.0
 45
0.0
 46
0.0
 47
0.1
 48
0.1
140
3.2
141
0.0
142
0.0
143
0.0393701
144
1.0
145
0.0
146
0.71
147
1.5
 71
     0
 72
     0
 73
     0
 74
     0
 75
     0
 76
     0
 77
     3
 78
     8
170
     0
171
     2
172
     1
173
     0
174
     0
175
     0
176
   256
177
   256
178
     2
270
     2
271
     3
272
     3
273
     2
274
     2
340
6B
275
     0
280
     0
281
     0
282
     0
283
     0
284
     0
285
     0
286
     0
287
     3
288
     0
  0
DIMSTYLE
105
5F
330
A
100
AcDbSymbolTableRecord
100
AcDbDimStyleTableRecord
  2
AM_JIS$3
 70
     0
  3

  4
"
  5
OPEN30
  6

  7

 40
0.5
 41
2.5
 42
1.0
 43
10.0
 44
1.0
 45
0.0
 46
0.0
 47
0.1
 48
0.1
140
3.2
141
0.0
142
0.0
143
0.0393701
144
1.0
145
0.0
146
0.71
147
1.5
 71
     0
 72
     0
 73
     0
 74
     1
 75
     0
 76
     0
 77
     3
 78
     8
170
     0
171
     2
172
     0
173
     0
174
     0
175
     0
176
   256
177
   256
178
     2
270
     2
271
     2
272
     3
273
     2
274
     2
340
6B
275
     0
280
     0
281
     0
282
     0
283
     0
284
     0
285
     0
286
     0
287
     0
288
     1
  0
DIMSTYLE
105
60
102
{ACAD_REACTORS
330
4EF6
102
}
330
A
100
AcDbSymbolTableRecord
100
AcDbDimStyleTableRecord
  2
AM_JIS$4
 70
     0
  3

  4
"
  5
OPEN30
  6

  7

 40
0.5
 41
2.5
 42
1.0
 43
10.0
 44
1.0
 45
0.0
 46
0.0
 47
0.1
 48
0.1
140
3.2
141
0.0
142
0.0
143
0.0393701
144
1.0
145
0.0
146
0.71
147
1.5
 71
     0
 72
     0
 73
     0
 74
     1
 75
     0
 76
     0
 77
     3
 78
     8
170
     0
171
     2
172
     0
173
     0
174
     0
175
     0
176
   256
177
   256
178
     2
270
     2
271
     2
272
     3
273
     2
274
     2
340
6B
275
     0
280
     0
281
     0
282
     0
283
     0
284
     0
285
     0
286
     0
287
     0
288
     1
  0
DIMSTYLE
105
61
330
A
100
AcDbSymbolTableRecord
100
AcDbDimStyleTableRecord
  2
AM_JIS$6
 70
     0
  3

  4
"
  5
OPEN30
  6

  7

 40
0.5
 41
2.5
 42
1.0
 43
10.0
 44
1.0
 45
0.0
 46
0.0
 47
0.1
 48
0.1
140
3.2
141
0.0
142
0.0
143
0.0393701
144
1.0
145
0.0
146
0.71
147
1.5
 71
     0
 72
     0
 73
     0
 74
     0
 75
     0
 76
     0
 77
     0
 78
     8
170
     0
171
     2
172
     1
173
     0
174
     0
175
     0
176
   256
177
   256
178
     2
270
     2
271
     2
272
     2
273
     2
274
     2
340
6B
275
     0
280
     0
281
     0
282
     0
283
     0
284
     0
285
     0
286
     0
287
     3
288
     0
  0
DIMSTYLE
105
62
330
A
100
AcDbSymbolTableRecord
100
AcDbDimStyleTableRecord
  2
AM_JIS$7
 70
     0
  3

  4
"
  5
OPEN30
  6

  7

 40
0.5
 41
2.5
 42
1.0
 43
10.0
 44
1.0
 45
0.0
 46
0.0
 47
0.1
 48
0.1
140
3.2
141
0.0
142
0.0
143
0.0393701
144
1.0
145
0.0
146
0.71
147
1.5
 71
     0
 72
     0
 73
     0
 74
     0
 75
     0
 76
     0
 77
     3
 78
     8
170
     0
171
     2
172
     1
173
     0
174
     0
175
     0
176
   256
177
   256
178
     2
270
     2
271
     2
272
     3
273
     2
274
     2
340
6B
275
     0
280
     0
281
     0
282
     0
283
     0
284
     0
285
     0
286
     0
287
     3
288
     0
  0
DIMSTYLE
105
63
330
A
100
AcDbSymbolTableRecord
100
AcDbDimStyleTableRecord
  2
AM_JIS$SF
 70
     0
  3

  4
"
  5
OPEN30
  6

  7

 40
0.5
 41
2.5
 42
1.0
 43
10.0
 44
1.0
 45
0.0
 46
0.0
 47
0.1
 48
0.1
140
3.2
141
0.0
142
0.0
143
0.0393701
144
1.0
145
0.0
146
0.71
147
1.5
 71
     0
 72
     0
 73
     0
 74
     0
 75
     1
 76
     1
 77
     3
 78
     8
170
     0
171
     2
172
     1
173
     0
174
     0
175
     0
176
   256
177
   256
178
     2
270
     2
271
     2
272
     2
273
     2
274
     2
340
6B
275
     0
280
     0
281
     0
282
     0
283
     0
284
     0
285
     0
286
     0
287
     3
288
     0
  0
DIMSTYLE
105
68
330
A
100
AcDbSymbolTableRecord
100
AcDbDimStyleTableRecord
  2
AM_JIS$SH
 70
     0
  3

  4
"
  5

  6
GENAXEH
  7
OPEN30
 40
0.5
 41
2.5
 42
1.0
 43
10.0
 44
1.0
 45
0.0
 46
0.0
 47
0.1
 48
0.1
140
3.2
141
0.0
142
0.0
143
0.0393701
144
2.0
145
0.0
146
0.71
147
1.5
 71
     0
 72
     0
 73
     0
 74
     0
 75
     1
 76
     1
 77
     3
 78
     8
170
     0
171
     2
172
     1
173
     1
174
     0
175
     0
176
   256
177
   256
178
     2
270
     2
271
     2
272
     2
273
     2
274
     2
340
6B
275
     0
280
     0
281
     0
282
     0
283
     0
284
     0
285
     0
286
     0
287
     3
288
     0
  0
DIMSTYLE
105
B34
330
A
100
AcDbSymbolTableRecord
100
AcDbDimStyleTableRecord
  2
AM_JIS$2
 70
     0
  3

  4
"
  5
OPEN30
  6

  7

 40
0.5
 41
2.5
 42
1.0
 43
12.0
 44
1.0
 45
0.0
 46
0.0
 47
0.1
 48
0.1
140
3.2
141
0.0
142
0.0
143
0.0393701
144
1.0
145
0.0
146
0.71
147
1.5
 71
     0
 72
     0
 73
     0
 74
     0
 75
     0
 76
     0
 77
     3
 78
     8
170
     0
171
     2
172
     1
173
     0
174
     0
175
     0
176
   256
177
   256
178
     2
270
     2
271
     3
272
     3
273
     2
274
     2
340
6B
275
     0
280
     0
281
     0
282
     0
283
     0
284
     0
285
     0
286
     0
287
     3
288
     0
  0
ENDTAB
  0
TABLE
  2
BLOCK_RECORD
  5
1
330
0
100
AcDbSymbolTable
 70
    10
  0
BLOCK_RECORD
  5
1F
102
{ACAD_XDICTIONARY
360
74
102
}
330
1
100
AcDbSymbolTableRecord
100
AcDbBlockTableRecord
  2
*MODEL_SPACE
  0
BLOCK_RECORD
  5
101
102
{ACAD_XDICTIONARY
360
50FD
102
}
330
1
100
AcDbSymbolTableRecord
100
AcDbBlockTableRecord
  2
*PAPER_SPACE
  0
BLOCK_RECORD
  5
59
330
1
100
AcDbSymbolTableRecord
100
AcDbBlockTableRecord
  2
_OPEN30
  0
BLOCK_RECORD
  5
64
330
1
100
AcDbSymbolTableRecord
100
AcDbBlockTableRecord
  2
GENAXEH
  0
BLOCK_RECORD
  5
4048
330
1
100
AcDbSymbolTableRecord
100
AcDbBlockTableRecord
  2
*D5
  0
BLOCK_RECORD
  5
42F5
330
1
100
AcDbSymbolTableRecord
100
AcDbBlockTableRecord
  2
*D6
  0
BLOCK_RECORD
  5
4665
330
1
100
AcDbSymbolTableRecord
100
AcDbBlockTableRecord
  2
*D7
  0
BLOCK_RECORD
  5
4E2B
330
1
100
AcDbSymbolTableRecord
100
AcDbBlockTableRecord
  2
*D8
  0
BLOCK_RECORD
  5
4EF7
330
1
100
AcDbSymbolTableRecord
100
AcDbBlockTableRecord
  2
*D9
  0
ENDTAB
  0
ENDSEC
  0
SECTION
  2
BLOCKS
  0
BLOCK
  5
20
330
1F
100
AcDbEntity
  8
0
100
AcDbBlockBegin
  2
*MODEL_SPACE
 70
     0
 10
0.0
 20
0.0
 30
0.0
  3
*MODEL_SPACE
  1

  0
ENDBLK
  5
21
330
1F
100
AcDbEntity
  8
0
100
AcDbBlockEnd
  0
BLOCK
  5
103
330
101
100
AcDbEntity
 67
     1
  8
0
100
AcDbBlockBegin
  2
*PAPER_SPACE
 70
     0
 10
0.0
 20
0.0
 30
0.0
  3
*PAPER_SPACE
  1

  0
ENDBLK
  5
104
330
101
100
AcDbEntity
 67
     1
  8
0
100
AcDbBlockEnd
  0
BLOCK
  5
5D
330
59
100
AcDbEntity
  8
0
100
AcDbBlockBegin
  2
_OPEN30
 70
     0
 10
0.0
 20
0.0
 30
0.0
  3
_OPEN30
  1

  0
LINE
  5
5A
330
59
100
AcDbEntity
  8
0
 62
     0
100
AcDbLine
 10
-1.0
 20
0.26794919
 30
0.0
 11
0.0
 21
0.0
 31
0.0
  0
LINE
  5
5B
330
59
100
AcDbEntity
  8
0
 62
     0
100
AcDbLine
 10
0.0
 20
0.0
 30
0.0
 11
-1.0
 21
-0.26794919
 31
0.0
  0
LINE
  5
5C
330
59
100
AcDbEntity
  8
0
 62
     0
100
AcDbLine
 10
0.0
 20
0.0
 30
0.0
 11
-1.0
 21
0.0
 31
0.0
  0
ENDBLK
  5
5E
330
59
100
AcDbEntity
  8
0
100
AcDbBlockEnd
  0
BLOCK
  5
66
330
64
100
AcDbEntity
  8
0
100
AcDbBlockBegin
  2
GENAXEH
 70
     0
 10
0.0
 20
0.0
 30
0.0
  3
GENAXEH
  1

  0
LINE
  5
65
330
64
100
AcDbEntity
  8
0
100
AcDbLine
 10
-1.0
 20
0.0
 30
0.0
 11
1.0
 21
0.0
 31
0.0
  0
ENDBLK
  5
67
330
64
100
AcDbEntity
  8
0
100
AcDbBlockEnd
  0
BLOCK
  5
4052
330
4048
100
AcDbEntity
  8
0
100
AcDbBlockBegin
  2
*D5
 70
     1
 10
0.0
 20
0.0
 30
0.0
  3
*D5
  1

  0
LINE
  5
4ECD
330
4048
100
AcDbEntity
  8
AM_5
100
AcDbLine
 10
-49.99999999999999
 20
-1.700000000000046
 30
0.0
 11
-49.99999999999999
 21
-15.00000099999995
 31
0.0
  0
LINE
  5
4ECE
330
4048
100
AcDbEntity
  8
AM_5
100
AcDbLine
 10
0.0000000000000006
 20
-0.5000000000000005
 30
0.0
 11
-0.0000000000000003
 21
-15.00000099999995
 31
0.0
  0
LINE
  5
4ECF
330
4048
100
AcDbEntity
  8
AM_5
100
AcDbLine
 10
-48.74999999999999
 20
-14.50000099999995
 30
0.0
 11
-1.25
 21
-14.50000099999995
 31
0.0
  0
INSERT
  5
4ED0
330
4048
100
AcDbEntity
  8
AM_5
100
AcDbBlockReference
  2
_OPEN30
 10
-49.99999999999999
 20
-14.50000099999995
 30
0.0
 41
1.25
 42
1.25
 43
1.25
 50
180.0
  0
INSERT
  5
4ED1
330
4048
100
AcDbEntity
  8
AM_5
100
AcDbBlockReference
  2
_OPEN30
 10
-0.0000000000000002
 20
-14.50000099999995
 30
0.0
 41
1.25
 42
1.25
 43
1.25
  0
MTEXT
  5
4ED2
330
4048
100
AcDbEntity
  8
AM_5
 62
     2
100
AcDbMText
 10
-24.99999999999999
 20
-12.95000099999995
 30
0.0
 40
1.6
 41
0.0
 71
     5
 72
     1
  1
50
  7
ASAMI
1001
ACAD
1000
MTEXTBEGIN
1070
    73
1070
     1
1070
    44
1040
1.0
1070
    74
1070
     0
1000
MTEXTEND
  0
POINT
  5
4ED3
330
4048
100
AcDbEntity
  8
DEFPOINTS
 62
     0
100
AcDbPoint
 10
-49.99999999999999
 20
-1.200000000000046
 30
0.0
  0
POINT
  5
4ED4
330
4048
100
AcDbEntity
  8
DEFPOINTS
 62
     0
100
AcDbPoint
 10
0.0000000000000007
 20
-0.0000000000000005
 30
0.0
  0
POINT
  5
4ED5
330
4048
100
AcDbEntity
  8
DEFPOINTS
 62
     0
100
AcDbPoint
 10
-0.0000000000000002
 20
-14.50000099999995
 30
0.0
  0
ENDBLK
  5
4053
330
4048
100
AcDbEntity
  8
0
100
AcDbBlockEnd
  0
BLOCK
  5
42FF
330
42F5
100
AcDbEntity
  8
0
100
AcDbBlockBegin
  2
*D6
 70
     1
 10
0.0
 20
0.0
 30
0.0
  3
*D6
  1

  0
LINE
  5
4EE1
330
42F5
100
AcDbEntity
  8
AM_5
100
AcDbLine
 10
-0.35
 20
0.85
 30
0.0
 11
8.841627940564762
 21
0.8499999999999973
 31
0.0
  0
LINE
  5
4EE2
330
42F5
100
AcDbEntity
  8
AM_5
100
AcDbLine
 10
-0.3499999999999983
 20
-0.85
 30
0.0
 11
8.841627940564762
 21
-0.8500000000000028
 31
0.0
  0
LINE
  5
4EE3
330
42F5
100
AcDbEntity
  8
AM_5
100
AcDbLine
 10
8.341627940564762
 20
2.099999999999997
 30
0.0
 11
8.341627940564762
 21
3.349999999999997
 31
0.0
  0
LINE
  5
4EE4
330
42F5
100
AcDbEntity
  8
AM_5
100
AcDbLine
 10
8.341627940564762
 20
-2.100000000000002
 30
0.0
 11
8.341627940564761
 21
-9.345238095238096
 31
0.0
  0
LINE
  5
4EE5
330
42F5
100
AcDbEntity
  8
AM_5
100
AcDbLine
 10
8.341627940564762
 20
0.8499999999999975
 30
0.0
 11
8.341627940564762
 21
-0.8500000000000026
 31
0.0
  0
INSERT
  5
4EE6
330
42F5
100
AcDbEntity
  8
AM_5
100
AcDbBlockReference
  2
_OPEN30
 10
8.341627940564762
 20
0.8499999999999975
 30
0.0
 41
1.25
 42
1.25
 43
1.25
 50
270.0
  0
INSERT
  5
4EE7
330
42F5
100
AcDbEntity
  8
AM_5
100
AcDbBlockReference
  2
_OPEN30
 10
8.341627940564762
 20
-0.8500000000000026
 30
0.0
 41
1.25
 42
1.25
 43
1.25
 50
90.0
  0
MTEXT
  5
4EE8
330
42F5
100
AcDbEntity
  8
AM_5
 62
     2
100
AcDbMText
 10
6.791627940564762
 20
-6.347619047619048
 30
0.0
 40
1.6
 41
0.0
 71
     5
 72
     1
  1
%%c1.7
  7
ASAMI
 11
0.0000000000000001
 21
1.0
 31
0.0
1001
ACAD
1000
MTEXTBEGIN
1070
    73
1070
     1
1070
    44
1040
1.0
1070
    74
1070
     0
1000
MTEXTEND
  0
POINT
  5
4EE9
330
42F5
100
AcDbEntity
  8
DEFPOINTS
 62
     0
100
AcDbPoint
 10
-0.85
 20
0.85
 30
0.0
  0
POINT
  5
4EEA
330
42F5
100
AcDbEntity
  8
DEFPOINTS
 62
     0
100
AcDbPoint
 10
-0.8499999999999982
 20
-0.85
 30
0.0
  0
POINT
  5
4EEB
330
42F5
100
AcDbEntity
  8
DEFPOINTS
 62
     0
100
AcDbPoint
 10
8.341627940564762
 20
-0.8500000000000026
 30
0.0
  0
ENDBLK
  5
4300
330
42F5
100
AcDbEntity
  8
0
100
AcDbBlockEnd
  0
BLOCK
  5
4671
330
4665
100
AcDbEntity
  8
0
100
AcDbBlockBegin
  2
*D7
 70
     1
 10
0.0
 20
0.0
 30
0.0
  3
*D7
  1

  0
LINE
  5
471D
330
4665
100
AcDbEntity
  8
AM_5
100
AcDbLine
 10
-50.19999999999999
 20
1.499999999999921
 30
0.0
 11
-59.55619512995955
 21
1.499999999999924
 31
0.0
  0
LINE
  5
471E
330
4665
100
AcDbEntity
  8
AM_5
100
AcDbLine
 10
-50.19999999999999
 20
-1.500000000000044
 30
0.0
 11
-59.55619512995955
 21
-1.500000000000041
 31
0.0
  0
LINE
  5
471F
330
4665
100
AcDbEntity
  8
AM_5
100
AcDbLine
 10
-59.05619512995954
 20
2.749999999999924
 30
0.0
 11
-59.05619512995954
 21
3.999999999999923
 31
0.0
  0
LINE
  5
4720
330
4665
100
AcDbEntity
  8
AM_5
100
AcDbLine
 10
-59.05619512995954
 20
-2.750000000000041
 30
0.0
 11
-59.05619512995954
 21
-8.014285714285756
 31
0.0
  0
LINE
  5
4721
330
4665
100
AcDbEntity
  8
AM_5
100
AcDbLine
 10
-59.05619512995954
 20
1.499999999999923
 30
0.0
 11
-59.05619512995954
 21
-1.500000000000042
 31
0.0
  0
INSERT
  5
4722
330
4665
100
AcDbEntity
  8
AM_5
100
AcDbBlockReference
  2
_OPEN30
 10
-59.05619512995954
 20
1.499999999999923
 30
0.0
 41
1.25
 42
1.25
 43
1.25
 50
270.0
  0
INSERT
  5
4723
330
4665
100
AcDbEntity
  8
AM_5
100
AcDbBlockReference
  2
_OPEN30
 10
-59.05619512995954
 20
-1.500000000000042
 30
0.0
 41
1.25
 42
1.25
 43
1.25
 50
90.0
  0
MTEXT
  5
4724
330
4665
100
AcDbEntity
  8
AM_5
 62
     2
100
AcDbMText
 10
-60.60619512995955
 20
-6.007142857142908
 30
0.0
 40
1.6
 41
0.0
 71
     5
 72
     1
  1
%%c3
  7
ASAMI
 11
0.0000000000000001
 21
1.0
 31
0.0
1001
ACAD
1000
MTEXTBEGIN
1070
    73
1070
     1
1070
    44
1040
1.0
1070
    74
1070
     0
1000
MTEXTEND
  0
POINT
  5
4725
330
4665
100
AcDbEntity
  8
DEFPOINTS
 62
     0
100
AcDbPoint
 10
-49.69999999999999
 20
1.499999999999921
 30
0.0
  0
POINT
  5
4726
330
4665
100
AcDbEntity
  8
DEFPOINTS
 62
     0
100
AcDbPoint
 10
-49.69999999999998
 20
-1.500000000000044
 30
0.0
  0
POINT
  5
4727
330
4665
100
AcDbEntity
  8
DEFPOINTS
 62
     0
100
AcDbPoint
 10
-59.05619512995954
 20
-1.500000000000042
 30
0.0
  0
ENDBLK
  5
4672
330
4665
100
AcDbEntity
  8
0
100
AcDbBlockEnd
  0
BLOCK
  5
4E37
330
4E2B
100
AcDbEntity
  8
0
100
AcDbBlockBegin
  2
*D8
 70
     1
 10
0.0
 20
0.0
 30
0.0
  3
*D8
  1

  0
LINE
  5
4ED6
330
4E2B
100
AcDbEntity
  8
AM_5
100
AcDbLine
 10
0.0000000000000022
 20
-0.5000000000000011
 30
0.0
 11
0.0000000000000017
 21
-9.000000999999956
 31
0.0
  0
LINE
  5
4ED7
330
4E2B
100
AcDbEntity
  8
AM_5
100
AcDbLine
 10
-2.550000000000208
 20
-1.349999999999893
 30
0.0
 11
-2.550000000000209
 21
-9.000000999999956
 31
0.0
  0
LINE
  5
4ED8
330
4E2B
100
AcDbEntity
  8
AM_5
100
AcDbLine
 10
1.250000000000001
 20
-8.500000999999956
 30
0.0
 11
2.500000000000001
 21
-8.500000999999956
 31
0.0
  0
LINE
  5
4ED9
330
4E2B
100
AcDbEntity
  8
AM_5
100
AcDbLine
 10
-3.800000000000209
 20
-8.500000999999956
 30
0.0
 11
-11.42619047619068
 21
-8.500000999999956
 31
0.0
  0
LINE
  5
4EDA
330
4E2B
100
AcDbEntity
  8
AM_5
100
AcDbLine
 10
0.0000000000000017
 20
-8.500000999999956
 30
0.0
 11
-2.550000000000209
 21
-8.500000999999956
 31
0.0
  0
INSERT
  5
4EDB
330
4E2B
100
AcDbEntity
  8
AM_5
100
AcDbBlockReference
  2
_OPEN30
 10
0.0000000000000017
 20
-8.500000999999956
 30
0.0
 41
1.25
 42
1.25
 43
1.25
 50
180.0
  0
INSERT
  5
4EDC
330
4E2B
100
AcDbEntity
  8
AM_5
100
AcDbBlockReference
  2
_OPEN30
 10
-2.550000000000209
 20
-8.500000999999956
 30
0.0
 41
1.25
 42
1.25
 43
1.25
  0
MTEXT
  5
4EDD
330
4E2B
100
AcDbEntity
  8
AM_5
 62
     2
100
AcDbMText
 10
-8.238095238095446
 20
-6.950000999999956
 30
0.0
 40
1.6
 41
0.0
 71
     5
 72
     1
  1
2.55
  7
ASAMI
1001
ACAD
1000
MTEXTBEGIN
1070
    73
1070
     1
1070
    44
1040
1.0
1070
    74
1070
     0
1000
MTEXTEND
  0
POINT
  5
4EDE
330
4E2B
100
AcDbEntity
  8
DEFPOINTS
 62
     0
100
AcDbPoint
 10
0.0000000000000022
 20
-0.0000000000000011
 30
0.0
  0
POINT
  5
4EDF
330
4E2B
100
AcDbEntity
  8
DEFPOINTS
 62
     0
100
AcDbPoint
 10
-2.550000000000208
 20
-0.8499999999998937
 30
0.0
  0
POINT
  5
4EE0
330
4E2B
100
AcDbEntity
  8
DEFPOINTS
 62
     0
100
AcDbPoint
 10
-2.550000000000209
 20
-8.500000999999956
 30
0.0
  0
ENDBLK
  5
4E38
330
4E2B
100
AcDbEntity
  8
0
100
AcDbBlockEnd
  0
BLOCK
  5
4EFD
330
4EF7
100
AcDbEntity
  8
0
100
AcDbBlockBegin
  2
*D9
 70
     1
 10
0.0
 20
0.0
 30
0.0
  3
*D9
  1

  0
LINE
  5
50FF
330
4EF7
100
AcDbEntity
  8
AM_5
100
AcDbLine
 10
3.881629462627534
 20
-10.2775809091568
 30
0.0
 11
0.0272960239723363
 21
-1.895057157528519
 31
0.0
  0
MTEXT
  5
5100
330
4EF7
100
AcDbEntity
  8
AM_5
 62
     2
100
AcDbMText
 10
3.623826740708193
 20
-6.006639398823406
 30
0.0
 40
1.6
 41
0.0
 71
     5
 72
     1
  1
R0.85
  7
ASAMI
 11
0.4177600114155311
 21
-0.9085574130797102
 31
0.0
  0
LINE
  5
5101
330
4EF7
100
AcDbEntity
  8
AM_5
100
AcDbLine
 10
-0.8500000000002787
 20
0.0129134099388718
 30
0.0
 11
-0.4949039902970776
 21
-0.7593603911788815
 31
0.0
  0
INSERT
  5
5102
330
4EF7
100
AcDbEntity
  8
AM_5
100
AcDbBlockReference
  2
_OPEN30
 10
-0.4949039902970776
 20
-0.7593603911788815
 30
0.0
 41
1.25
 42
1.25
 43
1.25
 50
114.6932482097938
  0
POINT
  5
5103
330
4EF7
100
AcDbEntity
  8
DEFPOINTS
 62
     0
100
AcDbPoint
 10
-0.4949039902970776
 20
-0.7593603911788815
 30
0.0
  0
POINT
  5
5104
330
4EF7
100
AcDbEntity
  8
DEFPOINTS
 62
     0
100
AcDbPoint
 10
-0.8500000000002787
 20
0.0129134099388718
 30
0.0
  0
ENDBLK
  5
4EFE
330
4EF7
100
AcDbEntity
  8
0
100
AcDbBlockEnd
  0
ENDSEC
  0
SECTION
  2
ENTITIES
  0
TEXT
  5
1500
330
1F
100
AcDbEntity
  8
AM_6
100
AcDbText
 10
-35.53571428571427
 20
-25.75000099999995
 30
0.0
 40
2.5
  1
S-SSB2017
 72
     4
 11
-24.99999999999998
 21
-24.50000099999995
 31
0.0
100
AcDbText
  0
LINE
  5
3EE8
330
1F
100
AcDbEntity
  8
AM_7
  6
AM_ISO08W050X2
100
AcDbLine
 10
1.341626940564765
 20
0.0
 30
0.0
 11
-52.05619412995955
 21
-0.0000000000000426
 31
0.0
1001
GENIUS_GENODEF_13
1002
{
1000
HIER
1070
     0
1002
}
1002
{
1000
MANEDIT
1070
     0
1002
}
1002
{
1000
NOSEL
1070
     0
1002
}
1002
{
1000
BEHIND
1070
     0
1002
}
1002
{
1000
REACTOR
1002
}
1001
GENIUS_GENOBJ-N-CEN_13
1002
{
1000
OWNER
1000
GEN
1002
}
  0
DIMENSION
  5
4047
330
1F
100
AcDbEntity
  8
AM_5
100
AcDbDimension
  2
*D5
 10
-0.0000000000000002
 20
-14.50000099999995
 30
0.0
 11
-24.99999999999999
 21
-12.95000099999995
 31
0.0
 70
    32
  1
<>
  3
AM_JIS
100
AcDbAlignedDimension
 13
-49.99999999999999
 23
-1.200000000000046
 33
0.0
 14
0.0000000000000007
 24
-0.0000000000000005
 34
0.0
 50
0.0000000000001132
100
AcDbRotatedDimension
1001
GENIUS_GENDTOL_13
1000

1000
h7
1000

1040
0.0
  0
DIMENSION
  5
42F4
330
1F
100
AcDbEntity
  8
AM_5
100
AcDbDimension
  2
*D6
 10
8.341627940564762
 20
-0.8500000000000026
 30
0.0
 11
6.791627940564762
 21
-6.347619047619048
 31
0.0
 70
    32
  1
%%c<>
  3
AM_JIS
100
AcDbAlignedDimension
 13
-0.85
 23
0.85
 33
0.0
 14
-0.8499999999999982
 24
-0.85
 34
0.0
 50
90.0
100
AcDbRotatedDimension
1001
GENIUS_GENDTOL_13
1000

1000
h7
1000

1040
0.0
  0
SPLINE
  5
44D1
330
1F
100
AcDbEntity
  8
AM_0
100
AcDbSpline
210
0.0
220
0.0
230
1.0
 70
     8
 71
     3
 72
     9
 73
     5
 74
     3
 42
0.0000000001
 43
0.0000000001
 44
0.0000000001
 12
0.5867325161912575
 22
-0.8097808064185491
 32
0.0
 13
-0.8994987856269101
 23
0.4369232594583562
 33
0.0
 40
0.0
 40
0.0
 40
0.0
 40
0.0
 40
0.0761622411268226
 40
0.2268926049062801
 40
0.2268926049062801
 40
0.2268926049062801
 40
0.2268926049062801
 10
-0.7456903642723992
 20
-0.5172418587942276
 30
0.0
 10
-0.730794743147364
 20
-0.537800099140335
 30
0.0
 10
-0.6665406412059416
 20
-0.6113024023152441
 30
0.0
 10
-0.8048060736079579
 20
-0.6637628149883547
 30
0.0
 10
-0.8500000000001993
 20
-0.6418102810410665
 30
0.0
 11
-0.7456903642723992
 21
-0.5172418587942276
 31
0.0
 11
-0.7104771904503052
 21
-0.5847749570708153
 31
0.0
 11
-0.8500000000001993
 21
-0.6418102810410665
 31
0.0
  0
SPLINE
  5
44D2
330
1F
100
AcDbEntity
  8
AM_0
100
AcDbSpline
210
0.0
220
0.0
230
1.0
 70
     8
 71
     3
 72
     8
 73
     4
 74
     2
 42
0.0000000001
 43
0.0000000001
 44
0.0000000001
 12
0.4216926876958761
 22
-0.9067388141818064
 32
0.0
 13
-0.9928045895078732
 23
-0.1197457600589821
 33
0.0
 40
0.0
 40
0.0
 40
0.0
 40
0.0
 40
0.3001213075992699
 40
0.3001213075992699
 40
0.3001213075992699
 40
0.3001213075992699
 10
-0.8500000000001993
 20
0.837086590060452
 30
0.0
 10
-0.8078136797214202
 20
0.7463760438727003
 30
0.0
 10
-0.9097250371272767
 20
0.5945521904755069
 30
0.0
 10
-1.009045640991829
 20
0.5825727724460502
 30
0.0
 11
-0.8500000000001993
 21
0.837086590060452
 31
0.0
 11
-1.009045640991829
 21
0.5825727724460502
 31
0.0
  0
SPLINE
  5
44D3
330
1F
100
AcDbEntity
  8
AM_0
100
AcDbSpline
210
0.0
220
0.0
230
1.0
 70
     8
 71
     3
 72
     8
 73
     4
 74
     2
 42
0.0000000001
 43
0.0000000001
 44
0.0000000001
 12
-0.8789112757303589
 22
0.4769852926391262
 32
0.0
 13
0.9988106394578341
 23
0.0487576302319218
 33
0.0
 40
0.0
 40
0.0
 40
0.0
 40
0.0
 40
0.366766476255997
 40
0.366766476255997
 40
0.366766476255997
 40
0.366766476255997
 10
-0.8887228313156757
 20
0.2361047803044698
 30
0.0
 10
-0.9961745618294379
 20
0.2944188519735325
 30
0.0
 10
-1.131155727210463
 20
0.5766118843695183
 30
0.0
 10
-1.00904564098348
 20
0.5825727724464366
 30
0.0
 11
-0.8887228313156757
 21
0.2361047803044698
 31
0.0
 11
-1.00904564098348
 21
0.5825727724464366
 31
0.0
  0
SPLINE
  5
44D4
330
1F
100
AcDbEntity
  8
AM_0
100
AcDbSpline
210
0.0
220
0.0
230
1.0
 70
     8
 71
     3
 72
     8
 73
     4
 74
     0
 42
0.0000000001
 43
0.0000000001
 40
1.794922859432252
 40
1.794922859432252
 40
1.794922859432252
 40
1.794922859432252
 40
8.217791785374707
 40
8.217791785374707
 40
8.217791785374707
 40
8.217791785374707
 10
-0.8500000000001993
 20
0.837086590060452
 30
0.0
 10
-1.209554908324547
 20
0.8068250993535038
 30
0.0
 10
-1.56164928942131
 20
0.7253422206514655
 30
0.0
 10
-1.909328776856222
 20
0.6135482158963727
 30
0.0
  0
SPLINE
  5
44D5
330
1F
100
AcDbEntity
  8
AM_0
100
AcDbSpline
210
0.0
220
0.0
230
1.0
 70
     8
 71
     3
 72
     8
 73
     4
 74
     0
 42
0.0000000001
 43
0.0000000001
 40
6.513172597598655
 40
6.513172597598655
 40
6.513172597598655
 40
6.513172597598655
 40
17.00040327533524
 40
17.00040327533524
 40
17.00040327533524
 40
17.00040327533524
 10
-0.8500000000001993
 20
-0.6418102810410665
 30
0.0
 10
-1.424851905908187
 20
-0.4980281470835634
 30
0.0
 10
-1.987660081597642
 20
-0.2650970874826191
 30
0.0
 10
-2.550000000000199
 20
-0.0286999394443666
 30
0.0
  0
SPLINE
  5
44D7
330
1F
100
AcDbEntity
  8
AM_0
100
AcDbSpline
210
0.0
220
0.0
230
1.0
 70
     8
 71
     3
 72
     8
 73
     4
 74
     0
 42
0.0000000001
 43
0.0000000001
 40
1.794922859428793
 40
1.794922859428793
 40
1.794922859428793
 40
1.794922859428793
 40
12.18970013411803
 40
12.18970013411803
 40
12.18970013411803
 40
12.18970013411803
 10
-0.8499999999996582
 20
-0.8370865900603165
 30
0.0
 10
-1.431904010987057
 20
-0.7881113642655349
 30
0.0
 10
-1.994267247263955
 20
-0.6049759681968824
 30
0.0
 10
-2.550000000000218
 20
-0.3763179757116887
 30
0.0
  0
LINE
  5
44D9
330
1F
100
AcDbEntity
  8
AM_11
100
AcDbLine
 10
-0.8500000000001993
 20
0.8500000000000964
 30
0.0
 11
-2.550000000000208
 21
0.8500000000000964
 31
0.0
  0
LINE
  5
44DA
330
1F
100
AcDbEntity
  8
AM_11
100
AcDbLine
 10
-2.550000000000208
 20
-0.8499999999998937
 30
0.0
 11
-0.8500000000001993
 21
-0.8499999999998841
 31
0.0
  0
LINE
  5
44DB
330
1F
100
AcDbEntity
  8
AM_0
100
AcDbLine
 10
-0.1190000000002469
 20
-0.0299547956432457
 30
0.0
 11
-0.8887228313156757
 21
0.2361047803044698
 31
0.0
  0
LINE
  5
44DC
330
1F
100
AcDbEntity
  8
AM_0
100
AcDbLine
 10
-0.0000000000002005
 20
0.000000000000116
 30
0.0
 11
-1.00904564098348
 21
0.5825727724464366
 31
0.0
  0
ARC
  5
44DD
330
1F
100
AcDbEntity
  8
AM_0
100
AcDbCircle
 10
-0.0348739551831312
 20
0.0079672902306174
 30
0.0
 40
0.8838012319803848
100
AcDbArc
 50
165.040742132377
 51
216.4600123166023
  0
LINE
  5
44DF
330
1F
100
AcDbEntity
  8
AM_0
100
AcDbLine
 10
-0.8499999999991198
 20
-0.8370865900611283
 30
0.0
 11
-0.8500000000002767
 21
-0.6418102810410665
 31
0.0
  0
ARC
  5
44E1
330
1F
100
AcDbEntity
  8
AM_0
100
AcDbCircle
 10
-0.8499019024827552
 20
0.0129134099366493
 30
0.0
 40
0.85
100
AcDbArc
 50
270.0000000000781
 51
359.1295148788724
  0
ARC
  5
44E2
330
1F
100
AcDbEntity
  8
AM_11
100
AcDbCircle
 10
-0.8500000000002017
 20
0.000000000000116
 30
0.0
 40
0.85
100
AcDbArc
 50
270.0
 51
90.0
  0
ARC
  5
44E3
330
1F
100
AcDbEntity
  8
AM_0
100
AcDbCircle
 10
-0.8226411433145464
 20
0.2283536772180514
 30
0.0
 40
0.7495559523588871
100
AcDbArc
 50
275.8924707062755
 51
339.8416840647174
  0
ARC
  5
44E4
330
1F
100
AcDbEntity
  8
AM_0
100
AcDbCircle
 10
-0.8499019024826777
 20
-0.012913409941751
 30
0.0
 40
0.85
100
AcDbArc
 50
0.8704851212057906
 51
90.0
  0
LINE
  5
44E6
330
1F
100
AcDbEntity
  8
AM_0
100
AcDbLine
 10
-0.0000000000000331
 20
-0.0000000000022234
 30
0.0
 11
-0.1189019024827229
 21
-0.029954795645468
 31
0.0
  0
LINE
  5
44E8
330
1F
100
AcDbEntity
  8
AM_11
100
AcDbLine
 10
-2.550000000000199
 20
-0.8499999999998841
 30
0.0
 11
-2.550000000000199
 21
0.8500000000000964
 31
0.0
  0
ARC
  5
44E9
330
1F
100
AcDbEntity
  8
AM_0
100
AcDbCircle
 10
-4.071436368591101
 20
9.012842778972022
 30
0.0
 40
9.866210661865956
100
AcDbArc
 50
271.4971085271514
 51
282.6586819548235
  0
LINE
  5
44FB
330
1F
100
AcDbEntity
  8
AM_0
100
AcDbLine
 10
-2.550000000000228
 20
0.6355913648256223
 30
0.0
 11
-1.009045640983558
 21
0.5825727724464366
 31
0.0
  0
LINE
  5
44FC
330
1F
100
AcDbEntity
  8
AM_0
100
AcDbLine
 10
-2.550000000000199
 20
-0.0286999394443666
 30
0.0
 11
-2.550000000000199
 21
-0.3763179757116984
 31
0.0
  0
LINE
  5
465E
330
1F
100
AcDbEntity
  8
AM_0
100
AcDbLine
 10
-7.499999999999986
 20
-1.499999999999841
 30
0.0
 11
-49.69999999999998
 21
-1.500000000000044
 31
0.0
  0
LINE
  5
4660
330
1F
100
AcDbEntity
  8
AM_0
100
AcDbLine
 10
-49.69999999999999
 20
1.499999999999921
 30
0.0
 11
-49.69999999999998
 21
-1.500000000000048
 31
0.0
  0
LINE
  5
4661
330
1F
100
AcDbEntity
  8
AM_0
100
AcDbLine
 10
-50.0
 20
1.199999999999919
 30
0.0
 11
-49.99999999999999
 21
-1.200000000000046
 31
0.0
  0
LINE
  5
4663
330
1F
100
AcDbEntity
  8
AM_0
100
AcDbLine
 10
-7.499999999999996
 20
1.500000000000126
 30
0.0
 11
-49.69999999999999
 21
1.499999999999921
 31
0.0
  0
DIMENSION
  5
4664
330
1F
100
AcDbEntity
  8
AM_5
100
AcDbDimension
  2
*D7
 10
-59.05619512995954
 20
-1.500000000000042
 30
0.0
 11
-60.60619512995955
 21
-6.007142857142908
 31
0.0
 70
    32
  1
%%c<>
  3
AM_JIS
100
AcDbAlignedDimension
 13
-49.69999999999999
 23
1.499999999999921
 33
0.0
 14
-49.69999999999998
 24
-1.500000000000044
 34
0.0
 50
270.0
100
AcDbRotatedDimension
1001
GENIUS_GENDTOL_13
1000

1000
h7
1000

1040
0.0
  0
LINE
  5
46F6
330
1F
100
AcDbEntity
  8
AM_0
100
AcDbLine
 10
-49.69999999999999
 20
1.499999999999921
 30
0.0
 11
-50.0
 21
1.199999999999919
 31
0.0
1001
GENIUS_GENFIL_13
1070
     0
1040
0.3
1040
0.3
1040
20.0
1040
0.0
1002
{
1002
}
1001
GENIUS_GENODEF_13
1002
{
1000
HIER
1070
     0
1002
}
1002
{
1000
MANEDIT
1070
     0
1002
}
1002
{
1000
NOSEL
1070
     0
1002
}
1002
{
1000
BEHIND
1070
     0
1002
}
1002
{
1000
REACTOR
1002
}
1001
GENIUS_GENOBJ-N-CHA_13
1002
{
1000
OWNER
1000
GEN
1002
}
  0
LINE
  5
46FB
330
1F
100
AcDbEntity
  8
AM_0
100
AcDbLine
 10
-49.99999999999999
 20
-1.200000000000046
 30
0.0
 11
-49.69999999999998
 21
-1.500000000000044
 31
0.0
1001
GENIUS_GENFIL_13
1070
     0
1040
0.3
1040
0.3
1040
20.0
1040
0.0
1002
{
1002
}
1001
GENIUS_GENODEF_13
1002
{
1000
HIER
1070
     0
1002
}
1002
{
1000
MANEDIT
1070
     0
1002
}
1002
{
1000
NOSEL
1070
     0
1002
}
1002
{
1000
BEHIND
1070
     0
1002
}
1002
{
1000
REACTOR
1002
}
1001
GENIUS_GENOBJ-N-CHA_13
1002
{
1000
OWNER
1000
GEN
1002
}
  0
LINE
  5
475D
330
1F
100
AcDbEntity
  8
AM_0
100
AcDbLine
 10
-7.499999999999995
 20
1.500000000000124
 30
0.0
 11
-7.499999999999986
 21
-1.499999999999844
 31
0.0
  0
LINE
  5
4776
330
1F
100
AcDbEntity
  8
AM_0
100
AcDbLine
 10
-3.813666817248321
 20
0.8500000000000953
 30
0.0
 11
-7.499999999999995
 21
1.500000000000124
 31
0.0
  0
LINE
  5
4778
330
1F
100
AcDbEntity
  8
AM_0
100
AcDbLine
 10
-3.813666817248758
 20
-0.8499999999998946
 30
0.0
 11
-7.499999999999986
 21
-1.499999999999844
 31
0.0
  0
ARC
  5
4883
330
1F
100
AcDbEntity
  8
AM_0
100
AcDbCircle
 10
-4.39567791103147
 20
-6.41127727618161
 30
0.0
 40
7.284564818496719
100
AcDbArc
 50
75.32307837912727
 51
85.41738451922297
  0
ARC
  5
4884
330
1F
100
AcDbEntity
  8
AM_0
100
AcDbCircle
 10
1.30014502569988
 20
8.739982110267305
 30
0.0
 40
9.576711419263856
100
AcDbArc
 50
234.6997477778031
 51
246.2947259917215
  0
POLYLINE
  5
4CAE
330
1F
100
AcDbEntity
  8
AM_0
100
AcDb2dPolyline
 66
     1
 10
0.0
 20
0.0
 30
0.0
  0
VERTEX
  5
4CAF
330
4CAE
100
AcDbEntity
  8
AM_0
100
AcDbVertex
100
AcDb2dVertex
 10
-2.550000000000218
 20
-0.3763179757116887
 30
0.0
 42
0.011418623010518
  0
VERTEX
  5
4CB0
330
4CAE
100
AcDbEntity
  8
AM_0
100
AcDbVertex
100
AcDb2dVertex
 10
-3.060472633806709
 20
-0.3772701276289985
 30
0.0
 42
0.0244127365443984
  0
VERTEX
  5
4CB1
330
4CAE
100
AcDbEntity
  8
AM_0
100
AcDbVertex
100
AcDb2dVertex
 10
-3.244391265511997
 20
-0.3929576486142576
 30
0.0
 42
0.0112036525485219
  0
VERTEX
  5
4CB2
330
4CAE
100
AcDbEntity
  8
AM_0
100
AcDbVertex
100
AcDb2dVertex
 10
-3.614784005917907
 20
-0.4513307389594769
 30
0.0
 42
0.0258724796968456
  0
VERTEX
  5
4CB3
330
4CAE
100
AcDbEntity
  8
AM_0
100
AcDbVertex
100
AcDb2dVertex
 10
-3.772949497654299
 20
-0.4884395504868762
 30
0.0
 42
0.075133859641983
  0
VERTEX
  5
4CB4
330
4CAE
100
AcDbEntity
  8
AM_0
100
AcDbVertex
100
AcDb2dVertex
 10
-3.952815505183311
 20
-0.5714030405776553
 30
0.0
 42
0.2716149979859391
  0
VERTEX
  5
4CB5
330
4CAE
100
AcDbEntity
  8
AM_0
100
AcDbVertex
100
AcDb2dVertex
 10
-3.978694171371559
 20
-0.6238722157714771
 30
0.0
 42
0.2534307105139857
  0
VERTEX
  5
4CB6
330
4CAE
100
AcDbEntity
  8
AM_0
100
AcDbVertex
100
AcDb2dVertex
 10
-3.942578975826302
 20
-0.6803863733948284
 30
0.0
 42
0.0780756412043667
  0
VERTEX
  5
4CB7
330
4CAE
100
AcDbEntity
  8
AM_0
100
AcDbVertex
100
AcDb2dVertex
 10
-3.749240850214605
 20
-0.7509415762567773
 30
0.0
 42
0.0124925950205272
  0
VERTEX
  5
4CB8
330
4CAE
100
AcDbEntity
  8
AM_0
100
AcDbVertex
100
AcDb2dVertex
 10
-3.622613249628333
 20
-0.7725601775494697
 30
0.0
 42
0.0072181574374038
  0
VERTEX
  5
4CB9
330
4CAE
100
AcDbEntity
  8
AM_0
100
AcDbVertex
100
AcDb2dVertex
 10
-3.402175209927818
 20
-0.8013069159449162
 30
0.0
 42
0.0198093533555468
  0
VERTEX
  5
4CBA
330
4CAE
100
AcDbEntity
  8
AM_0
100
AcDbVertex
100
AcDb2dVertex
 10
-3.265784151405707
 20
-0.8116413305294372
 30
0.0
 42
-0.0113201715203351
  0
VERTEX
  5
4CBB
330
4CAE
100
AcDbEntity
  8
AM_0
100
AcDbVertex
100
AcDb2dVertex
 10
-3.204083103941731
 20
-0.8151687767100098
 30
0.0
  0
SEQEND
  5
4CBC
330
4CAE
100
AcDbEntity
  8
AM_0
  0
LINE
  5
4E1F
330
1F
100
AcDbEntity
  8
AM_0
100
AcDbLine
 10
-3.813666817248758
 20
-0.8499999999998946
 30
0.0
 11
-3.813666817248729
 21
-0.7348904016442644
 31
0.0
  0
LINE
  5
4E22
330
1F
100
AcDbEntity
  8
AM_0
100
AcDbLine
 10
-3.813666817248669
 20
-0.5016843540593784
 30
0.0
 11
-3.813666817248374
 21
0.6429252349093862
 31
0.0
  0
DIMENSION
  5
4E2A
330
1F
100
AcDbEntity
  8
AM_5
100
AcDbDimension
  2
*D8
 10
-2.550000000000209
 20
-8.500000999999956
 30
0.0
 11
-8.238095238095446
 21
-6.950000999999956
 31
0.0
 70
    32
  1
<>
  3
AM_JIS
100
AcDbAlignedDimension
 13
0.0000000000000022
 23
-0.0000000000000011
 33
0.0
 14
-2.550000000000208
 24
-0.8499999999998937
 34
0.0
 50
0.0000000000001641
100
AcDbRotatedDimension
1001
GENIUS_GENDTOL_13
1000

1000
h7
1000

1040
0.0
  0
DIMENSION
  5
4EF6
330
1F
100
AcDbEntity
  8
AM_5
100
AcDbDimension
  2
*D9
 10
-0.8500000000002787
 20
0.0129134099388718
 30
0.0
 11
3.623826740708193
 21
-6.006639398823406
 31
0.0
 70
    36
  1
<>
  3
AM_JIS$4
100
AcDbRadialDimension
 15
-0.4949039902970776
 25
-0.7593603911788815
 35
0.0
 40
0.0
1001
GENIUS_GENDTOL_13
1000

1000
h7
1000

1040
0.0
1001
ACAD
1000
DSTYLE
1002
{
1070
   287
1070
     3
1070
   271
1070
     3
1070
   288
1070
     1
1070
   289
1070
     3
1070
   172
1070
     1
1070
    74
1070
     0
1002
}
  0
VIEWPORT
  5
110
330
101
100
AcDbEntity
 67
     1
  8
0
100
AcDbViewport
 10
420.5
 20
297.0
 30
0.0
 40
948.9782706766916
 41
628.452
 68
     1
 69
     1
1001
ACAD
1000
MVIEW
1002
{
1070
    16
1010
0.0
1020
0.0
1030
0.0
1010
0.0
1020
0.0
1030
1.0
1040
0.0
1040
628.452
1040
420.5
1040
297.0
1040
50.0
1040
0.0
1040
0.0
1070
     0
1070
   100
1070
     1
1070
     1
1070
     0
1070
     0
1070
     0
1070
     0
1040
0.0
1040
0.0
1040
0.0
1040
10.0
1040
10.0
1040
10.0
1040
10.0
1070
     0
1002
{
1002
}
1002
}
  0
ENDSEC
  0
SECTION
  2
OBJECTS
  0
DICTIONARY
  5
C
330
0
100
AcDbDictionary
  3
ACAD_GROUP
350
D
  3
ACAD_LAYOUT
350
1A
  3
ACAD_MLINESTYLE
350
17
  3
ACAD_PLOTSETTINGS
350
19
  3
ACAD_PLOTSTYLENAME
350
E
  3
ACDBVARIABLEDICTIONARY
350
34
  3
ACMDICTIONARY
350
43
  3
AMG
350
2B
  3
AMGSNAPSETTINGS
350
6E
  3
ASE_INDEX_DICTIONARY
350
151A
  3
DWGPROPS
350
50C9
  3
ACDBHEADERROUNDTRIPXREC
350
50D5
  0
DICTIONARY
  5
74
330
1F
100
AcDbDictionary
280
     1
  3
ACAD_INDEX
360
50CB
  3
ACAD_LAYOUTSELFREF
360
50F8
  0
DICTIONARY
  5
50FD
330
101
100
AcDbDictionary
280
     1
  3
ACAD_LAYOUTSELFREF
360
50FE
  0
DICTIONARY
  5
D
102
{ACAD_REACTORS
330
C
102
}
330
C
100
AcDbDictionary
  0
DICTIONARY
  5
1A
102
{ACAD_REACTORS
330
C
102
}
330
C
100
AcDbDictionary
  0
DICTIONARY
  5
17
102
{ACAD_REACTORS
330
C
102
}
330
C
100
AcDbDictionary
  3
STANDARD
350
18
  0
DICTIONARY
  5
19
102
{ACAD_REACTORS
330
C
102
}
330
C
100
AcDbDictionary
  0
ACDBDICTIONARYWDFLT
  5
E
102
{ACAD_REACTORS
330
C
102
}
330
C
100
AcDbDictionary
281
     1
  3
Normal
350
F
100
AcDbDictionaryWithDefault
340
F
  0
DICTIONARY
  5
34
102
{ACAD_REACTORS
330
C
102
}
330
C
100
AcDbDictionary
  3
INDEXCTL
350
35
  3
SORTENTS
350
B5E
  0
DICTIONARY
  5
43
102
{ACAD_REACTORS
330
C
102
}
330
C
100
AcDbDictionary
  3
ACMSTDDICTIONARY
350
260
  0
DICTIONARY
  5
2B
102
{ACAD_REACTORS
330
C
102
}
330
C
100
AcDbDictionary
  3
ACMGSETTINGS
350
2C
  0
DICTIONARY
  5
6E
102
{ACAD_REACTORS
330
C
102
}
330
C
100
AcDbDictionary
  0
DICTIONARY
  5
151A
102
{ACAD_REACTORS
330
C
102
}
330
C
100
AcDbDictionary
  3
ASEBLOCKHIERARCHYINDEXRECORD
350
151C
1001
DCO15
1040
1471862535.906
  0
XRECORD
  5
50C9
102
{ACAD_REACTORS
330
C
102
}
330
C
100
AcDbXrecord
  1
DWGPROPS COOKIE
  2

  3

  4

  6

  7

  8

  9

300
AmdtFileType=82
301
=
302
=
303
=
304
=
305
=
306
=
307
=
308
=
309
=
 40
0.1738815972222222
 41
2452838.430434386
 42
2453045.627732535
  1

 90
        1
  0
DICTIONARY
  5
50D5
102
{ACAD_REACTORS
330
C
102
}
330
C
100
AcDbDictionary
  3
TSTACKALIGN
350
50D6
  3
TSTACKSIZE
350
50D7
  3
HYPERLINKBASE
350
50D8
  3
STYLESHEET
350
50D9
  3
LAYOUTDICT
350
50DA
  3
PLOTSETDICT
350
50DB
  3
PLOTSTYLNAMDICT
350
50DC
  3
LWETCUNION
350
50DD
  3
INSUNITS
350
50DE
  3
CEPSNTYPE
350
50DF
  3
FINGERPRINTGUID
350
50E0
  3
VERSIONGUID
350
50E1
  3
PSVPSCALE
350
50E2
  3
DIMSTYLEDATA
350
50E3
  3
PUCSORTHOREF
350
50E4
  3
PUCSORTHOVIEW
350
50E5
  3
PUCSBASE
350
50E6
  3
PUCSORGTOP
350
50E7
  3
PUCSORGBOTTOM
350
50E8
  3
PUCSORGLEFT
350
50E9
  3
PUCSORGRIGHT
350
50EA
  3
PUCSORGFRONT
350
50EB
  3
PUCSORGBACK
350
50EC
  3
UCSORTHOREF
350
50ED
  3
UCSORTHOVIEW
350
50EE
  3
UCSBASE
350
50EF
  3
UCSORGTOP
350
50F0
  3
UCSORGBOTTOM
350
50F1
  3
UCSORGLEFT
350
50F2
  3
UCSORGRIGHT
350
50F3
  3
UCSORGFRONT
350
50F4
  3
UCSORGBACK
350
50F5
  0
DICTIONARY
  5
50CB
102
{ACAD_REACTORS
330
74
102
}
330
74
100
AcDbDictionary
  3
*A1
350
50CC
  0
XRECORD
  5
50F8
102
{ACAD_REACTORS
330
74
102
}
330
74
100
AcDbXrecord
340
1F
  0
XRECORD
  5
50FE
102
{ACAD_REACTORS
330
50FD
102
}
330
50FD
100
AcDbXrecord
340
101
  0
MLINESTYLE
  5
18
102
{ACAD_REACTORS
330
17
102
}
330
17
100
AcDbMlineStyle
  2
STANDARD
 70
     0
  3

 62
   256
 51
90.0
 52
90.0
 71
     2
 49
0.5
 62
   256
  6
BYLAYER
 49
-0.5
 62
   256
  6
BYLAYER
  0
ACDBPLACEHOLDER
  5
F
102
{ACAD_REACTORS
330
E
102
}
330
E
100
AcDbPlaceHolder
280
     0
  0
DICTIONARYVAR
  5
35
102
{ACAD_REACTORS
330
34
102
}
330
34
100
DictionaryVariables
280
     0
  1
1
  0
DICTIONARYVAR
  5
B5E
102
{ACAD_REACTORS
330
34
102
}
330
34
100
DictionaryVariables
280
     0
  1
96
  0
DICTIONARY
  5
260
102
{ACAD_REACTORS
330
43
102
}
330
43
100
AcDbDictionary
  0
DICTIONARY
  5
2C
102
{ACAD_REACTORS
330
2B
102
}
330
2B
100
AcDbDictionary
  3
DWGSETTINGS
350
2D
  0
XRECORD
  5
151C
102
{ACAD_REACTORS
330
151A
102
}
330
151A
100
AcDbXrecord
330
0
330
0
330
0
330
0
330
0
330
0
330
0
330
0
  0
XRECORD
  5
50D6
102
{ACAD_REACTORS
330
50D5
102
}
330
50D5
100
AcDbXrecord
 90
        1
  0
XRECORD
  5
50D7
102
{ACAD_REACTORS
330
50D5
102
}
330
50D5
100
AcDbXrecord
 90
       70
  0
XRECORD
  5
50D8
102
{ACAD_REACTORS
330
50D5
102
}
330
50D5
100
AcDbXrecord
  1

  0
XRECORD
  5
50D9
102
{ACAD_REACTORS
330
50D5
102
}
330
50D5
100
AcDbXrecord
  1
ASAMI.ctb
  0
XRECORD
  5
50DA
102
{ACAD_REACTORS
330
50D5
102
}
330
50D5
100
AcDbXrecord
340
1A
  0
XRECORD
  5
50DB
102
{ACAD_REACTORS
330
50D5
102
}
330
50D5
100
AcDbXrecord
340
19
  0
XRECORD
  5
50DC
102
{ACAD_REACTORS
330
50D5
102
}
330
50D5
100
AcDbXrecord
340
E
  0
XRECORD
  5
50DD
102
{ACAD_REACTORS
330
50D5
102
}
330
50D5
100
AcDbXrecord
 90
    10781
  0
XRECORD
  5
50DE
102
{ACAD_REACTORS
330
50D5
102
}
330
50D5
100
AcDbXrecord
 90
        4
  0
XRECORD
  5
50DF
102
{ACAD_REACTORS
330
50D5
102
}
330
50D5
100
AcDbXrecord
 90
        0
  0
XRECORD
  5
50E0
102
{ACAD_REACTORS
330
50D5
102
}
330
50D5
100
AcDbXrecord
  1
{AFB28963-8C59-40AE-9337-C84526B81ACE}
  0
XRECORD
  5
50E1
102
{ACAD_REACTORS
330
50D5
102
}
330
50D5
100
AcDbXrecord
  1
{92A2DF4F-40A7-4893-9247-A218292ABE77}
  0
XRECORD
  5
50E2
102
{ACAD_REACTORS
330
50D5
102
}
330
50D5
100
AcDbXrecord
 40
0.0
  0
XRECORD
  5
50E3
102
{ACAD_REACTORS
330
50D5
102
}
330
50D5
100
AcDbXrecord
1000
DSTYLE
1002
{
1070
    79
 70
     2
1070
   341
340
59
1070
   342
340
59
1070
   371
 70
    -1
1070
   372
 70
    -1
1002
}
  0
XRECORD
  5
50E4
102
{ACAD_REACTORS
330
50D5
102
}
330
50D5
100
AcDbXrecord
340
0
  0
XRECORD
  5
50E5
102
{ACAD_REACTORS
330
50D5
102
}
330
50D5
100
AcDbXrecord
 70
     0
  0
XRECORD
  5
50E6
102
{ACAD_REACTORS
330
50D5
102
}
330
50D5
100
AcDbXrecord
340
0
  0
XRECORD
  5
50E7
102
{ACAD_REACTORS
330
50D5
102
}
330
50D5
100
AcDbXrecord
 10
0.0
 20
0.0
 30
0.0
  0
XRECORD
  5
50E8
102
{ACAD_REACTORS
330
50D5
102
}
330
50D5
100
AcDbXrecord
 10
0.0
 20
0.0
 30
0.0
  0
XRECORD
  5
50E9
102
{ACAD_REACTORS
330
50D5
102
}
330
50D5
100
AcDbXrecord
 10
0.0
 20
0.0
 30
0.0
  0
XRECORD
  5
50EA
102
{ACAD_REACTORS
330
50D5
102
}
330
50D5
100
AcDbXrecord
 10
0.0
 20
0.0
 30
0.0
  0
XRECORD
  5
50EB
102
{ACAD_REACTORS
330
50D5
102
}
330
50D5
100
AcDbXrecord
 10
0.0
 20
0.0
 30
0.0
  0
XRECORD
  5
50EC
102
{ACAD_REACTORS
330
50D5
102
}
330
50D5
100
AcDbXrecord
 10
0.0
 20
0.0
 30
0.0
  0
XRECORD
  5
50ED
102
{ACAD_REACTORS
330
50D5
102
}
330
50D5
100
AcDbXrecord
340
0
  0
XRECORD
  5
50EE
102
{ACAD_REACTORS
330
50D5
102
}
330
50D5
100
AcDbXrecord
 70
     0
  0
XRECORD
  5
50EF
102
{ACAD_REACTORS
330
50D5
102
}
330
50D5
100
AcDbXrecord
340
0
  0
XRECORD
  5
50F0
102
{ACAD_REACTORS
330
50D5
102
}
330
50D5
100
AcDbXrecord
 10
0.0
 20
0.0
 30
0.0
  0
XRECORD
  5
50F1
102
{ACAD_REACTORS
330
50D5
102
}
330
50D5
100
AcDbXrecord
 10
0.0
 20
0.0
 30
0.0
  0
XRECORD
  5
50F2
102
{ACAD_REACTORS
330
50D5
102
}
330
50D5
100
AcDbXrecord
 10
0.0
 20
0.0
 30
0.0
  0
XRECORD
  5
50F3
102
{ACAD_REACTORS
330
50D5
102
}
330
50D5
100
AcDbXrecord
 10
0.0
 20
0.0
 30
0.0
  0
XRECORD
  5
50F4
102
{ACAD_REACTORS
330
50D5
102
}
330
50D5
100
AcDbXrecord
 10
0.0
 20
0.0
 30
0.0
  0
XRECORD
  5
50F5
102
{ACAD_REACTORS
330
50D5
102
}
330
50D5
100
AcDbXrecord
 10
0.0
 20
0.0
 30
0.0
  0
LAYER_INDEX
  5
50CC
102
{ACAD_REACTORS
330
50CB
102
}
330
50CB
100
AcDbIndex
 40
2453151.775270162
100
AcDbLayerIndex
  8
0
360
50CD
 90
        0
  8
AM_0
360
50CE
 90
       31
  8
AM_11
360
50CF
 90
        4
  8
AM_7
360
50D0
 90
        1
  8
AM_5
360
50D1
 90
        5
  8
Defpoints
360
50D2
 90
        0
  8
AM_6
360
50D3
 90
        1
  0
XRECORD
  5
2D
102
{ACAD_REACTORS
330
2C
102
}
330
2C
100
AcDbXrecord
  1
VERSION
140
15.0
  1
PRODUCT
  2
AutoCAD Mechanical 2000
  0
IDBUFFER
  5
50CD
330
0
100
AcDbIdBuffer
  0
IDBUFFER
  5
50CE
330
0
100
AcDbIdBuffer
330
44FC
330
465E
330
4660
330
4661
330
4663
330
46F6
330
46FB
330
475D
330
4776
330
4778
330
4883
330
4884
330
4CAE
330
4E1F
330
4E22
330
44D1
330
44D2
330
44D3
330
44D4
330
44D5
330
44D7
330
44DB
330
44DC
330
44DD
330
44DF
330
44E1
330
44E3
330
44E4
330
44E6
330
44E9
330
44FB
  0
IDBUFFER
  5
50CF
330
0
100
AcDbIdBuffer
330
44D9
330
44DA
330
44E2
330
44E8
  0
IDBUFFER
  5
50D0
330
0
100
AcDbIdBuffer
330
3EE8
  0
IDBUFFER
  5
50D1
330
0
100
AcDbIdBuffer
330
4047
330
42F4
330
4664
330
4E2A
330
4EF6
  0
IDBUFFER
  5
50D2
330
0
100
AcDbIdBuffer
  0
IDBUFFER
  5
50D3
330
0
100
AcDbIdBuffer
330
1500
  0
ENDSEC
  0
EOF
