  0
SECTION
  2
HEADER
  9
$ACADVER
  1
AC1014
  9
$ACADMAINTVER
 70
     9
  9
$DWGCODEPAGE
  3
ANSI_932
  9
$INSBASE
 10
0.0
 20
0.0
 30
0.0
  9
$EXTMIN
 10
-110.7561951299595
 20
-54.10758120273593
 30
-0.00000001
  9
$EXTMAX
 10
16.34162794056475
 20
8.99999999999984
 30
0.00000001
  9
$LIMMIN
 10
-120.2085966259554
 20
-69.61029821333756
  9
$LIMMAX
 10
24.33945618437326
 20
26.37865414311966
  9
$ORTHOMODE
 70
     0
  9
$REGENMODE
 70
     1
  9
$FILLMODE
 70
     1
  9
$QTEXTMODE
 70
     0
  9
$MIRRTEXT
 70
     0
  9
$DRAGMODE
 70
     2
  9
$LTSCALE
 40
1.0
  9
$OSMODE
 70
    55
  9
$ATTMODE
 70
     1
  9
$TEXTSIZE
 40
2.5
  9
$TRACEWID
 40
1.0
  9
$TEXTSTYLE
  7
STANDARD
  9
$CLAYER
  8
AM_0
  9
$CELTYPE
  6
BYLAYER
  9
$CECOLOR
 62
   256
  9
$CELTSCALE
 40
1.0
  9
$DELOBJ
 70
     1
  9
$DISPSILH
 70
     0
  9
$DIMSCALE
 40
1.0
  9
$DIMASZ
 40
2.5
  9
$DIMEXO
 40
1.0
  9
$DIMDLI
 40
12.0
  9
$DIMRND
 40
0.0
  9
$DIMDLE
 40
0.0
  9
$DIMEXE
 40
1.0
  9
$DIMTP
 40
0.1
  9
$DIMTM
 40
0.1
  9
$DIMTXT
 40
3.2
  9
$DIMCEN
 40
0.0
  9
$DIMTSZ
 40
0.0
  9
$DIMTOL
 70
     0
  9
$DIMLIM
 70
     0
  9
$DIMTIH
 70
     0
  9
$DIMTOH
 70
     0
  9
$DIMSE1
 70
     0
  9
$DIMSE2
 70
     0
  9
$DIMTAD
 70
     3
  9
$DIMZIN
 70
     8
  9
$DIMBLK
  1
OPEN30
  9
$DIMASO
 70
     1
  9
$DIMSHO
 70
     1
  9
$DIMPOST
  1

  9
$DIMAPOST
  1
"
  9
$DIMALT
 70
     0
  9
$DIMALTD
 70
     2
  9
$DIMALTF
 40
0.0393701
  9
$DIMLFAC
 40
1.0
  9
$DIMTOFL
 70
     1
  9
$DIMTVP
 40
0.0
  9
$DIMTIX
 70
     0
  9
$DIMSOXD
 70
     0
  9
$DIMSAH
 70
     0
  9
$DIMBLK1
  1

  9
$DIMBLK2
  1

  9
$DIMSTYLE
  2
AM_JIS
  9
$DIMCLRD
 70
   256
  9
$DIMCLRE
 70
   256
  9
$DIMCLRT
 70
     2
  9
$DIMTFAC
 40
0.71
  9
$DIMGAP
 40
1.5
  9
$DIMJUST
 70
     0
  9
$DIMSD1
 70
     0
  9
$DIMSD2
 70
     0
  9
$DIMTOLJ
 70
     0
  9
$DIMTZIN
 70
     0
  9
$DIMALTZ
 70
     0
  9
$DIMALTTZ
 70
     0
  9
$DIMFIT
 70
     3
  9
$DIMUPT
 70
     0
  9
$DIMUNIT
 70
     2
  9
$DIMDEC
 70
     3
  9
$DIMTDEC
 70
     3
  9
$DIMALTU
 70
     2
  9
$DIMALTTD
 70
     2
  9
$DIMTXSTY
  7
ASAMI
  9
$DIMAUNIT
 70
     0
  9
$LUNITS
 70
     2
  9
$LUPREC
 70
     2
  9
$SKETCHINC
 40
1.0
  9
$FILLETRAD
 40
2.5
  9
$AUNITS
 70
     0
  9
$AUPREC
 70
     0
  9
$MENU
  1
.
  9
$ELEVATION
 40
0.0
  9
$PELEVATION
 40
0.0
  9
$THICKNESS
 40
0.0
  9
$LIMCHECK
 70
     0
  9
$BLIPMODE
 70
     0
  9
$CHAMFERA
 40
0.75
  9
$CHAMFERB
 40
0.75
  9
$CHAMFERC
 40
20.0
  9
$CHAMFERD
 40
0.0
  9
$SKPOLY
 70
     0
  9
$TDCREATE
 40
2452838.430434386
  9
$TDUPDATE
 40
2453151.777864571
  9
$TDINDWG
 40
0.1678542940
  9
$TDUSRTIMER
 40
0.1678542940
  9
$USRTIMER
 70
     1
  9
$ANGBASE
 50
0.0
  9
$ANGDIR
 70
     0
  9
$PDMODE
 70
     0
  9
$PDSIZE
 40
0.0
  9
$PLINEWID
 40
0.0
  9
$COORDS
 70
     1
  9
$SPLFRAME
 70
     0
  9
$SPLINETYPE
 70
     6
  9
$SPLINESEGS
 70
     8
  9
$ATTDIA
 70
     1
  9
$ATTREQ
 70
     1
  9
$HANDLING
 70
 12289
  9
$HANDSEED
  5
5019
  9
$SURFTAB1
 70
     6
  9
$SURFTAB2
 70
     6
  9
$SURFTYPE
 70
     6
  9
$SURFU
 70
     6
  9
$SURFV
 70
     6
  9
$UCSNAME
  2

  9
$UCSORG
 10
0.0
 20
0.0
 30
0.0
  9
$UCSXDIR
 10
1.0
 20
0.0
 30
0.0
  9
$UCSYDIR
 10
0.0
 20
1.0
 30
0.0
  9
$PUCSNAME
  2

  9
$PUCSORG
 10
0.0
 20
0.0
 30
0.0
  9
$PUCSXDIR
 10
1.0
 20
0.0
 30
0.0
  9
$PUCSYDIR
 10
0.0
 20
1.0
 30
0.0
  9
$USERI1
 70
     0
  9
$USERI2
 70
     0
  9
$USERI3
 70
     0
  9
$USERI4
 70
     0
  9
$USERI5
 70
     0
  9
$USERR1
 40
0.0
  9
$USERR2
 40
0.0
  9
$USERR3
 40
0.0
  9
$USERR4
 40
0.0
  9
$USERR5
 40
0.0
  9
$WORLDVIEW
 70
     1
  9
$SHADEDGE
 70
     3
  9
$SHADEDIF
 70
    70
  9
$TILEMODE
 70
     1
  9
$MAXACTVP
 70
    64
  9
$PINSBASE
 10
0.0
 20
0.0
 30
0.0
  9
$PLIMCHECK
 70
     0
  9
$PEXTMIN
 10
1.000000000000000E+20
 20
1.000000000000000E+20
 30
1.000000000000000E+20
  9
$PEXTMAX
 10
-1.000000000000000E+20
 20
-1.000000000000000E+20
 30
-1.000000000000000E+20
  9
$PLIMMIN
 10
0.0
 20
0.0
  9
$PLIMMAX
 10
841.0
 20
594.0
  9
$UNITMODE
 70
     0
  9
$VISRETAIN
 70
     1
  9
$PLINEGEN
 70
     0
  9
$PSLTSCALE
 70
     0
  9
$TREEDEPTH
 70
  3020
  9
$PICKSTYLE
 70
     0
  9
$CMLSTYLE
  2
STANDARD
  9
$CMLJUST
 70
     0
  9
$CMLSCALE
 40
20.0
  9
$PROXYGRAPHICS
 70
     1
  9
$MEASUREMENT
 70
     1
  0
ENDSEC
  0
SECTION
  2
CLASSES
  0
CLASS
  1
ACDBDICTIONARYWDFLT
  2
AcDbDictionaryWithDefault
  3
AutoCAD 2000
 90
        0
280
     0
281
     0
  0
CLASS
  1
ACDBPLACEHOLDER
  2
AcDbPlaceHolder
  3
AutoCAD 2000
 90
        0
280
     0
281
     0
  0
CLASS
  1
LAYOUT
  2
AcDbLayout
  3
AutoCAD 2000
 90
        0
280
     0
281
     0
  0
CLASS
  1
AMGSETTINGSOBJ
  2
AmgSettingsObj
  3
"AcadM|Product Description: AutoCAD Mechanical 2000|Company: Autodesk"
 90
        0
280
     0
281
     0
  0
CLASS
  1
ACME_DOCUMENT
  2
AcMeDbDoc
  3
AcMeServices
 90
        0
280
     0
281
     0
  0
CLASS
  1
ACMESCOPE
  2
AcMeScope
  3
AcMeServices
 90
        0
280
     0
281
     0
  0
CLASS
  1
ACMECOMMANDHISTORY
  2
AcMeCommandHistory
  3
AcMeServices
 90
        0
280
     0
281
     0
  0
CLASS
  1
DICTIONARYVAR
  2
AcDbDictionaryVar
  3
AutoCAD 2000
 90
        0
280
     0
281
     0
  0
CLASS
  1
ACIMSYSVARMAN
  2
AcImSysVarManager
  3
AcMeServices
 90
        0
280
     0
281
     0
  0
CLASS
  1
ACIMREALSYSVAR
  2
AcImRealSysVar
  3
AcMeServices
 90
        0
280
     0
281
     0
  0
CLASS
  1
ACIMINTSYSVAR
  2
AcImIntSysVar
  3
AcMeServices
 90
        0
280
     0
281
     0
  0
CLASS
  1
ACMEDRAWINGMAN
  2
AcMeDrawingMan
  3
AcMeServices
 90
        0
280
     0
281
     0
  0
CLASS
  1
ACMEVIEW
  2
AcMeView
  3
AcMeServices
 90
        0
280
     0
281
     0
  0
CLASS
  1
ACDBENTITYCACHE
  2
AcMeEntityCache
  3
AcMeServices
 90
        0
280
     0
281
     0
  0
CLASS
  1
GSMANAGER
  2
AcMeGSManager
  3
AcMeServices
 90
        0
280
     0
281
     0
  0
CLASS
  1
AmdtInternalReactor
  2
AmdtInternalReactor
  3
AcMeServices
 90
        0
280
     0
281
     0
  0
CLASS
  1
ACMESTATEMGR
  2
AcMeStateMgr
  3
AcMeServices
 90
        0
280
     0
281
     0
  0
CLASS
  1
ACME_DATABASE
  2
AcMeDbDatabase
  3
AcMeServices
 90
        0
280
     0
281
     0
  0
CLASS
  1
ACRFINSADJUSTERMGR
  2
AcRfInsAdjusterMgr
  3
AcMeServices
 90
        0
280
     0
281
     0
  0
CLASS
  1
ACMDATADICTIONARY
  2
AcmDataDictionary
  3
"AcmSymBB|Product Description: AutoCAD Mechanical 2000|Company: Autodesk"
 90
        0
280
     0
281
     0
  0
CLASS
  1
ACMDATAENTRYBLOCK
  2
AcmDataEntryBlock
  3
"AcmSymBB|Product Description: AutoCAD Mechanical 2000|Company: Autodesk"
 90
        0
280
     0
281
     0
  0
CLASS
  1
AMGOBJPROPCFG
  2
AmgObjPropCfg
  3
"AmgLay|Product Description: AutoCAD Mechanical 2000|Company: Autodesk"
 90
        1
280
     0
281
     0
  0
CLASS
  1
ACAMGFILTERDAT
  2
AcAmgFilterDat
  3
"AcadM|Product Description: AutoCAD Mechanical 2000|Company: Autodesk"
 90
        0
280
     0
281
     0
  0
CLASS
  1
LAYER_INDEX
  2
AcDbLayerIndex
  3
AutoCAD 2000
 90
        0
280
     0
281
     0
  0
CLASS
  1
IDBUFFER
  2
AcDbIdBuffer
  3
AutoCAD 2000
 90
        0
280
     0
281
     0
  0
CLASS
  1
ACIMSTRSYSVAR
  2
AcImStrSysVar
  3
AcMeServices
 90
        0
280
     0
281
     0
  0
CLASS
  1
ACMSTANDARDJIS
  2
AcmStandardJIS
  3
"AcmSymBB|Product Description: AutoCAD Mechanical 2000|Company: Autodesk"
 90
        0
280
     0
281
     0
  0
CLASS
  1
ACMSURFSTANDARDJIS
  2
AcmSurfTextStdJIS
  3
"AcmSymBB|Product Description: AutoCAD Mechanical 2000|Company: Autodesk"
 90
        0
280
     0
281
     0
  0
CLASS
  1
ACMFCFSTANDARDJIS
  2
AcmFCFStdJIS
  3
"AcmSymBB|Product Description: AutoCAD Mechanical 2000|Company: Autodesk"
 90
        0
280
     0
281
     0
  0
CLASS
  1
ACMWELDSTANDARDJIS
  2
AcmWeldingStdJIS
  3
"AcmSymBB|Product Description: AutoCAD Mechanical 2000|Company: Autodesk"
 90
        0
280
     0
281
     0
  0
CLASS
  1
ACMIDSTANDARDJIS
  2
AcmIdStdJIS
  3
"AcmSymBB|Product Description: AutoCAD Mechanical 2000|Company: Autodesk"
 90
        0
280
     0
281
     0
  0
CLASS
  1
ACMDATUMSTANDARDJIS
  2
AcmDatumStdJIS
  3
"AcmSymBB|Product Description: AutoCAD Mechanical 2000|Company: Autodesk"
 90
        0
280
     0
281
     0
  0
CLASS
  1
ACMBOMSTANDARDJIS
  2
AcmBOMStdJIS
  3
"AcmSymBB|Product Description: AutoCAD Mechanical 2000|Company: Autodesk"
 90
        0
280
     0
281
     0
  0
CLASS
  1
ACMSTANDARDANSI
  2
AcmStandardANSI
  3
"AcmSymBB|Product Description: AutoCAD Mechanical 2000|Company: Autodesk"
 90
        0
280
     0
281
     0
  0
CLASS
  1
ACMSURFSTANDARDANSI
  2
AcmSurfTextStdANSI
  3
"AcmSymBB|Product Description: AutoCAD Mechanical 2000|Company: Autodesk"
 90
        0
280
     0
281
     0
  0
CLASS
  1
ACMFCFSTANDARDANSI
  2
AcmFCFStdANSI
  3
"AcmSymBB|Product Description: AutoCAD Mechanical 2000|Company: Autodesk"
 90
        0
280
     0
281
     0
  0
CLASS
  1
ACMWELDSTANDARDANSI
  2
AcmWeldingStdANSI
  3
"AcmSymBB|Product Description: AutoCAD Mechanical 2000|Company: Autodesk"
 90
        0
280
     0
281
     0
  0
CLASS
  1
ACMIDSTANDARDANSI
  2
AcmIdStdANSI
  3
"AcmSymBB|Product Description: AutoCAD Mechanical 2000|Company: Autodesk"
 90
        0
280
     0
281
     0
  0
CLASS
  1
ACMDATUMSTANDARDANSI
  2
AcmDatumStdANSI
  3
"AcmSymBB|Product Description: AutoCAD Mechanical 2000|Company: Autodesk"
 90
        0
280
     0
281
     0
  0
CLASS
  1
ACMBOMSTANDARDANSI
  2
AcmBOMStdANSI
  3
"AcmSymBB|Product Description: AutoCAD Mechanical 2000|Company: Autodesk"
 90
        0
280
     0
281
     0
  0
CLASS
  1
ACMSTANDARDBSI
  2
AcmStandardBSI
  3
"AcmSymBB|Product Description: AutoCAD Mechanical 2000|Company: Autodesk"
 90
        0
280
     0
281
     0
  0
CLASS
  1
ACMSURFSTANDARDBSI
  2
AcmSurfTextStdBSI
  3
"AcmSymBB|Product Description: AutoCAD Mechanical 2000|Company: Autodesk"
 90
        0
280
     0
281
     0
  0
CLASS
  1
ACMFCFSTANDARDBSI
  2
AcmFCFStdBSI
  3
"AcmSymBB|Product Description: AutoCAD Mechanical 2000|Company: Autodesk"
 90
        0
280
     0
281
     0
  0
CLASS
  1
ACMWELDSTANDARDBSI
  2
AcmWeldingStdBSI
  3
"AcmSymBB|Product Description: AutoCAD Mechanical 2000|Company: Autodesk"
 90
        0
280
     0
281
     0
  0
CLASS
  1
ACMIDSTANDARDBSI
  2
AcmIdStdBSI
  3
"AcmSymBB|Product Description: AutoCAD Mechanical 2000|Company: Autodesk"
 90
        0
280
     0
281
     0
  0
CLASS
  1
ACMDATUMSTANDARDBSI
  2
AcmDatumStdBSI
  3
"AcmSymBB|Product Description: AutoCAD Mechanical 2000|Company: Autodesk"
 90
        0
280
     0
281
     0
  0
CLASS
  1
ACMBOMSTANDARDBSI
  2
AcmBOMStdBSI
  3
"AcmSymBB|Product Description: AutoCAD Mechanical 2000|Company: Autodesk"
 90
        0
280
     0
281
     0
  0
CLASS
  1
LONG_TRANSACTION
  2
AcDbLongTransaction
  3
AutoCAD 2000
 90
        0
280
     0
281
     0
  0
CLASS
  1
LWPOLYLINE
  2
AcDbPolyline
  3
AutoCAD 2000
 90
        0
280
     0
281
     1
  0
CLASS
  1
HATCH
  2
AcDbHatch
  3
AutoCAD 2000
 90
        0
280
     0
281
     1
  0
CLASS
  1
XRECORD
  2
AcDbXrecord
  3
AutoCAD 2000
 90
        0
280
     0
281
     0
  0
ENDSEC
  0
SECTION
  2
TABLES
  0
TABLE
  2
VPORT
  5
8
330
0
100
AcDbSymbolTable
 70
     3
  0
VPORT
  5
4FE8
330
8
100
AcDbSymbolTableRecord
100
AcDbViewportTableRecord
  2
*ACTIVE
 70
     0
 10
0.0
 20
0.0
 11
1.0
 21
1.0
 12
-47.20671256180634
 22
-22.55321392556452
 13
0.0
 23
0.0
 14
2.5
 24
2.5
 15
10.0
 25
10.0
 16
0.0
 26
0.0
 36
1.0
 17
0.0
 27
0.0
 37
0.0
 40
81.50301021337511
 41
1.56570841889117
 42
50.0
 43
0.0
 44
0.0
 50
0.0
 51
0.0
 71
     0
 72
   100
 73
     1
 74
     3
 75
     0
 76
     0
 77
     0
 78
     0
  0
ENDTAB
  0
TABLE
  2
LTYPE
  5
5
330
0
100
AcDbSymbolTable
 70
    10
  0
LTYPE
  5
14
330
5
100
AcDbSymbolTableRecord
100
AcDbLinetypeTableRecord
  2
BYBLOCK
 70
     0
  3

 72
    65
 73
     0
 40
0.0
  0
LTYPE
  5
15
330
5
100
AcDbSymbolTableRecord
100
AcDbLinetypeTableRecord
  2
BYLAYER
 70
     0
  3

 72
    65
 73
     0
 40
0.0
  0
LTYPE
  5
16
330
5
100
AcDbSymbolTableRecord
100
AcDbLinetypeTableRecord
  2
CONTINUOUS
 70
     0
  3
Solid line
 72
    65
 73
     0
 40
0.0
  0
LTYPE
  5
4B
330
5
100
AcDbSymbolTableRecord
100
AcDbLinetypeTableRecord
  2
AM_ISO02W050
 70
     0
  3
__ __ __ __ __ __ __ __ __ __ __ __ __ __ __
 72
    65
 73
     2
 40
7.5
 49
6.0
 74
     0
 49
-1.5
 74
     0
  0
LTYPE
  5
4C
330
5
100
AcDbSymbolTableRecord
100
AcDbLinetypeTableRecord
  2
AM_ISO08W050
 70
     0
  3
____ . ____ . ____ . ____ . ____ . ____ . ____
 72
    65
 73
     4
 40
18.0
 49
12.0
 74
     0
 49
-1.5
 74
     0
 49
3.0
 74
     0
 49
-1.5
 74
     0
  0
LTYPE
  5
4D
330
5
100
AcDbSymbolTableRecord
100
AcDbLinetypeTableRecord
  2
AM_ISO09W050
 70
     0
  3
_____ . . _____ . . _____ . . ____ .. ____
 72
    65
 73
     6
 40
22.5
 49
12.0
 74
     0
 49
-1.5
 74
     0
 49
3.0
 74
     0
 49
-1.5
 74
     0
 49
3.0
 74
     0
 49
-1.5
 74
     0
  0
LTYPE
  5
4E
330
5
100
AcDbSymbolTableRecord
100
AcDbLinetypeTableRecord
  2
AMCONSTR
 70
     0
  3
_______________________
 72
    65
 73
     2
 40
9999.0
 49
9999.0
 74
     0
 49
0.0
 74
     0
  0
LTYPE
  5
4F
330
5
100
AcDbSymbolTableRecord
100
AcDbLinetypeTableRecord
  2
AM_ISO02W050X2
 70
     0
  3
 _ _ _ _ _ _ _ _ _ _ _ _
 72
    65
 73
     2
 40
3.75
 49
3.0
 74
     0
 49
-0.75
 74
     0
  0
LTYPE
  5
50
330
5
100
AcDbSymbolTableRecord
100
AcDbLinetypeTableRecord
  2
AM_ISO08W050X2
 70
     0
  3
__ . __ . __ . __ . __ . __
 72
    65
 73
     4
 40
9.0
 49
6.0
 74
     0
 49
-0.75
 74
     0
 49
1.5
 74
     0
 49
-0.75
 74
     0
  0
LTYPE
  5
53
330
5
100
AcDbSymbolTableRecord
100
AcDbLinetypeTableRecord
  2
AMZIGZAG
 70
     0
  3
/\/-/\/-/\/-/\/-/\/-/\/
 72
    65
 73
     2
 40
11.00009999999999
 49
0.0001
 74
     4
 75
   135
340
52
 46
0.04
 50
0.0
 44
0.0
 45
0.0
 49
-11.0
 74
     0
  0
LTYPE
  5
166
330
5
100
AcDbSymbolTableRecord
100
AcDbLinetypeTableRecord
  2
ACJISTGL
 70
     0
  3
_ _ _ _ _
 72
    65
 73
     2
 40
3.0
 49
2.0
 74
     0
 49
-1.0
 74
     0
  0
LTYPE
  5
26A
330
5
100
AcDbSymbolTableRecord
100
AcDbLinetypeTableRecord
  2
ACJISTGB
 70
     0
  3
__ . . __ . .
 72
    65
 73
     6
 40
9.0
 49
4.0
 74
     0
 49
-1.0
 74
     0
 49
1.0
 74
     0
 49
-1.0
 74
     0
 49
1.0
 74
     0
 49
-1.0
 74
     0
  0
ENDTAB
  0
TABLE
  2
LAYER
  5
2
330
0
100
AcDbSymbolTable
 70
     7
  0
LAYER
  5
10
330
2
100
AcDbSymbolTableRecord
100
AcDbLayerTableRecord
  2
0
 70
     0
 62
     7
  6
CONTINUOUS
  0
LAYER
  5
3F9
330
2
100
AcDbSymbolTableRecord
100
AcDbLayerTableRecord
  2
AM_0
 70
     0
 62
     7
  6
CONTINUOUS
  0
LAYER
  5
BDD
330
2
100
AcDbSymbolTableRecord
100
AcDbLayerTableRecord
  2
AM_11
 70
     0
 62
     3
  6
AM_ISO09W050
  0
LAYER
  5
BDE
330
2
100
AcDbSymbolTableRecord
100
AcDbLayerTableRecord
  2
AM_7
 70
     0
 62
     4
  6
AM_ISO08W050
  0
LAYER
  5
BDF
330
2
100
AcDbSymbolTableRecord
100
AcDbLayerTableRecord
  2
AM_5
 70
     0
 62
     3
  6
CONTINUOUS
  0
LAYER
  5
BE0
330
2
100
AcDbSymbolTableRecord
100
AcDbLayerTableRecord
  2
DEFPOINTS
 70
     0
 62
     7
  6
CONTINUOUS
  0
LAYER
  5
14FF
330
2
100
AcDbSymbolTableRecord
100
AcDbLayerTableRecord
  2
AM_6
 70
     0
 62
     2
  6
CONTINUOUS
  0
ENDTAB
  0
TABLE
  2
STYLE
  5
3
330
0
100
AcDbSymbolTable
 70
     5
  0
STYLE
  5
11
330
3
100
AcDbSymbolTableRecord
100
AcDbTextStyleTableRecord
  2
STANDARD
 70
     0
 40
0.0
 41
1.0
 50
0.0
 71
     0
 42
2.5
  3
simplex.shx
  4
EXTFONT.SHX
  0
STYLE
  5
52
330
3
100
AcDbSymbolTableRecord
100
AcDbTextStyleTableRecord
  2

 70
     1
 40
0.0
 41
1.0
 50
0.0
 71
     0
 42
2.5
  3
ltypeshp.shx
  4

  0
STYLE
  5
6B
330
3
100
AcDbSymbolTableRecord
100
AcDbTextStyleTableRecord
  2
ASAMI
 70
     0
 40
0.0
 41
1.0
 50
0.0
 71
     0
 42
2.5
  3
simplex.shx
  4
EXTFONT.SHX
  0
STYLE
  5
262
330
3
100
AcDbSymbolTableRecord
100
AcDbTextStyleTableRecord
  2
ACJISTS
 70
     0
 40
1.0
 41
1.0
 50
0.0
 71
     0
 42
2.5
  3
simplex.shx
  4
bigfont.shx
  0
STYLE
  5
269
330
3
100
AcDbSymbolTableRecord
100
AcDbTextStyleTableRecord
  2
ACJISGDT
 70
     0
 40
0.0
 41
1.0
 50
0.0
 71
     0
 42
2.5
  3
amgdtans.shx
  4

  0
ENDTAB
  0
TABLE
  2
VIEW
  5
6
330
0
100
AcDbSymbolTable
 70
     0
  0
ENDTAB
  0
TABLE
  2
UCS
  5
7
330
0
100
AcDbSymbolTable
 70
     0
  0
ENDTAB
  0
TABLE
  2
APPID
  5
9
330
0
100
AcDbSymbolTable
 70
    14
  0
APPID
  5
12
330
9
100
AcDbSymbolTableRecord
100
AcDbRegAppTableRecord
  2
ACAD
 70
     0
  0
APPID
  5
30
330
9
100
AcDbSymbolTableRecord
100
AcDbRegAppTableRecord
  2
MCAD_NO_VIS
 70
     0
  0
APPID
  5
31
330
9
100
AcDbSymbolTableRecord
100
AcDbRegAppTableRecord
  2
ACAD_TEMP_GRAPHIC
 70
     0
  0
APPID
  5
2C2
330
9
100
AcDbSymbolTableRecord
100
AcDbRegAppTableRecord
  2
GENIUS_GENDTOL_13
 70
     0
  0
APPID
  5
339
330
9
100
AcDbSymbolTableRecord
100
AcDbRegAppTableRecord
  2
GENIUS_GENODEF_13
 70
     0
  0
APPID
  5
33A
330
9
100
AcDbSymbolTableRecord
100
AcDbRegAppTableRecord
  2
GENIUS_GENOBJ-N-RSBK_13
 70
     0
  0
APPID
  5
33B
330
9
100
AcDbSymbolTableRecord
100
AcDbRegAppTableRecord
  2
GENIUS_GENOBJ-N-LIB_13
 70
     0
  0
APPID
  5
33C
330
9
100
AcDbSymbolTableRecord
100
AcDbRegAppTableRecord
  2
GENIUS_GENSCALE_13
 70
     0
  0
APPID
  5
378
330
9
100
AcDbSymbolTableRecord
100
AcDbRegAppTableRecord
  2
GENIUS_GENDIMSH_14
 70
     0
  0
APPID
  5
BE1
330
9
100
AcDbSymbolTableRecord
100
AcDbRegAppTableRecord
  2
GENIUS_GENFIL_13
 70
     0
  0
APPID
  5
BE2
330
9
100
AcDbSymbolTableRecord
100
AcDbRegAppTableRecord
  2
GENIUS_GENOBJ-N-CHA_13
 70
     0
  0
APPID
  5
151B
330
9
100
AcDbSymbolTableRecord
100
AcDbRegAppTableRecord
  2
DCO15
 70
     0
  0
APPID
  5
1860
330
9
100
AcDbSymbolTableRecord
100
AcDbRegAppTableRecord
  2
GENIUS_GENOBJ-N-CEN_13
 70
     0
  0
APPID
  5
359C
330
9
100
AcDbSymbolTableRecord
100
AcDbRegAppTableRecord
  2
GENIUS_GENOBJ-N-FIL_13
 70
     0
  0
ENDTAB
  0
TABLE
  2
DIMSTYLE
  5
A
330
0
100
AcDbSymbolTable
 70
     8
  0
DIMSTYLE
105
58
102
{ACAD_REACTORS
330
4047
330
412A
330
42F4
330
4F53
102
}
330
A
100
AcDbSymbolTableRecord
100
AcDbDimStyleTableRecord
  2
AM_JIS
 70
     0
  3

  4
"
  5
OPEN30
  6

  7

 40
1.0
 41
2.5
 42
1.0
 43
12.0
 44
1.0
 45
0.0
 46
0.0
 47
0.1
 48
0.1
140
3.2
141
0.0
142
0.0
143
0.0393701
144
1.0
145
0.0
146
0.71
147
1.5
 71
     0
 72
     0
 73
     0
 74
     0
 75
     0
 76
     0
 77
     3
 78
     8
170
     0
171
     2
172
     1
173
     0
174
     0
175
     0
176
   256
177
   256
178
     2
270
     2
271
     3
272
     3
273
     2
274
     2
340
6B
275
     0
280
     0
281
     0
282
     0
283
     0
284
     0
285
     0
286
     0
287
     3
288
     0
  0
DIMSTYLE
105
5F
330
A
100
AcDbSymbolTableRecord
100
AcDbDimStyleTableRecord
  2
AM_JIS$3
 70
     0
  3

  4
"
  5
OPEN30
  6

  7

 40
1.0
 41
2.5
 42
1.0
 43
10.0
 44
1.0
 45
0.0
 46
0.0
 47
0.1
 48
0.1
140
3.2
141
0.0
142
0.0
143
0.0393701
144
1.0
145
0.0
146
0.71
147
1.5
 71
     0
 72
     0
 73
     0
 74
     1
 75
     0
 76
     0
 77
     3
 78
     8
170
     0
171
     2
172
     0
173
     0
174
     0
175
     0
176
   256
177
   256
178
     2
270
     2
271
     2
272
     3
273
     2
274
     2
340
6B
275
     0
280
     0
281
     0
282
     0
283
     0
284
     0
285
     0
286
     0
287
     0
288
     1
  0
DIMSTYLE
105
60
102
{ACAD_REACTORS
330
4E46
102
}
330
A
100
AcDbSymbolTableRecord
100
AcDbDimStyleTableRecord
  2
AM_JIS$4
 70
     0
  3

  4
"
  5
OPEN30
  6

  7

 40
1.0
 41
2.5
 42
1.0
 43
10.0
 44
1.0
 45
0.0
 46
0.0
 47
0.1
 48
0.1
140
3.2
141
0.0
142
0.0
143
0.0393701
144
1.0
145
0.0
146
0.71
147
1.5
 71
     0
 72
     0
 73
     0
 74
     1
 75
     0
 76
     0
 77
     3
 78
     8
170
     0
171
     2
172
     0
173
     0
174
     0
175
     0
176
   256
177
   256
178
     2
270
     2
271
     2
272
     3
273
     2
274
     2
340
6B
275
     0
280
     0
281
     0
282
     0
283
     0
284
     0
285
     0
286
     0
287
     0
288
     1
  0
DIMSTYLE
105
61
330
A
100
AcDbSymbolTableRecord
100
AcDbDimStyleTableRecord
  2
AM_JIS$6
 70
     0
  3

  4
"
  5
OPEN30
  6

  7

 40
1.0
 41
2.5
 42
1.0
 43
10.0
 44
1.0
 45
0.0
 46
0.0
 47
0.1
 48
0.1
140
3.2
141
0.0
142
0.0
143
0.0393701
144
1.0
145
0.0
146
0.71
147
1.5
 71
     0
 72
     0
 73
     0
 74
     0
 75
     0
 76
     0
 77
     0
 78
     8
170
     0
171
     2
172
     1
173
     0
174
     0
175
     0
176
   256
177
   256
178
     2
270
     2
271
     2
272
     2
273
     2
274
     2
340
6B
275
     0
280
     0
281
     0
282
     0
283
     0
284
     0
285
     0
286
     0
287
     3
288
     0
  0
DIMSTYLE
105
62
330
A
100
AcDbSymbolTableRecord
100
AcDbDimStyleTableRecord
  2
AM_JIS$7
 70
     0
  3

  4
"
  5
OPEN30
  6

  7

 40
1.0
 41
2.5
 42
1.0
 43
10.0
 44
1.0
 45
0.0
 46
0.0
 47
0.1
 48
0.1
140
3.2
141
0.0
142
0.0
143
0.0393701
144
1.0
145
0.0
146
0.71
147
1.5
 71
     0
 72
     0
 73
     0
 74
     0
 75
     0
 76
     0
 77
     3
 78
     8
170
     0
171
     2
172
     1
173
     0
174
     0
175
     0
176
   256
177
   256
178
     2
270
     2
271
     2
272
     3
273
     2
274
     2
340
6B
275
     0
280
     0
281
     0
282
     0
283
     0
284
     0
285
     0
286
     0
287
     3
288
     0
  0
DIMSTYLE
105
63
330
A
100
AcDbSymbolTableRecord
100
AcDbDimStyleTableRecord
  2
AM_JIS$SF
 70
     0
  3

  4
"
  5
OPEN30
  6

  7

 40
1.0
 41
2.5
 42
1.0
 43
10.0
 44
1.0
 45
0.0
 46
0.0
 47
0.1
 48
0.1
140
3.2
141
0.0
142
0.0
143
0.0393701
144
1.0
145
0.0
146
0.71
147
1.5
 71
     0
 72
     0
 73
     0
 74
     0
 75
     1
 76
     1
 77
     3
 78
     8
170
     0
171
     2
172
     1
173
     0
174
     0
175
     0
176
   256
177
   256
178
     2
270
     2
271
     2
272
     2
273
     2
274
     2
340
6B
275
     0
280
     0
281
     0
282
     0
283
     0
284
     0
285
     0
286
     0
287
     3
288
     0
  0
DIMSTYLE
105
68
330
A
100
AcDbSymbolTableRecord
100
AcDbDimStyleTableRecord
  2
AM_JIS$SH
 70
     0
  3

  4
"
  5

  6
GENAXEH
  7
OPEN30
 40
1.0
 41
2.5
 42
1.0
 43
10.0
 44
1.0
 45
0.0
 46
0.0
 47
0.1
 48
0.1
140
3.2
141
0.0
142
0.0
143
0.0393701
144
2.0
145
0.0
146
0.71
147
1.5
 71
     0
 72
     0
 73
     0
 74
     0
 75
     1
 76
     1
 77
     3
 78
     8
170
     0
171
     2
172
     1
173
     1
174
     0
175
     0
176
   256
177
   256
178
     2
270
     2
271
     2
272
     2
273
     2
274
     2
340
6B
275
     0
280
     0
281
     0
282
     0
283
     0
284
     0
285
     0
286
     0
287
     3
288
     0
  0
DIMSTYLE
105
B34
330
A
100
AcDbSymbolTableRecord
100
AcDbDimStyleTableRecord
  2
AM_JIS$2
 70
     0
  3

  4
"
  5
OPEN30
  6

  7

 40
1.0
 41
2.5
 42
1.0
 43
12.0
 44
1.0
 45
0.0
 46
0.0
 47
0.1
 48
0.1
140
3.2
141
0.0
142
0.0
143
0.0393701
144
1.0
145
0.0
146
0.71
147
1.5
 71
     0
 72
     0
 73
     0
 74
     0
 75
     0
 76
     0
 77
     3
 78
     8
170
     0
171
     2
172
     1
173
     0
174
     0
175
     0
176
   256
177
   256
178
     2
270
     2
271
     3
272
     3
273
     2
274
     2
340
6B
275
     0
280
     0
281
     0
282
     0
283
     0
284
     0
285
     0
286
     0
287
     3
288
     0
  0
ENDTAB
  0
TABLE
  2
BLOCK_RECORD
  5
1
330
0
100
AcDbSymbolTable
 70
    10
  0
BLOCK_RECORD
  5
1F
102
{ACAD_XDICTIONARY
360
74
102
}
330
1
100
AcDbSymbolTableRecord
100
AcDbBlockTableRecord
  2
*MODEL_SPACE
  0
BLOCK_RECORD
  5
101
102
{ACAD_XDICTIONARY
360
5011
102
}
330
1
100
AcDbSymbolTableRecord
100
AcDbBlockTableRecord
  2
*PAPER_SPACE
  0
BLOCK_RECORD
  5
59
330
1
100
AcDbSymbolTableRecord
100
AcDbBlockTableRecord
  2
_OPEN30
  0
BLOCK_RECORD
  5
64
330
1
100
AcDbSymbolTableRecord
100
AcDbBlockTableRecord
  2
GENAXEH
  0
BLOCK_RECORD
  5
4048
330
1
100
AcDbSymbolTableRecord
100
AcDbBlockTableRecord
  2
*D5
  0
BLOCK_RECORD
  5
412B
330
1
100
AcDbSymbolTableRecord
100
AcDbBlockTableRecord
  2
*D6
  0
BLOCK_RECORD
  5
42F5
330
1
100
AcDbSymbolTableRecord
100
AcDbBlockTableRecord
  2
*D7
  0
BLOCK_RECORD
  5
4E47
330
1
100
AcDbSymbolTableRecord
100
AcDbBlockTableRecord
  2
*D8
  0
BLOCK_RECORD
  5
4F54
330
1
100
AcDbSymbolTableRecord
100
AcDbBlockTableRecord
  2
*D9
  0
ENDTAB
  0
ENDSEC
  0
SECTION
  2
BLOCKS
  0
BLOCK
  5
20
330
1F
100
AcDbEntity
  8
0
100
AcDbBlockBegin
  2
*MODEL_SPACE
 70
     0
 10
0.0
 20
0.0
 30
0.0
  3
*MODEL_SPACE
  1

  0
ENDBLK
  5
21
330
1F
100
AcDbEntity
  8
0
100
AcDbBlockEnd
  0
BLOCK
  5
103
330
101
100
AcDbEntity
 67
     1
  8
0
100
AcDbBlockBegin
  2
*PAPER_SPACE
 70
     0
 10
0.0
 20
0.0
 30
0.0
  3
*PAPER_SPACE
  1

  0
ENDBLK
  5
104
330
101
100
AcDbEntity
 67
     1
  8
0
100
AcDbBlockEnd
  0
BLOCK
  5
5D
330
59
100
AcDbEntity
  8
0
100
AcDbBlockBegin
  2
_OPEN30
 70
     0
 10
0.0
 20
0.0
 30
0.0
  3
_OPEN30
  1

  0
LINE
  5
5A
330
59
100
AcDbEntity
  8
0
 62
     0
100
AcDbLine
 10
-1.0
 20
0.26794919
 30
0.0
 11
0.0
 21
0.0
 31
0.0
  0
LINE
  5
5B
330
59
100
AcDbEntity
  8
0
 62
     0
100
AcDbLine
 10
0.0
 20
0.0
 30
0.0
 11
-1.0
 21
-0.26794919
 31
0.0
  0
LINE
  5
5C
330
59
100
AcDbEntity
  8
0
 62
     0
100
AcDbLine
 10
0.0
 20
0.0
 30
0.0
 11
-1.0
 21
0.0
 31
0.0
  0
ENDBLK
  5
5E
330
59
100
AcDbEntity
  8
0
100
AcDbBlockEnd
  0
BLOCK
  5
66
330
64
100
AcDbEntity
  8
0
100
AcDbBlockBegin
  2
GENAXEH
 70
     0
 10
0.0
 20
0.0
 30
0.0
  3
GENAXEH
  1

  0
LINE
  5
65
330
64
100
AcDbEntity
  8
0
100
AcDbLine
 10
-1.0
 20
0.0
 30
0.0
 11
1.0
 21
0.0
 31
0.0
  0
ENDBLK
  5
67
330
64
100
AcDbEntity
  8
0
100
AcDbBlockEnd
  0
BLOCK
  5
4052
330
4048
100
AcDbEntity
  8
0
100
AcDbBlockBegin
  2
*D5
 70
     1
 10
0.0
 20
0.0
 30
0.0
  3
*D5
  1

  0
LINE
  5
4F80
330
4048
100
AcDbEntity
  8
AM_5
100
AcDbLine
 10
-89.99999999999998
 20
-4.250000000000058
 30
0.0
 11
-89.99999999999998
 21
-32.60758120273589
 31
0.0
  0
LINE
  5
4F81
330
4048
100
AcDbEntity
  8
AM_5
100
AcDbLine
 10
0.0000000000000006
 20
-1.0
 30
0.0
 11
-0.0000000000000013
 21
-32.60758120273588
 31
0.0
  0
LINE
  5
4F82
330
4048
100
AcDbEntity
  8
AM_5
100
AcDbLine
 10
-87.49999999999998
 20
-31.60758120273589
 30
0.0
 11
-2.500000000000001
 21
-31.60758120273589
 31
0.0
  0
INSERT
  5
4F83
330
4048
100
AcDbEntity
  8
AM_5
100
AcDbBlockReference
  2
_OPEN30
 10
-89.99999999999998
 20
-31.60758120273589
 30
0.0
 41
2.5
 42
2.5
 43
2.5
 50
180.0
  0
INSERT
  5
4F84
330
4048
100
AcDbEntity
  8
AM_5
100
AcDbBlockReference
  2
_OPEN30
 10
-0.0000000000000013
 20
-31.60758120273589
 30
0.0
 41
2.5
 42
2.5
 43
2.5
  0
MTEXT
  5
4F85
330
4048
100
AcDbEntity
  8
AM_5
 62
     2
100
AcDbMText
 10
-44.99999999999999
 20
-28.50758120273589
 30
0.0
 40
3.2
 41
0.0
 71
     5
 72
     1
  1
90
  7
ASAMI
1001
ACAD
1000
MTEXTBEGIN
1070
    73
1070
     1
1070
    44
1040
1.0
1070
    74
1070
     0
1000
MTEXTEND
  0
POINT
  5
4F86
330
4048
100
AcDbEntity
  8
DEFPOINTS
 62
     0
100
AcDbPoint
 10
-89.99999999999998
 20
-3.250000000000058
 30
0.0
  0
POINT
  5
4F87
330
4048
100
AcDbEntity
  8
DEFPOINTS
 62
     0
100
AcDbPoint
 10
0.0000000000000007
 20
-0.0000000000000005
 30
0.0
  0
POINT
  5
4F88
330
4048
100
AcDbEntity
  8
DEFPOINTS
 62
     0
100
AcDbPoint
 10
-0.0000000000000013
 20
-31.60758120273589
 30
0.0
  0
ENDBLK
  5
4053
330
4048
100
AcDbEntity
  8
0
100
AcDbBlockEnd
  0
BLOCK
  5
4135
330
412B
100
AcDbEntity
  8
0
100
AcDbBlockBegin
  2
*D6
 70
     1
 10
0.0
 20
0.0
 30
0.0
  3
*D6
  1

  0
LINE
  5
4E29
330
412B
100
AcDbEntity
  8
AM_5
100
AcDbLine
 10
-0.0000000000000143
 20
-1.000000000000011
 30
0.0
 11
-0.0000000000000155
 21
-20.60758120273587
 31
0.0
  0
LINE
  5
4E2A
330
412B
100
AcDbEntity
  8
AM_5
100
AcDbLine
 10
-12.00000000000008
 20
-4.999999999999954
 30
0.0
 11
-12.00000000000008
 21
-20.60758120273587
 31
0.0
  0
LINE
  5
4E2B
330
412B
100
AcDbEntity
  8
AM_5
100
AcDbLine
 10
-2.500000000000015
 20
-19.60758120273587
 30
0.0
 11
-9.500000000000081
 21
-19.60758120273587
 31
0.0
  0
INSERT
  5
4E2C
330
412B
100
AcDbEntity
  8
AM_5
100
AcDbBlockReference
  2
_OPEN30
 10
-0.0000000000000154
 20
-19.60758120273587
 30
0.0
 41
2.5
 42
2.5
 43
2.5
  0
INSERT
  5
4E2D
330
412B
100
AcDbEntity
  8
AM_5
100
AcDbBlockReference
  2
_OPEN30
 10
-12.00000000000008
 20
-19.60758120273587
 30
0.0
 41
2.5
 42
2.5
 43
2.5
 50
180.0
  0
MTEXT
  5
4E2E
330
412B
100
AcDbEntity
  8
AM_5
 62
     2
100
AcDbMText
 10
-6.000000000000048
 20
-16.50758120273587
 30
0.0
 40
3.2
 41
0.0
 71
     5
 72
     1
  1
12
  7
ASAMI
1001
ACAD
1000
MTEXTBEGIN
1070
    73
1070
     1
1070
    44
1040
1.0
1070
    74
1070
     0
1000
MTEXTEND
  0
POINT
  5
4E2F
330
412B
100
AcDbEntity
  8
DEFPOINTS
 62
     0
100
AcDbPoint
 10
-0.0000000000000142
 20
-0.0000000000000111
 30
0.0
  0
POINT
  5
4E30
330
412B
100
AcDbEntity
  8
DEFPOINTS
 62
     0
100
AcDbPoint
 10
-12.00000000000008
 20
-3.999999999999954
 30
0.0
  0
POINT
  5
4E31
330
412B
100
AcDbEntity
  8
DEFPOINTS
 62
     0
100
AcDbPoint
 10
-12.00000000000008
 20
-19.60758120273587
 30
0.0
  0
ENDBLK
  5
4136
330
412B
100
AcDbEntity
  8
0
100
AcDbBlockEnd
  0
BLOCK
  5
42FF
330
42F5
100
AcDbEntity
  8
0
100
AcDbBlockBegin
  2
*D7
 70
     1
 10
0.0
 20
0.0
 30
0.0
  3
*D7
  1

  0
LINE
  5
4CE6
330
42F5
100
AcDbEntity
  8
AM_5
100
AcDbLine
 10
-3.000000000000079
 20
4.000000000000039
 30
0.0
 11
16.34162794056475
 21
4.000000000000034
 31
0.0
  0
LINE
  5
4CE7
330
42F5
100
AcDbEntity
  8
AM_5
100
AcDbLine
 10
-3.000000000000057
 20
-3.99999999999996
 30
0.0
 11
16.34162794056475
 21
-3.999999999999966
 31
0.0
  0
LINE
  5
4CE8
330
42F5
100
AcDbEntity
  8
AM_5
100
AcDbLine
 10
15.34162794056475
 20
1.500000000000034
 30
0.0
 11
15.34162794056475
 21
-1.499999999999966
 31
0.0
  0
LINE
  5
4CE9
330
42F5
100
AcDbEntity
  8
AM_5
100
AcDbLine
 10
15.34162794056475
 20
-3.999999999999966
 30
0.0
 11
15.34162794056475
 21
-14.52857142857139
 31
0.0
  0
INSERT
  5
4CEA
330
42F5
100
AcDbEntity
  8
AM_5
100
AcDbBlockReference
  2
_OPEN30
 10
15.34162794056475
 20
4.000000000000034
 30
0.0
 41
2.5
 42
2.5
 43
2.5
 50
90.0
  0
INSERT
  5
4CEB
330
42F5
100
AcDbEntity
  8
AM_5
100
AcDbBlockReference
  2
_OPEN30
 10
15.34162794056475
 20
-3.999999999999966
 30
0.0
 41
2.5
 42
2.5
 43
2.5
 50
270.0
  0
MTEXT
  5
4CEC
330
42F5
100
AcDbEntity
  8
AM_5
 62
     2
100
AcDbMText
 10
12.24162794056475
 20
-10.51428571428567
 30
0.0
 40
3.2
 41
0.0
 71
     5
 72
     1
  1
%%c8
  7
ASAMI
 11
0.0000000000000001
 21
1.0
 31
0.0
1001
ACAD
1000
MTEXTBEGIN
1070
    73
1070
     1
1070
    44
1040
1.0
1070
    74
1070
     0
1000
MTEXTEND
  0
POINT
  5
4CED
330
42F5
100
AcDbEntity
  8
DEFPOINTS
 62
     0
100
AcDbPoint
 10
-4.000000000000079
 20
4.000000000000039
 30
0.0
  0
POINT
  5
4CEE
330
42F5
100
AcDbEntity
  8
DEFPOINTS
 62
     0
100
AcDbPoint
 10
-4.000000000000057
 20
-3.99999999999996
 30
0.0
  0
POINT
  5
4CEF
330
42F5
100
AcDbEntity
  8
DEFPOINTS
 62
     0
100
AcDbPoint
 10
15.34162794056475
 20
-3.999999999999966
 30
0.0
  0
ENDBLK
  5
4300
330
42F5
100
AcDbEntity
  8
0
100
AcDbBlockEnd
  0
BLOCK
  5
4E4D
330
4E47
100
AcDbEntity
  8
0
100
AcDbBlockBegin
  2
*D8
 70
     1
 10
0.0
 20
0.0
 30
0.0
  3
*D8
  1

  0
LINE
  5
5013
330
4E47
100
AcDbEntity
  8
AM_5
100
AcDbLine
 10
6.697860305286273
 20
-14.4226617614264
 30
0.0
 11
-0.1381588183434821
 21
-5.167632554365631
 31
0.0
  0
MTEXT
  5
5014
330
4E47
100
AcDbEntity
  8
AM_5
 62
     2
100
AcDbMText
 10
6.670599434362642
 20
-9.168035839478164
 30
0.0
 40
3.2
 41
0.0
 71
     5
 72
     1
  1
R4
  7
ASAMI
 11
0.5941294125626097
 21
-0.8043694680481154
 31
0.0
  0
LINE
  5
5015
330
4E47
100
AcDbEntity
  8
AM_5
100
AcDbLine
 10
-4.000000000000449
 20
0.0607689879471254
 30
0.0
 11
-1.623482349750006
 21
-3.156708884245342
 31
0.0
  0
INSERT
  5
5016
330
4E47
100
AcDbEntity
  8
AM_5
100
AcDbBlockReference
  2
_OPEN30
 10
-1.623482349750006
 20
-3.156708884245342
 30
0.0
 41
2.5
 42
2.5
 43
2.5
 50
126.4505947496717
  0
POINT
  5
5017
330
4E47
100
AcDbEntity
  8
DEFPOINTS
 62
     0
100
AcDbPoint
 10
-1.623482349750006
 20
-3.156708884245342
 30
0.0
  0
POINT
  5
5018
330
4E47
100
AcDbEntity
  8
DEFPOINTS
 62
     0
100
AcDbPoint
 10
-4.000000000000449
 20
0.0607689879471254
 30
0.0
  0
ENDBLK
  5
4E4E
330
4E47
100
AcDbEntity
  8
0
100
AcDbBlockEnd
  0
BLOCK
  5
4F60
330
4F54
100
AcDbEntity
  8
0
100
AcDbBlockBegin
  2
*D9
 70
     1
 10
0.0
 20
0.0
 30
0.0
  3
*D9
  1

  0
LINE
  5
4F63
330
4F54
100
AcDbEntity
  8
AM_5
100
AcDbLine
 10
-90.24999999999996
 20
3.999999999999836
 30
0.0
 11
-107.0561951299595
 21
3.999999999999841
 31
0.0
  0
LINE
  5
4F64
330
4F54
100
AcDbEntity
  8
AM_5
100
AcDbLine
 10
-90.24999999999995
 20
-4.000000000000084
 30
0.0
 11
-107.0561951299595
 21
-4.000000000000079
 31
0.0
  0
LINE
  5
4F65
330
4F54
100
AcDbEntity
  8
AM_5
100
AcDbLine
 10
-106.0561951299595
 20
6.499999999999841
 30
0.0
 11
-106.0561951299595
 21
8.99999999999984
 31
0.0
  0
LINE
  5
4F66
330
4F54
100
AcDbEntity
  8
AM_5
100
AcDbLine
 10
-106.0561951299595
 20
-6.500000000000079
 30
0.0
 11
-106.0561951299595
 21
-17.0285714285715
 31
0.0
  0
LINE
  5
4F67
330
4F54
100
AcDbEntity
  8
AM_5
100
AcDbLine
 10
-106.0561951299595
 20
3.99999999999984
 30
0.0
 11
-106.0561951299595
 21
-4.000000000000079
 31
0.0
  0
INSERT
  5
4F68
330
4F54
100
AcDbEntity
  8
AM_5
100
AcDbBlockReference
  2
_OPEN30
 10
-106.0561951299595
 20
3.99999999999984
 30
0.0
 41
2.5
 42
2.5
 43
2.5
 50
270.0
  0
INSERT
  5
4F69
330
4F54
100
AcDbEntity
  8
AM_5
100
AcDbBlockReference
  2
_OPEN30
 10
-106.0561951299595
 20
-4.000000000000079
 30
0.0
 41
2.5
 42
2.5
 43
2.5
 50
90.0
  0
MTEXT
  5
4F6A
330
4F54
100
AcDbEntity
  8
AM_5
 62
     2
100
AcDbMText
 10
-109.1561951299595
 20
-13.01428571428581
 30
0.0
 40
3.2
 41
0.0
 71
     5
 72
     1
  1
%%c8
  7
ASAMI
 11
0.0000000000000001
 21
1.0
 31
0.0
1001
ACAD
1000
MTEXTBEGIN
1070
    73
1070
     1
1070
    44
1040
1.0
1070
    74
1070
     0
1000
MTEXTEND
  0
POINT
  5
4F6B
330
4F54
100
AcDbEntity
  8
DEFPOINTS
 62
     0
100
AcDbPoint
 10
-89.24999999999997
 20
3.999999999999836
 30
0.0
  0
POINT
  5
4F6C
330
4F54
100
AcDbEntity
  8
DEFPOINTS
 62
     0
100
AcDbPoint
 10
-89.24999999999995
 20
-4.000000000000085
 30
0.0
  0
POINT
  5
4F6D
330
4F54
100
AcDbEntity
  8
DEFPOINTS
 62
     0
100
AcDbPoint
 10
-106.0561951299595
 20
-4.000000000000079
 30
0.0
  0
ENDBLK
  5
4F61
330
4F54
100
AcDbEntity
  8
0
100
AcDbBlockEnd
  0
ENDSEC
  0
SECTION
  2
ENTITIES
  0
TEXT
  5
1500
330
1F
100
AcDbEntity
  8
AM_6
100
AcDbText
 10
-66.54761904761899
 20
-54.10758120273589
 30
0.0
 40
5.0
  1
S-SSB2080
 72
     4
 11
-44.99999999999996
 21
-51.60758120273589
 31
0.0
100
AcDbText
  0
LINE
  5
3EE8
330
1F
100
AcDbEntity
  8
AM_7
  6
AM_ISO08W050X2
100
AcDbLine
 10
1.341626940564765
 20
0.0
 30
0.0
 11
-92.05619412995956
 21
-0.0000000000000888
 31
0.0
1001
GENIUS_GENODEF_13
1002
{
1000
HIER
1070
     0
1002
}
1002
{
1000
MANEDIT
1070
     0
1002
}
1002
{
1000
NOSEL
1070
     0
1002
}
1002
{
1000
BEHIND
1070
     0
1002
}
1002
{
1000
REACTOR
1002
}
1001
GENIUS_GENOBJ-N-CEN_13
1002
{
1000
OWNER
1000
GEN
1002
}
  0
DIMENSION
  5
4047
330
1F
100
AcDbEntity
  8
AM_5
100
AcDbDimension
  2
*D5
 10
-0.0000000000000013
 20
-31.60758120273589
 30
0.0
 11
-44.99999999999999
 21
-28.50758120273589
 31
0.0
 70
    32
  1
<>
  3
AM_JIS
100
AcDbAlignedDimension
 13
-89.99999999999998
 23
-3.250000000000058
 33
0.0
 14
0.0000000000000007
 24
-0.0000000000000005
 34
0.0
 50
0.0000000000001132
100
AcDbRotatedDimension
1001
GENIUS_GENDTOL_13
1000

1000
h7
1000

1040
0.0
  0
DIMENSION
  5
412A
330
1F
100
AcDbEntity
  8
AM_5
100
AcDbDimension
  2
*D6
 10
-12.00000000000008
 20
-19.60758120273587
 30
0.0
 11
-6.000000000000048
 21
-16.50758120273587
 31
0.0
 70
    32
  1
<>
  3
AM_JIS
100
AcDbAlignedDimension
 13
-0.0000000000000142
 23
-0.0000000000000111
 33
0.0
 14
-12.00000000000008
 24
-3.999999999999954
 34
0.0
 50
0.0000000000001132
100
AcDbRotatedDimension
1001
GENIUS_GENDTOL_13
1000

1000
h7
1000

1040
0.0
  0
DIMENSION
  5
42F4
330
1F
100
AcDbEntity
  8
AM_5
100
AcDbDimension
  2
*D7
 10
15.34162794056475
 20
-3.999999999999966
 30
0.0
 11
12.24162794056475
 21
-10.51428571428567
 31
0.0
 70
    32
  1
%%c<>
  3
AM_JIS
100
AcDbAlignedDimension
 13
-4.000000000000079
 23
4.000000000000039
 33
0.0
 14
-4.000000000000057
 24
-3.99999999999996
 34
0.0
 50
90.0
100
AcDbRotatedDimension
1001
GENIUS_GENDTOL_13
1000

1000
h7
1000

1040
0.0
  0
SPLINE
  5
499C
330
1F
100
AcDbEntity
  8
AM_0
100
AcDbSpline
210
0.0
220
0.0
230
1.0
 70
     8
 71
     3
 72
     9
 73
     5
 74
     3
 42
0.0000000001
 43
0.0000000001
 44
0.0000000001
 12
0.5867325161912575
 22
-0.8097808064185491
 32
0.0
 13
-0.8994987856269103
 23
0.4369232594583563
 33
0.0
 40
0.0
 40
0.0
 40
0.0
 40
0.0
 40
0.3584105464791651
 40
1.067729905441318
 40
1.067729905441318
 40
1.067729905441318
 40
1.067729905441318
 10
-3.509131125986903
 20
-2.434079335502747
 30
0.0
 10
-3.439034085398501
 20
-2.530823995955017
 30
0.0
 10
-3.136661840968278
 20
-2.876717187366353
 30
0.0
 10
-3.787322699330708
 20
-3.123589717592757
 30
0.0
 10
-4.000000000000079
 20
-3.020283675487871
 30
0.0
 11
-3.509131125986903
 21
-2.434079335502747
 31
0.0
 11
-3.343422072706459
 21
-2.751882150921983
 31
0.0
 11
-4.000000000000079
 21
-3.020283675487871
 31
0.0
  0
SPLINE
  5
499D
330
1F
100
AcDbEntity
  8
AM_0
100
AcDbSpline
210
0.0
220
0.0
230
1.0
 70
     8
 71
     3
 72
     8
 73
     4
 74
     2
 42
0.0000000001
 43
0.0000000001
 44
0.0000000001
 12
0.421692687695876
 22
-0.9067388141818064
 32
0.0
 13
-0.9928045895078733
 23
-0.1197457600589821
 33
0.0
 40
0.0
 40
0.0
 40
0.0
 40
0.0
 40
1.412335565173038
 40
1.412335565173038
 40
1.412335565173038
 40
1.412335565173038
 10
-4.000000000000073
 20
3.939231012048685
 30
0.0
 10
-3.801476139864643
 20
3.512357853518087
 30
0.0
 10
-4.281058998245148
 20
2.797892661060708
 30
0.0
 10
-4.748450075254811
 20
2.741518929157382
 30
0.0
 11
-4.000000000000073
 21
3.939231012048685
 31
0.0
 11
-4.748450075254811
 21
2.741518929157382
 31
0.0
  0
SPLINE
  5
499E
330
1F
100
AcDbEntity
  8
AM_0
100
AcDbSpline
210
0.0
220
0.0
230
1.0
 70
     8
 71
     3
 72
     8
 73
     4
 74
     2
 42
0.0000000001
 43
0.0000000001
 44
0.0000000001
 12
-0.8789112757303591
 22
0.4769852926391261
 32
0.0
 13
0.9988106394578339
 23
0.0487576302319218
 33
0.0
 40
0.0
 40
0.0
 40
0.0
 40
0.0
 40
1.725959888263515
 40
1.725959888263515
 40
1.725959888263515
 40
1.725959888263515
 10
-4.182225088543498
 20
1.111081319079357
 30
0.0
 10
-4.687880290961203
 20
1.385500479874946
 30
0.0
 10
-5.323085775107205
 20
2.713467691150174
 30
0.0
 10
-4.748450075215521
 20
2.741518929159201
 30
0.0
 11
-4.182225088543498
 21
1.111081319079357
 31
0.0
 11
-4.748450075215521
 21
2.741518929159201
 31
0.0
  0
SPLINE
  5
499F
330
1F
100
AcDbEntity
  8
AM_0
100
AcDbSpline
210
0.0
220
0.0
230
1.0
 70
     8
 71
     3
 72
     8
 73
     4
 74
     0
 42
0.0000000001
 43
0.0000000001
 40
1.794922859432252
 40
1.794922859432252
 40
1.794922859432252
 40
1.794922859432252
 40
8.217791785374707
 40
8.217791785374707
 40
8.217791785374707
 40
8.217791785374707
 10
-4.000000000000073
 20
3.939231012048685
 30
0.0
 10
-5.692023097997008
 20
3.796823996957164
 30
0.0
 10
-7.34893783257001
 20
3.413375156006395
 30
0.0
 10
-8.985076596969594
 20
2.887285721864782
 30
0.0
  0
SPLINE
  5
49A0
330
1F
100
AcDbEntity
  8
AM_0
100
AcDbSpline
210
0.0
220
0.0
230
1.0
 70
     8
 71
     3
 72
     8
 73
     4
 74
     0
 42
0.0000000001
 43
0.0000000001
 40
6.513172597598655
 40
6.513172597598655
 40
6.513172597598655
 40
6.513172597598655
 40
17.00040327533524
 40
17.00040327533524
 40
17.00040327533524
 40
17.00040327533524
 10
-4.000000000000079
 20
-3.020283675487871
 30
0.0
 10
-6.705185439567083
 20
-2.343661868629033
 30
0.0
 10
-9.353694501635107
 20
-1.247515705801061
 30
0.0
 10
-12.00000000000008
 20
-0.1350585385622253
 30
0.0
  0
SPLINE
  5
49A1
330
1F
100
AcDbEntity
  8
AM_0
100
AcDbSpline
210
0.0
220
0.0
230
1.0
 70
     8
 71
     3
 72
     8
 73
     4
 74
     0
 42
0.0000000001
 43
0.0000000001
 40
3.732786119440464
 40
3.732786119440464
 40
3.732786119440464
 40
3.732786119440464
 40
14.41150387863584
 40
14.41150387863584
 40
14.41150387863584
 40
14.41150387863584
 10
-3.827802382296511
 20
-3.633847688761625
 30
0.0
 10
-6.61153917405644
 20
-3.181992537345513
 30
0.0
 10
-9.314768516966195
 20
-2.161035719104711
 30
0.0
 10
-12.00000000000008
 20
-1.012853256518337
 30
0.0
  0
SPLINE
  5
49A2
330
1F
100
AcDbEntity
  8
AM_0
100
AcDbSpline
210
0.0
220
0.0
230
1.0
 70
     8
 71
     3
 72
     8
 73
     4
 74
     0
 42
0.0000000001
 43
0.0000000001
 40
1.794922859428793
 40
1.794922859428793
 40
1.794922859428793
 40
1.794922859428793
 40
12.18970013411803
 40
12.18970013411803
 40
12.18970013411803
 40
12.18970013411803
 10
-3.999999999997532
 20
-3.939231012049049
 30
0.0
 10
-6.738371816408823
 20
-3.708759361250077
 30
0.0
 10
-9.384787045947167
 20
-2.846945732691711
 30
0.0
 10
-12.00000000000017
 20
-1.770908120996682
 30
0.0
  0
LINE
  5
49A3
330
1F
100
AcDbEntity
  8
AM_11
100
AcDbLine
 10
-4.000000000000073
 20
3.999999999999954
 30
0.0
 11
-12.00000000000012
 21
3.999999999999954
 31
0.0
  0
LINE
  5
49A4
330
1F
100
AcDbEntity
  8
AM_11
100
AcDbLine
 10
-12.00000000000012
 20
-4.0
 30
0.0
 11
-4.000000000000079
 21
-3.999999999999954
 31
0.0
  0
LINE
  5
49A5
330
1F
100
AcDbEntity
  8
AM_0
100
AcDbLine
 10
-0.560000000000298
 20
-0.1409637442040093
 30
0.0
 11
-4.182225088543498
 21
1.111081319079357
 31
0.0
  0
LINE
  5
49A6
330
1F
100
AcDbEntity
  8
AM_0
100
AcDbLine
 10
-0.0000000000000796
 20
0.0000000000000398
 30
0.0
 11
-4.748450075215521
 21
2.741518929159201
 31
0.0
  0
ARC
  5
49A7
330
1F
100
AcDbEntity
  8
AM_0
100
AcDbCircle
 10
-0.1641127302726886
 20
0.0374931304965173
 30
0.0
 40
4.159064621084163
100
AcDbArc
 50
165.040742132377
 51
216.4600123166023
  0
LINE
  5
49A8
330
1F
100
AcDbEntity
  8
AM_0
100
AcDbLine
 10
-3.827802382296511
 20
-3.633847688761443
 30
0.0
 11
-4.000000000000443
 21
-3.020283675487871
 31
0.0
  0
ARC
  5
49A9
330
1F
100
AcDbEntity
  8
AM_0
100
AcDbCircle
 10
-4.109483581435495
 20
0.3070670019790157
 30
0.0
 40
3.950968602462323
100
AcDbArc
 50
274.0883259404363
 51
353.4887846299623
  0
ARC
  5
49AA
330
1F
100
AcDbEntity
  8
AM_0
100
AcDbCircle
 10
-4.000000000000443
 20
0.0607689879471252
 30
0.0
 40
4.0
100
AcDbArc
 50
270.0000000000781
 51
359.1295148788724
  0
ARC
  5
49AB
330
1F
100
AcDbEntity
  8
AM_11
100
AcDbCircle
 10
-4.000000000000079
 20
0.0000000000000398
 30
0.0
 40
4.0
100
AcDbArc
 50
270.0
 51
90.0
  0
ARC
  5
49AC
330
1F
100
AcDbEntity
  8
AM_0
100
AcDbCircle
 10
-3.871252439126408
 20
1.074605539849147
 30
0.0
 40
3.527322128747703
100
AcDbArc
 50
275.8924707062755
 51
339.8416840647174
  0
ARC
  5
49AD
330
1F
100
AcDbEntity
  8
AM_0
100
AcDbCircle
 10
-4.000000000000079
 20
-0.0607689879512293
 30
0.0
 40
4.0
100
AcDbArc
 50
0.8704851212057906
 51
90.0
  0
LINE
  5
49AE
330
1F
100
AcDbEntity
  8
AM_0
100
AcDbLine
 10
-0.0000000000000796
 20
0.0000000000000398
 30
0.0
 11
-0.1840000000000941
 21
-0.140963744204015
 31
0.0
  0
LINE
  5
49AF
330
1F
100
AcDbEntity
  8
AM_0
100
AcDbLine
 10
-0.1840000000000941
 20
-0.140963744204015
 30
0.0
 11
-0.560000000000298
 21
-0.1409637442040093
 31
0.0
  0
LINE
  5
49B0
330
1F
100
AcDbEntity
  8
AM_0
100
AcDbLine
 10
-3.999999999951694
 20
-3.939231012052869
 30
0.0
 11
-3.827802382296511
 21
-3.633847688761443
 31
0.0
  0
LINE
  5
49B1
330
1F
100
AcDbEntity
  8
AM_11
100
AcDbLine
 10
-12.00000000000008
 20
-3.999999999999954
 30
0.0
 11
-12.00000000000008
 21
3.999999999999954
 31
0.0
  0
ARC
  5
49B2
330
1F
100
AcDbEntity
  8
AM_0
100
AcDbCircle
 10
-19.76572162655591
 20
45.83100722613899
 30
0.0
 40
49.8968373248393
100
AcDbArc
 50
272.9434802985622
 51
282.4776453968283
  0
POLYLINE
  5
49B3
330
1F
100
AcDbEntity
  8
AM_0
100
AcDb2dPolyline
 66
     1
 10
0.0
 20
0.0
 30
0.0
 70
     2
  0
VERTEX
  5
49B4
330
49B3
100
AcDbEntity
  8
AM_0
100
AcDbVertex
100
AcDb2dVertex
 10
-12.00000000000008
 20
-1.770908120996733
 30
0.0
 42
0.0167617469376757
  0
VERTEX
  5
49B5
330
49B3
100
AcDbEntity
  8
AM_0
100
AcDbVertex
100
AcDb2dVertex
 10
-12.91317853992481
 20
-1.863703533845279
 30
0.0
 42
0.0257740858962584
 70
     1
  0
VERTEX
  5
49B6
330
49B3
100
AcDbEntity
  8
AM_0
100
AcDbVertex
100
AcDb2dVertex
 10
-13.50000000000008
 20
-1.974327715080522
 30
0.0
 42
0.0129062253880721
  0
VERTEX
  5
49B7
330
49B3
100
AcDbEntity
  8
AM_0
100
AcDbVertex
100
AcDb2dVertex
 10
-14.86497840766554
 20
-2.342818395986529
 30
0.0
 42
0.0322710141744365
 70
     1
  0
VERTEX
  5
49B8
330
49B3
100
AcDbEntity
  8
AM_0
100
AcDbVertex
100
AcDb2dVertex
 10
-15.39582176512994
 20
-2.539004782155513
 30
0.0
 42
0.066302819305777
  0
VERTEX
  5
49B9
330
49B3
100
AcDbEntity
  8
AM_0
100
AcDbVertex
100
AcDb2dVertex
 10
-15.76585465535435
 20
-2.766351426013358
 30
0.0
 42
0.141835538265495
 70
     1
  0
VERTEX
  5
49BA
330
49B3
100
AcDbEntity
  8
AM_0
100
AcDbVertex
100
AcDb2dVertex
 10
-15.88324096448345
 20
-2.935869250689853
 30
0.0
 42
0.3019338394559296
  0
VERTEX
  5
49BB
330
49B3
100
AcDbEntity
  8
AM_0
100
AcDbVertex
100
AcDb2dVertex
 10
-15.81876343484631
 20
-3.175738241152663
 30
0.0
 42
0.1448123473042558
 70
     1
  0
VERTEX
  5
49BC
330
49B3
100
AcDbEntity
  8
AM_0
100
AcDbVertex
100
AcDb2dVertex
 10
-15.379144903424
 20
-3.379550284495604
 30
0.0
 42
0.0233293908839008
  0
VERTEX
  5
49BD
330
49B3
100
AcDbEntity
  8
AM_0
100
AcDbVertex
100
AcDb2dVertex
 10
-14.99164149256725
 20
-3.418367507406498
 30
0.0
 42
0.0065058132401841
 70
     1
  0
VERTEX
  5
49BE
330
49B3
100
AcDbEntity
  8
AM_0
100
AcDbVertex
100
AcDb2dVertex
 10
-13.59695400904819
 20
-3.474433118366511
 30
0.0
 42
0.0093933844226459
  0
VERTEX
  5
49BF
330
49B3
100
AcDbEntity
  8
AM_0
100
AcDbVertex
100
AcDb2dVertex
 10
-12.88740972270428
 20
-3.480379320705248
 30
0.0
 42
0.0075082457306975
 70
     1
  0
VERTEX
  5
49C0
330
49B3
100
AcDbEntity
  8
AM_0
100
AcDbVertex
100
AcDb2dVertex
 10
-12.00000000000008
 20
-3.45781445424123
 30
0.0
  0
SEQEND
  5
49C1
330
49B3
100
AcDbEntity
  8
AM_0
  0
ARC
  5
49C2
330
1F
100
AcDbEntity
  8
AM_0
100
AcDbCircle
 10
-20.0313219003075
 20
-27.01718600735017
 30
0.0
 40
31.0643598108995
100
AcDbArc
 50
75.0166616061836
 51
86.84200201899987
  0
ARC
  5
49C3
330
1F
100
AcDbEntity
  8
AM_0
100
AcDbCircle
 10
-5.414959264755987
 20
12.36495933113628
 30
0.0
 40
14.128453851275
100
AcDbArc
 50
216.9689382052057
 51
242.2196261877092
  0
LINE
  5
49C4
330
1F
100
AcDbEntity
  8
AM_0
100
AcDbLine
 10
-12.00000000000021
 20
2.991018187414193
 30
0.0
 11
-4.748450075215885
 21
2.741518929159201
 31
0.0
  0
LINE
  5
49C5
330
1F
100
AcDbEntity
  8
AM_0
100
AcDbLine
 10
-12.00000000000008
 20
-0.1350585385622253
 30
0.0
 11
-12.00000000000008
 21
-1.770908120996728
 31
0.0
  0
DIMENSION
  5
4E46
330
1F
100
AcDbEntity
  8
AM_5
100
AcDbDimension
  2
*D8
 10
-4.000000000000449
 20
0.0607689879471254
 30
0.0
 11
4.177054083413485
 21
-11.00983701842225
 31
0.0
 70
   164
  1
<>
  3
AM_JIS$4
100
AcDbRadialDimension
 15
-1.623482349750006
 25
-3.156708884245342
 35
0.0
 40
0.0
1001
GENIUS_GENDTOL_13
1000

1000
h7
1000

1040
0.0
1001
ACAD
1000
DSTYLE
1002
{
1070
   287
1070
     3
1070
   271
1070
     3
1070
   288
1070
     1
1070
   289
1070
     3
1070
   172
1070
     1
1070
    74
1070
     0
1002
}
  0
LINE
  5
4F4E
330
1F
100
AcDbEntity
  8
AM_0
100
AcDbLine
 10
-17.20347771740842
 20
-3.999999999999964
 30
0.0
 11
-89.24999999999997
 21
-4.000000000000057
 31
0.0
  0
LINE
  5
4F51
330
1F
100
AcDbEntity
  8
AM_0
100
AcDbLine
 10
-89.24999999999997
 20
3.999999999999836
 30
0.0
 11
-89.24999999999995
 21
-4.000000000000085
 31
0.0
  0
LINE
  5
4F52
330
1F
100
AcDbEntity
  8
AM_0
100
AcDbLine
 10
-89.99999999999998
 20
3.249999999999854
 30
0.0
 11
-89.99999999999998
 21
-3.250000000000058
 31
0.0
  0
DIMENSION
  5
4F53
330
1F
100
AcDbEntity
  8
AM_5
100
AcDbDimension
  2
*D9
 10
-106.0561951299595
 20
-4.000000000000079
 30
0.0
 11
-109.1561951299595
 21
-13.01428571428581
 31
0.0
 70
    32
  1
%%c<>
  3
AM_JIS
100
AcDbAlignedDimension
 13
-89.24999999999997
 23
3.999999999999836
 33
0.0
 14
-89.24999999999995
 24
-4.000000000000085
 34
0.0
 50
270.0
100
AcDbRotatedDimension
1001
GENIUS_GENDTOL_13
1000

1000
h7
1000

1040
0.0
  0
LINE
  5
4F62
330
1F
100
AcDbEntity
  8
AM_0
100
AcDbLine
 10
-18.31999999999996
 20
3.999999999999943
 30
0.0
 11
-89.24999999999997
 21
3.999999999999855
 31
0.0
  0
LINE
  5
4F70
330
1F
100
AcDbEntity
  8
AM_0
100
AcDbLine
 10
-89.99999999999998
 20
3.249999999999854
 30
0.0
 11
-89.24999999999997
 21
3.999999999999855
 31
0.0
1001
GENIUS_GENFIL_13
1070
     0
1040
0.75
1040
0.75
1040
20.0
1040
0.0
1002
{
1002
}
1001
GENIUS_GENODEF_13
1002
{
1000
HIER
1070
     0
1002
}
1002
{
1000
MANEDIT
1070
     0
1002
}
1002
{
1000
NOSEL
1070
     0
1002
}
1002
{
1000
BEHIND
1070
     0
1002
}
1002
{
1000
REACTOR
1002
}
1001
GENIUS_GENOBJ-N-CHA_13
1002
{
1000
OWNER
1000
GEN
1002
}
  0
LINE
  5
4F73
330
1F
100
AcDbEntity
  8
AM_0
100
AcDbLine
 10
-89.99999999999998
 20
-3.250000000000058
 30
0.0
 11
-89.24999999999997
 21
-4.000000000000057
 31
0.0
1001
GENIUS_GENFIL_13
1070
     0
1040
0.75
1040
0.75
1040
20.0
1040
0.0
1002
{
1002
}
1001
GENIUS_GENODEF_13
1002
{
1000
HIER
1070
     0
1002
}
1002
{
1000
MANEDIT
1070
     0
1002
}
1002
{
1000
NOSEL
1070
     0
1002
}
1002
{
1000
BEHIND
1070
     0
1002
}
1002
{
1000
REACTOR
1002
}
1001
GENIUS_GENOBJ-N-CHA_13
1002
{
1000
OWNER
1000
GEN
1002
}
  0
VIEWPORT
  5
110
330
101
100
AcDbEntity
 67
     1
  8
0
100
AcDbViewport
 10
420.5
 20
297.0
 30
0.0
 40
948.9782706766916
 41
628.452
 68
     1
 69
     1
1001
ACAD
1000
MVIEW
1002
{
1070
    16
1010
0.0
1020
0.0
1030
0.0
1010
0.0
1020
0.0
1030
1.0
1040
0.0
1040
628.452
1040
420.5
1040
297.0
1040
50.0
1040
0.0
1040
0.0
1070
     0
1070
   100
1070
     1
1070
     1
1070
     0
1070
     0
1070
     0
1070
     0
1040
0.0
1040
0.0
1040
0.0
1040
10.0
1040
10.0
1040
10.0
1040
10.0
1070
     0
1002
{
1002
}
1002
}
  0
ENDSEC
  0
SECTION
  2
OBJECTS
  0
DICTIONARY
  5
C
330
0
100
AcDbDictionary
  3
ACAD_GROUP
350
D
  3
ACAD_LAYOUT
350
1A
  3
ACAD_MLINESTYLE
350
17
  3
ACAD_PLOTSETTINGS
350
19
  3
ACAD_PLOTSTYLENAME
350
E
  3
ACDBVARIABLEDICTIONARY
350
34
  3
ACMDICTIONARY
350
43
  3
AMG
350
2B
  3
AMGSNAPSETTINGS
350
6E
  3
ASE_INDEX_DICTIONARY
350
151A
  3
DWGPROPS
350
4FDD
  3
ACDBHEADERROUNDTRIPXREC
350
4FE9
  0
DICTIONARY
  5
74
330
1F
100
AcDbDictionary
280
     1
  3
ACAD_INDEX
360
4FDF
  3
ACAD_LAYOUTSELFREF
360
500C
  0
DICTIONARY
  5
5011
330
101
100
AcDbDictionary
280
     1
  3
ACAD_LAYOUTSELFREF
360
5012
  0
DICTIONARY
  5
D
102
{ACAD_REACTORS
330
C
102
}
330
C
100
AcDbDictionary
  0
DICTIONARY
  5
1A
102
{ACAD_REACTORS
330
C
102
}
330
C
100
AcDbDictionary
  0
DICTIONARY
  5
17
102
{ACAD_REACTORS
330
C
102
}
330
C
100
AcDbDictionary
  3
STANDARD
350
18
  0
DICTIONARY
  5
19
102
{ACAD_REACTORS
330
C
102
}
330
C
100
AcDbDictionary
  0
ACDBDICTIONARYWDFLT
  5
E
102
{ACAD_REACTORS
330
C
102
}
330
C
100
AcDbDictionary
281
     1
  3
Normal
350
F
100
AcDbDictionaryWithDefault
340
F
  0
DICTIONARY
  5
34
102
{ACAD_REACTORS
330
C
102
}
330
C
100
AcDbDictionary
  3
INDEXCTL
350
35
  3
SORTENTS
350
B5E
  0
DICTIONARY
  5
43
102
{ACAD_REACTORS
330
C
102
}
330
C
100
AcDbDictionary
  3
ACMSTDDICTIONARY
350
260
  0
DICTIONARY
  5
2B
102
{ACAD_REACTORS
330
C
102
}
330
C
100
AcDbDictionary
  3
ACMGSETTINGS
350
2C
  0
DICTIONARY
  5
6E
102
{ACAD_REACTORS
330
C
102
}
330
C
100
AcDbDictionary
  0
DICTIONARY
  5
151A
102
{ACAD_REACTORS
330
C
102
}
330
C
100
AcDbDictionary
  3
ASEBLOCKHIERARCHYINDEXRECORD
350
151C
1001
DCO15
1040
1471862535.906
  0
XRECORD
  5
4FDD
102
{ACAD_REACTORS
330
C
102
}
330
C
100
AcDbXrecord
  1
DWGPROPS COOKIE
  2

  3

  4

  6

  7

  8

  9

300
AmdtFileType=82
301
=
302
=
303
=
304
=
305
=
306
=
307
=
308
=
309
=
 40
0.1676524652777778
 41
2452838.430434386
 42
2452871.703132766
  1

 90
        1
  0
DICTIONARY
  5
4FE9
102
{ACAD_REACTORS
330
C
102
}
330
C
100
AcDbDictionary
  3
TSTACKALIGN
350
4FEA
  3
TSTACKSIZE
350
4FEB
  3
HYPERLINKBASE
350
4FEC
  3
STYLESHEET
350
4FED
  3
LAYOUTDICT
350
4FEE
  3
PLOTSETDICT
350
4FEF
  3
PLOTSTYLNAMDICT
350
4FF0
  3
LWETCUNION
350
4FF1
  3
INSUNITS
350
4FF2
  3
CEPSNTYPE
350
4FF3
  3
FINGERPRINTGUID
350
4FF4
  3
VERSIONGUID
350
4FF5
  3
PSVPSCALE
350
4FF6
  3
DIMSTYLEDATA
350
4FF7
  3
PUCSORTHOREF
350
4FF8
  3
PUCSORTHOVIEW
350
4FF9
  3
PUCSBASE
350
4FFA
  3
PUCSORGTOP
350
4FFB
  3
PUCSORGBOTTOM
350
4FFC
  3
PUCSORGLEFT
350
4FFD
  3
PUCSORGRIGHT
350
4FFE
  3
PUCSORGFRONT
350
4FFF
  3
PUCSORGBACK
350
5000
  3
UCSORTHOREF
350
5001
  3
UCSORTHOVIEW
350
5002
  3
UCSBASE
350
5003
  3
UCSORGTOP
350
5004
  3
UCSORGBOTTOM
350
5005
  3
UCSORGLEFT
350
5006
  3
UCSORGRIGHT
350
5007
  3
UCSORGFRONT
350
5008
  3
UCSORGBACK
350
5009
  0
DICTIONARY
  5
4FDF
102
{ACAD_REACTORS
330
74
102
}
330
74
100
AcDbDictionary
  3
*A1
350
4FE0
  0
XRECORD
  5
500C
102
{ACAD_REACTORS
330
74
102
}
330
74
100
AcDbXrecord
340
1F
  0
XRECORD
  5
5012
102
{ACAD_REACTORS
330
5011
102
}
330
5011
100
AcDbXrecord
340
101
  0
MLINESTYLE
  5
18
102
{ACAD_REACTORS
330
17
102
}
330
17
100
AcDbMlineStyle
  2
STANDARD
 70
     0
  3

 62
   256
 51
90.0
 52
90.0
 71
     2
 49
0.5
 62
   256
  6
BYLAYER
 49
-0.5
 62
   256
  6
BYLAYER
  0
ACDBPLACEHOLDER
  5
F
102
{ACAD_REACTORS
330
E
102
}
330
E
100
AcDbPlaceHolder
280
     0
  0
DICTIONARYVAR
  5
35
102
{ACAD_REACTORS
330
34
102
}
330
34
100
DictionaryVariables
280
     0
  1
1
  0
DICTIONARYVAR
  5
B5E
102
{ACAD_REACTORS
330
34
102
}
330
34
100
DictionaryVariables
280
     0
  1
96
  0
DICTIONARY
  5
260
102
{ACAD_REACTORS
330
43
102
}
330
43
100
AcDbDictionary
  0
DICTIONARY
  5
2C
102
{ACAD_REACTORS
330
2B
102
}
330
2B
100
AcDbDictionary
  3
DWGSETTINGS
350
2D
  0
XRECORD
  5
151C
102
{ACAD_REACTORS
330
151A
102
}
330
151A
100
AcDbXrecord
330
0
330
0
330
0
330
0
330
0
330
0
330
0
330
0
  0
XRECORD
  5
4FEA
102
{ACAD_REACTORS
330
4FE9
102
}
330
4FE9
100
AcDbXrecord
 90
        1
  0
XRECORD
  5
4FEB
102
{ACAD_REACTORS
330
4FE9
102
}
330
4FE9
100
AcDbXrecord
 90
       70
  0
XRECORD
  5
4FEC
102
{ACAD_REACTORS
330
4FE9
102
}
330
4FE9
100
AcDbXrecord
  1

  0
XRECORD
  5
4FED
102
{ACAD_REACTORS
330
4FE9
102
}
330
4FE9
100
AcDbXrecord
  1
ASAMI.ctb
  0
XRECORD
  5
4FEE
102
{ACAD_REACTORS
330
4FE9
102
}
330
4FE9
100
AcDbXrecord
340
1A
  0
XRECORD
  5
4FEF
102
{ACAD_REACTORS
330
4FE9
102
}
330
4FE9
100
AcDbXrecord
340
19
  0
XRECORD
  5
4FF0
102
{ACAD_REACTORS
330
4FE9
102
}
330
4FE9
100
AcDbXrecord
340
E
  0
XRECORD
  5
4FF1
102
{ACAD_REACTORS
330
4FE9
102
}
330
4FE9
100
AcDbXrecord
 90
    10781
  0
XRECORD
  5
4FF2
102
{ACAD_REACTORS
330
4FE9
102
}
330
4FE9
100
AcDbXrecord
 90
        4
  0
XRECORD
  5
4FF3
102
{ACAD_REACTORS
330
4FE9
102
}
330
4FE9
100
AcDbXrecord
 90
        0
  0
XRECORD
  5
4FF4
102
{ACAD_REACTORS
330
4FE9
102
}
330
4FE9
100
AcDbXrecord
  1
{AFB28963-8C59-40AE-9337-C84526B81ACE}
  0
XRECORD
  5
4FF5
102
{ACAD_REACTORS
330
4FE9
102
}
330
4FE9
100
AcDbXrecord
  1
{1516668C-09FB-40D4-9354-AD722B8CF074}
  0
XRECORD
  5
4FF6
102
{ACAD_REACTORS
330
4FE9
102
}
330
4FE9
100
AcDbXrecord
 40
0.0
  0
XRECORD
  5
4FF7
102
{ACAD_REACTORS
330
4FE9
102
}
330
4FE9
100
AcDbXrecord
1000
DSTYLE
1002
{
1070
    79
 70
     2
1070
   341
340
59
1070
   342
340
59
1070
   371
 70
    -1
1070
   372
 70
    -1
1002
}
  0
XRECORD
  5
4FF8
102
{ACAD_REACTORS
330
4FE9
102
}
330
4FE9
100
AcDbXrecord
340
0
  0
XRECORD
  5
4FF9
102
{ACAD_REACTORS
330
4FE9
102
}
330
4FE9
100
AcDbXrecord
 70
     0
  0
XRECORD
  5
4FFA
102
{ACAD_REACTORS
330
4FE9
102
}
330
4FE9
100
AcDbXrecord
340
0
  0
XRECORD
  5
4FFB
102
{ACAD_REACTORS
330
4FE9
102
}
330
4FE9
100
AcDbXrecord
 10
0.0
 20
0.0
 30
0.0
  0
XRECORD
  5
4FFC
102
{ACAD_REACTORS
330
4FE9
102
}
330
4FE9
100
AcDbXrecord
 10
0.0
 20
0.0
 30
0.0
  0
XRECORD
  5
4FFD
102
{ACAD_REACTORS
330
4FE9
102
}
330
4FE9
100
AcDbXrecord
 10
0.0
 20
0.0
 30
0.0
  0
XRECORD
  5
4FFE
102
{ACAD_REACTORS
330
4FE9
102
}
330
4FE9
100
AcDbXrecord
 10
0.0
 20
0.0
 30
0.0
  0
XRECORD
  5
4FFF
102
{ACAD_REACTORS
330
4FE9
102
}
330
4FE9
100
AcDbXrecord
 10
0.0
 20
0.0
 30
0.0
  0
XRECORD
  5
5000
102
{ACAD_REACTORS
330
4FE9
102
}
330
4FE9
100
AcDbXrecord
 10
0.0
 20
0.0
 30
0.0
  0
XRECORD
  5
5001
102
{ACAD_REACTORS
330
4FE9
102
}
330
4FE9
100
AcDbXrecord
340
0
  0
XRECORD
  5
5002
102
{ACAD_REACTORS
330
4FE9
102
}
330
4FE9
100
AcDbXrecord
 70
     0
  0
XRECORD
  5
5003
102
{ACAD_REACTORS
330
4FE9
102
}
330
4FE9
100
AcDbXrecord
340
0
  0
XRECORD
  5
5004
102
{ACAD_REACTORS
330
4FE9
102
}
330
4FE9
100
AcDbXrecord
 10
0.0
 20
0.0
 30
0.0
  0
XRECORD
  5
5005
102
{ACAD_REACTORS
330
4FE9
102
}
330
4FE9
100
AcDbXrecord
 10
0.0
 20
0.0
 30
0.0
  0
XRECORD
  5
5006
102
{ACAD_REACTORS
330
4FE9
102
}
330
4FE9
100
AcDbXrecord
 10
0.0
 20
0.0
 30
0.0
  0
XRECORD
  5
5007
102
{ACAD_REACTORS
330
4FE9
102
}
330
4FE9
100
AcDbXrecord
 10
0.0
 20
0.0
 30
0.0
  0
XRECORD
  5
5008
102
{ACAD_REACTORS
330
4FE9
102
}
330
4FE9
100
AcDbXrecord
 10
0.0
 20
0.0
 30
0.0
  0
XRECORD
  5
5009
102
{ACAD_REACTORS
330
4FE9
102
}
330
4FE9
100
AcDbXrecord
 10
0.0
 20
0.0
 30
0.0
  0
LAYER_INDEX
  5
4FE0
102
{ACAD_REACTORS
330
4FDF
102
}
330
4FDF
100
AcDbIndex
 40
2453151.777864571
100
AcDbLayerIndex
  8
0
360
4FE1
 90
        0
  8
AM_0
360
4FE2
 90
       30
  8
AM_11
360
4FE3
 90
        4
  8
AM_7
360
4FE4
 90
        1
  8
AM_5
360
4FE5
 90
        5
  8
Defpoints
360
4FE6
 90
        0
  8
AM_6
360
4FE7
 90
        1
  0
XRECORD
  5
2D
102
{ACAD_REACTORS
330
2C
102
}
330
2C
100
AcDbXrecord
  1
VERSION
140
15.0
  1
PRODUCT
  2
AutoCAD Mechanical 2000
  0
IDBUFFER
  5
4FE1
330
0
100
AcDbIdBuffer
  0
IDBUFFER
  5
4FE2
330
0
100
AcDbIdBuffer
330
49AF
330
49B0
330
49B2
330
49B3
330
49C2
330
49C3
330
49C4
330
49C5
330
4F4E
330
4F51
330
4F52
330
4F62
330
4F70
330
4F73
330
499C
330
499D
330
499E
330
499F
330
49A0
330
49A1
330
49A2
330
49A5
330
49A6
330
49A7
330
49A8
330
49A9
330
49AA
330
49AC
330
49AD
330
49AE
  0
IDBUFFER
  5
4FE3
330
0
100
AcDbIdBuffer
330
49A3
330
49A4
330
49AB
330
49B1
  0
IDBUFFER
  5
4FE4
330
0
100
AcDbIdBuffer
330
3EE8
  0
IDBUFFER
  5
4FE5
330
0
100
AcDbIdBuffer
330
4047
330
412A
330
42F4
330
4E46
330
4F53
  0
IDBUFFER
  5
4FE6
330
0
100
AcDbIdBuffer
  0
IDBUFFER
  5
4FE7
330
0
100
AcDbIdBuffer
330
1500
  0
ENDSEC
  0
EOF
