  0
SECTION
  2
HEADER
  9
$ACADVER
  1
AC1014
  9
$ACADMAINTVER
 70
     9
  9
$DWGCODEPAGE
  3
ANSI_932
  9
$INSBASE
 10
0.0
 20
0.0
 30
0.0
  9
$EXTMIN
 10
-50.56056358178672
 20
-25.75000100000025
 30
-0.00000001
  9
$EXTMAX
 10
7.955777803085513
 20
3.99999999999998
 30
0.00000001
  9
$LIMMIN
 10
-52.40194419781818
 20
-33.50369771433159
  9
$LIMMAX
 10
12.91940147613843
 20
12.15960143765227
  9
$ORTHOMODE
 70
     0
  9
$REGENMODE
 70
     1
  9
$FILLMODE
 70
     1
  9
$QTEXTMODE
 70
     0
  9
$MIRRTEXT
 70
     0
  9
$DRAGMODE
 70
     2
  9
$LTSCALE
 40
1.0
  9
$OSMODE
 70
    55
  9
$ATTMODE
 70
     1
  9
$TEXTSIZE
 40
2.5
  9
$TRACEWID
 40
1.0
  9
$TEXTSTYLE
  7
STANDARD
  9
$CLAYER
  8
AM_0
  9
$CELTYPE
  6
BYLAYER
  9
$CECOLOR
 62
   256
  9
$CELTSCALE
 40
1.0
  9
$DELOBJ
 70
     1
  9
$DISPSILH
 70
     0
  9
$DIMSCALE
 40
0.5
  9
$DIMASZ
 40
2.5
  9
$DIMEXO
 40
1.0
  9
$DIMDLI
 40
12.0
  9
$DIMRND
 40
0.0
  9
$DIMDLE
 40
0.0
  9
$DIMEXE
 40
1.0
  9
$DIMTP
 40
0.1
  9
$DIMTM
 40
0.1
  9
$DIMTXT
 40
3.2
  9
$DIMCEN
 40
0.0
  9
$DIMTSZ
 40
0.0
  9
$DIMTOL
 70
     0
  9
$DIMLIM
 70
     0
  9
$DIMTIH
 70
     0
  9
$DIMTOH
 70
     0
  9
$DIMSE1
 70
     0
  9
$DIMSE2
 70
     0
  9
$DIMTAD
 70
     3
  9
$DIMZIN
 70
     8
  9
$DIMBLK
  1
OPEN30
  9
$DIMASO
 70
     1
  9
$DIMSHO
 70
     1
  9
$DIMPOST
  1

  9
$DIMAPOST
  1
"
  9
$DIMALT
 70
     0
  9
$DIMALTD
 70
     2
  9
$DIMALTF
 40
0.0393701
  9
$DIMLFAC
 40
1.0
  9
$DIMTOFL
 70
     1
  9
$DIMTVP
 40
0.0
  9
$DIMTIX
 70
     0
  9
$DIMSOXD
 70
     0
  9
$DIMSAH
 70
     0
  9
$DIMBLK1
  1

  9
$DIMBLK2
  1

  9
$DIMSTYLE
  2
AM_JIS
  9
$DIMCLRD
 70
   256
  9
$DIMCLRE
 70
   256
  9
$DIMCLRT
 70
     2
  9
$DIMTFAC
 40
0.71
  9
$DIMGAP
 40
1.5
  9
$DIMJUST
 70
     0
  9
$DIMSD1
 70
     0
  9
$DIMSD2
 70
     0
  9
$DIMTOLJ
 70
     0
  9
$DIMTZIN
 70
     0
  9
$DIMALTZ
 70
     0
  9
$DIMALTTZ
 70
     0
  9
$DIMFIT
 70
     3
  9
$DIMUPT
 70
     0
  9
$DIMUNIT
 70
     2
  9
$DIMDEC
 70
     3
  9
$DIMTDEC
 70
     3
  9
$DIMALTU
 70
     2
  9
$DIMALTTD
 70
     2
  9
$DIMTXSTY
  7
ASAMI
  9
$DIMAUNIT
 70
     0
  9
$LUNITS
 70
     2
  9
$LUPREC
 70
     2
  9
$SKETCHINC
 40
1.0
  9
$FILLETRAD
 40
2.5
  9
$AUNITS
 70
     0
  9
$AUPREC
 70
     0
  9
$MENU
  1
.
  9
$ELEVATION
 40
0.0
  9
$PELEVATION
 40
0.0
  9
$THICKNESS
 40
0.0
  9
$LIMCHECK
 70
     0
  9
$BLIPMODE
 70
     0
  9
$CHAMFERA
 40
0.25
  9
$CHAMFERB
 40
0.25
  9
$CHAMFERC
 40
20.0
  9
$CHAMFERD
 40
0.0
  9
$SKPOLY
 70
     0
  9
$TDCREATE
 40
2452838.430434386
  9
$TDUPDATE
 40
2453151.765893542
  9
$TDINDWG
 40
0.5313003356
  9
$TDUSRTIMER
 40
0.5313003356
  9
$USRTIMER
 70
     1
  9
$ANGBASE
 50
0.0
  9
$ANGDIR
 70
     0
  9
$PDMODE
 70
     0
  9
$PDSIZE
 40
0.0
  9
$PLINEWID
 40
0.0
  9
$COORDS
 70
     1
  9
$SPLFRAME
 70
     0
  9
$SPLINETYPE
 70
     6
  9
$SPLINESEGS
 70
     8
  9
$ATTDIA
 70
     1
  9
$ATTREQ
 70
     1
  9
$HANDLING
 70
 12289
  9
$HANDSEED
  5
A6A7
  9
$SURFTAB1
 70
     6
  9
$SURFTAB2
 70
     6
  9
$SURFTYPE
 70
     6
  9
$SURFU
 70
     6
  9
$SURFV
 70
     6
  9
$UCSNAME
  2

  9
$UCSORG
 10
0.0
 20
0.0
 30
0.0
  9
$UCSXDIR
 10
1.0
 20
0.0
 30
0.0
  9
$UCSYDIR
 10
0.0
 20
1.0
 30
0.0
  9
$PUCSNAME
  2

  9
$PUCSORG
 10
0.0
 20
0.0
 30
0.0
  9
$PUCSXDIR
 10
1.0
 20
0.0
 30
0.0
  9
$PUCSYDIR
 10
0.0
 20
1.0
 30
0.0
  9
$USERI1
 70
     0
  9
$USERI2
 70
     0
  9
$USERI3
 70
     0
  9
$USERI4
 70
     0
  9
$USERI5
 70
     0
  9
$USERR1
 40
0.0
  9
$USERR2
 40
0.0
  9
$USERR3
 40
0.0
  9
$USERR4
 40
0.0
  9
$USERR5
 40
0.0
  9
$WORLDVIEW
 70
     1
  9
$SHADEDGE
 70
     3
  9
$SHADEDIF
 70
    70
  9
$TILEMODE
 70
     1
  9
$MAXACTVP
 70
    64
  9
$PINSBASE
 10
0.0
 20
0.0
 30
0.0
  9
$PLIMCHECK
 70
     0
  9
$PEXTMIN
 10
1.000000000000000E+20
 20
1.000000000000000E+20
 30
1.000000000000000E+20
  9
$PEXTMAX
 10
-1.000000000000000E+20
 20
-1.000000000000000E+20
 30
-1.000000000000000E+20
  9
$PLIMMIN
 10
0.0
 20
0.0
  9
$PLIMMAX
 10
841.0
 20
594.0
  9
$UNITMODE
 70
     0
  9
$VISRETAIN
 70
     1
  9
$PLINEGEN
 70
     0
  9
$PSLTSCALE
 70
     0
  9
$TREEDEPTH
 70
  3020
  9
$PICKSTYLE
 70
     0
  9
$CMLSTYLE
  2
STANDARD
  9
$CMLJUST
 70
     0
  9
$CMLSCALE
 40
20.0
  9
$PROXYGRAPHICS
 70
     1
  9
$MEASUREMENT
 70
     1
  0
ENDSEC
  0
SECTION
  2
CLASSES
  0
CLASS
  1
ACDBDICTIONARYWDFLT
  2
AcDbDictionaryWithDefault
  3
AutoCAD 2000
 90
        0
280
     0
281
     0
  0
CLASS
  1
ACDBPLACEHOLDER
  2
AcDbPlaceHolder
  3
AutoCAD 2000
 90
        0
280
     0
281
     0
  0
CLASS
  1
LAYOUT
  2
AcDbLayout
  3
AutoCAD 2000
 90
        0
280
     0
281
     0
  0
CLASS
  1
AMGSETTINGSOBJ
  2
AmgSettingsObj
  3
"AcadM|Product Description: AutoCAD Mechanical 2000|Company: Autodesk"
 90
        0
280
     0
281
     0
  0
CLASS
  1
ACME_DOCUMENT
  2
AcMeDbDoc
  3
AcMeServices
 90
        0
280
     0
281
     0
  0
CLASS
  1
ACMESCOPE
  2
AcMeScope
  3
AcMeServices
 90
        0
280
     0
281
     0
  0
CLASS
  1
ACMECOMMANDHISTORY
  2
AcMeCommandHistory
  3
AcMeServices
 90
        0
280
     0
281
     0
  0
CLASS
  1
DICTIONARYVAR
  2
AcDbDictionaryVar
  3
AutoCAD 2000
 90
        0
280
     0
281
     0
  0
CLASS
  1
ACIMSYSVARMAN
  2
AcImSysVarManager
  3
AcMeServices
 90
        0
280
     0
281
     0
  0
CLASS
  1
ACIMREALSYSVAR
  2
AcImRealSysVar
  3
AcMeServices
 90
        0
280
     0
281
     0
  0
CLASS
  1
ACIMINTSYSVAR
  2
AcImIntSysVar
  3
AcMeServices
 90
        0
280
     0
281
     0
  0
CLASS
  1
ACMEDRAWINGMAN
  2
AcMeDrawingMan
  3
AcMeServices
 90
        0
280
     0
281
     0
  0
CLASS
  1
ACMEVIEW
  2
AcMeView
  3
AcMeServices
 90
        0
280
     0
281
     0
  0
CLASS
  1
ACDBENTITYCACHE
  2
AcMeEntityCache
  3
AcMeServices
 90
        0
280
     0
281
     0
  0
CLASS
  1
GSMANAGER
  2
AcMeGSManager
  3
AcMeServices
 90
        0
280
     0
281
     0
  0
CLASS
  1
AmdtInternalReactor
  2
AmdtInternalReactor
  3
AcMeServices
 90
        0
280
     0
281
     0
  0
CLASS
  1
ACMESTATEMGR
  2
AcMeStateMgr
  3
AcMeServices
 90
        0
280
     0
281
     0
  0
CLASS
  1
ACME_DATABASE
  2
AcMeDbDatabase
  3
AcMeServices
 90
        0
280
     0
281
     0
  0
CLASS
  1
ACRFINSADJUSTERMGR
  2
AcRfInsAdjusterMgr
  3
AcMeServices
 90
        0
280
     0
281
     0
  0
CLASS
  1
ACMDATADICTIONARY
  2
AcmDataDictionary
  3
"AcmSymBB|Product Description: AutoCAD Mechanical 2000|Company: Autodesk"
 90
        0
280
     0
281
     0
  0
CLASS
  1
ACMDATAENTRYBLOCK
  2
AcmDataEntryBlock
  3
"AcmSymBB|Product Description: AutoCAD Mechanical 2000|Company: Autodesk"
 90
        0
280
     0
281
     0
  0
CLASS
  1
AMGOBJPROPCFG
  2
AmgObjPropCfg
  3
"AmgLay|Product Description: AutoCAD Mechanical 2000|Company: Autodesk"
 90
        1
280
     0
281
     0
  0
CLASS
  1
ACAMGFILTERDAT
  2
AcAmgFilterDat
  3
"AcadM|Product Description: AutoCAD Mechanical 2000|Company: Autodesk"
 90
        0
280
     0
281
     0
  0
CLASS
  1
LAYER_INDEX
  2
AcDbLayerIndex
  3
AutoCAD 2000
 90
        0
280
     0
281
     0
  0
CLASS
  1
IDBUFFER
  2
AcDbIdBuffer
  3
AutoCAD 2000
 90
        0
280
     0
281
     0
  0
CLASS
  1
ACIMSTRSYSVAR
  2
AcImStrSysVar
  3
AcMeServices
 90
        0
280
     0
281
     0
  0
CLASS
  1
ACMSTANDARDJIS
  2
AcmStandardJIS
  3
"AcmSymBB|Product Description: AutoCAD Mechanical 2000|Company: Autodesk"
 90
        0
280
     0
281
     0
  0
CLASS
  1
ACMSURFSTANDARDJIS
  2
AcmSurfTextStdJIS
  3
"AcmSymBB|Product Description: AutoCAD Mechanical 2000|Company: Autodesk"
 90
        0
280
     0
281
     0
  0
CLASS
  1
ACMFCFSTANDARDJIS
  2
AcmFCFStdJIS
  3
"AcmSymBB|Product Description: AutoCAD Mechanical 2000|Company: Autodesk"
 90
        0
280
     0
281
     0
  0
CLASS
  1
ACMWELDSTANDARDJIS
  2
AcmWeldingStdJIS
  3
"AcmSymBB|Product Description: AutoCAD Mechanical 2000|Company: Autodesk"
 90
        0
280
     0
281
     0
  0
CLASS
  1
ACMIDSTANDARDJIS
  2
AcmIdStdJIS
  3
"AcmSymBB|Product Description: AutoCAD Mechanical 2000|Company: Autodesk"
 90
        0
280
     0
281
     0
  0
CLASS
  1
ACMDATUMSTANDARDJIS
  2
AcmDatumStdJIS
  3
"AcmSymBB|Product Description: AutoCAD Mechanical 2000|Company: Autodesk"
 90
        0
280
     0
281
     0
  0
CLASS
  1
ACMBOMSTANDARDJIS
  2
AcmBOMStdJIS
  3
"AcmSymBB|Product Description: AutoCAD Mechanical 2000|Company: Autodesk"
 90
        0
280
     0
281
     0
  0
CLASS
  1
ACMSTANDARDANSI
  2
AcmStandardANSI
  3
"AcmSymBB|Product Description: AutoCAD Mechanical 2000|Company: Autodesk"
 90
        0
280
     0
281
     0
  0
CLASS
  1
ACMSURFSTANDARDANSI
  2
AcmSurfTextStdANSI
  3
"AcmSymBB|Product Description: AutoCAD Mechanical 2000|Company: Autodesk"
 90
        0
280
     0
281
     0
  0
CLASS
  1
ACMFCFSTANDARDANSI
  2
AcmFCFStdANSI
  3
"AcmSymBB|Product Description: AutoCAD Mechanical 2000|Company: Autodesk"
 90
        0
280
     0
281
     0
  0
CLASS
  1
ACMWELDSTANDARDANSI
  2
AcmWeldingStdANSI
  3
"AcmSymBB|Product Description: AutoCAD Mechanical 2000|Company: Autodesk"
 90
        0
280
     0
281
     0
  0
CLASS
  1
ACMIDSTANDARDANSI
  2
AcmIdStdANSI
  3
"AcmSymBB|Product Description: AutoCAD Mechanical 2000|Company: Autodesk"
 90
        0
280
     0
281
     0
  0
CLASS
  1
ACMDATUMSTANDARDANSI
  2
AcmDatumStdANSI
  3
"AcmSymBB|Product Description: AutoCAD Mechanical 2000|Company: Autodesk"
 90
        0
280
     0
281
     0
  0
CLASS
  1
ACMBOMSTANDARDANSI
  2
AcmBOMStdANSI
  3
"AcmSymBB|Product Description: AutoCAD Mechanical 2000|Company: Autodesk"
 90
        0
280
     0
281
     0
  0
CLASS
  1
ACMSTANDARDBSI
  2
AcmStandardBSI
  3
"AcmSymBB|Product Description: AutoCAD Mechanical 2000|Company: Autodesk"
 90
        0
280
     0
281
     0
  0
CLASS
  1
ACMSURFSTANDARDBSI
  2
AcmSurfTextStdBSI
  3
"AcmSymBB|Product Description: AutoCAD Mechanical 2000|Company: Autodesk"
 90
        0
280
     0
281
     0
  0
CLASS
  1
ACMFCFSTANDARDBSI
  2
AcmFCFStdBSI
  3
"AcmSymBB|Product Description: AutoCAD Mechanical 2000|Company: Autodesk"
 90
        0
280
     0
281
     0
  0
CLASS
  1
ACMWELDSTANDARDBSI
  2
AcmWeldingStdBSI
  3
"AcmSymBB|Product Description: AutoCAD Mechanical 2000|Company: Autodesk"
 90
        0
280
     0
281
     0
  0
CLASS
  1
ACMIDSTANDARDBSI
  2
AcmIdStdBSI
  3
"AcmSymBB|Product Description: AutoCAD Mechanical 2000|Company: Autodesk"
 90
        0
280
     0
281
     0
  0
CLASS
  1
ACMDATUMSTANDARDBSI
  2
AcmDatumStdBSI
  3
"AcmSymBB|Product Description: AutoCAD Mechanical 2000|Company: Autodesk"
 90
        0
280
     0
281
     0
  0
CLASS
  1
ACMBOMSTANDARDBSI
  2
AcmBOMStdBSI
  3
"AcmSymBB|Product Description: AutoCAD Mechanical 2000|Company: Autodesk"
 90
        0
280
     0
281
     0
  0
CLASS
  1
LONG_TRANSACTION
  2
AcDbLongTransaction
  3
AutoCAD 2000
 90
        0
280
     0
281
     0
  0
CLASS
  1
LWPOLYLINE
  2
AcDbPolyline
  3
AutoCAD 2000
 90
        0
280
     0
281
     1
  0
CLASS
  1
HATCH
  2
AcDbHatch
  3
AutoCAD 2000
 90
        0
280
     0
281
     1
  0
CLASS
  1
XRECORD
  2
AcDbXrecord
  3
AutoCAD 2000
 90
        0
280
     0
281
     0
  0
ENDSEC
  0
SECTION
  2
TABLES
  0
TABLE
  2
VPORT
  5
8
330
0
100
AcDbSymbolTable
 70
     3
  0
VPORT
  5
A67C
330
8
100
AcDbSymbolTableRecord
100
AcDbViewportTableRecord
  2
*ACTIVE
 70
     0
 10
0.0
 20
0.0
 11
1.0
 21
1.0
 12
-19.81329976429804
 22
-11.54397102366273
 13
0.0
 23
0.0
 14
2.5
 24
2.5
 15
10.0
 25
10.0
 16
0.0
 26
0.0
 36
1.0
 17
0.0
 27
0.0
 37
0.0
 40
44.09343401961322
 41
1.56570841889117
 42
50.0
 43
0.0
 44
0.0
 50
0.0
 51
0.0
 71
     0
 72
   100
 73
     1
 74
     3
 75
     0
 76
     0
 77
     0
 78
     0
  0
ENDTAB
  0
TABLE
  2
LTYPE
  5
5
330
0
100
AcDbSymbolTable
 70
    10
  0
LTYPE
  5
14
330
5
100
AcDbSymbolTableRecord
100
AcDbLinetypeTableRecord
  2
BYBLOCK
 70
     0
  3

 72
    65
 73
     0
 40
0.0
  0
LTYPE
  5
15
330
5
100
AcDbSymbolTableRecord
100
AcDbLinetypeTableRecord
  2
BYLAYER
 70
     0
  3

 72
    65
 73
     0
 40
0.0
  0
LTYPE
  5
16
330
5
100
AcDbSymbolTableRecord
100
AcDbLinetypeTableRecord
  2
CONTINUOUS
 70
     0
  3
Solid line
 72
    65
 73
     0
 40
0.0
  0
LTYPE
  5
4B
330
5
100
AcDbSymbolTableRecord
100
AcDbLinetypeTableRecord
  2
AM_ISO02W050
 70
     0
  3
__ __ __ __ __ __ __ __ __ __ __ __ __ __ __
 72
    65
 73
     2
 40
7.5
 49
6.0
 74
     0
 49
-1.5
 74
     0
  0
LTYPE
  5
4C
330
5
100
AcDbSymbolTableRecord
100
AcDbLinetypeTableRecord
  2
AM_ISO08W050
 70
     0
  3
____ . ____ . ____ . ____ . ____ . ____ . ____
 72
    65
 73
     4
 40
18.0
 49
12.0
 74
     0
 49
-1.5
 74
     0
 49
3.0
 74
     0
 49
-1.5
 74
     0
  0
LTYPE
  5
4D
330
5
100
AcDbSymbolTableRecord
100
AcDbLinetypeTableRecord
  2
AM_ISO09W050
 70
     0
  3
_____ . . _____ . . _____ . . ____ .. ____
 72
    65
 73
     6
 40
22.5
 49
12.0
 74
     0
 49
-1.5
 74
     0
 49
3.0
 74
     0
 49
-1.5
 74
     0
 49
3.0
 74
     0
 49
-1.5
 74
     0
  0
LTYPE
  5
4E
330
5
100
AcDbSymbolTableRecord
100
AcDbLinetypeTableRecord
  2
AMCONSTR
 70
     0
  3
_______________________
 72
    65
 73
     2
 40
9999.0
 49
9999.0
 74
     0
 49
0.0
 74
     0
  0
LTYPE
  5
4F
330
5
100
AcDbSymbolTableRecord
100
AcDbLinetypeTableRecord
  2
AM_ISO02W050X2
 70
     0
  3
 _ _ _ _ _ _ _ _ _ _ _ _
 72
    65
 73
     2
 40
3.75
 49
3.0
 74
     0
 49
-0.75
 74
     0
  0
LTYPE
  5
50
330
5
100
AcDbSymbolTableRecord
100
AcDbLinetypeTableRecord
  2
AM_ISO08W050X2
 70
     0
  3
__ . __ . __ . __ . __ . __
 72
    65
 73
     4
 40
9.0
 49
6.0
 74
     0
 49
-0.75
 74
     0
 49
1.5
 74
     0
 49
-0.75
 74
     0
  0
LTYPE
  5
53
330
5
100
AcDbSymbolTableRecord
100
AcDbLinetypeTableRecord
  2
AMZIGZAG
 70
     0
  3
/\/-/\/-/\/-/\/-/\/-/\/
 72
    65
 73
     2
 40
11.00009999999999
 49
0.0001
 74
     4
 75
   135
340
52
 46
0.04
 50
0.0
 44
0.0
 45
0.0
 49
-11.0
 74
     0
  0
LTYPE
  5
166
330
5
100
AcDbSymbolTableRecord
100
AcDbLinetypeTableRecord
  2
ACJISTGL
 70
     0
  3
_ _ _ _ _
 72
    65
 73
     2
 40
3.0
 49
2.0
 74
     0
 49
-1.0
 74
     0
  0
LTYPE
  5
26A
330
5
100
AcDbSymbolTableRecord
100
AcDbLinetypeTableRecord
  2
ACJISTGB
 70
     0
  3
__ . . __ . .
 72
    65
 73
     6
 40
9.0
 49
4.0
 74
     0
 49
-1.0
 74
     0
 49
1.0
 74
     0
 49
-1.0
 74
     0
 49
1.0
 74
     0
 49
-1.0
 74
     0
  0
ENDTAB
  0
TABLE
  2
LAYER
  5
2
330
0
100
AcDbSymbolTable
 70
     7
  0
LAYER
  5
10
330
2
100
AcDbSymbolTableRecord
100
AcDbLayerTableRecord
  2
0
 70
     0
 62
     7
  6
CONTINUOUS
  0
LAYER
  5
3F9
330
2
100
AcDbSymbolTableRecord
100
AcDbLayerTableRecord
  2
AM_0
 70
     0
 62
     7
  6
CONTINUOUS
  0
LAYER
  5
BDD
330
2
100
AcDbSymbolTableRecord
100
AcDbLayerTableRecord
  2
AM_11
 70
     0
 62
     3
  6
AM_ISO09W050
  0
LAYER
  5
BDE
330
2
100
AcDbSymbolTableRecord
100
AcDbLayerTableRecord
  2
AM_7
 70
     0
 62
     4
  6
AM_ISO08W050
  0
LAYER
  5
BDF
330
2
100
AcDbSymbolTableRecord
100
AcDbLayerTableRecord
  2
AM_5
 70
     0
 62
     3
  6
CONTINUOUS
  0
LAYER
  5
BE0
330
2
100
AcDbSymbolTableRecord
100
AcDbLayerTableRecord
  2
DEFPOINTS
 70
     0
 62
     7
  6
CONTINUOUS
  0
LAYER
  5
14FF
330
2
100
AcDbSymbolTableRecord
100
AcDbLayerTableRecord
  2
AM_6
 70
     0
 62
     2
  6
CONTINUOUS
  0
ENDTAB
  0
TABLE
  2
STYLE
  5
3
330
0
100
AcDbSymbolTable
 70
     5
  0
STYLE
  5
11
330
3
100
AcDbSymbolTableRecord
100
AcDbTextStyleTableRecord
  2
STANDARD
 70
     0
 40
0.0
 41
1.0
 50
0.0
 71
     0
 42
2.5
  3
simplex.shx
  4
EXTFONT.SHX
  0
STYLE
  5
52
330
3
100
AcDbSymbolTableRecord
100
AcDbTextStyleTableRecord
  2

 70
     1
 40
0.0
 41
1.0
 50
0.0
 71
     0
 42
2.5
  3
ltypeshp.shx
  4

  0
STYLE
  5
6B
330
3
100
AcDbSymbolTableRecord
100
AcDbTextStyleTableRecord
  2
ASAMI
 70
     0
 40
0.0
 41
1.0
 50
0.0
 71
     0
 42
2.5
  3
simplex.shx
  4
EXTFONT.SHX
  0
STYLE
  5
262
330
3
100
AcDbSymbolTableRecord
100
AcDbTextStyleTableRecord
  2
ACJISTS
 70
     0
 40
1.0
 41
1.0
 50
0.0
 71
     0
 42
2.5
  3
simplex.shx
  4
bigfont.shx
  0
STYLE
  5
269
330
3
100
AcDbSymbolTableRecord
100
AcDbTextStyleTableRecord
  2
ACJISGDT
 70
     0
 40
0.0
 41
1.0
 50
0.0
 71
     0
 42
2.5
  3
amgdtans.shx
  4

  0
ENDTAB
  0
TABLE
  2
VIEW
  5
6
330
0
100
AcDbSymbolTable
 70
     0
  0
ENDTAB
  0
TABLE
  2
UCS
  5
7
330
0
100
AcDbSymbolTable
 70
     0
  0
ENDTAB
  0
TABLE
  2
APPID
  5
9
330
0
100
AcDbSymbolTable
 70
    13
  0
APPID
  5
12
330
9
100
AcDbSymbolTableRecord
100
AcDbRegAppTableRecord
  2
ACAD
 70
     0
  0
APPID
  5
30
330
9
100
AcDbSymbolTableRecord
100
AcDbRegAppTableRecord
  2
MCAD_NO_VIS
 70
     0
  0
APPID
  5
31
330
9
100
AcDbSymbolTableRecord
100
AcDbRegAppTableRecord
  2
ACAD_TEMP_GRAPHIC
 70
     0
  0
APPID
  5
2C2
330
9
100
AcDbSymbolTableRecord
100
AcDbRegAppTableRecord
  2
GENIUS_GENDTOL_13
 70
     0
  0
APPID
  5
339
330
9
100
AcDbSymbolTableRecord
100
AcDbRegAppTableRecord
  2
GENIUS_GENODEF_13
 70
     0
  0
APPID
  5
33A
330
9
100
AcDbSymbolTableRecord
100
AcDbRegAppTableRecord
  2
GENIUS_GENOBJ-N-RSBK_13
 70
     0
  0
APPID
  5
33B
330
9
100
AcDbSymbolTableRecord
100
AcDbRegAppTableRecord
  2
GENIUS_GENOBJ-N-LIB_13
 70
     0
  0
APPID
  5
33C
330
9
100
AcDbSymbolTableRecord
100
AcDbRegAppTableRecord
  2
GENIUS_GENSCALE_13
 70
     0
  0
APPID
  5
378
330
9
100
AcDbSymbolTableRecord
100
AcDbRegAppTableRecord
  2
GENIUS_GENDIMSH_14
 70
     0
  0
APPID
  5
BE1
330
9
100
AcDbSymbolTableRecord
100
AcDbRegAppTableRecord
  2
GENIUS_GENFIL_13
 70
     0
  0
APPID
  5
BE2
330
9
100
AcDbSymbolTableRecord
100
AcDbRegAppTableRecord
  2
GENIUS_GENOBJ-N-CHA_13
 70
     0
  0
APPID
  5
151B
330
9
100
AcDbSymbolTableRecord
100
AcDbRegAppTableRecord
  2
DCO15
 70
     0
  0
APPID
  5
1860
330
9
100
AcDbSymbolTableRecord
100
AcDbRegAppTableRecord
  2
GENIUS_GENOBJ-N-CEN_13
 70
     0
  0
ENDTAB
  0
TABLE
  2
DIMSTYLE
  5
A
330
0
100
AcDbSymbolTable
 70
     8
  0
DIMSTYLE
105
58
102
{ACAD_REACTORS
330
A1A7
330
A237
330
A4D3
330
A5A4
102
}
330
A
100
AcDbSymbolTableRecord
100
AcDbDimStyleTableRecord
  2
AM_JIS
 70
     0
  3

  4
"
  5
OPEN30
  6

  7

 40
0.5
 41
2.5
 42
1.0
 43
12.0
 44
1.0
 45
0.0
 46
0.0
 47
0.1
 48
0.1
140
3.2
141
0.0
142
0.0
143
0.0393701
144
1.0
145
0.0
146
0.71
147
1.5
 71
     0
 72
     0
 73
     0
 74
     0
 75
     0
 76
     0
 77
     3
 78
     8
170
     0
171
     2
172
     1
173
     0
174
     0
175
     0
176
   256
177
   256
178
     2
270
     2
271
     3
272
     3
273
     2
274
     2
340
6B
275
     0
280
     0
281
     0
282
     0
283
     0
284
     0
285
     0
286
     0
287
     3
288
     0
  0
DIMSTYLE
105
5F
330
A
100
AcDbSymbolTableRecord
100
AcDbDimStyleTableRecord
  2
AM_JIS$3
 70
     0
  3

  4
"
  5
OPEN30
  6

  7

 40
0.5
 41
2.5
 42
1.0
 43
10.0
 44
1.0
 45
0.0
 46
0.0
 47
0.1
 48
0.1
140
3.2
141
0.0
142
0.0
143
0.0393701
144
1.0
145
0.0
146
0.71
147
1.5
 71
     0
 72
     0
 73
     0
 74
     1
 75
     0
 76
     0
 77
     3
 78
     8
170
     0
171
     2
172
     0
173
     0
174
     0
175
     0
176
   256
177
   256
178
     2
270
     2
271
     2
272
     3
273
     2
274
     2
340
6B
275
     0
280
     0
281
     0
282
     0
283
     0
284
     0
285
     0
286
     0
287
     0
288
     1
  0
DIMSTYLE
105
60
330
A
100
AcDbSymbolTableRecord
100
AcDbDimStyleTableRecord
  2
AM_JIS$4
 70
     0
  3

  4
"
  5
OPEN30
  6

  7

 40
0.5
 41
2.5
 42
1.0
 43
10.0
 44
1.0
 45
0.0
 46
0.0
 47
0.1
 48
0.1
140
3.2
141
0.0
142
0.0
143
0.0393701
144
1.0
145
0.0
146
0.71
147
1.5
 71
     0
 72
     0
 73
     0
 74
     1
 75
     0
 76
     0
 77
     3
 78
     8
170
     0
171
     2
172
     0
173
     0
174
     0
175
     0
176
   256
177
   256
178
     2
270
     2
271
     2
272
     3
273
     2
274
     2
340
6B
275
     0
280
     0
281
     0
282
     0
283
     0
284
     0
285
     0
286
     0
287
     0
288
     1
  0
DIMSTYLE
105
61
330
A
100
AcDbSymbolTableRecord
100
AcDbDimStyleTableRecord
  2
AM_JIS$6
 70
     0
  3

  4
"
  5
OPEN30
  6

  7

 40
0.5
 41
2.5
 42
1.0
 43
10.0
 44
1.0
 45
0.0
 46
0.0
 47
0.1
 48
0.1
140
3.2
141
0.0
142
0.0
143
0.0393701
144
1.0
145
0.0
146
0.71
147
1.5
 71
     0
 72
     0
 73
     0
 74
     0
 75
     0
 76
     0
 77
     0
 78
     8
170
     0
171
     2
172
     1
173
     0
174
     0
175
     0
176
   256
177
   256
178
     2
270
     2
271
     2
272
     2
273
     2
274
     2
340
6B
275
     0
280
     0
281
     0
282
     0
283
     0
284
     0
285
     0
286
     0
287
     3
288
     0
  0
DIMSTYLE
105
62
330
A
100
AcDbSymbolTableRecord
100
AcDbDimStyleTableRecord
  2
AM_JIS$7
 70
     0
  3

  4
"
  5
OPEN30
  6

  7

 40
0.5
 41
2.5
 42
1.0
 43
10.0
 44
1.0
 45
0.0
 46
0.0
 47
0.1
 48
0.1
140
3.2
141
0.0
142
0.0
143
0.0393701
144
1.0
145
0.0
146
0.71
147
1.5
 71
     0
 72
     0
 73
     0
 74
     0
 75
     0
 76
     0
 77
     3
 78
     8
170
     0
171
     2
172
     1
173
     0
174
     0
175
     0
176
   256
177
   256
178
     2
270
     2
271
     2
272
     3
273
     2
274
     2
340
6B
275
     0
280
     0
281
     0
282
     0
283
     0
284
     0
285
     0
286
     0
287
     3
288
     0
  0
DIMSTYLE
105
63
330
A
100
AcDbSymbolTableRecord
100
AcDbDimStyleTableRecord
  2
AM_JIS$SF
 70
     0
  3

  4
"
  5
OPEN30
  6

  7

 40
0.5
 41
2.5
 42
1.0
 43
10.0
 44
1.0
 45
0.0
 46
0.0
 47
0.1
 48
0.1
140
3.2
141
0.0
142
0.0
143
0.0393701
144
1.0
145
0.0
146
0.71
147
1.5
 71
     0
 72
     0
 73
     0
 74
     0
 75
     1
 76
     1
 77
     3
 78
     8
170
     0
171
     2
172
     1
173
     0
174
     0
175
     0
176
   256
177
   256
178
     2
270
     2
271
     2
272
     2
273
     2
274
     2
340
6B
275
     0
280
     0
281
     0
282
     0
283
     0
284
     0
285
     0
286
     0
287
     3
288
     0
  0
DIMSTYLE
105
68
330
A
100
AcDbSymbolTableRecord
100
AcDbDimStyleTableRecord
  2
AM_JIS$SH
 70
     0
  3

  4
"
  5

  6
GENAXEH
  7
OPEN30
 40
0.5
 41
2.5
 42
1.0
 43
10.0
 44
1.0
 45
0.0
 46
0.0
 47
0.1
 48
0.1
140
3.2
141
0.0
142
0.0
143
0.0393701
144
2.0
145
0.0
146
0.71
147
1.5
 71
     0
 72
     0
 73
     0
 74
     0
 75
     1
 76
     1
 77
     3
 78
     8
170
     0
171
     2
172
     1
173
     1
174
     0
175
     0
176
   256
177
   256
178
     2
270
     2
271
     2
272
     2
273
     2
274
     2
340
6B
275
     0
280
     0
281
     0
282
     0
283
     0
284
     0
285
     0
286
     0
287
     3
288
     0
  0
DIMSTYLE
105
B34
330
A
100
AcDbSymbolTableRecord
100
AcDbDimStyleTableRecord
  2
AM_JIS$2
 70
     0
  3

  4
"
  5
OPEN30
  6

  7

 40
0.5
 41
2.5
 42
1.0
 43
12.0
 44
1.0
 45
0.0
 46
0.0
 47
0.1
 48
0.1
140
3.2
141
0.0
142
0.0
143
0.0393701
144
1.0
145
0.0
146
0.71
147
1.5
 71
     0
 72
     0
 73
     0
 74
     0
 75
     0
 76
     0
 77
     3
 78
     8
170
     0
171
     2
172
     1
173
     0
174
     0
175
     0
176
   256
177
   256
178
     2
270
     2
271
     3
272
     3
273
     2
274
     2
340
6B
275
     0
280
     0
281
     0
282
     0
283
     0
284
     0
285
     0
286
     0
287
     3
288
     0
  0
ENDTAB
  0
TABLE
  2
BLOCK_RECORD
  5
1
330
0
100
AcDbSymbolTable
 70
     9
  0
BLOCK_RECORD
  5
1F
102
{ACAD_XDICTIONARY
360
74
102
}
330
1
100
AcDbSymbolTableRecord
100
AcDbBlockTableRecord
  2
*MODEL_SPACE
  0
BLOCK_RECORD
  5
101
102
{ACAD_XDICTIONARY
360
A6A5
102
}
330
1
100
AcDbSymbolTableRecord
100
AcDbBlockTableRecord
  2
*PAPER_SPACE
  0
BLOCK_RECORD
  5
59
330
1
100
AcDbSymbolTableRecord
100
AcDbBlockTableRecord
  2
_OPEN30
  0
BLOCK_RECORD
  5
64
330
1
100
AcDbSymbolTableRecord
100
AcDbBlockTableRecord
  2
GENAXEH
  0
BLOCK_RECORD
  5
A1A8
330
1
100
AcDbSymbolTableRecord
100
AcDbBlockTableRecord
  2
*D5
  0
BLOCK_RECORD
  5
A238
330
1
100
AcDbSymbolTableRecord
100
AcDbBlockTableRecord
  2
*D6
  0
BLOCK_RECORD
  5
A4D4
330
1
100
AcDbSymbolTableRecord
100
AcDbBlockTableRecord
  2
*D7
  0
BLOCK_RECORD
  5
A5A5
330
1
100
AcDbSymbolTableRecord
100
AcDbBlockTableRecord
  2
*D8
  0
ENDTAB
  0
ENDSEC
  0
SECTION
  2
BLOCKS
  0
BLOCK
  5
20
330
1F
100
AcDbEntity
  8
0
100
AcDbBlockBegin
  2
*MODEL_SPACE
 70
     0
 10
0.0
 20
0.0
 30
0.0
  3
*MODEL_SPACE
  1

  0
ENDBLK
  5
21
330
1F
100
AcDbEntity
  8
0
100
AcDbBlockEnd
  0
BLOCK
  5
103
330
101
100
AcDbEntity
 67
     1
  8
0
100
AcDbBlockBegin
  2
*PAPER_SPACE
 70
     0
 10
0.0
 20
0.0
 30
0.0
  3
*PAPER_SPACE
  1

  0
ENDBLK
  5
104
330
101
100
AcDbEntity
 67
     1
  8
0
100
AcDbBlockEnd
  0
BLOCK
  5
5D
330
59
100
AcDbEntity
  8
0
100
AcDbBlockBegin
  2
_OPEN30
 70
     0
 10
0.0
 20
0.0
 30
0.0
  3
_OPEN30
  1

  0
LINE
  5
5A
330
59
100
AcDbEntity
  8
0
 62
     0
100
AcDbLine
 10
-1.0
 20
0.26794919
 30
0.0
 11
0.0
 21
0.0
 31
0.0
  0
LINE
  5
5B
330
59
100
AcDbEntity
  8
0
 62
     0
100
AcDbLine
 10
0.0
 20
0.0
 30
0.0
 11
-1.0
 21
-0.26794919
 31
0.0
  0
LINE
  5
5C
330
59
100
AcDbEntity
  8
0
 62
     0
100
AcDbLine
 10
0.0
 20
0.0
 30
0.0
 11
-1.0
 21
0.0
 31
0.0
  0
ENDBLK
  5
5E
330
59
100
AcDbEntity
  8
0
100
AcDbBlockEnd
  0
BLOCK
  5
66
330
64
100
AcDbEntity
  8
0
100
AcDbBlockBegin
  2
GENAXEH
 70
     0
 10
0.0
 20
0.0
 30
0.0
  3
GENAXEH
  1

  0
LINE
  5
65
330
64
100
AcDbEntity
  8
0
100
AcDbLine
 10
-1.0
 20
0.0
 30
0.0
 11
1.0
 21
0.0
 31
0.0
  0
ENDBLK
  5
67
330
64
100
AcDbEntity
  8
0
100
AcDbBlockEnd
  0
BLOCK
  5
A1B2
330
A1A8
100
AcDbEntity
  8
0
100
AcDbBlockBegin
  2
*D5
 70
     1
 10
0.0
 20
0.0
 30
0.0
  3
*D5
  1

  0
LINE
  5
A5EB
330
A1A8
100
AcDbEntity
  8
AM_5
100
AcDbLine
 10
0.0
 20
-0.9000000000000058
 30
0.0
 11
-0.0000000000000009
 21
-15.00000100000024
 31
0.0
  0
LINE
  5
A5EC
330
A1A8
100
AcDbEntity
  8
AM_5
100
AcDbLine
 10
-40.00000000000002
 20
-1.750000000000021
 30
0.0
 11
-40.00000000000002
 21
-15.00000100000024
 31
0.0
  0
LINE
  5
A5ED
330
A1A8
100
AcDbEntity
  8
AM_5
100
AcDbLine
 10
-1.25
 20
-14.50000100000024
 30
0.0
 11
-38.75000000000002
 21
-14.50000100000024
 31
0.0
  0
INSERT
  5
A5EE
330
A1A8
100
AcDbEntity
  8
AM_5
100
AcDbBlockReference
  2
_OPEN30
 10
-0.0000000000000009
 20
-14.50000100000024
 30
0.0
 41
1.25
 42
1.25
 43
1.25
  0
INSERT
  5
A5EF
330
A1A8
100
AcDbEntity
  8
AM_5
100
AcDbBlockReference
  2
_OPEN30
 10
-40.00000000000002
 20
-14.50000100000024
 30
0.0
 41
1.25
 42
1.25
 43
1.25
 50
180.0
  0
MTEXT
  5
A5F0
330
A1A8
100
AcDbEntity
  8
AM_5
 62
     2
100
AcDbMText
 10
-20.00000000000001
 20
-12.95000100000024
 30
0.0
 40
1.6
 41
0.0
 71
     5
 72
     1
  1
40
  7
ASAMI
1001
ACAD
1000
MTEXTBEGIN
1070
    73
1070
     1
1070
    44
1040
1.0
1070
    74
1070
     0
1000
MTEXTEND
  0
POINT
  5
A5F1
330
A1A8
100
AcDbEntity
  8
DEFPOINTS
 62
     0
100
AcDbPoint
 10
0.0
 20
-0.4000000000000059
 30
0.0
  0
POINT
  5
A5F2
330
A1A8
100
AcDbEntity
  8
DEFPOINTS
 62
     0
100
AcDbPoint
 10
-40.00000000000002
 20
-1.250000000000021
 30
0.0
  0
POINT
  5
A5F3
330
A1A8
100
AcDbEntity
  8
DEFPOINTS
 62
     0
100
AcDbPoint
 10
-40.00000000000002
 20
-14.50000100000024
 30
0.0
  0
ENDBLK
  5
A1B3
330
A1A8
100
AcDbEntity
  8
0
100
AcDbBlockEnd
  0
BLOCK
  5
A244
330
A238
100
AcDbEntity
  8
0
100
AcDbBlockBegin
  2
*D6
 70
     1
 10
0.0
 20
0.0
 30
0.0
  3
*D6
  1

  0
LINE
  5
A5F4
330
A238
100
AcDbEntity
  8
AM_5
100
AcDbLine
 10
0.0
 20
-0.9000000000000058
 30
0.0
 11
-0.0000000000000005
 21
-9.000000999999965
 31
0.0
  0
LINE
  5
A5F5
330
A238
100
AcDbEntity
  8
AM_5
100
AcDbLine
 10
-1.0
 20
-0.9000000000000058
 30
0.0
 11
-1.0
 21
-9.000000999999965
 31
0.0
  0
LINE
  5
A5F6
330
A238
100
AcDbEntity
  8
AM_5
100
AcDbLine
 10
1.249999999999999
 20
-8.500000999999965
 30
0.0
 11
2.499999999999999
 21
-8.500000999999965
 31
0.0
  0
LINE
  5
A5F7
330
A238
100
AcDbEntity
  8
AM_5
100
AcDbLine
 10
-2.25
 20
-8.500000999999965
 30
0.0
 11
-5.380952380952381
 21
-8.500000999999965
 31
0.0
  0
LINE
  5
A5F8
330
A238
100
AcDbEntity
  8
AM_5
100
AcDbLine
 10
-0.0000000000000005
 20
-8.500000999999965
 30
0.0
 11
-1.0
 21
-8.500000999999965
 31
0.0
  0
INSERT
  5
A5F9
330
A238
100
AcDbEntity
  8
AM_5
100
AcDbBlockReference
  2
_OPEN30
 10
-0.0000000000000005
 20
-8.500000999999965
 30
0.0
 41
1.25
 42
1.25
 43
1.25
 50
180.0
  0
INSERT
  5
A5FA
330
A238
100
AcDbEntity
  8
AM_5
100
AcDbBlockReference
  2
_OPEN30
 10
-1.0
 20
-8.500000999999965
 30
0.0
 41
1.25
 42
1.25
 43
1.25
  0
MTEXT
  5
A5FB
330
A238
100
AcDbEntity
  8
AM_5
 62
     2
100
AcDbMText
 10
-4.440476190476191
 20
-6.950000999999965
 30
0.0
 40
1.6
 41
0.0
 71
     5
 72
     1
  1
1
  7
ASAMI
1001
ACAD
1000
MTEXTBEGIN
1070
    73
1070
     1
1070
    44
1040
1.0
1070
    74
1070
     0
1000
MTEXTEND
  0
POINT
  5
A5FC
330
A238
100
AcDbEntity
  8
DEFPOINTS
 62
     0
100
AcDbPoint
 10
0.0
 20
-0.4000000000000059
 30
0.0
  0
POINT
  5
A5FD
330
A238
100
AcDbEntity
  8
DEFPOINTS
 62
     0
100
AcDbPoint
 10
-1.0
 20
-0.4000000000000059
 30
0.0
  0
POINT
  5
A5FE
330
A238
100
AcDbEntity
  8
DEFPOINTS
 62
     0
100
AcDbPoint
 10
-1.0
 20
-8.500000999999965
 30
0.0
  0
ENDBLK
  5
A245
330
A238
100
AcDbEntity
  8
0
100
AcDbBlockEnd
  0
BLOCK
  5
A4E0
330
A4D4
100
AcDbEntity
  8
0
100
AcDbBlockBegin
  2
*D7
 70
     1
 10
0.0
 20
0.0
 30
0.0
  3
*D7
  1

  0
LINE
  5
A5FF
330
A4D4
100
AcDbEntity
  8
AM_5
100
AcDbLine
 10
0.4999999999967998
 20
0.4
 30
0.0
 11
7.955777803085513
 21
0.3999999999999979
 31
0.0
  0
LINE
  5
A600
330
A4D4
100
AcDbEntity
  8
AM_5
100
AcDbLine
 10
0.5
 20
-0.4000000000000004
 30
0.0
 11
7.955777803085513
 21
-0.4000000000000025
 31
0.0
  0
LINE
  5
A601
330
A4D4
100
AcDbEntity
  8
AM_5
100
AcDbLine
 10
7.455777803085513
 20
1.649999999999998
 30
0.0
 11
7.455777803085513
 21
2.899999999999998
 31
0.0
  0
LINE
  5
A602
330
A4D4
100
AcDbEntity
  8
AM_5
100
AcDbLine
 10
7.455777803085513
 20
-1.650000000000002
 30
0.0
 11
7.455777803085511
 21
-9.200000000000001
 31
0.0
  0
LINE
  5
A603
330
A4D4
100
AcDbEntity
  8
AM_5
100
AcDbLine
 10
7.455777803085513
 20
0.3999999999999981
 30
0.0
 11
7.455777803085513
 21
-0.4000000000000023
 31
0.0
  0
INSERT
  5
A604
330
A4D4
100
AcDbEntity
  8
AM_5
100
AcDbBlockReference
  2
_OPEN30
 10
7.455777803085513
 20
0.3999999999999981
 30
0.0
 41
1.25
 42
1.25
 43
1.25
 50
270.0
  0
INSERT
  5
A605
330
A4D4
100
AcDbEntity
  8
AM_5
100
AcDbBlockReference
  2
_OPEN30
 10
7.455777803085513
 20
-0.4000000000000023
 30
0.0
 41
1.25
 42
1.25
 43
1.25
 50
90.0
  0
MTEXT
  5
A606
330
A4D4
100
AcDbEntity
  8
AM_5
 62
     2
100
AcDbMText
 10
5.905777803085513
 20
-6.049999999999999
 30
0.0
 40
1.6
 41
0.0
 71
     5
 72
     1
  1
%%c0.8
  7
ASAMI
 11
0.0000000000000001
 21
1.0
 31
0.0
1001
ACAD
1000
MTEXTBEGIN
1070
    73
1070
     1
1070
    44
1040
1.0
1070
    74
1070
     0
1000
MTEXTEND
  0
POINT
  5
A607
330
A4D4
100
AcDbEntity
  8
DEFPOINTS
 62
     0
100
AcDbPoint
 10
-0.0000000000032002
 20
0.4000000000000002
 30
0.0
  0
POINT
  5
A608
330
A4D4
100
AcDbEntity
  8
DEFPOINTS
 62
     0
100
AcDbPoint
 10
0.0
 20
-0.4000000000000002
 30
0.0
  0
POINT
  5
A609
330
A4D4
100
AcDbEntity
  8
DEFPOINTS
 62
     0
100
AcDbPoint
 10
7.455777803085513
 20
-0.4000000000000023
 30
0.0
  0
ENDBLK
  5
A4E1
330
A4D4
100
AcDbEntity
  8
0
100
AcDbBlockEnd
  0
BLOCK
  5
A5B1
330
A5A5
100
AcDbEntity
  8
0
100
AcDbBlockBegin
  2
*D8
 70
     1
 10
0.0
 20
0.0
 30
0.0
  3
*D8
  1

  0
LINE
  5
A64D
330
A5A5
100
AcDbEntity
  8
AM_5
100
AcDbLine
 10
-40.25
 20
1.499999999999978
 30
0.0
 11
-48.71056358178671
 21
1.499999999999981
 31
0.0
  0
LINE
  5
A64E
330
A5A5
100
AcDbEntity
  8
AM_5
100
AcDbLine
 10
-40.25
 20
-1.500000000000031
 30
0.0
 11
-48.71056358178671
 21
-1.500000000000029
 31
0.0
  0
LINE
  5
A64F
330
A5A5
100
AcDbEntity
  8
AM_5
100
AcDbLine
 10
-48.21056358178672
 20
2.74999999999998
 30
0.0
 11
-48.21056358178672
 21
3.99999999999998
 31
0.0
  0
LINE
  5
A650
330
A5A5
100
AcDbEntity
  8
AM_5
100
AcDbLine
 10
-48.21056358178672
 20
-2.750000000000029
 30
0.0
 11
-48.21056358178672
 21
-4.00000000000003
 31
0.0
  0
LINE
  5
A651
330
A5A5
100
AcDbEntity
  8
AM_5
100
AcDbLine
 10
-48.21056358178672
 20
1.49999999999998
 30
0.0
 11
-48.21056358178672
 21
-1.500000000000029
 31
0.0
  0
INSERT
  5
A652
330
A5A5
100
AcDbEntity
  8
AM_5
100
AcDbBlockReference
  2
_OPEN30
 10
-48.21056358178672
 20
1.49999999999998
 30
0.0
 41
1.25
 42
1.25
 43
1.25
 50
270.0
  0
INSERT
  5
A653
330
A5A5
100
AcDbEntity
  8
AM_5
100
AcDbBlockReference
  2
_OPEN30
 10
-48.21056358178672
 20
-1.500000000000029
 30
0.0
 41
1.25
 42
1.25
 43
1.25
 50
90.0
  0
MTEXT
  5
A654
330
A5A5
100
AcDbEntity
  8
AM_5
 62
     2
100
AcDbMText
 10
-49.76056358178671
 20
-0.0000000000000319
 30
0.0
 40
1.6
 41
0.0
 71
     5
 72
     1
  1
%%c3
  7
ASAMI
 11
0.0000000000000001
 21
1.0
 31
0.0
1001
ACAD
1000
MTEXTBEGIN
1070
    73
1070
     1
1070
    44
1040
1.0
1070
    74
1070
     0
1000
MTEXTEND
  0
POINT
  5
A655
330
A5A5
100
AcDbEntity
  8
DEFPOINTS
 62
     0
100
AcDbPoint
 10
-39.75
 20
1.499999999999978
 30
0.0
  0
POINT
  5
A656
330
A5A5
100
AcDbEntity
  8
DEFPOINTS
 62
     0
100
AcDbPoint
 10
-39.75
 20
-1.500000000000031
 30
0.0
  0
POINT
  5
A657
330
A5A5
100
AcDbEntity
  8
DEFPOINTS
 62
     0
100
AcDbPoint
 10
-48.21056358178672
 20
-1.500000000000029
 30
0.0
  0
ENDBLK
  5
A5B2
330
A5A5
100
AcDbEntity
  8
0
100
AcDbBlockEnd
  0
ENDSEC
  0
SECTION
  2
ENTITIES
  0
TEXT
  5
1500
330
1F
100
AcDbEntity
  8
AM_6
100
AcDbText
 10
-33.33333333333333
 20
-25.75000100000023
 30
0.0
 40
2.5
  1
S-SSM2008ZX
 72
     4
 11
-20.0
 21
-24.50000100000023
 31
0.0
100
AcDbText
  0
LINE
  5
9FA3
330
1F
100
AcDbEntity
  8
AM_7
  6
AM_ISO08W050X2
100
AcDbLine
 10
0.4557768030855201
 20
0.0
 30
0.0
 11
-41.21056258178671
 21
-0.0000000000000142
 31
0.0
1001
GENIUS_GENODEF_13
1002
{
1000
HIER
1070
     0
1002
}
1002
{
1000
MANEDIT
1070
     0
1002
}
1002
{
1000
NOSEL
1070
     0
1002
}
1002
{
1000
BEHIND
1070
     0
1002
}
1002
{
1000
REACTOR
1002
}
1001
GENIUS_GENOBJ-N-CEN_13
1002
{
1000
OWNER
1000
GEN
1002
}
  0
LINE
  5
A030
330
1F
100
AcDbEntity
  8
AM_0
100
AcDbLine
 10
-7.238410001579456
 20
1.49999999999999
 30
0.0
 11
-7.238410001579456
 21
-1.500000000000009
 31
0.0
  0
DIMENSION
  5
A1A7
330
1F
100
AcDbEntity
  8
AM_5
100
AcDbDimension
  2
*D5
 10
-40.00000000000002
 20
-14.50000100000024
 30
0.0
 11
-20.00000000000001
 21
-12.95000100000024
 31
0.0
 70
    32
  1
<>
  3
AM_JIS
100
AcDbAlignedDimension
 13
0.0
 23
-0.4000000000000059
 33
0.0
 14
-40.00000000000002
 24
-1.250000000000021
 34
0.0
 50
0.0000000000004071
100
AcDbRotatedDimension
1001
GENIUS_GENDTOL_13
1000

1000
h7
1000

1040
0.0
  0
DIMENSION
  5
A237
330
1F
100
AcDbEntity
  8
AM_5
100
AcDbDimension
  2
*D6
 10
-1.0
 20
-8.500000999999965
 30
0.0
 11
-4.440476190476191
 21
-6.950000999999965
 31
0.0
 70
    32
  1
<>
  3
AM_JIS
100
AcDbAlignedDimension
 13
0.0
 23
-0.4000000000000059
 33
0.0
 14
-1.0
 24
-0.4000000000000059
 34
0.0
 50
0.0000000000004071
100
AcDbRotatedDimension
1001
GENIUS_GENDTOL_13
1000

1000
h7
1000

1040
0.0
  0
DIMENSION
  5
A4D3
330
1F
100
AcDbEntity
  8
AM_5
100
AcDbDimension
  2
*D7
 10
7.455777803085513
 20
-0.4000000000000023
 30
0.0
 11
5.905777803085513
 21
-6.049999999999999
 31
0.0
 70
    32
  1
%%c<>
  3
AM_JIS
100
AcDbAlignedDimension
 13
-0.0000000000032002
 23
0.4000000000000002
 33
0.0
 14
0.0
 24
-0.4000000000000002
 34
0.0
 50
90.00000000000033
100
AcDbRotatedDimension
1001
GENIUS_GENDTOL_13
1000

1000
h7
1000

1040
0.0
  0
LINE
  5
A4E2
330
1F
100
AcDbEntity
  8
AM_0
100
AcDbLine
 10
-0.022375990164709
 20
0.0480000000000075
 30
0.0
 11
0.0
 21
0.0799999999999955
 31
0.0
  0
LINE
  5
A4E3
330
1F
100
AcDbEntity
  8
AM_0
100
AcDbLine
 10
0.0
 20
0.0799999999999955
 30
0.0
 11
0.0
 21
0.4000000000000002
 31
0.0
  0
LINE
  5
A4E4
330
1F
100
AcDbEntity
  8
AM_0
100
AcDbLine
 10
-1.017700776904235
 20
0.1469635499213724
 30
0.0
 11
-1.0
 21
0.063588811097128
 31
0.0
  0
LINE
  5
A4E5
330
1F
100
AcDbEntity
  8
AM_0
100
AcDbLine
 10
-1.017700776904235
 20
0.1469635499213724
 30
0.0
 11
-1.0
 21
0.2043463326054906
 31
0.0
  0
LINE
  5
A4E6
330
1F
100
AcDbEntity
  8
AM_11
100
AcDbLine
 10
-0.0000000000000616
 20
0.4000000000000002
 30
0.0
 11
-1.0
 21
0.3999999999999945
 31
0.0
  0
LINE
  5
A4E7
330
1F
100
AcDbEntity
  8
AM_0
100
AcDbLine
 10
-1.272783637769801
 20
0.3216682039139018
 30
0.0
 11
-0.1571048154014535
 21
0.2406762738022508
 31
0.0
  0
LINE
  5
A4E8
330
1F
100
AcDbEntity
  8
AM_0
100
AcDbLine
 10
0.0
 20
-0.4000000000000002
 30
0.0
 11
-0.0070000000000003
 21
-0.3786752926097337
 31
0.0
  0
LINE
  5
A4E9
330
1F
100
AcDbEntity
  8
AM_0
100
AcDbLine
 10
-0.0070000000000003
 20
-0.3786752926097337
 30
0.0
 11
-0.025000000000001
 21
-0.3262576147610561
 31
0.0
  0
LINE
  5
A4EA
330
1F
100
AcDbEntity
  8
AM_0
100
AcDbLine
 10
-0.025000000000001
 20
-0.3262576147610561
 30
0.0
 11
-0.025000000000001
 21
-0.3219484344906051
 31
0.0
  0
LINE
  5
A4EB
330
1F
100
AcDbEntity
  8
AM_0
100
AcDbLine
 10
0.0
 20
-0.4000000000000002
 30
0.0
 11
0.0
 21
0.0160000000000025
 31
0.0
  0
LINE
  5
A4EC
330
1F
100
AcDbEntity
  8
AM_11
100
AcDbLine
 10
-1.0
 20
-0.4000000000000059
 30
0.0
 11
0.0
 21
-0.4000000000000002
 31
0.0
  0
LINE
  5
A4ED
330
1F
100
AcDbEntity
  8
AM_0
100
AcDbLine
 10
-0.0070000000000003
 20
-0.3786752926097337
 30
0.0
 11
-0.0070000000000003
 21
0.0260107301778021
 31
0.0
  0
LINE
  5
A4EE
330
1F
100
AcDbEntity
  8
AM_11
100
AcDbLine
 10
-1.0
 20
0.3999999999999945
 30
0.0
 11
-1.0
 21
-0.4000000000000059
 31
0.0
  0
LINE
  5
A4EF
330
1F
100
AcDbEntity
  8
AM_0
100
AcDbLine
 10
0.0
 20
0.0160000000000025
 30
0.0
 11
-0.1571048154014535
 21
0.2406762738022508
 31
0.0
  0
ELLIPSE
  5
A4F0
330
1F
100
AcDbEntity
  8
AM_0
100
AcDbEllipse
 10
0.9471178961588535
 20
0.0016829849366673
 30
0.0
 11
0.0000000000000001
 21
1.210601631192946
 31
0.0
210
0.0
220
0.0
230
1.0
 40
0.8333333333333342
 41
1.489874453283513
 42
1.841418545974921
  0
ELLIPSE
  5
A4F1
330
1F
100
AcDbEntity
  8
AM_0
100
AcDbEllipse
 10
-0.8140715517836463
 20
-1.603661219686723
 30
0.0
 11
-0.0000000000000038
 21
1.682112535968269
 31
0.0
210
0.0
220
0.0
230
1.0
 40
0.8333333333333323
 41
0.1330312814850765
 42
0.5624724001460005
  0
ELLIPSE
  5
A4F2
330
1F
100
AcDbEntity
  8
AM_0
100
AcDbEllipse
 10
-1.483658438409639
 20
-1.458014777855027
 30
0.0
 11
0.0387544443291383
 21
1.928001325756061
 31
0.0
210
0.0
220
0.0
230
0.9999999999999998
 40
0.6251599132668956
 41
-0.4114299497150571
 42
-0.0705803134694267
  0
ELLIPSE
  5
A4F3
330
1F
100
AcDbEntity
  8
AM_0
100
AcDbEllipse
 10
-1.283340246017351
 20
4.12987375288795
 30
0.0
 11
0.0000000000000832
 21
4.500588036778022
 31
0.0
210
0.0
220
0.0
230
1.0
 40
0.8333333333333476
 41
3.217212229255301
 42
3.357155841871599
  0
ELLIPSE
  5
A4F4
330
1F
100
AcDbEntity
  8
AM_0
100
AcDbEllipse
 10
-1.082252528048973
 20
0.1092264162230663
 30
0.0
 11
-0.5626049498386263
 21
0.1856548528362614
 31
0.0
210
0.0
220
0.0
230
1.0
 40
0.8436001621672138
 41
1.584045026690566
 42
1.98361670485362
  0
ELLIPSE
  5
A4F5
330
1F
100
AcDbEntity
  8
AM_0
100
AcDbEllipse
 10
-1.040052379334967
 20
0.0021750454154457
 30
0.0
 11
0.4234287481583101
 21
0.1410225051450726
 31
0.0
210
0.0
220
0.0
230
1.0
 40
0.9014688153747707
 41
4.511438138439845
 42
4.949125559138773
  0
ELLIPSE
  5
A4F6
330
1F
100
AcDbEntity
  8
AM_0
100
AcDbEllipse
 10
-1.010254292273373
 20
0.965751271351832
 30
0.0
 11
0.0000000000000009
 21
1.323660981604368
 31
0.0
210
0.0
220
0.0
230
1.0
 40
0.8333333333333328
 41
2.618180499332968
 42
3.150889088359429
  0
ELLIPSE
  5
A4F7
330
1F
100
AcDbEntity
  8
AM_0
100
AcDbEllipse
 10
-0.8144697292004304
 20
1.204822189262035
 30
0.0
 11
-0.0000000000000466
 21
1.650296233458927
 31
0.0
210
0.0
220
0.0
230
1.0
 40
0.8333333333333394
 41
2.567264375134326
 42
2.8335749171884
  0
SPLINE
  5
A4F8
330
1F
100
AcDbEntity
  8
AM_0
100
AcDbSpline
210
0.0
220
0.0
230
1.0
 70
     8
 71
     3
 72
     8
 73
     4
 74
     0
 42
0.0000000001
 43
0.0000000001
 40
0.0
 40
0.0
 40
0.0
 40
0.0
 40
1.448999654934389
 40
1.448999654934389
 40
1.448999654934389
 40
1.448999654934389
 10
0.0
 20
-0.4000000000000059
 30
0.0
 10
-0.3219999233187533
 20
-0.4000000000000063
 30
0.0
 10
-0.6143332949927077
 20
-0.2000000000000059
 30
0.0
 10
-0.906666666666662
 20
-0.0000000000000057
 30
0.0
  0
SPLINE
  5
A4F9
330
1F
100
AcDbEntity
  8
AM_0
100
AcDbSpline
210
0.0
220
0.0
230
1.0
 70
     8
 71
     3
 72
     8
 73
     4
 74
     0
 42
0.0000000001
 43
0.0000000001
 40
1.870660592686466
 40
1.870660592686466
 40
1.870660592686466
 40
1.870660592686466
 40
14.43901837670146
 40
14.43901837670146
 40
14.43901837670146
 40
14.43901837670146
 10
-0.0070000000000003
 20
-0.3786752926097337
 30
0.0
 10
-0.2803976394152415
 20
-0.3377520489681105
 30
0.0
 10
-0.5353505269744642
 20
-0.168876024484058
 30
0.0
 10
-0.790303414533687
 20
0.0000000000000114
 30
0.0
  0
SPLINE
  5
A4FA
330
1F
100
AcDbEntity
  8
AM_0
100
AcDbSpline
210
0.0
220
0.0
230
1.0
 70
     8
 71
     3
 72
     8
 73
     4
 74
     0
 42
0.0000000001
 43
0.0000000001
 40
4.219358800530717
 40
4.219358800530717
 40
4.219358800530717
 40
4.219358800530717
 40
14.36247867694493
 40
14.36247867694493
 40
14.36247867694493
 40
14.36247867694493
 10
-0.025000000000001
 20
-0.326257614761039
 30
0.0
 10
-0.2414055837926745
 20
-0.2608758233351069
 30
0.0
 10
-0.448858902530475
 20
-0.1304379116675478
 30
0.0
 10
-0.6563122212683087
 20
0.0000000000000114
 30
0.0
  0
SPLINE
  5
A4FB
330
1F
100
AcDbEntity
  8
AM_0
100
AcDbSpline
210
0.0
220
0.0
230
1.0
 70
     8
 71
     3
 72
     8
 73
     4
 74
     0
 42
0.0000000001
 43
0.0000000001
 40
0.0
 40
0.0
 40
0.0
 40
0.0
 40
0.2586565323616648
 40
0.2586565323616648
 40
0.2586565323616648
 40
0.2586565323616648
 10
0.0
 20
0.325976214934724
 30
0.0
 10
-0.0368844920335287
 20
0.2730754556920889
 30
0.0
 10
-0.1001946336477289
 20
0.2503579037539525
 30
0.0
 10
-0.1571048154014535
 20
0.2406762738022508
 30
0.0
  0
SPLINE
  5
A4FC
330
1F
100
AcDbEntity
  8
AM_0
100
AcDbSpline
210
0.0
220
0.0
230
1.0
 70
     8
 71
     3
 72
     8
 73
     4
 74
     0
 42
0.0000000001
 43
0.0000000001
 40
12.94851199316644
 40
12.94851199316644
 40
12.94851199316644
 40
12.94851199316644
 40
14.48999654934388
 40
14.48999654934388
 40
14.48999654934388
 40
14.48999654934388
 10
-1.000000000002672
 20
0.06358881109893
 30
0.0
 10
-0.9688650772951399
 20
0.0425530689653044
 30
0.0
 10
-0.9377658719809009
 20
0.0212765344826608
 30
0.0
 10
-0.906666666666662
 20
0.0000000000000114
 30
0.0
  0
SPLINE
  5
A4FD
330
1F
100
AcDbEntity
  8
AM_0
100
AcDbSpline
210
0.0
220
0.0
230
1.0
 70
     8
 71
     3
 72
     8
 73
     4
 74
     0
 42
0.0000000001
 43
0.0000000001
 40
10.71027982889745
 40
10.71027982889745
 40
10.71027982889745
 40
10.71027982889745
 40
14.43901837670146
 40
14.43901837670146
 40
14.43901837670146
 40
14.43901837670146
 10
-1.01770077690423
 20
0.1469635499213724
 30
0.0
 10
-0.9415805624400096
 20
0.1002031535248876
 30
0.0
 10
-0.8659419884868484
 20
0.0501015767624495
 30
0.0
 10
-0.790303414533687
 20
0.0000000000000114
 30
0.0
  0
SPLINE
  5
A4FE
330
1F
100
AcDbEntity
  8
AM_0
100
AcDbSpline
210
0.0
220
0.0
230
1.0
 70
     8
 71
     3
 72
     8
 73
     4
 74
     0
 42
0.0000000001
 43
0.0000000001
 40
4.451443990518355
 40
4.451443990518355
 40
4.451443990518355
 40
4.451443990518355
 40
14.36247867694493
 40
14.36247867694493
 40
14.36247867694493
 40
14.36247867694493
 10
-1.272783637769806
 20
0.321668203913879
 30
0.0
 10
-1.061725360987945
 20
0.254906711685078
 30
0.0
 10
-0.8590187911281365
 20
0.1274533558425447
 30
0.0
 10
-0.6563122212683087
 20
0.0000000000000114
 30
0.0
  0
SPLINE
  5
A4FF
330
1F
100
AcDbEntity
  8
AM_0
100
AcDbSpline
210
0.0
220
0.0
230
1.0
 70
     8
 71
     3
 72
     8
 73
     4
 74
     0
 42
0.0000000001
 43
0.0000000001
 40
0.0
 40
0.0
 40
0.0
 40
0.0
 40
7.57842115059705
 40
7.57842115059705
 40
7.57842115059705
 40
7.57842115059705
 10
0.0
 20
0.3999999999999945
 30
0.0
 10
-0.168409358902134
 20
0.3999999999999945
 30
0.0
 10
-0.3287037280330576
 20
0.3452919916786017
 30
0.0
 10
-0.4851273327042712
 20
0.2644888408813985
 30
0.0
  0
LINE
  5
A59F
330
1F
100
AcDbEntity
  8
AM_0
100
AcDbLine
 10
-39.75000000000002
 20
-1.500000000000021
 30
0.0
 11
-7.238410001579502
 21
-1.500000000000009
 31
0.0
  0
LINE
  5
A5A2
330
1F
100
AcDbEntity
  8
AM_0
100
AcDbLine
 10
-40.0
 20
1.249999999999978
 30
0.0
 11
-40.00000000000002
 21
-1.250000000000021
 31
0.0
  0
LINE
  5
A5A3
330
1F
100
AcDbEntity
  8
AM_0
100
AcDbLine
 10
-39.75
 20
1.499999999999978
 30
0.0
 11
-39.75000000000001
 21
-1.500000000000021
 31
0.0
  0
DIMENSION
  5
A5A4
330
1F
100
AcDbEntity
  8
AM_5
100
AcDbDimension
  2
*D8
 10
-48.21056358178672
 20
-1.500000000000029
 30
0.0
 11
-48.21056358178672
 21
-0.0000000000000321
 31
0.0
 70
   160
  1
%%c<>
  3
AM_JIS
100
AcDbAlignedDimension
 13
-39.75
 23
1.499999999999978
 33
0.0
 14
-39.75
 24
-1.500000000000031
 34
0.0
 50
270.0
100
AcDbRotatedDimension
1001
GENIUS_GENDTOL_13
1000

1000
h7
1000

1040
0.0
  0
LINE
  5
A5B3
330
1F
100
AcDbEntity
  8
AM_0
100
AcDbLine
 10
-39.75000000000001
 20
1.499999999999978
 30
0.0
 11
-7.238410001579467
 21
1.49999999999999
 31
0.0
  0
LINE
  5
A5CA
330
1F
100
AcDbEntity
  8
AM_0
100
AcDbLine
 10
-39.75000000000001
 20
1.499999999999978
 30
0.0
 11
-40.0
 21
1.249999999999978
 31
0.0
1001
GENIUS_GENFIL_13
1070
     0
1040
0.25
1040
0.25
1040
20.0
1040
0.0
1002
{
1002
}
1001
GENIUS_GENODEF_13
1002
{
1000
HIER
1070
     0
1002
}
1002
{
1000
MANEDIT
1070
     0
1002
}
1002
{
1000
NOSEL
1070
     0
1002
}
1002
{
1000
BEHIND
1070
     0
1002
}
1002
{
1000
REACTOR
1002
}
1001
GENIUS_GENOBJ-N-CHA_13
1002
{
1000
OWNER
1000
GEN
1002
}
  0
LINE
  5
A5CD
330
1F
100
AcDbEntity
  8
AM_0
100
AcDbLine
 10
-40.00000000000002
 20
-1.250000000000021
 30
0.0
 11
-39.75000000000002
 21
-1.500000000000021
 31
0.0
1001
GENIUS_GENFIL_13
1070
     0
1040
0.25
1040
0.25
1040
20.0
1040
0.0
1002
{
1002
}
1001
GENIUS_GENODEF_13
1002
{
1000
HIER
1070
     0
1002
}
1002
{
1000
MANEDIT
1070
     0
1002
}
1002
{
1000
NOSEL
1070
     0
1002
}
1002
{
1000
BEHIND
1070
     0
1002
}
1002
{
1000
REACTOR
1002
}
1001
GENIUS_GENOBJ-N-CHA_13
1002
{
1000
OWNER
1000
GEN
1002
}
  0
LINE
  5
A5D8
330
1F
100
AcDbEntity
  8
AM_0
100
AcDbLine
 10
-7.238410001579467
 20
1.49999999999999
 30
0.0
 11
-1.360000000000068
 21
0.4634777130550538
 31
0.0
  0
LINE
  5
A5D9
330
1F
100
AcDbEntity
  8
AM_0
100
AcDbLine
 10
-1.0
 20
-0.4000000000000059
 30
0.0
 11
-7.238410001579456
 21
-1.500000000000001
 31
0.0
  0
VIEWPORT
  5
110
330
101
100
AcDbEntity
 67
     1
  8
0
100
AcDbViewport
 10
420.5
 20
297.0
 30
0.0
 40
948.9782706766916
 41
628.452
 68
     1
 69
     1
1001
ACAD
1000
MVIEW
1002
{
1070
    16
1010
0.0
1020
0.0
1030
0.0
1010
0.0
1020
0.0
1030
1.0
1040
0.0
1040
628.452
1040
420.5
1040
297.0
1040
50.0
1040
0.0
1040
0.0
1070
     0
1070
   100
1070
     1
1070
     1
1070
     0
1070
     0
1070
     0
1070
     0
1040
0.0
1040
0.0
1040
0.0
1040
10.0
1040
10.0
1040
10.0
1040
10.0
1070
     0
1002
{
1002
}
1002
}
  0
ENDSEC
  0
SECTION
  2
OBJECTS
  0
DICTIONARY
  5
C
330
0
100
AcDbDictionary
  3
ACAD_GROUP
350
D
  3
ACAD_LAYOUT
350
1A
  3
ACAD_MLINESTYLE
350
17
  3
ACAD_PLOTSETTINGS
350
19
  3
ACAD_PLOTSTYLENAME
350
E
  3
ACDBVARIABLEDICTIONARY
350
34
  3
ACMDICTIONARY
350
43
  3
AMG
350
2B
  3
AMGSNAPSETTINGS
350
6E
  3
ASE_INDEX_DICTIONARY
350
151A
  3
DWGPROPS
350
A671
  3
ACDBHEADERROUNDTRIPXREC
350
A67D
  0
DICTIONARY
  5
74
330
1F
100
AcDbDictionary
280
     1
  3
ACAD_INDEX
360
A673
  3
ACAD_LAYOUTSELFREF
360
A6A0
  0
DICTIONARY
  5
A6A5
330
101
100
AcDbDictionary
280
     1
  3
ACAD_LAYOUTSELFREF
360
A6A6
  0
DICTIONARY
  5
D
102
{ACAD_REACTORS
330
C
102
}
330
C
100
AcDbDictionary
  0
DICTIONARY
  5
1A
102
{ACAD_REACTORS
330
C
102
}
330
C
100
AcDbDictionary
  0
DICTIONARY
  5
17
102
{ACAD_REACTORS
330
C
102
}
330
C
100
AcDbDictionary
  3
STANDARD
350
18
  0
DICTIONARY
  5
19
102
{ACAD_REACTORS
330
C
102
}
330
C
100
AcDbDictionary
  0
ACDBDICTIONARYWDFLT
  5
E
102
{ACAD_REACTORS
330
C
102
}
330
C
100
AcDbDictionary
281
     1
  3
Normal
350
F
100
AcDbDictionaryWithDefault
340
F
  0
DICTIONARY
  5
34
102
{ACAD_REACTORS
330
C
102
}
330
C
100
AcDbDictionary
  3
INDEXCTL
350
35
  3
SORTENTS
350
B5E
  0
DICTIONARY
  5
43
102
{ACAD_REACTORS
330
C
102
}
330
C
100
AcDbDictionary
  3
ACMSTDDICTIONARY
350
260
  0
DICTIONARY
  5
2B
102
{ACAD_REACTORS
330
C
102
}
330
C
100
AcDbDictionary
  3
ACMGSETTINGS
350
2C
  0
DICTIONARY
  5
6E
102
{ACAD_REACTORS
330
C
102
}
330
C
100
AcDbDictionary
  0
DICTIONARY
  5
151A
102
{ACAD_REACTORS
330
C
102
}
330
C
100
AcDbDictionary
  3
ASEBLOCKHIERARCHYINDEXRECORD
350
151C
1001
DCO15
1040
1471862535.906
  0
XRECORD
  5
A671
102
{ACAD_REACTORS
330
C
102
}
330
C
100
AcDbXrecord
  1
DWGPROPS COOKIE
  2

  3

  4

  6

  7

  8

  9

300
AmdtFileType=82
301
=
302
=
303
=
304
=
305
=
306
=
307
=
308
=
309
=
 40
0.5311003125
 41
2452838.430434386
 42
2453054.429330637
  1

 90
        1
  0
DICTIONARY
  5
A67D
102
{ACAD_REACTORS
330
C
102
}
330
C
100
AcDbDictionary
  3
TSTACKALIGN
350
A67E
  3
TSTACKSIZE
350
A67F
  3
HYPERLINKBASE
350
A680
  3
STYLESHEET
350
A681
  3
LAYOUTDICT
350
A682
  3
PLOTSETDICT
350
A683
  3
PLOTSTYLNAMDICT
350
A684
  3
LWETCUNION
350
A685
  3
INSUNITS
350
A686
  3
CEPSNTYPE
350
A687
  3
FINGERPRINTGUID
350
A688
  3
VERSIONGUID
350
A689
  3
PSVPSCALE
350
A68A
  3
DIMSTYLEDATA
350
A68B
  3
PUCSORTHOREF
350
A68C
  3
PUCSORTHOVIEW
350
A68D
  3
PUCSBASE
350
A68E
  3
PUCSORGTOP
350
A68F
  3
PUCSORGBOTTOM
350
A690
  3
PUCSORGLEFT
350
A691
  3
PUCSORGRIGHT
350
A692
  3
PUCSORGFRONT
350
A693
  3
PUCSORGBACK
350
A694
  3
UCSORTHOREF
350
A695
  3
UCSORTHOVIEW
350
A696
  3
UCSBASE
350
A697
  3
UCSORGTOP
350
A698
  3
UCSORGBOTTOM
350
A699
  3
UCSORGLEFT
350
A69A
  3
UCSORGRIGHT
350
A69B
  3
UCSORGFRONT
350
A69C
  3
UCSORGBACK
350
A69D
  0
DICTIONARY
  5
A673
102
{ACAD_REACTORS
330
74
102
}
330
74
100
AcDbDictionary
  3
*A1
350
A674
  0
XRECORD
  5
A6A0
102
{ACAD_REACTORS
330
74
102
}
330
74
100
AcDbXrecord
340
1F
  0
XRECORD
  5
A6A6
102
{ACAD_REACTORS
330
A6A5
102
}
330
A6A5
100
AcDbXrecord
340
101
  0
MLINESTYLE
  5
18
102
{ACAD_REACTORS
330
17
102
}
330
17
100
AcDbMlineStyle
  2
STANDARD
 70
     0
  3

 62
   256
 51
90.0
 52
90.0
 71
     2
 49
0.5
 62
   256
  6
BYLAYER
 49
-0.5
 62
   256
  6
BYLAYER
  0
ACDBPLACEHOLDER
  5
F
102
{ACAD_REACTORS
330
E
102
}
330
E
100
AcDbPlaceHolder
280
     0
  0
DICTIONARYVAR
  5
35
102
{ACAD_REACTORS
330
34
102
}
330
34
100
DictionaryVariables
280
     0
  1
1
  0
DICTIONARYVAR
  5
B5E
102
{ACAD_REACTORS
330
34
102
}
330
34
100
DictionaryVariables
280
     0
  1
96
  0
DICTIONARY
  5
260
102
{ACAD_REACTORS
330
43
102
}
330
43
100
AcDbDictionary
  0
DICTIONARY
  5
2C
102
{ACAD_REACTORS
330
2B
102
}
330
2B
100
AcDbDictionary
  3
DWGSETTINGS
350
2D
  0
XRECORD
  5
151C
102
{ACAD_REACTORS
330
151A
102
}
330
151A
100
AcDbXrecord
330
0
330
0
330
0
330
0
330
0
330
0
330
0
330
0
  0
XRECORD
  5
A67E
102
{ACAD_REACTORS
330
A67D
102
}
330
A67D
100
AcDbXrecord
 90
        1
  0
XRECORD
  5
A67F
102
{ACAD_REACTORS
330
A67D
102
}
330
A67D
100
AcDbXrecord
 90
       70
  0
XRECORD
  5
A680
102
{ACAD_REACTORS
330
A67D
102
}
330
A67D
100
AcDbXrecord
  1

  0
XRECORD
  5
A681
102
{ACAD_REACTORS
330
A67D
102
}
330
A67D
100
AcDbXrecord
  1
ASAMI.ctb
  0
XRECORD
  5
A682
102
{ACAD_REACTORS
330
A67D
102
}
330
A67D
100
AcDbXrecord
340
1A
  0
XRECORD
  5
A683
102
{ACAD_REACTORS
330
A67D
102
}
330
A67D
100
AcDbXrecord
340
19
  0
XRECORD
  5
A684
102
{ACAD_REACTORS
330
A67D
102
}
330
A67D
100
AcDbXrecord
340
E
  0
XRECORD
  5
A685
102
{ACAD_REACTORS
330
A67D
102
}
330
A67D
100
AcDbXrecord
 90
    10781
  0
XRECORD
  5
A686
102
{ACAD_REACTORS
330
A67D
102
}
330
A67D
100
AcDbXrecord
 90
        4
  0
XRECORD
  5
A687
102
{ACAD_REACTORS
330
A67D
102
}
330
A67D
100
AcDbXrecord
 90
        0
  0
XRECORD
  5
A688
102
{ACAD_REACTORS
330
A67D
102
}
330
A67D
100
AcDbXrecord
  1
{AFB28963-8C59-40AE-9337-C84526B81ACE}
  0
XRECORD
  5
A689
102
{ACAD_REACTORS
330
A67D
102
}
330
A67D
100
AcDbXrecord
  1
{8B128C68-5121-45B9-8165-D3C208C09B8C}
  0
XRECORD
  5
A68A
102
{ACAD_REACTORS
330
A67D
102
}
330
A67D
100
AcDbXrecord
 40
0.0
  0
XRECORD
  5
A68B
102
{ACAD_REACTORS
330
A67D
102
}
330
A67D
100
AcDbXrecord
1000
DSTYLE
1002
{
1070
    79
 70
     2
1070
   341
340
59
1070
   342
340
59
1070
   371
 70
    -1
1070
   372
 70
    -1
1002
}
  0
XRECORD
  5
A68C
102
{ACAD_REACTORS
330
A67D
102
}
330
A67D
100
AcDbXrecord
340
0
  0
XRECORD
  5
A68D
102
{ACAD_REACTORS
330
A67D
102
}
330
A67D
100
AcDbXrecord
 70
     0
  0
XRECORD
  5
A68E
102
{ACAD_REACTORS
330
A67D
102
}
330
A67D
100
AcDbXrecord
340
0
  0
XRECORD
  5
A68F
102
{ACAD_REACTORS
330
A67D
102
}
330
A67D
100
AcDbXrecord
 10
0.0
 20
0.0
 30
0.0
  0
XRECORD
  5
A690
102
{ACAD_REACTORS
330
A67D
102
}
330
A67D
100
AcDbXrecord
 10
0.0
 20
0.0
 30
0.0
  0
XRECORD
  5
A691
102
{ACAD_REACTORS
330
A67D
102
}
330
A67D
100
AcDbXrecord
 10
0.0
 20
0.0
 30
0.0
  0
XRECORD
  5
A692
102
{ACAD_REACTORS
330
A67D
102
}
330
A67D
100
AcDbXrecord
 10
0.0
 20
0.0
 30
0.0
  0
XRECORD
  5
A693
102
{ACAD_REACTORS
330
A67D
102
}
330
A67D
100
AcDbXrecord
 10
0.0
 20
0.0
 30
0.0
  0
XRECORD
  5
A694
102
{ACAD_REACTORS
330
A67D
102
}
330
A67D
100
AcDbXrecord
 10
0.0
 20
0.0
 30
0.0
  0
XRECORD
  5
A695
102
{ACAD_REACTORS
330
A67D
102
}
330
A67D
100
AcDbXrecord
340
0
  0
XRECORD
  5
A696
102
{ACAD_REACTORS
330
A67D
102
}
330
A67D
100
AcDbXrecord
 70
     0
  0
XRECORD
  5
A697
102
{ACAD_REACTORS
330
A67D
102
}
330
A67D
100
AcDbXrecord
340
0
  0
XRECORD
  5
A698
102
{ACAD_REACTORS
330
A67D
102
}
330
A67D
100
AcDbXrecord
 10
0.0
 20
0.0
 30
0.0
  0
XRECORD
  5
A699
102
{ACAD_REACTORS
330
A67D
102
}
330
A67D
100
AcDbXrecord
 10
0.0
 20
0.0
 30
0.0
  0
XRECORD
  5
A69A
102
{ACAD_REACTORS
330
A67D
102
}
330
A67D
100
AcDbXrecord
 10
0.0
 20
0.0
 30
0.0
  0
XRECORD
  5
A69B
102
{ACAD_REACTORS
330
A67D
102
}
330
A67D
100
AcDbXrecord
 10
0.0
 20
0.0
 30
0.0
  0
XRECORD
  5
A69C
102
{ACAD_REACTORS
330
A67D
102
}
330
A67D
100
AcDbXrecord
 10
0.0
 20
0.0
 30
0.0
  0
XRECORD
  5
A69D
102
{ACAD_REACTORS
330
A67D
102
}
330
A67D
100
AcDbXrecord
 10
0.0
 20
0.0
 30
0.0
  0
LAYER_INDEX
  5
A674
102
{ACAD_REACTORS
330
A673
102
}
330
A673
100
AcDbIndex
 40
2453151.765893542
100
AcDbLayerIndex
  8
0
360
A675
 90
        0
  8
AM_0
360
A676
 90
       36
  8
AM_11
360
A677
 90
        3
  8
AM_7
360
A678
 90
        1
  8
AM_5
360
A679
 90
        4
  8
Defpoints
360
A67A
 90
        0
  8
AM_6
360
A67B
 90
        1
  0
XRECORD
  5
2D
102
{ACAD_REACTORS
330
2C
102
}
330
2C
100
AcDbXrecord
  1
VERSION
140
15.0
  1
PRODUCT
  2
AutoCAD Mechanical 2000
  0
IDBUFFER
  5
A675
330
0
100
AcDbIdBuffer
  0
IDBUFFER
  5
A676
330
0
100
AcDbIdBuffer
330
A4F4
330
A4F5
330
A4F6
330
A4F7
330
A4F8
330
A4F9
330
A4FA
330
A4FB
330
A4FC
330
A4FD
330
A4FE
330
A4FF
330
A59F
330
A5A2
330
A5A3
330
A5B3
330
A5CA
330
A5CD
330
A5D8
330
A5D9
330
A030
330
A4E2
330
A4E3
330
A4E4
330
A4E5
330
A4E7
330
A4E8
330
A4E9
330
A4EA
330
A4EB
330
A4ED
330
A4EF
330
A4F0
330
A4F1
330
A4F2
330
A4F3
  0
IDBUFFER
  5
A677
330
0
100
AcDbIdBuffer
330
A4E6
330
A4EC
330
A4EE
  0
IDBUFFER
  5
A678
330
0
100
AcDbIdBuffer
330
9FA3
  0
IDBUFFER
  5
A679
330
0
100
AcDbIdBuffer
330
A1A7
330
A237
330
A4D3
330
A5A4
  0
IDBUFFER
  5
A67A
330
0
100
AcDbIdBuffer
  0
IDBUFFER
  5
A67B
330
0
100
AcDbIdBuffer
330
1500
  0
ENDSEC
  0
EOF
