  0
SECTION
  2
HEADER
  9
$ACADVER
  1
AC1014
  9
$ACADMAINTVER
 70
     9
  9
$DWGCODEPAGE
  3
ANSI_932
  9
$INSBASE
 10
0.0
 20
0.0
 30
0.0
  9
$EXTMIN
 10
-50.44087643344269
 20
-26.2500010000002
 30
-0.00000001
  9
$EXTMAX
 10
7.955777803085517
 20
4.49999999999998
 30
0.00000001
  9
$LIMMIN
 10
-52.40194419781818
 20
-33.50369771433159
  9
$LIMMAX
 10
12.91940147613843
 20
12.15960143765227
  9
$ORTHOMODE
 70
     0
  9
$REGENMODE
 70
     1
  9
$FILLMODE
 70
     1
  9
$QTEXTMODE
 70
     0
  9
$MIRRTEXT
 70
     0
  9
$DRAGMODE
 70
     2
  9
$LTSCALE
 40
1.0
  9
$OSMODE
 70
    55
  9
$ATTMODE
 70
     1
  9
$TEXTSIZE
 40
2.5
  9
$TRACEWID
 40
1.0
  9
$TEXTSTYLE
  7
STANDARD
  9
$CLAYER
  8
AM_0
  9
$CELTYPE
  6
BYLAYER
  9
$CECOLOR
 62
   256
  9
$CELTSCALE
 40
1.0
  9
$DELOBJ
 70
     1
  9
$DISPSILH
 70
     0
  9
$DIMSCALE
 40
0.5
  9
$DIMASZ
 40
2.5
  9
$DIMEXO
 40
1.0
  9
$DIMDLI
 40
12.0
  9
$DIMRND
 40
0.0
  9
$DIMDLE
 40
0.0
  9
$DIMEXE
 40
1.0
  9
$DIMTP
 40
0.1
  9
$DIMTM
 40
0.1
  9
$DIMTXT
 40
3.2
  9
$DIMCEN
 40
0.0
  9
$DIMTSZ
 40
0.0
  9
$DIMTOL
 70
     0
  9
$DIMLIM
 70
     0
  9
$DIMTIH
 70
     0
  9
$DIMTOH
 70
     0
  9
$DIMSE1
 70
     0
  9
$DIMSE2
 70
     0
  9
$DIMTAD
 70
     3
  9
$DIMZIN
 70
     8
  9
$DIMBLK
  1
OPEN30
  9
$DIMASO
 70
     1
  9
$DIMSHO
 70
     1
  9
$DIMPOST
  1

  9
$DIMAPOST
  1
"
  9
$DIMALT
 70
     0
  9
$DIMALTD
 70
     2
  9
$DIMALTF
 40
0.0393701
  9
$DIMLFAC
 40
1.0
  9
$DIMTOFL
 70
     1
  9
$DIMTVP
 40
0.0
  9
$DIMTIX
 70
     0
  9
$DIMSOXD
 70
     0
  9
$DIMSAH
 70
     0
  9
$DIMBLK1
  1

  9
$DIMBLK2
  1

  9
$DIMSTYLE
  2
AM_JIS
  9
$DIMCLRD
 70
   256
  9
$DIMCLRE
 70
   256
  9
$DIMCLRT
 70
     2
  9
$DIMTFAC
 40
0.71
  9
$DIMGAP
 40
1.5
  9
$DIMJUST
 70
     0
  9
$DIMSD1
 70
     0
  9
$DIMSD2
 70
     0
  9
$DIMTOLJ
 70
     0
  9
$DIMTZIN
 70
     0
  9
$DIMALTZ
 70
     0
  9
$DIMALTTZ
 70
     0
  9
$DIMFIT
 70
     3
  9
$DIMUPT
 70
     0
  9
$DIMUNIT
 70
     2
  9
$DIMDEC
 70
     3
  9
$DIMTDEC
 70
     3
  9
$DIMALTU
 70
     2
  9
$DIMALTTD
 70
     2
  9
$DIMTXSTY
  7
ASAMI
  9
$DIMAUNIT
 70
     0
  9
$LUNITS
 70
     2
  9
$LUPREC
 70
     2
  9
$SKETCHINC
 40
1.0
  9
$FILLETRAD
 40
2.5
  9
$AUNITS
 70
     0
  9
$AUPREC
 70
     0
  9
$MENU
  1
.
  9
$ELEVATION
 40
0.0
  9
$PELEVATION
 40
0.0
  9
$THICKNESS
 40
0.0
  9
$LIMCHECK
 70
     0
  9
$BLIPMODE
 70
     0
  9
$CHAMFERA
 40
0.25
  9
$CHAMFERB
 40
0.25
  9
$CHAMFERC
 40
20.0
  9
$CHAMFERD
 40
0.0
  9
$SKPOLY
 70
     0
  9
$TDCREATE
 40
2452838.430434386
  9
$TDUPDATE
 40
2453151.766593772
  9
$TDINDWG
 40
0.5288262500
  9
$TDUSRTIMER
 40
0.5288262500
  9
$USRTIMER
 70
     1
  9
$ANGBASE
 50
0.0
  9
$ANGDIR
 70
     0
  9
$PDMODE
 70
     0
  9
$PDSIZE
 40
0.0
  9
$PLINEWID
 40
0.0
  9
$COORDS
 70
     1
  9
$SPLFRAME
 70
     0
  9
$SPLINETYPE
 70
     6
  9
$SPLINESEGS
 70
     8
  9
$ATTDIA
 70
     1
  9
$ATTREQ
 70
     1
  9
$HANDLING
 70
 12289
  9
$HANDSEED
  5
A65F
  9
$SURFTAB1
 70
     6
  9
$SURFTAB2
 70
     6
  9
$SURFTYPE
 70
     6
  9
$SURFU
 70
     6
  9
$SURFV
 70
     6
  9
$UCSNAME
  2

  9
$UCSORG
 10
0.0
 20
0.0
 30
0.0
  9
$UCSXDIR
 10
1.0
 20
0.0
 30
0.0
  9
$UCSYDIR
 10
0.0
 20
1.0
 30
0.0
  9
$PUCSNAME
  2

  9
$PUCSORG
 10
0.0
 20
0.0
 30
0.0
  9
$PUCSXDIR
 10
1.0
 20
0.0
 30
0.0
  9
$PUCSYDIR
 10
0.0
 20
1.0
 30
0.0
  9
$USERI1
 70
     0
  9
$USERI2
 70
     0
  9
$USERI3
 70
     0
  9
$USERI4
 70
     0
  9
$USERI5
 70
     0
  9
$USERR1
 40
0.0
  9
$USERR2
 40
0.0
  9
$USERR3
 40
0.0
  9
$USERR4
 40
0.0
  9
$USERR5
 40
0.0
  9
$WORLDVIEW
 70
     1
  9
$SHADEDGE
 70
     3
  9
$SHADEDIF
 70
    70
  9
$TILEMODE
 70
     1
  9
$MAXACTVP
 70
    64
  9
$PINSBASE
 10
0.0
 20
0.0
 30
0.0
  9
$PLIMCHECK
 70
     0
  9
$PEXTMIN
 10
1.000000000000000E+20
 20
1.000000000000000E+20
 30
1.000000000000000E+20
  9
$PEXTMAX
 10
-1.000000000000000E+20
 20
-1.000000000000000E+20
 30
-1.000000000000000E+20
  9
$PLIMMIN
 10
0.0
 20
0.0
  9
$PLIMMAX
 10
841.0
 20
594.0
  9
$UNITMODE
 70
     0
  9
$VISRETAIN
 70
     1
  9
$PLINEGEN
 70
     0
  9
$PSLTSCALE
 70
     0
  9
$TREEDEPTH
 70
  3020
  9
$PICKSTYLE
 70
     0
  9
$CMLSTYLE
  2
STANDARD
  9
$CMLJUST
 70
     0
  9
$CMLSCALE
 40
20.0
  9
$PROXYGRAPHICS
 70
     1
  9
$MEASUREMENT
 70
     1
  0
ENDSEC
  0
SECTION
  2
CLASSES
  0
CLASS
  1
ACDBDICTIONARYWDFLT
  2
AcDbDictionaryWithDefault
  3
AutoCAD 2000
 90
        0
280
     0
281
     0
  0
CLASS
  1
ACDBPLACEHOLDER
  2
AcDbPlaceHolder
  3
AutoCAD 2000
 90
        0
280
     0
281
     0
  0
CLASS
  1
LAYOUT
  2
AcDbLayout
  3
AutoCAD 2000
 90
        0
280
     0
281
     0
  0
CLASS
  1
AMGSETTINGSOBJ
  2
AmgSettingsObj
  3
"AcadM|Product Description: AutoCAD Mechanical 2000|Company: Autodesk"
 90
        0
280
     0
281
     0
  0
CLASS
  1
ACME_DOCUMENT
  2
AcMeDbDoc
  3
AcMeServices
 90
        0
280
     0
281
     0
  0
CLASS
  1
ACMESCOPE
  2
AcMeScope
  3
AcMeServices
 90
        0
280
     0
281
     0
  0
CLASS
  1
ACMECOMMANDHISTORY
  2
AcMeCommandHistory
  3
AcMeServices
 90
        0
280
     0
281
     0
  0
CLASS
  1
DICTIONARYVAR
  2
AcDbDictionaryVar
  3
AutoCAD 2000
 90
        0
280
     0
281
     0
  0
CLASS
  1
ACIMSYSVARMAN
  2
AcImSysVarManager
  3
AcMeServices
 90
        0
280
     0
281
     0
  0
CLASS
  1
ACIMREALSYSVAR
  2
AcImRealSysVar
  3
AcMeServices
 90
        0
280
     0
281
     0
  0
CLASS
  1
ACIMINTSYSVAR
  2
AcImIntSysVar
  3
AcMeServices
 90
        0
280
     0
281
     0
  0
CLASS
  1
ACMEDRAWINGMAN
  2
AcMeDrawingMan
  3
AcMeServices
 90
        0
280
     0
281
     0
  0
CLASS
  1
ACMEVIEW
  2
AcMeView
  3
AcMeServices
 90
        0
280
     0
281
     0
  0
CLASS
  1
ACDBENTITYCACHE
  2
AcMeEntityCache
  3
AcMeServices
 90
        0
280
     0
281
     0
  0
CLASS
  1
GSMANAGER
  2
AcMeGSManager
  3
AcMeServices
 90
        0
280
     0
281
     0
  0
CLASS
  1
AmdtInternalReactor
  2
AmdtInternalReactor
  3
AcMeServices
 90
        0
280
     0
281
     0
  0
CLASS
  1
ACMESTATEMGR
  2
AcMeStateMgr
  3
AcMeServices
 90
        0
280
     0
281
     0
  0
CLASS
  1
ACME_DATABASE
  2
AcMeDbDatabase
  3
AcMeServices
 90
        0
280
     0
281
     0
  0
CLASS
  1
ACRFINSADJUSTERMGR
  2
AcRfInsAdjusterMgr
  3
AcMeServices
 90
        0
280
     0
281
     0
  0
CLASS
  1
ACMDATADICTIONARY
  2
AcmDataDictionary
  3
"AcmSymBB|Product Description: AutoCAD Mechanical 2000|Company: Autodesk"
 90
        0
280
     0
281
     0
  0
CLASS
  1
ACMDATAENTRYBLOCK
  2
AcmDataEntryBlock
  3
"AcmSymBB|Product Description: AutoCAD Mechanical 2000|Company: Autodesk"
 90
        0
280
     0
281
     0
  0
CLASS
  1
AMGOBJPROPCFG
  2
AmgObjPropCfg
  3
"AmgLay|Product Description: AutoCAD Mechanical 2000|Company: Autodesk"
 90
        1
280
     0
281
     0
  0
CLASS
  1
ACAMGFILTERDAT
  2
AcAmgFilterDat
  3
"AcadM|Product Description: AutoCAD Mechanical 2000|Company: Autodesk"
 90
        0
280
     0
281
     0
  0
CLASS
  1
LAYER_INDEX
  2
AcDbLayerIndex
  3
AutoCAD 2000
 90
        0
280
     0
281
     0
  0
CLASS
  1
IDBUFFER
  2
AcDbIdBuffer
  3
AutoCAD 2000
 90
        0
280
     0
281
     0
  0
CLASS
  1
ACIMSTRSYSVAR
  2
AcImStrSysVar
  3
AcMeServices
 90
        0
280
     0
281
     0
  0
CLASS
  1
ACMSTANDARDJIS
  2
AcmStandardJIS
  3
"AcmSymBB|Product Description: AutoCAD Mechanical 2000|Company: Autodesk"
 90
        0
280
     0
281
     0
  0
CLASS
  1
ACMSURFSTANDARDJIS
  2
AcmSurfTextStdJIS
  3
"AcmSymBB|Product Description: AutoCAD Mechanical 2000|Company: Autodesk"
 90
        0
280
     0
281
     0
  0
CLASS
  1
ACMFCFSTANDARDJIS
  2
AcmFCFStdJIS
  3
"AcmSymBB|Product Description: AutoCAD Mechanical 2000|Company: Autodesk"
 90
        0
280
     0
281
     0
  0
CLASS
  1
ACMWELDSTANDARDJIS
  2
AcmWeldingStdJIS
  3
"AcmSymBB|Product Description: AutoCAD Mechanical 2000|Company: Autodesk"
 90
        0
280
     0
281
     0
  0
CLASS
  1
ACMIDSTANDARDJIS
  2
AcmIdStdJIS
  3
"AcmSymBB|Product Description: AutoCAD Mechanical 2000|Company: Autodesk"
 90
        0
280
     0
281
     0
  0
CLASS
  1
ACMDATUMSTANDARDJIS
  2
AcmDatumStdJIS
  3
"AcmSymBB|Product Description: AutoCAD Mechanical 2000|Company: Autodesk"
 90
        0
280
     0
281
     0
  0
CLASS
  1
ACMBOMSTANDARDJIS
  2
AcmBOMStdJIS
  3
"AcmSymBB|Product Description: AutoCAD Mechanical 2000|Company: Autodesk"
 90
        0
280
     0
281
     0
  0
CLASS
  1
ACMSTANDARDANSI
  2
AcmStandardANSI
  3
"AcmSymBB|Product Description: AutoCAD Mechanical 2000|Company: Autodesk"
 90
        0
280
     0
281
     0
  0
CLASS
  1
ACMSURFSTANDARDANSI
  2
AcmSurfTextStdANSI
  3
"AcmSymBB|Product Description: AutoCAD Mechanical 2000|Company: Autodesk"
 90
        0
280
     0
281
     0
  0
CLASS
  1
ACMFCFSTANDARDANSI
  2
AcmFCFStdANSI
  3
"AcmSymBB|Product Description: AutoCAD Mechanical 2000|Company: Autodesk"
 90
        0
280
     0
281
     0
  0
CLASS
  1
ACMWELDSTANDARDANSI
  2
AcmWeldingStdANSI
  3
"AcmSymBB|Product Description: AutoCAD Mechanical 2000|Company: Autodesk"
 90
        0
280
     0
281
     0
  0
CLASS
  1
ACMIDSTANDARDANSI
  2
AcmIdStdANSI
  3
"AcmSymBB|Product Description: AutoCAD Mechanical 2000|Company: Autodesk"
 90
        0
280
     0
281
     0
  0
CLASS
  1
ACMDATUMSTANDARDANSI
  2
AcmDatumStdANSI
  3
"AcmSymBB|Product Description: AutoCAD Mechanical 2000|Company: Autodesk"
 90
        0
280
     0
281
     0
  0
CLASS
  1
ACMBOMSTANDARDANSI
  2
AcmBOMStdANSI
  3
"AcmSymBB|Product Description: AutoCAD Mechanical 2000|Company: Autodesk"
 90
        0
280
     0
281
     0
  0
CLASS
  1
ACMSTANDARDBSI
  2
AcmStandardBSI
  3
"AcmSymBB|Product Description: AutoCAD Mechanical 2000|Company: Autodesk"
 90
        0
280
     0
281
     0
  0
CLASS
  1
ACMSURFSTANDARDBSI
  2
AcmSurfTextStdBSI
  3
"AcmSymBB|Product Description: AutoCAD Mechanical 2000|Company: Autodesk"
 90
        0
280
     0
281
     0
  0
CLASS
  1
ACMFCFSTANDARDBSI
  2
AcmFCFStdBSI
  3
"AcmSymBB|Product Description: AutoCAD Mechanical 2000|Company: Autodesk"
 90
        0
280
     0
281
     0
  0
CLASS
  1
ACMWELDSTANDARDBSI
  2
AcmWeldingStdBSI
  3
"AcmSymBB|Product Description: AutoCAD Mechanical 2000|Company: Autodesk"
 90
        0
280
     0
281
     0
  0
CLASS
  1
ACMIDSTANDARDBSI
  2
AcmIdStdBSI
  3
"AcmSymBB|Product Description: AutoCAD Mechanical 2000|Company: Autodesk"
 90
        0
280
     0
281
     0
  0
CLASS
  1
ACMDATUMSTANDARDBSI
  2
AcmDatumStdBSI
  3
"AcmSymBB|Product Description: AutoCAD Mechanical 2000|Company: Autodesk"
 90
        0
280
     0
281
     0
  0
CLASS
  1
ACMBOMSTANDARDBSI
  2
AcmBOMStdBSI
  3
"AcmSymBB|Product Description: AutoCAD Mechanical 2000|Company: Autodesk"
 90
        0
280
     0
281
     0
  0
CLASS
  1
LONG_TRANSACTION
  2
AcDbLongTransaction
  3
AutoCAD 2000
 90
        0
280
     0
281
     0
  0
CLASS
  1
LWPOLYLINE
  2
AcDbPolyline
  3
AutoCAD 2000
 90
        0
280
     0
281
     1
  0
CLASS
  1
HATCH
  2
AcDbHatch
  3
AutoCAD 2000
 90
        0
280
     0
281
     1
  0
CLASS
  1
XRECORD
  2
AcDbXrecord
  3
AutoCAD 2000
 90
        0
280
     0
281
     0
  0
ENDSEC
  0
SECTION
  2
TABLES
  0
TABLE
  2
VPORT
  5
8
330
0
100
AcDbSymbolTable
 70
     3
  0
VPORT
  5
A629
330
8
100
AcDbSymbolTableRecord
100
AcDbViewportTableRecord
  2
*ACTIVE
 70
     0
 10
0.0
 20
0.0
 11
1.0
 21
1.0
 12
-19.03625953105308
 22
-11.6136050863223
 13
0.0
 23
0.0
 14
2.5
 24
2.5
 15
10.0
 25
10.0
 16
0.0
 26
0.0
 36
1.0
 17
0.0
 27
0.0
 37
0.0
 40
44.44221926038905
 41
1.56570841889117
 42
50.0
 43
0.0
 44
0.0
 50
0.0
 51
0.0
 71
     0
 72
   100
 73
     1
 74
     3
 75
     0
 76
     0
 77
     0
 78
     0
  0
ENDTAB
  0
TABLE
  2
LTYPE
  5
5
330
0
100
AcDbSymbolTable
 70
    10
  0
LTYPE
  5
14
330
5
100
AcDbSymbolTableRecord
100
AcDbLinetypeTableRecord
  2
BYBLOCK
 70
     0
  3

 72
    65
 73
     0
 40
0.0
  0
LTYPE
  5
15
330
5
100
AcDbSymbolTableRecord
100
AcDbLinetypeTableRecord
  2
BYLAYER
 70
     0
  3

 72
    65
 73
     0
 40
0.0
  0
LTYPE
  5
16
330
5
100
AcDbSymbolTableRecord
100
AcDbLinetypeTableRecord
  2
CONTINUOUS
 70
     0
  3
Solid line
 72
    65
 73
     0
 40
0.0
  0
LTYPE
  5
4B
330
5
100
AcDbSymbolTableRecord
100
AcDbLinetypeTableRecord
  2
AM_ISO02W050
 70
     0
  3
__ __ __ __ __ __ __ __ __ __ __ __ __ __ __
 72
    65
 73
     2
 40
7.5
 49
6.0
 74
     0
 49
-1.5
 74
     0
  0
LTYPE
  5
4C
330
5
100
AcDbSymbolTableRecord
100
AcDbLinetypeTableRecord
  2
AM_ISO08W050
 70
     0
  3
____ . ____ . ____ . ____ . ____ . ____ . ____
 72
    65
 73
     4
 40
18.0
 49
12.0
 74
     0
 49
-1.5
 74
     0
 49
3.0
 74
     0
 49
-1.5
 74
     0
  0
LTYPE
  5
4D
330
5
100
AcDbSymbolTableRecord
100
AcDbLinetypeTableRecord
  2
AM_ISO09W050
 70
     0
  3
_____ . . _____ . . _____ . . ____ .. ____
 72
    65
 73
     6
 40
22.5
 49
12.0
 74
     0
 49
-1.5
 74
     0
 49
3.0
 74
     0
 49
-1.5
 74
     0
 49
3.0
 74
     0
 49
-1.5
 74
     0
  0
LTYPE
  5
4E
330
5
100
AcDbSymbolTableRecord
100
AcDbLinetypeTableRecord
  2
AMCONSTR
 70
     0
  3
_______________________
 72
    65
 73
     2
 40
9999.0
 49
9999.0
 74
     0
 49
0.0
 74
     0
  0
LTYPE
  5
4F
330
5
100
AcDbSymbolTableRecord
100
AcDbLinetypeTableRecord
  2
AM_ISO02W050X2
 70
     0
  3
 _ _ _ _ _ _ _ _ _ _ _ _
 72
    65
 73
     2
 40
3.75
 49
3.0
 74
     0
 49
-0.75
 74
     0
  0
LTYPE
  5
50
330
5
100
AcDbSymbolTableRecord
100
AcDbLinetypeTableRecord
  2
AM_ISO08W050X2
 70
     0
  3
__ . __ . __ . __ . __ . __
 72
    65
 73
     4
 40
9.0
 49
6.0
 74
     0
 49
-0.75
 74
     0
 49
1.5
 74
     0
 49
-0.75
 74
     0
  0
LTYPE
  5
53
330
5
100
AcDbSymbolTableRecord
100
AcDbLinetypeTableRecord
  2
AMZIGZAG
 70
     0
  3
/\/-/\/-/\/-/\/-/\/-/\/
 72
    65
 73
     2
 40
11.00009999999999
 49
0.0001
 74
     4
 75
   135
340
52
 46
0.04
 50
0.0
 44
0.0
 45
0.0
 49
-11.0
 74
     0
  0
LTYPE
  5
166
330
5
100
AcDbSymbolTableRecord
100
AcDbLinetypeTableRecord
  2
ACJISTGL
 70
     0
  3
_ _ _ _ _
 72
    65
 73
     2
 40
3.0
 49
2.0
 74
     0
 49
-1.0
 74
     0
  0
LTYPE
  5
26A
330
5
100
AcDbSymbolTableRecord
100
AcDbLinetypeTableRecord
  2
ACJISTGB
 70
     0
  3
__ . . __ . .
 72
    65
 73
     6
 40
9.0
 49
4.0
 74
     0
 49
-1.0
 74
     0
 49
1.0
 74
     0
 49
-1.0
 74
     0
 49
1.0
 74
     0
 49
-1.0
 74
     0
  0
ENDTAB
  0
TABLE
  2
LAYER
  5
2
330
0
100
AcDbSymbolTable
 70
     7
  0
LAYER
  5
10
330
2
100
AcDbSymbolTableRecord
100
AcDbLayerTableRecord
  2
0
 70
     0
 62
     7
  6
CONTINUOUS
  0
LAYER
  5
3F9
330
2
100
AcDbSymbolTableRecord
100
AcDbLayerTableRecord
  2
AM_0
 70
     0
 62
     7
  6
CONTINUOUS
  0
LAYER
  5
BDD
330
2
100
AcDbSymbolTableRecord
100
AcDbLayerTableRecord
  2
AM_11
 70
     0
 62
     3
  6
AM_ISO09W050
  0
LAYER
  5
BDE
330
2
100
AcDbSymbolTableRecord
100
AcDbLayerTableRecord
  2
AM_7
 70
     0
 62
     4
  6
AM_ISO08W050
  0
LAYER
  5
BDF
330
2
100
AcDbSymbolTableRecord
100
AcDbLayerTableRecord
  2
AM_5
 70
     0
 62
     3
  6
CONTINUOUS
  0
LAYER
  5
BE0
330
2
100
AcDbSymbolTableRecord
100
AcDbLayerTableRecord
  2
DEFPOINTS
 70
     0
 62
     7
  6
CONTINUOUS
  0
LAYER
  5
14FF
330
2
100
AcDbSymbolTableRecord
100
AcDbLayerTableRecord
  2
AM_6
 70
     0
 62
     2
  6
CONTINUOUS
  0
ENDTAB
  0
TABLE
  2
STYLE
  5
3
330
0
100
AcDbSymbolTable
 70
     5
  0
STYLE
  5
11
330
3
100
AcDbSymbolTableRecord
100
AcDbTextStyleTableRecord
  2
STANDARD
 70
     0
 40
0.0
 41
1.0
 50
0.0
 71
     0
 42
2.5
  3
simplex.shx
  4
EXTFONT.SHX
  0
STYLE
  5
52
330
3
100
AcDbSymbolTableRecord
100
AcDbTextStyleTableRecord
  2

 70
     1
 40
0.0
 41
1.0
 50
0.0
 71
     0
 42
2.5
  3
ltypeshp.shx
  4

  0
STYLE
  5
6B
330
3
100
AcDbSymbolTableRecord
100
AcDbTextStyleTableRecord
  2
ASAMI
 70
     0
 40
0.0
 41
1.0
 50
0.0
 71
     0
 42
2.5
  3
simplex.shx
  4
EXTFONT.SHX
  0
STYLE
  5
262
330
3
100
AcDbSymbolTableRecord
100
AcDbTextStyleTableRecord
  2
ACJISTS
 70
     0
 40
1.0
 41
1.0
 50
0.0
 71
     0
 42
2.5
  3
simplex.shx
  4
bigfont.shx
  0
STYLE
  5
269
330
3
100
AcDbSymbolTableRecord
100
AcDbTextStyleTableRecord
  2
ACJISGDT
 70
     0
 40
0.0
 41
1.0
 50
0.0
 71
     0
 42
2.5
  3
amgdtans.shx
  4

  0
ENDTAB
  0
TABLE
  2
VIEW
  5
6
330
0
100
AcDbSymbolTable
 70
     0
  0
ENDTAB
  0
TABLE
  2
UCS
  5
7
330
0
100
AcDbSymbolTable
 70
     0
  0
ENDTAB
  0
TABLE
  2
APPID
  5
9
330
0
100
AcDbSymbolTable
 70
    13
  0
APPID
  5
12
330
9
100
AcDbSymbolTableRecord
100
AcDbRegAppTableRecord
  2
ACAD
 70
     0
  0
APPID
  5
30
330
9
100
AcDbSymbolTableRecord
100
AcDbRegAppTableRecord
  2
MCAD_NO_VIS
 70
     0
  0
APPID
  5
31
330
9
100
AcDbSymbolTableRecord
100
AcDbRegAppTableRecord
  2
ACAD_TEMP_GRAPHIC
 70
     0
  0
APPID
  5
2C2
330
9
100
AcDbSymbolTableRecord
100
AcDbRegAppTableRecord
  2
GENIUS_GENDTOL_13
 70
     0
  0
APPID
  5
339
330
9
100
AcDbSymbolTableRecord
100
AcDbRegAppTableRecord
  2
GENIUS_GENODEF_13
 70
     0
  0
APPID
  5
33A
330
9
100
AcDbSymbolTableRecord
100
AcDbRegAppTableRecord
  2
GENIUS_GENOBJ-N-RSBK_13
 70
     0
  0
APPID
  5
33B
330
9
100
AcDbSymbolTableRecord
100
AcDbRegAppTableRecord
  2
GENIUS_GENOBJ-N-LIB_13
 70
     0
  0
APPID
  5
33C
330
9
100
AcDbSymbolTableRecord
100
AcDbRegAppTableRecord
  2
GENIUS_GENSCALE_13
 70
     0
  0
APPID
  5
378
330
9
100
AcDbSymbolTableRecord
100
AcDbRegAppTableRecord
  2
GENIUS_GENDIMSH_14
 70
     0
  0
APPID
  5
BE1
330
9
100
AcDbSymbolTableRecord
100
AcDbRegAppTableRecord
  2
GENIUS_GENFIL_13
 70
     0
  0
APPID
  5
BE2
330
9
100
AcDbSymbolTableRecord
100
AcDbRegAppTableRecord
  2
GENIUS_GENOBJ-N-CHA_13
 70
     0
  0
APPID
  5
151B
330
9
100
AcDbSymbolTableRecord
100
AcDbRegAppTableRecord
  2
DCO15
 70
     0
  0
APPID
  5
1860
330
9
100
AcDbSymbolTableRecord
100
AcDbRegAppTableRecord
  2
GENIUS_GENOBJ-N-CEN_13
 70
     0
  0
ENDTAB
  0
TABLE
  2
DIMSTYLE
  5
A
330
0
100
AcDbSymbolTable
 70
     8
  0
DIMSTYLE
105
58
102
{ACAD_REACTORS
330
A0FE
330
A1A7
330
A237
330
A068
102
}
330
A
100
AcDbSymbolTableRecord
100
AcDbDimStyleTableRecord
  2
AM_JIS
 70
     0
  3

  4
"
  5
OPEN30
  6

  7

 40
0.5
 41
2.5
 42
1.0
 43
12.0
 44
1.0
 45
0.0
 46
0.0
 47
0.1
 48
0.1
140
3.2
141
0.0
142
0.0
143
0.0393701
144
1.0
145
0.0
146
0.71
147
1.5
 71
     0
 72
     0
 73
     0
 74
     0
 75
     0
 76
     0
 77
     3
 78
     8
170
     0
171
     2
172
     1
173
     0
174
     0
175
     0
176
   256
177
   256
178
     2
270
     2
271
     3
272
     3
273
     2
274
     2
340
6B
275
     0
280
     0
281
     0
282
     0
283
     0
284
     0
285
     0
286
     0
287
     3
288
     0
  0
DIMSTYLE
105
5F
330
A
100
AcDbSymbolTableRecord
100
AcDbDimStyleTableRecord
  2
AM_JIS$3
 70
     0
  3

  4
"
  5
OPEN30
  6

  7

 40
0.5
 41
2.5
 42
1.0
 43
10.0
 44
1.0
 45
0.0
 46
0.0
 47
0.1
 48
0.1
140
3.2
141
0.0
142
0.0
143
0.0393701
144
1.0
145
0.0
146
0.71
147
1.5
 71
     0
 72
     0
 73
     0
 74
     1
 75
     0
 76
     0
 77
     3
 78
     8
170
     0
171
     2
172
     0
173
     0
174
     0
175
     0
176
   256
177
   256
178
     2
270
     2
271
     2
272
     3
273
     2
274
     2
340
6B
275
     0
280
     0
281
     0
282
     0
283
     0
284
     0
285
     0
286
     0
287
     0
288
     1
  0
DIMSTYLE
105
60
330
A
100
AcDbSymbolTableRecord
100
AcDbDimStyleTableRecord
  2
AM_JIS$4
 70
     0
  3

  4
"
  5
OPEN30
  6

  7

 40
0.5
 41
2.5
 42
1.0
 43
10.0
 44
1.0
 45
0.0
 46
0.0
 47
0.1
 48
0.1
140
3.2
141
0.0
142
0.0
143
0.0393701
144
1.0
145
0.0
146
0.71
147
1.5
 71
     0
 72
     0
 73
     0
 74
     1
 75
     0
 76
     0
 77
     3
 78
     8
170
     0
171
     2
172
     0
173
     0
174
     0
175
     0
176
   256
177
   256
178
     2
270
     2
271
     2
272
     3
273
     2
274
     2
340
6B
275
     0
280
     0
281
     0
282
     0
283
     0
284
     0
285
     0
286
     0
287
     0
288
     1
  0
DIMSTYLE
105
61
330
A
100
AcDbSymbolTableRecord
100
AcDbDimStyleTableRecord
  2
AM_JIS$6
 70
     0
  3

  4
"
  5
OPEN30
  6

  7

 40
0.5
 41
2.5
 42
1.0
 43
10.0
 44
1.0
 45
0.0
 46
0.0
 47
0.1
 48
0.1
140
3.2
141
0.0
142
0.0
143
0.0393701
144
1.0
145
0.0
146
0.71
147
1.5
 71
     0
 72
     0
 73
     0
 74
     0
 75
     0
 76
     0
 77
     0
 78
     8
170
     0
171
     2
172
     1
173
     0
174
     0
175
     0
176
   256
177
   256
178
     2
270
     2
271
     2
272
     2
273
     2
274
     2
340
6B
275
     0
280
     0
281
     0
282
     0
283
     0
284
     0
285
     0
286
     0
287
     3
288
     0
  0
DIMSTYLE
105
62
330
A
100
AcDbSymbolTableRecord
100
AcDbDimStyleTableRecord
  2
AM_JIS$7
 70
     0
  3

  4
"
  5
OPEN30
  6

  7

 40
0.5
 41
2.5
 42
1.0
 43
10.0
 44
1.0
 45
0.0
 46
0.0
 47
0.1
 48
0.1
140
3.2
141
0.0
142
0.0
143
0.0393701
144
1.0
145
0.0
146
0.71
147
1.5
 71
     0
 72
     0
 73
     0
 74
     0
 75
     0
 76
     0
 77
     3
 78
     8
170
     0
171
     2
172
     1
173
     0
174
     0
175
     0
176
   256
177
   256
178
     2
270
     2
271
     2
272
     3
273
     2
274
     2
340
6B
275
     0
280
     0
281
     0
282
     0
283
     0
284
     0
285
     0
286
     0
287
     3
288
     0
  0
DIMSTYLE
105
63
330
A
100
AcDbSymbolTableRecord
100
AcDbDimStyleTableRecord
  2
AM_JIS$SF
 70
     0
  3

  4
"
  5
OPEN30
  6

  7

 40
0.5
 41
2.5
 42
1.0
 43
10.0
 44
1.0
 45
0.0
 46
0.0
 47
0.1
 48
0.1
140
3.2
141
0.0
142
0.0
143
0.0393701
144
1.0
145
0.0
146
0.71
147
1.5
 71
     0
 72
     0
 73
     0
 74
     0
 75
     1
 76
     1
 77
     3
 78
     8
170
     0
171
     2
172
     1
173
     0
174
     0
175
     0
176
   256
177
   256
178
     2
270
     2
271
     2
272
     2
273
     2
274
     2
340
6B
275
     0
280
     0
281
     0
282
     0
283
     0
284
     0
285
     0
286
     0
287
     3
288
     0
  0
DIMSTYLE
105
68
330
A
100
AcDbSymbolTableRecord
100
AcDbDimStyleTableRecord
  2
AM_JIS$SH
 70
     0
  3

  4
"
  5

  6
GENAXEH
  7
OPEN30
 40
0.5
 41
2.5
 42
1.0
 43
10.0
 44
1.0
 45
0.0
 46
0.0
 47
0.1
 48
0.1
140
3.2
141
0.0
142
0.0
143
0.0393701
144
2.0
145
0.0
146
0.71
147
1.5
 71
     0
 72
     0
 73
     0
 74
     0
 75
     1
 76
     1
 77
     3
 78
     8
170
     0
171
     2
172
     1
173
     1
174
     0
175
     0
176
   256
177
   256
178
     2
270
     2
271
     2
272
     2
273
     2
274
     2
340
6B
275
     0
280
     0
281
     0
282
     0
283
     0
284
     0
285
     0
286
     0
287
     3
288
     0
  0
DIMSTYLE
105
B34
330
A
100
AcDbSymbolTableRecord
100
AcDbDimStyleTableRecord
  2
AM_JIS$2
 70
     0
  3

  4
"
  5
OPEN30
  6

  7

 40
0.5
 41
2.5
 42
1.0
 43
12.0
 44
1.0
 45
0.0
 46
0.0
 47
0.1
 48
0.1
140
3.2
141
0.0
142
0.0
143
0.0393701
144
1.0
145
0.0
146
0.71
147
1.5
 71
     0
 72
     0
 73
     0
 74
     0
 75
     0
 76
     0
 77
     3
 78
     8
170
     0
171
     2
172
     1
173
     0
174
     0
175
     0
176
   256
177
   256
178
     2
270
     2
271
     3
272
     3
273
     2
274
     2
340
6B
275
     0
280
     0
281
     0
282
     0
283
     0
284
     0
285
     0
286
     0
287
     3
288
     0
  0
ENDTAB
  0
TABLE
  2
BLOCK_RECORD
  5
1
330
0
100
AcDbSymbolTable
 70
     9
  0
BLOCK_RECORD
  5
1F
102
{ACAD_XDICTIONARY
360
74
102
}
330
1
100
AcDbSymbolTableRecord
100
AcDbBlockTableRecord
  2
*MODEL_SPACE
  0
BLOCK_RECORD
  5
101
102
{ACAD_XDICTIONARY
360
A652
102
}
330
1
100
AcDbSymbolTableRecord
100
AcDbBlockTableRecord
  2
*PAPER_SPACE
  0
BLOCK_RECORD
  5
59
330
1
100
AcDbSymbolTableRecord
100
AcDbBlockTableRecord
  2
_OPEN30
  0
BLOCK_RECORD
  5
64
330
1
100
AcDbSymbolTableRecord
100
AcDbBlockTableRecord
  2
GENAXEH
  0
BLOCK_RECORD
  5
A069
330
1
100
AcDbSymbolTableRecord
100
AcDbBlockTableRecord
  2
*D5
  0
BLOCK_RECORD
  5
A0FF
330
1
100
AcDbSymbolTableRecord
100
AcDbBlockTableRecord
  2
*D6
  0
BLOCK_RECORD
  5
A1A8
330
1
100
AcDbSymbolTableRecord
100
AcDbBlockTableRecord
  2
*D7
  0
BLOCK_RECORD
  5
A238
330
1
100
AcDbSymbolTableRecord
100
AcDbBlockTableRecord
  2
*D8
  0
ENDTAB
  0
ENDSEC
  0
SECTION
  2
BLOCKS
  0
BLOCK
  5
20
330
1F
100
AcDbEntity
  8
0
100
AcDbBlockBegin
  2
*MODEL_SPACE
 70
     0
 10
0.0
 20
0.0
 30
0.0
  3
*MODEL_SPACE
  1

  0
ENDBLK
  5
21
330
1F
100
AcDbEntity
  8
0
100
AcDbBlockEnd
  0
BLOCK
  5
103
330
101
100
AcDbEntity
 67
     1
  8
0
100
AcDbBlockBegin
  2
*PAPER_SPACE
 70
     0
 10
0.0
 20
0.0
 30
0.0
  3
*PAPER_SPACE
  1

  0
ENDBLK
  5
104
330
101
100
AcDbEntity
 67
     1
  8
0
100
AcDbBlockEnd
  0
BLOCK
  5
5D
330
59
100
AcDbEntity
  8
0
100
AcDbBlockBegin
  2
_OPEN30
 70
     0
 10
0.0
 20
0.0
 30
0.0
  3
_OPEN30
  1

  0
LINE
  5
5A
330
59
100
AcDbEntity
  8
0
 62
     0
100
AcDbLine
 10
-1.0
 20
0.26794919
 30
0.0
 11
0.0
 21
0.0
 31
0.0
  0
LINE
  5
5B
330
59
100
AcDbEntity
  8
0
 62
     0
100
AcDbLine
 10
0.0
 20
0.0
 30
0.0
 11
-1.0
 21
-0.26794919
 31
0.0
  0
LINE
  5
5C
330
59
100
AcDbEntity
  8
0
 62
     0
100
AcDbLine
 10
0.0
 20
0.0
 30
0.0
 11
-1.0
 21
0.0
 31
0.0
  0
ENDBLK
  5
5E
330
59
100
AcDbEntity
  8
0
100
AcDbBlockEnd
  0
BLOCK
  5
66
330
64
100
AcDbEntity
  8
0
100
AcDbBlockBegin
  2
GENAXEH
 70
     0
 10
0.0
 20
0.0
 30
0.0
  3
GENAXEH
  1

  0
LINE
  5
65
330
64
100
AcDbEntity
  8
0
100
AcDbLine
 10
-1.0
 20
0.0
 30
0.0
 11
1.0
 21
0.0
 31
0.0
  0
ENDBLK
  5
67
330
64
100
AcDbEntity
  8
0
100
AcDbBlockEnd
  0
BLOCK
  5
A073
330
A069
100
AcDbEntity
  8
0
100
AcDbBlockBegin
  2
*D5
 70
     1
 10
0.0
 20
0.0
 30
0.0
  3
*D5
  1

  0
LINE
  5
A654
330
A069
100
AcDbEntity
  8
AM_5
100
AcDbLine
 10
-40.25
 20
1.999999999999978
 30
0.0
 11
-48.71056358178671
 21
1.999999999999981
 31
0.0
  0
LINE
  5
A655
330
A069
100
AcDbEntity
  8
AM_5
100
AcDbLine
 10
-40.25
 20
-2.000000000000035
 30
0.0
 11
-48.71056358178671
 21
-2.000000000000033
 31
0.0
  0
LINE
  5
A656
330
A069
100
AcDbEntity
  8
AM_5
100
AcDbLine
 10
-48.21056358178672
 20
3.24999999999998
 30
0.0
 11
-48.21056358178672
 21
4.49999999999998
 31
0.0
  0
LINE
  5
A657
330
A069
100
AcDbEntity
  8
AM_5
100
AcDbLine
 10
-48.21056358178672
 20
-3.250000000000033
 30
0.0
 11
-48.21056358178672
 21
-4.500000000000033
 31
0.0
  0
MTEXT
  5
A658
330
A069
100
AcDbEntity
  8
AM_5
 62
     2
100
AcDbMText
 10
-49.64087643344268
 20
0.2316094256983092
 30
0.0
 40
1.6
 41
0.0
 71
     5
 72
     1
  1
%%c4
  7
ASAMI
 11
0.0000000000000001
 21
1.0
 31
0.0
  0
LINE
  5
A659
330
A069
100
AcDbEntity
  8
AM_5
100
AcDbLine
 10
-48.21056358178672
 20
1.99999999999998
 30
0.0
 11
-48.21056358178672
 21
-2.000000000000033
 31
0.0
  0
INSERT
  5
A65A
330
A069
100
AcDbEntity
  8
AM_5
100
AcDbBlockReference
  2
_OPEN30
 10
-48.21056358178672
 20
1.99999999999998
 30
0.0
 41
1.25
 42
1.25
 43
1.25
 50
270.0
  0
INSERT
  5
A65B
330
A069
100
AcDbEntity
  8
AM_5
100
AcDbBlockReference
  2
_OPEN30
 10
-48.21056358178672
 20
-2.000000000000033
 30
0.0
 41
1.25
 42
1.25
 43
1.25
 50
90.0
  0
POINT
  5
A65C
330
A069
100
AcDbEntity
  8
DEFPOINTS
 62
     0
100
AcDbPoint
 10
-39.75
 20
1.999999999999978
 30
0.0
  0
POINT
  5
A65D
330
A069
100
AcDbEntity
  8
DEFPOINTS
 62
     0
100
AcDbPoint
 10
-39.75
 20
-2.000000000000035
 30
0.0
  0
POINT
  5
A65E
330
A069
100
AcDbEntity
  8
DEFPOINTS
 62
     0
100
AcDbPoint
 10
-48.21056358178672
 20
-2.000000000000033
 30
0.0
  0
ENDBLK
  5
A074
330
A069
100
AcDbEntity
  8
0
100
AcDbBlockEnd
  0
BLOCK
  5
A10B
330
A0FF
100
AcDbEntity
  8
0
100
AcDbBlockBegin
  2
*D6
 70
     1
 10
0.0
 20
0.0
 30
0.0
  3
*D6
  1

  0
LINE
  5
A47E
330
A0FF
100
AcDbEntity
  8
AM_5
100
AcDbLine
 10
0.4999999999951997
 20
0.55
 30
0.0
 11
7.955777803085517
 21
0.5499999999999979
 31
0.0
  0
LINE
  5
A47F
330
A0FF
100
AcDbEntity
  8
AM_5
100
AcDbLine
 10
0.5
 20
-0.5500000000000002
 30
0.0
 11
7.955777803085517
 21
-0.5500000000000023
 31
0.0
  0
LINE
  5
A480
330
A0FF
100
AcDbEntity
  8
AM_5
100
AcDbLine
 10
7.455777803085517
 20
1.799999999999998
 30
0.0
 11
7.455777803085518
 21
3.049999999999998
 31
0.0
  0
LINE
  5
A481
330
A0FF
100
AcDbEntity
  8
AM_5
100
AcDbLine
 10
7.455777803085517
 20
-1.800000000000002
 30
0.0
 11
7.455777803085515
 21
-8.359523809523812
 31
0.0
  0
LINE
  5
A482
330
A0FF
100
AcDbEntity
  8
AM_5
100
AcDbLine
 10
7.455777803085517
 20
0.549999999999998
 30
0.0
 11
7.455777803085517
 21
-0.5500000000000022
 31
0.0
  0
INSERT
  5
A483
330
A0FF
100
AcDbEntity
  8
AM_5
100
AcDbBlockReference
  2
_OPEN30
 10
7.455777803085517
 20
0.549999999999998
 30
0.0
 41
1.25
 42
1.25
 43
1.25
 50
270.0
  0
INSERT
  5
A484
330
A0FF
100
AcDbEntity
  8
AM_5
100
AcDbBlockReference
  2
_OPEN30
 10
7.455777803085517
 20
-0.5500000000000022
 30
0.0
 41
1.25
 42
1.25
 43
1.25
 50
90.0
  0
MTEXT
  5
A485
330
A0FF
100
AcDbEntity
  8
AM_5
 62
     2
100
AcDbMText
 10
5.905777803085516
 20
-5.704761904761905
 30
0.0
 40
1.6
 41
0.0
 71
     5
 72
     1
  1
%%c1.1
  7
ASAMI
 11
0.0000000000000001
 21
1.0
 31
0.0
1001
ACAD
1000
MTEXTBEGIN
1070
    73
1070
     1
1070
    44
1040
1.0
1070
    74
1070
     0
1000
MTEXTEND
  0
POINT
  5
A486
330
A0FF
100
AcDbEntity
  8
DEFPOINTS
 62
     0
100
AcDbPoint
 10
-0.0000000000048003
 20
0.55
 30
0.0
  0
POINT
  5
A487
330
A0FF
100
AcDbEntity
  8
DEFPOINTS
 62
     0
100
AcDbPoint
 10
0.0
 20
-0.55
 30
0.0
  0
POINT
  5
A488
330
A0FF
100
AcDbEntity
  8
DEFPOINTS
 62
     0
100
AcDbPoint
 10
7.455777803085517
 20
-0.5500000000000022
 30
0.0
  0
ENDBLK
  5
A10C
330
A0FF
100
AcDbEntity
  8
0
100
AcDbBlockEnd
  0
BLOCK
  5
A1B2
330
A1A8
100
AcDbEntity
  8
0
100
AcDbBlockBegin
  2
*D7
 70
     1
 10
0.0
 20
0.0
 30
0.0
  3
*D7
  1

  0
LINE
  5
A322
330
A1A8
100
AcDbEntity
  8
AM_5
100
AcDbLine
 10
0.0
 20
-1.000000000000007
 30
0.0
 11
-0.0000000000000009
 21
-15.50000100000019
 31
0.0
  0
LINE
  5
A323
330
A1A8
100
AcDbEntity
  8
AM_5
100
AcDbLine
 10
-40.00000000000001
 20
-2.250000000000021
 30
0.0
 11
-40.00000000000001
 21
-15.50000100000019
 31
0.0
  0
LINE
  5
A324
330
A1A8
100
AcDbEntity
  8
AM_5
100
AcDbLine
 10
-1.25
 20
-15.00000100000019
 30
0.0
 11
-38.75000000000001
 21
-15.00000100000019
 31
0.0
  0
INSERT
  5
A325
330
A1A8
100
AcDbEntity
  8
AM_5
100
AcDbBlockReference
  2
_OPEN30
 10
-0.0000000000000009
 20
-15.00000100000019
 30
0.0
 41
1.25
 42
1.25
 43
1.25
  0
INSERT
  5
A326
330
A1A8
100
AcDbEntity
  8
AM_5
100
AcDbBlockReference
  2
_OPEN30
 10
-40.00000000000001
 20
-15.00000100000019
 30
0.0
 41
1.25
 42
1.25
 43
1.25
 50
180.0
  0
MTEXT
  5
A327
330
A1A8
100
AcDbEntity
  8
AM_5
 62
     2
100
AcDbMText
 10
-20.0
 20
-13.45000100000019
 30
0.0
 40
1.6
 41
0.0
 71
     5
 72
     1
  1
40
  7
ASAMI
1001
ACAD
1000
MTEXTBEGIN
1070
    73
1070
     1
1070
    44
1040
1.0
1070
    74
1070
     0
1000
MTEXTEND
  0
POINT
  5
A328
330
A1A8
100
AcDbEntity
  8
DEFPOINTS
 62
     0
100
AcDbPoint
 10
0.0
 20
-0.5000000000000071
 30
0.0
  0
POINT
  5
A329
330
A1A8
100
AcDbEntity
  8
DEFPOINTS
 62
     0
100
AcDbPoint
 10
-40.00000000000001
 20
-1.750000000000021
 30
0.0
  0
POINT
  5
A32A
330
A1A8
100
AcDbEntity
  8
DEFPOINTS
 62
     0
100
AcDbPoint
 10
-40.00000000000001
 20
-15.00000100000019
 30
0.0
  0
ENDBLK
  5
A1B3
330
A1A8
100
AcDbEntity
  8
0
100
AcDbBlockEnd
  0
BLOCK
  5
A244
330
A238
100
AcDbEntity
  8
0
100
AcDbBlockBegin
  2
*D8
 70
     1
 10
0.0
 20
0.0
 30
0.0
  3
*D8
  1

  0
LINE
  5
A335
330
A238
100
AcDbEntity
  8
AM_5
100
AcDbLine
 10
0.0
 20
-1.000000000000007
 30
0.0
 11
-0.0000000000000006
 21
-9.500000999999947
 31
0.0
  0
LINE
  5
A336
330
A238
100
AcDbEntity
  8
AM_5
100
AcDbLine
 10
-1.5
 20
-1.000000000000007
 30
0.0
 11
-1.5
 21
-9.500000999999947
 31
0.0
  0
LINE
  5
A337
330
A238
100
AcDbEntity
  8
AM_5
100
AcDbLine
 10
1.249999999999999
 20
-9.000000999999947
 30
0.0
 11
2.499999999999999
 21
-9.000000999999947
 31
0.0
  0
LINE
  5
A338
330
A238
100
AcDbEntity
  8
AM_5
100
AcDbLine
 10
-2.75
 20
-9.000000999999947
 30
0.0
 11
-8.547619047619047
 21
-9.000000999999947
 31
0.0
  0
LINE
  5
A339
330
A238
100
AcDbEntity
  8
AM_5
100
AcDbLine
 10
-0.0000000000000005
 20
-9.000000999999947
 30
0.0
 11
-1.5
 21
-9.000000999999947
 31
0.0
  0
INSERT
  5
A33A
330
A238
100
AcDbEntity
  8
AM_5
100
AcDbBlockReference
  2
_OPEN30
 10
-0.0000000000000005
 20
-9.000000999999947
 30
0.0
 41
1.25
 42
1.25
 43
1.25
 50
180.0
  0
INSERT
  5
A33B
330
A238
100
AcDbEntity
  8
AM_5
100
AcDbBlockReference
  2
_OPEN30
 10
-1.5
 20
-9.000000999999947
 30
0.0
 41
1.25
 42
1.25
 43
1.25
  0
MTEXT
  5
A33C
330
A238
100
AcDbEntity
  8
AM_5
 62
     2
100
AcDbMText
 10
-6.273809523809523
 20
-7.450000999999947
 30
0.0
 40
1.6
 41
0.0
 71
     5
 72
     1
  1
1.5
  7
ASAMI
1001
ACAD
1000
MTEXTBEGIN
1070
    73
1070
     1
1070
    44
1040
1.0
1070
    74
1070
     0
1000
MTEXTEND
  0
POINT
  5
A33D
330
A238
100
AcDbEntity
  8
DEFPOINTS
 62
     0
100
AcDbPoint
 10
0.0
 20
-0.5000000000000071
 30
0.0
  0
POINT
  5
A33E
330
A238
100
AcDbEntity
  8
DEFPOINTS
 62
     0
100
AcDbPoint
 10
-1.5
 20
-0.5000000000000071
 30
0.0
  0
POINT
  5
A33F
330
A238
100
AcDbEntity
  8
DEFPOINTS
 62
     0
100
AcDbPoint
 10
-1.5
 20
-9.000000999999947
 30
0.0
  0
ENDBLK
  5
A245
330
A238
100
AcDbEntity
  8
0
100
AcDbBlockEnd
  0
ENDSEC
  0
SECTION
  2
ENTITIES
  0
TEXT
  5
1500
330
1F
100
AcDbEntity
  8
AM_6
100
AcDbText
 10
-32.85714285714285
 20
-26.25000100000019
 30
0.0
 40
2.5
  1
S-SSM2011ZX
 72
     4
 11
-20.0
 21
-25.00000100000019
 31
0.0
100
AcDbText
  0
LINE
  5
9FA1
330
1F
100
AcDbEntity
  8
AM_0
100
AcDbLine
 10
-2.040000000000045
 20
0.5499999999999968
 30
0.0
 11
-2.776641361554522
 21
0.5499999999999968
 31
0.0
  0
LINE
  5
9FA2
330
1F
100
AcDbEntity
  8
AM_0
100
AcDbLine
 10
-1.623133274693073
 20
-0.5500000000000077
 30
0.0
 11
-2.776641361554484
 21
-0.5500000000000055
 31
0.0
  0
LINE
  5
9FA3
330
1F
100
AcDbEntity
  8
AM_7
  6
AM_ISO08W050X2
100
AcDbLine
 10
0.4557768030855201
 20
0.0
 30
0.0
 11
-41.21056258178671
 21
-0.0000000000000142
 31
0.0
1001
GENIUS_GENODEF_13
1002
{
1000
HIER
1070
     0
1002
}
1002
{
1000
MANEDIT
1070
     0
1002
}
1002
{
1000
NOSEL
1070
     0
1002
}
1002
{
1000
BEHIND
1070
     0
1002
}
1002
{
1000
REACTOR
1002
}
1001
GENIUS_GENOBJ-N-CEN_13
1002
{
1000
OWNER
1000
GEN
1002
}
  0
LINE
  5
A017
330
1F
100
AcDbEntity
  8
AM_0
100
AcDbLine
 10
-40.0
 20
1.749999999999978
 30
0.0
 11
-40.00000000000001
 21
-1.750000000000021
 31
0.0
  0
LINE
  5
A018
330
1F
100
AcDbEntity
  8
AM_0
100
AcDbLine
 10
-39.75000000000001
 20
-2.000000000000021
 30
0.0
 11
-10.99999999999999
 21
-2.000000000000007
 31
0.0
  0
LINE
  5
A019
330
1F
100
AcDbEntity
  8
AM_0
100
AcDbLine
 10
-39.75
 20
1.999999999999978
 30
0.0
 11
-10.99999999999999
 21
1.999999999999992
 31
0.0
  0
LINE
  5
A030
330
1F
100
AcDbEntity
  8
AM_0
100
AcDbLine
 10
-11.0
 20
1.999999999999992
 30
0.0
 11
-11.0
 21
-2.000000000000007
 31
0.0
  0
LINE
  5
A04B
330
1F
100
AcDbEntity
  8
AM_0
100
AcDbLine
 10
-10.99999999999999
 20
1.999999999999992
 30
0.0
 11
-2.776641361554522
 21
0.5499999999999968
 31
0.0
  0
LINE
  5
A04C
330
1F
100
AcDbEntity
  8
AM_0
100
AcDbLine
 10
-2.776641361554522
 20
0.5499999999999968
 30
0.0
 11
-2.776641361554514
 21
-0.5500000000000055
 31
0.0
  0
LINE
  5
A04D
330
1F
100
AcDbEntity
  8
AM_0
100
AcDbLine
 10
-2.776641361554514
 20
-0.5500000000000109
 30
0.0
 11
-10.99999999999999
 21
-2.000000000000007
 31
0.0
  0
LINE
  5
A05C
330
1F
100
AcDbEntity
  8
AM_0
100
AcDbLine
 10
-39.75
 20
1.999999999999978
 30
0.0
 11
-40.0
 21
1.749999999999978
 31
0.0
1001
GENIUS_GENFIL_13
1070
     0
1040
0.25
1040
0.25
1040
20.0
1040
0.0
1002
{
1002
}
1001
GENIUS_GENODEF_13
1002
{
1000
HIER
1070
     0
1002
}
1002
{
1000
MANEDIT
1070
     0
1002
}
1002
{
1000
NOSEL
1070
     0
1002
}
1002
{
1000
BEHIND
1070
     0
1002
}
1002
{
1000
REACTOR
1002
}
1001
GENIUS_GENOBJ-N-CHA_13
1002
{
1000
OWNER
1000
GEN
1002
}
  0
LINE
  5
A05F
330
1F
100
AcDbEntity
  8
AM_0
100
AcDbLine
 10
-40.00000000000001
 20
-1.750000000000021
 30
0.0
 11
-39.75000000000001
 21
-2.000000000000021
 31
0.0
1001
GENIUS_GENFIL_13
1070
     0
1040
0.25
1040
0.25
1040
20.0
1040
0.0
1002
{
1002
}
1001
GENIUS_GENODEF_13
1002
{
1000
HIER
1070
     0
1002
}
1002
{
1000
MANEDIT
1070
     0
1002
}
1002
{
1000
NOSEL
1070
     0
1002
}
1002
{
1000
BEHIND
1070
     0
1002
}
1002
{
1000
REACTOR
1002
}
1001
GENIUS_GENOBJ-N-CHA_13
1002
{
1000
OWNER
1000
GEN
1002
}
  0
LINE
  5
A060
330
1F
100
AcDbEntity
  8
AM_0
100
AcDbLine
 10
-39.75
 20
1.999999999999978
 30
0.0
 11
-39.75000000000001
 21
-2.000000000000021
 31
0.0
  0
DIMENSION
  5
A068
330
1F
100
AcDbEntity
  8
AM_5
100
AcDbDimension
  2
*D5
 10
-48.21056358178672
 20
-2.000000000000033
 30
0.0
 11
-49.64087643344268
 21
0.2316094256983092
 31
0.0
 70
   160
  1
%%c<>
  3
AM_JIS
100
AcDbAlignedDimension
 13
-39.75
 23
1.999999999999978
 33
0.0
 14
-39.75
 24
-2.000000000000035
 34
0.0
 50
270.0
100
AcDbRotatedDimension
1001
GENIUS_GENDTOL_13
1000

1000
h7
1000

1040
0.0
1001
ACAD
1000
DSTYLE
1002
{
1070
   287
1070
     5
1070
   279
1070
     2
1002
}
  0
DIMENSION
  5
A0FE
330
1F
100
AcDbEntity
  8
AM_5
100
AcDbDimension
  2
*D6
 10
7.455777803085517
 20
-0.5500000000000022
 30
0.0
 11
5.905777803085516
 21
-5.704761904761905
 31
0.0
 70
    32
  1
%%c<>
  3
AM_JIS
100
AcDbAlignedDimension
 13
-0.0000000000048003
 23
0.55
 33
0.0
 14
0.0
 24
-0.55
 34
0.0
 50
90.0000000000004
100
AcDbRotatedDimension
1001
GENIUS_GENDTOL_13
1000

1000
h7
1000

1040
0.0
  0
DIMENSION
  5
A1A7
330
1F
100
AcDbEntity
  8
AM_5
100
AcDbDimension
  2
*D7
 10
-40.00000000000001
 20
-15.00000100000019
 30
0.0
 11
-20.0
 21
-13.45000100000019
 31
0.0
 70
    32
  1
<>
  3
AM_JIS
100
AcDbAlignedDimension
 13
0.0
 23
-0.5000000000000071
 33
0.0
 14
-40.00000000000001
 24
-1.750000000000021
 34
0.0
 50
0.0000000000004071
100
AcDbRotatedDimension
1001
GENIUS_GENDTOL_13
1000

1000
h7
1000

1040
0.0
  0
DIMENSION
  5
A237
330
1F
100
AcDbEntity
  8
AM_5
100
AcDbDimension
  2
*D8
 10
-1.5
 20
-9.000000999999947
 30
0.0
 11
-6.273809523809523
 21
-7.450000999999947
 31
0.0
 70
    32
  1
<>
  3
AM_JIS
100
AcDbAlignedDimension
 13
0.0
 23
-0.5000000000000071
 33
0.0
 14
-1.5
 24
-0.5000000000000071
 34
0.0
 50
0.0000000000004071
100
AcDbRotatedDimension
1001
GENIUS_GENDTOL_13
1000

1000
h7
1000

1040
0.0
  0
LINE
  5
A455
330
1F
100
AcDbEntity
  8
AM_0
100
AcDbLine
 10
-0.0335639852470635
 20
0.0660000000000103
 30
0.0
 11
0.0
 21
0.1099999999999937
 31
0.0
  0
LINE
  5
A456
330
1F
100
AcDbEntity
  8
AM_0
100
AcDbLine
 10
0.0
 20
0.1099999999999937
 30
0.0
 11
0.0
 21
0.55
 31
0.0
  0
LINE
  5
A457
330
1F
100
AcDbEntity
  8
AM_0
100
AcDbLine
 10
0.0
 20
-0.55
 30
0.0
 11
-0.0105000000000004
 21
-0.5206785273383838
 31
0.0
  0
LINE
  5
A458
330
1F
100
AcDbEntity
  8
AM_0
100
AcDbLine
 10
-0.0105000000000004
 20
-0.5206785273383838
 30
0.0
 11
-0.0375000000000014
 21
-0.448604220296452
 31
0.0
  0
LINE
  5
A459
330
1F
100
AcDbEntity
  8
AM_0
100
AcDbLine
 10
-0.0375000000000014
 20
-0.448604220296452
 30
0.0
 11
-0.0375000000000014
 21
-0.4426790974245819
 31
0.0
  0
ELLIPSE
  5
A45A
330
1F
100
AcDbEntity
  8
AM_0
100
AcDbEllipse
 10
1.420676844238279
 20
0.0023141042879175
 30
0.0
 11
0.0000000000000013
 21
1.6645772428903
 31
0.0
210
0.0
220
0.0
230
1.0
 40
0.9090909090909104
 41
1.489874453283513
 42
1.841418545974923
  0
LINE
  5
A45B
330
1F
100
AcDbEntity
  8
AM_0
100
AcDbLine
 10
0.0
 20
-0.55
 30
0.0
 11
0.0
 21
0.0220000000000035
 31
0.0
  0
LINE
  5
A45C
330
1F
100
AcDbEntity
  8
AM_0
100
AcDbLine
 10
-0.0105000000000004
 20
-0.5206785273383838
 30
0.0
 11
-0.0105000000000004
 21
0.0357647539944779
 31
0.0
  0
LINE
  5
A45D
330
1F
100
AcDbEntity
  8
AM_0
100
AcDbLine
 10
-1.909175456654701
 20
0.4422937803816148
 30
0.0
 11
-0.2356572231021801
 21
0.3309298764780948
 31
0.0
  0
ELLIPSE
  5
A45E
330
1F
100
AcDbEntity
  8
AM_0
100
AcDbEllipse
 10
-1.221107327675468
 20
-2.205034177069243
 30
0.0
 11
-0.0000000000000068
 21
2.31290473695637
 31
0.0
210
0.0
220
0.0
230
1.0
 40
0.9090909090909075
 41
0.1330312814850758
 42
0.5624724001459996
  0
ELLIPSE
  5
A45F
330
1F
100
AcDbEntity
  8
AM_0
100
AcDbEllipse
 10
-2.225487657614458
 20
-2.004770319550662
 30
0.0
 11
0.0
 21
2.562905040714732
 31
0.0
210
0.0
220
0.0
230
1.0
 40
0.9090909090909091
 41
-0.3396931379524621
 42
-0.0796957229085251
  0
LINE
  5
A460
330
1F
100
AcDbEntity
  8
AM_0
100
AcDbLine
 10
-1.526551165356352
 20
0.2020748811418869
 30
0.0
 11
-1.5
 21
0.087434615258551
 31
0.0
  0
LINE
  5
A461
330
1F
100
AcDbEntity
  8
AM_0
100
AcDbLine
 10
-1.526551165356352
 20
0.2020748811418869
 30
0.0
 11
-1.5
 21
0.2809762073325495
 31
0.0
  0
ELLIPSE
  5
A462
330
1F
100
AcDbEntity
  8
AM_0
100
AcDbEllipse
 10
-1.925010369026026
 20
5.678576410220929
 30
0.0
 11
0.000000000000105
 21
6.188308550569778
 31
0.0
210
0.0
220
0.0
230
1.0
 40
0.9090909090909152
 41
3.217212229255299
 42
3.357155841871598
  0
ELLIPSE
  5
A463
330
1F
100
AcDbEntity
  8
AM_0
100
AcDbEllipse
 10
-1.623378792073459
 20
0.1501863223067161
 30
0.0
 11
0.0141854425554289
 21
0.7000763394767367
 31
0.0
210
0.0
220
0.0
230
1.0
 40
0.9029601364239017
 41
2.802366420683451
 42
3.164417493524723
  0
ELLIPSE
  5
A464
330
1F
100
AcDbEntity
  8
AM_0
100
AcDbEllipse
 10
-1.623378792073459
 20
0.1501863223067161
 30
0.0
 11
-0.0113312974179735
 21
0.7001139017369474
 31
0.0
210
0.0
220
0.0
230
1.0
 40
0.9056835724904786
 41
3.124111288114755
 42
3.59113305903832
  0
LINE
  5
A465
330
1F
100
AcDbEntity
  8
AM_11
100
AcDbLine
 10
-1.5
 20
0.5499999999999923
 30
0.0
 11
-1.5
 21
-0.5500000000000079
 31
0.0
  0
ELLIPSE
  5
A466
330
1F
100
AcDbEntity
  8
AM_0
100
AcDbEllipse
 10
-1.515381438410059
 20
1.327907998108768
 30
0.0
 11
0.0000000000000031
 21
1.820033849706006
 31
0.0
210
0.0
220
0.0
230
1.0
 40
0.9090909090909084
 41
2.618180499332969
 42
3.15088908835943
  0
ELLIPSE
  5
A467
330
1F
100
AcDbEntity
  8
AM_0
100
AcDbEllipse
 10
-1.221704593800645
 20
1.656630510235297
 30
0.0
 11
0.0000000000000169
 21
2.269157321006018
 31
0.0
210
0.0
220
0.0
230
1.0
 40
0.909090909090907
 41
2.567264375134361
 42
2.833574917188439
  0
LINE
  5
A468
330
1F
100
AcDbEntity
  8
AM_11
100
AcDbLine
 10
-1.5
 20
-0.5500000000000079
 30
0.0
 11
0.0
 21
-0.55
 31
0.0
  0
LINE
  5
A469
330
1F
100
AcDbEntity
  8
AM_11
100
AcDbLine
 10
-0.0000000000000924
 20
0.55
 30
0.0
 11
-1.5
 21
0.5499999999999923
 31
0.0
  0
LINE
  5
A46A
330
1F
100
AcDbEntity
  8
AM_0
100
AcDbLine
 10
0.0
 20
0.0220000000000035
 30
0.0
 11
-0.2356572231021801
 21
0.3309298764780948
 31
0.0
  0
SPLINE
  5
A46B
330
1F
100
AcDbEntity
  8
AM_0
100
AcDbSpline
210
0.0
220
0.0
230
1.0
 70
     8
 71
     3
 72
     8
 73
     4
 74
     0
 42
0.0000000001
 43
0.0000000001
 40
0.0
 40
0.0
 40
0.0
 40
0.0
 40
1.448999654934389
 40
1.448999654934389
 40
1.448999654934389
 40
1.448999654934389
 10
0.0
 20
-0.5500000000000079
 30
0.0
 10
-0.4829998849781298
 20
-0.5500000000000083
 30
0.0
 10
-0.921499942489061
 20
-0.275000000000008
 30
0.0
 10
-1.359999999999992
 20
-0.0000000000000078
 30
0.0
  0
SPLINE
  5
A46C
330
1F
100
AcDbEntity
  8
AM_0
100
AcDbSpline
210
0.0
220
0.0
230
1.0
 70
     8
 71
     3
 72
     8
 73
     4
 74
     0
 42
0.0000000001
 43
0.0000000001
 40
1.870660592686466
 40
1.870660592686466
 40
1.870660592686466
 40
1.870660592686466
 40
14.43901837670146
 40
14.43901837670146
 40
14.43901837670146
 40
14.43901837670146
 10
-0.0105000000000004
 20
-0.5206785273383838
 30
0.0
 10
-0.4205964591228622
 20
-0.4644090673311517
 30
0.0
 10
-0.8030257904616959
 20
-0.2322045336655798
 30
0.0
 10
-1.185455121800529
 20
0.0000000000000156
 30
0.0
  0
SPLINE
  5
A46D
330
1F
100
AcDbEntity
  8
AM_0
100
AcDbSpline
210
0.0
220
0.0
230
1.0
 70
     8
 71
     3
 72
     8
 73
     4
 74
     0
 42
0.0000000001
 43
0.0000000001
 40
4.219358800530717
 40
4.219358800530717
 40
4.219358800530717
 40
4.219358800530717
 40
14.36247867694493
 40
14.36247867694493
 40
14.36247867694493
 40
14.36247867694493
 10
-0.0375000000000014
 20
-0.4486042202964285
 30
0.0
 10
-0.3621083756890115
 20
-0.3587042570857719
 30
0.0
 10
-0.6732883537957122
 20
-0.1793521285428781
 30
0.0
 10
-0.9844683319024625
 20
0.0000000000000156
 30
0.0
  0
SPLINE
  5
A46E
330
1F
100
AcDbEntity
  8
AM_0
100
AcDbSpline
210
0.0
220
0.0
230
1.0
 70
     8
 71
     3
 72
     8
 73
     4
 74
     0
 42
0.0000000001
 43
0.0000000001
 40
0.0
 40
0.0
 40
0.0
 40
0.0
 40
0.2586565323616648
 40
0.2586565323616648
 40
0.2586565323616648
 40
0.2586565323616648
 10
0.0
 20
0.4482172955352454
 30
0.0
 10
-0.055326738050293
 20
0.3754787515766221
 30
0.0
 10
-0.1502919504715933
 20
0.3442421176616847
 30
0.0
 10
-0.2356572231021801
 20
0.3309298764780948
 30
0.0
  0
SPLINE
  5
A46F
330
1F
100
AcDbEntity
  8
AM_0
100
AcDbSpline
210
0.0
220
0.0
230
1.0
 70
     8
 71
     3
 72
     8
 73
     4
 74
     0
 42
0.0000000001
 43
0.0000000001
 40
12.94851199316644
 40
12.94851199316644
 40
12.94851199316644
 40
12.94851199316644
 40
14.48999654934388
 40
14.48999654934388
 40
14.48999654934388
 40
14.48999654934388
 10
-1.500000000004007
 20
0.0874346152610287
 30
0.0
 10
-1.453297615942709
 20
0.0585104698272936
 30
0.0
 10
-1.40664880797135
 20
0.0292552349136585
 30
0.0
 10
-1.359999999999992
 20
0.0000000000000156
 30
0.0
  0
SPLINE
  5
A470
330
1F
100
AcDbEntity
  8
AM_0
100
AcDbSpline
210
0.0
220
0.0
230
1.0
 70
     8
 71
     3
 72
     8
 73
     4
 74
     0
 42
0.0000000001
 43
0.0000000001
 40
10.71027982889745
 40
10.71027982889745
 40
10.71027982889745
 40
10.71027982889745
 40
14.43901837670146
 40
14.43901837670146
 40
14.43901837670146
 40
14.43901837670146
 10
-1.526551165356345
 20
0.2020748811418869
 30
0.0
 10
-1.412370843660013
 20
0.1377793360967203
 30
0.0
 10
-1.298912982730271
 20
0.068889668048368
 30
0.0
 10
-1.185455121800529
 20
0.0000000000000156
 30
0.0
  0
SPLINE
  5
A471
330
1F
100
AcDbEntity
  8
AM_0
100
AcDbSpline
210
0.0
220
0.0
230
1.0
 70
     8
 71
     3
 72
     8
 73
     4
 74
     0
 42
0.0000000001
 43
0.0000000001
 40
4.451443990518355
 40
4.451443990518355
 40
4.451443990518355
 40
4.451443990518355
 40
14.36247867694493
 40
14.36247867694493
 40
14.36247867694493
 40
14.36247867694493
 10
-1.909175456654708
 20
0.4422937803815835
 30
0.0
 10
-1.592588041481917
 20
0.3504967285669821
 30
0.0
 10
-1.288528186692204
 20
0.1752483642834989
 30
0.0
 10
-0.9844683319024625
 20
0.0000000000000156
 30
0.0
  0
SPLINE
  5
A472
330
1F
100
AcDbEntity
  8
AM_0
100
AcDbSpline
210
0.0
220
0.0
230
1.0
 70
     8
 71
     3
 72
     8
 73
     4
 74
     0
 42
0.0000000001
 43
0.0000000001
 40
0.0
 40
0.0
 40
0.0
 40
0.0
 40
7.57842115059705
 40
7.57842115059705
 40
7.57842115059705
 40
7.57842115059705
 10
0.0
 20
0.5499999999999923
 30
0.0
 10
-0.2526140383532009
 20
0.5499999999999923
 30
0.0
 10
-0.4930555920495863
 20
0.4747764885580772
 30
0.0
 10
-0.7276909990564065
 20
0.3636721562119228
 30
0.0
  0
VIEWPORT
  5
110
330
101
100
AcDbEntity
 67
     1
  8
0
100
AcDbViewport
 10
420.5
 20
297.0
 30
0.0
 40
948.9782706766916
 41
628.452
 68
     1
 69
     1
1001
ACAD
1000
MVIEW
1002
{
1070
    16
1010
0.0
1020
0.0
1030
0.0
1010
0.0
1020
0.0
1030
1.0
1040
0.0
1040
628.452
1040
420.5
1040
297.0
1040
50.0
1040
0.0
1040
0.0
1070
     0
1070
   100
1070
     1
1070
     1
1070
     0
1070
     0
1070
     0
1070
     0
1040
0.0
1040
0.0
1040
0.0
1040
10.0
1040
10.0
1040
10.0
1040
10.0
1070
     0
1002
{
1002
}
1002
}
  0
ENDSEC
  0
SECTION
  2
OBJECTS
  0
DICTIONARY
  5
C
330
0
100
AcDbDictionary
  3
ACAD_GROUP
350
D
  3
ACAD_LAYOUT
350
1A
  3
ACAD_MLINESTYLE
350
17
  3
ACAD_PLOTSETTINGS
350
19
  3
ACAD_PLOTSTYLENAME
350
E
  3
ACDBVARIABLEDICTIONARY
350
34
  3
ACMDICTIONARY
350
43
  3
AMG
350
2B
  3
AMGSNAPSETTINGS
350
6E
  3
ASE_INDEX_DICTIONARY
350
151A
  3
DWGPROPS
350
A61E
  3
ACDBHEADERROUNDTRIPXREC
350
A62A
  0
DICTIONARY
  5
74
330
1F
100
AcDbDictionary
280
     1
  3
ACAD_INDEX
360
A620
  3
ACAD_LAYOUTSELFREF
360
A64D
  0
DICTIONARY
  5
A652
330
101
100
AcDbDictionary
280
     1
  3
ACAD_LAYOUTSELFREF
360
A653
  0
DICTIONARY
  5
D
102
{ACAD_REACTORS
330
C
102
}
330
C
100
AcDbDictionary
  0
DICTIONARY
  5
1A
102
{ACAD_REACTORS
330
C
102
}
330
C
100
AcDbDictionary
  0
DICTIONARY
  5
17
102
{ACAD_REACTORS
330
C
102
}
330
C
100
AcDbDictionary
  3
STANDARD
350
18
  0
DICTIONARY
  5
19
102
{ACAD_REACTORS
330
C
102
}
330
C
100
AcDbDictionary
  0
ACDBDICTIONARYWDFLT
  5
E
102
{ACAD_REACTORS
330
C
102
}
330
C
100
AcDbDictionary
281
     1
  3
Normal
350
F
100
AcDbDictionaryWithDefault
340
F
  0
DICTIONARY
  5
34
102
{ACAD_REACTORS
330
C
102
}
330
C
100
AcDbDictionary
  3
INDEXCTL
350
35
  3
SORTENTS
350
B5E
  0
DICTIONARY
  5
43
102
{ACAD_REACTORS
330
C
102
}
330
C
100
AcDbDictionary
  3
ACMSTDDICTIONARY
350
260
  0
DICTIONARY
  5
2B
102
{ACAD_REACTORS
330
C
102
}
330
C
100
AcDbDictionary
  3
ACMGSETTINGS
350
2C
  0
DICTIONARY
  5
6E
102
{ACAD_REACTORS
330
C
102
}
330
C
100
AcDbDictionary
  0
DICTIONARY
  5
151A
102
{ACAD_REACTORS
330
C
102
}
330
C
100
AcDbDictionary
  3
ASEBLOCKHIERARCHYINDEXRECORD
350
151C
1001
DCO15
1040
1471862535.906
  0
XRECORD
  5
A61E
102
{ACAD_REACTORS
330
C
102
}
330
C
100
AcDbXrecord
  1
DWGPROPS COOKIE
  2

  3

  4

  6

  7

  8

  9

300
AmdtFileType=82
301
=
302
=
303
=
304
=
305
=
306
=
307
=
308
=
309
=
 40
0.5286273148148149
 41
2452838.430434386
 42
2453054.429970451
  1

 90
        1
  0
DICTIONARY
  5
A62A
102
{ACAD_REACTORS
330
C
102
}
330
C
100
AcDbDictionary
  3
TSTACKALIGN
350
A62B
  3
TSTACKSIZE
350
A62C
  3
HYPERLINKBASE
350
A62D
  3
STYLESHEET
350
A62E
  3
LAYOUTDICT
350
A62F
  3
PLOTSETDICT
350
A630
  3
PLOTSTYLNAMDICT
350
A631
  3
LWETCUNION
350
A632
  3
INSUNITS
350
A633
  3
CEPSNTYPE
350
A634
  3
FINGERPRINTGUID
350
A635
  3
VERSIONGUID
350
A636
  3
PSVPSCALE
350
A637
  3
DIMSTYLEDATA
350
A638
  3
PUCSORTHOREF
350
A639
  3
PUCSORTHOVIEW
350
A63A
  3
PUCSBASE
350
A63B
  3
PUCSORGTOP
350
A63C
  3
PUCSORGBOTTOM
350
A63D
  3
PUCSORGLEFT
350
A63E
  3
PUCSORGRIGHT
350
A63F
  3
PUCSORGFRONT
350
A640
  3
PUCSORGBACK
350
A641
  3
UCSORTHOREF
350
A642
  3
UCSORTHOVIEW
350
A643
  3
UCSBASE
350
A644
  3
UCSORGTOP
350
A645
  3
UCSORGBOTTOM
350
A646
  3
UCSORGLEFT
350
A647
  3
UCSORGRIGHT
350
A648
  3
UCSORGFRONT
350
A649
  3
UCSORGBACK
350
A64A
  0
DICTIONARY
  5
A620
102
{ACAD_REACTORS
330
74
102
}
330
74
100
AcDbDictionary
  3
*A1
350
A621
  0
XRECORD
  5
A64D
102
{ACAD_REACTORS
330
74
102
}
330
74
100
AcDbXrecord
340
1F
  0
XRECORD
  5
A653
102
{ACAD_REACTORS
330
A652
102
}
330
A652
100
AcDbXrecord
340
101
  0
MLINESTYLE
  5
18
102
{ACAD_REACTORS
330
17
102
}
330
17
100
AcDbMlineStyle
  2
STANDARD
 70
     0
  3

 62
   256
 51
90.0
 52
90.0
 71
     2
 49
0.5
 62
   256
  6
BYLAYER
 49
-0.5
 62
   256
  6
BYLAYER
  0
ACDBPLACEHOLDER
  5
F
102
{ACAD_REACTORS
330
E
102
}
330
E
100
AcDbPlaceHolder
280
     0
  0
DICTIONARYVAR
  5
35
102
{ACAD_REACTORS
330
34
102
}
330
34
100
DictionaryVariables
280
     0
  1
1
  0
DICTIONARYVAR
  5
B5E
102
{ACAD_REACTORS
330
34
102
}
330
34
100
DictionaryVariables
280
     0
  1
96
  0
DICTIONARY
  5
260
102
{ACAD_REACTORS
330
43
102
}
330
43
100
AcDbDictionary
  0
DICTIONARY
  5
2C
102
{ACAD_REACTORS
330
2B
102
}
330
2B
100
AcDbDictionary
  3
DWGSETTINGS
350
2D
  0
XRECORD
  5
151C
102
{ACAD_REACTORS
330
151A
102
}
330
151A
100
AcDbXrecord
330
0
330
0
330
0
330
0
330
0
330
0
330
0
330
0
  0
XRECORD
  5
A62B
102
{ACAD_REACTORS
330
A62A
102
}
330
A62A
100
AcDbXrecord
 90
        1
  0
XRECORD
  5
A62C
102
{ACAD_REACTORS
330
A62A
102
}
330
A62A
100
AcDbXrecord
 90
       70
  0
XRECORD
  5
A62D
102
{ACAD_REACTORS
330
A62A
102
}
330
A62A
100
AcDbXrecord
  1

  0
XRECORD
  5
A62E
102
{ACAD_REACTORS
330
A62A
102
}
330
A62A
100
AcDbXrecord
  1
ASAMI.ctb
  0
XRECORD
  5
A62F
102
{ACAD_REACTORS
330
A62A
102
}
330
A62A
100
AcDbXrecord
340
1A
  0
XRECORD
  5
A630
102
{ACAD_REACTORS
330
A62A
102
}
330
A62A
100
AcDbXrecord
340
19
  0
XRECORD
  5
A631
102
{ACAD_REACTORS
330
A62A
102
}
330
A62A
100
AcDbXrecord
340
E
  0
XRECORD
  5
A632
102
{ACAD_REACTORS
330
A62A
102
}
330
A62A
100
AcDbXrecord
 90
    10781
  0
XRECORD
  5
A633
102
{ACAD_REACTORS
330
A62A
102
}
330
A62A
100
AcDbXrecord
 90
        4
  0
XRECORD
  5
A634
102
{ACAD_REACTORS
330
A62A
102
}
330
A62A
100
AcDbXrecord
 90
        0
  0
XRECORD
  5
A635
102
{ACAD_REACTORS
330
A62A
102
}
330
A62A
100
AcDbXrecord
  1
{AFB28963-8C59-40AE-9337-C84526B81ACE}
  0
XRECORD
  5
A636
102
{ACAD_REACTORS
330
A62A
102
}
330
A62A
100
AcDbXrecord
  1
{446FC0C8-C4BB-496E-9475-9518212F05B2}
  0
XRECORD
  5
A637
102
{ACAD_REACTORS
330
A62A
102
}
330
A62A
100
AcDbXrecord
 40
0.0
  0
XRECORD
  5
A638
102
{ACAD_REACTORS
330
A62A
102
}
330
A62A
100
AcDbXrecord
1000
DSTYLE
1002
{
1070
    79
 70
     2
1070
   341
340
59
1070
   342
340
59
1070
   371
 70
    -1
1070
   372
 70
    -1
1002
}
  0
XRECORD
  5
A639
102
{ACAD_REACTORS
330
A62A
102
}
330
A62A
100
AcDbXrecord
340
0
  0
XRECORD
  5
A63A
102
{ACAD_REACTORS
330
A62A
102
}
330
A62A
100
AcDbXrecord
 70
     0
  0
XRECORD
  5
A63B
102
{ACAD_REACTORS
330
A62A
102
}
330
A62A
100
AcDbXrecord
340
0
  0
XRECORD
  5
A63C
102
{ACAD_REACTORS
330
A62A
102
}
330
A62A
100
AcDbXrecord
 10
0.0
 20
0.0
 30
0.0
  0
XRECORD
  5
A63D
102
{ACAD_REACTORS
330
A62A
102
}
330
A62A
100
AcDbXrecord
 10
0.0
 20
0.0
 30
0.0
  0
XRECORD
  5
A63E
102
{ACAD_REACTORS
330
A62A
102
}
330
A62A
100
AcDbXrecord
 10
0.0
 20
0.0
 30
0.0
  0
XRECORD
  5
A63F
102
{ACAD_REACTORS
330
A62A
102
}
330
A62A
100
AcDbXrecord
 10
0.0
 20
0.0
 30
0.0
  0
XRECORD
  5
A640
102
{ACAD_REACTORS
330
A62A
102
}
330
A62A
100
AcDbXrecord
 10
0.0
 20
0.0
 30
0.0
  0
XRECORD
  5
A641
102
{ACAD_REACTORS
330
A62A
102
}
330
A62A
100
AcDbXrecord
 10
0.0
 20
0.0
 30
0.0
  0
XRECORD
  5
A642
102
{ACAD_REACTORS
330
A62A
102
}
330
A62A
100
AcDbXrecord
340
0
  0
XRECORD
  5
A643
102
{ACAD_REACTORS
330
A62A
102
}
330
A62A
100
AcDbXrecord
 70
     0
  0
XRECORD
  5
A644
102
{ACAD_REACTORS
330
A62A
102
}
330
A62A
100
AcDbXrecord
340
0
  0
XRECORD
  5
A645
102
{ACAD_REACTORS
330
A62A
102
}
330
A62A
100
AcDbXrecord
 10
0.0
 20
0.0
 30
0.0
  0
XRECORD
  5
A646
102
{ACAD_REACTORS
330
A62A
102
}
330
A62A
100
AcDbXrecord
 10
0.0
 20
0.0
 30
0.0
  0
XRECORD
  5
A647
102
{ACAD_REACTORS
330
A62A
102
}
330
A62A
100
AcDbXrecord
 10
0.0
 20
0.0
 30
0.0
  0
XRECORD
  5
A648
102
{ACAD_REACTORS
330
A62A
102
}
330
A62A
100
AcDbXrecord
 10
0.0
 20
0.0
 30
0.0
  0
XRECORD
  5
A649
102
{ACAD_REACTORS
330
A62A
102
}
330
A62A
100
AcDbXrecord
 10
0.0
 20
0.0
 30
0.0
  0
XRECORD
  5
A64A
102
{ACAD_REACTORS
330
A62A
102
}
330
A62A
100
AcDbXrecord
 10
0.0
 20
0.0
 30
0.0
  0
LAYER_INDEX
  5
A621
102
{ACAD_REACTORS
330
A620
102
}
330
A620
100
AcDbIndex
 40
2453151.766593772
100
AcDbLayerIndex
  8
0
360
A622
 90
        0
  8
AM_0
360
A623
 90
       39
  8
AM_11
360
A624
 90
        3
  8
AM_7
360
A625
 90
        1
  8
AM_5
360
A626
 90
        4
  8
Defpoints
360
A627
 90
        0
  8
AM_6
360
A628
 90
        1
  0
XRECORD
  5
2D
102
{ACAD_REACTORS
330
2C
102
}
330
2C
100
AcDbXrecord
  1
VERSION
140
15.0
  1
PRODUCT
  2
AutoCAD Mechanical 2000
  0
IDBUFFER
  5
A622
330
0
100
AcDbIdBuffer
  0
IDBUFFER
  5
A623
330
0
100
AcDbIdBuffer
330
A459
330
A45A
330
A45B
330
A45C
330
A45D
330
A45E
330
A45F
330
A460
330
A461
330
A462
330
A463
330
A464
330
A466
330
A467
330
A46A
330
A46B
330
A46C
330
A46D
330
A46E
330
A46F
330
A470
330
A471
330
A472
330
9FA1
330
9FA2
330
A017
330
A018
330
A019
330
A030
330
A04B
330
A04C
330
A04D
330
A05C
330
A05F
330
A060
330
A455
330
A456
330
A457
330
A458
  0
IDBUFFER
  5
A624
330
0
100
AcDbIdBuffer
330
A465
330
A468
330
A469
  0
IDBUFFER
  5
A625
330
0
100
AcDbIdBuffer
330
9FA3
  0
IDBUFFER
  5
A626
330
0
100
AcDbIdBuffer
330
A068
330
A0FE
330
A1A7
330
A237
  0
IDBUFFER
  5
A627
330
0
100
AcDbIdBuffer
  0
IDBUFFER
  5
A628
330
0
100
AcDbIdBuffer
330
1500
  0
ENDSEC
  0
EOF
