  0
SECTION
  2
HEADER
  9
$ACADVER
  1
AC1014
  9
$ACADMAINTVER
 70
     9
  9
$DWGCODEPAGE
  3
ANSI_932
  9
$INSBASE
 10
0.0
 20
0.0
 30
0.0
  9
$EXTMIN
 10
-50.36898118015934
 20
-26.25000100000022
 30
-0.00000001
  9
$EXTMAX
 10
7.955777803085513
 20
4.49999999999998
 30
0.00000001
  9
$LIMMIN
 10
-52.40194419781818
 20
-33.50369771433159
  9
$LIMMAX
 10
12.91940147613843
 20
12.15960143765227
  9
$ORTHOMODE
 70
     0
  9
$REGENMODE
 70
     1
  9
$FILLMODE
 70
     1
  9
$QTEXTMODE
 70
     0
  9
$MIRRTEXT
 70
     0
  9
$DRAGMODE
 70
     2
  9
$LTSCALE
 40
1.0
  9
$OSMODE
 70
    55
  9
$ATTMODE
 70
     1
  9
$TEXTSIZE
 40
2.5
  9
$TRACEWID
 40
1.0
  9
$TEXTSTYLE
  7
STANDARD
  9
$CLAYER
  8
AM_0
  9
$CELTYPE
  6
BYLAYER
  9
$CECOLOR
 62
   256
  9
$CELTSCALE
 40
1.0
  9
$DELOBJ
 70
     1
  9
$DISPSILH
 70
     0
  9
$DIMSCALE
 40
0.5
  9
$DIMASZ
 40
2.5
  9
$DIMEXO
 40
1.0
  9
$DIMDLI
 40
12.0
  9
$DIMRND
 40
0.0
  9
$DIMDLE
 40
0.0
  9
$DIMEXE
 40
1.0
  9
$DIMTP
 40
0.1
  9
$DIMTM
 40
0.1
  9
$DIMTXT
 40
3.2
  9
$DIMCEN
 40
0.0
  9
$DIMTSZ
 40
0.0
  9
$DIMTOL
 70
     0
  9
$DIMLIM
 70
     0
  9
$DIMTIH
 70
     0
  9
$DIMTOH
 70
     0
  9
$DIMSE1
 70
     0
  9
$DIMSE2
 70
     0
  9
$DIMTAD
 70
     3
  9
$DIMZIN
 70
     8
  9
$DIMBLK
  1
OPEN30
  9
$DIMASO
 70
     1
  9
$DIMSHO
 70
     1
  9
$DIMPOST
  1

  9
$DIMAPOST
  1
"
  9
$DIMALT
 70
     0
  9
$DIMALTD
 70
     2
  9
$DIMALTF
 40
0.0393701
  9
$DIMLFAC
 40
1.0
  9
$DIMTOFL
 70
     1
  9
$DIMTVP
 40
0.0
  9
$DIMTIX
 70
     0
  9
$DIMSOXD
 70
     0
  9
$DIMSAH
 70
     0
  9
$DIMBLK1
  1

  9
$DIMBLK2
  1

  9
$DIMSTYLE
  2
AM_JIS
  9
$DIMCLRD
 70
   256
  9
$DIMCLRE
 70
   256
  9
$DIMCLRT
 70
     2
  9
$DIMTFAC
 40
0.71
  9
$DIMGAP
 40
1.5
  9
$DIMJUST
 70
     0
  9
$DIMSD1
 70
     0
  9
$DIMSD2
 70
     0
  9
$DIMTOLJ
 70
     0
  9
$DIMTZIN
 70
     0
  9
$DIMALTZ
 70
     0
  9
$DIMALTTZ
 70
     0
  9
$DIMFIT
 70
     3
  9
$DIMUPT
 70
     0
  9
$DIMUNIT
 70
     2
  9
$DIMDEC
 70
     3
  9
$DIMTDEC
 70
     3
  9
$DIMALTU
 70
     2
  9
$DIMALTTD
 70
     2
  9
$DIMTXSTY
  7
ASAMI
  9
$DIMAUNIT
 70
     0
  9
$LUNITS
 70
     2
  9
$LUPREC
 70
     2
  9
$SKETCHINC
 40
1.0
  9
$FILLETRAD
 40
2.5
  9
$AUNITS
 70
     0
  9
$AUPREC
 70
     0
  9
$MENU
  1
.
  9
$ELEVATION
 40
0.0
  9
$PELEVATION
 40
0.0
  9
$THICKNESS
 40
0.0
  9
$LIMCHECK
 70
     0
  9
$BLIPMODE
 70
     0
  9
$CHAMFERA
 40
0.25
  9
$CHAMFERB
 40
0.25
  9
$CHAMFERC
 40
20.0
  9
$CHAMFERD
 40
0.0
  9
$SKPOLY
 70
     0
  9
$TDCREATE
 40
2452838.430434386
  9
$TDUPDATE
 40
2453151.767296898
  9
$TDINDWG
 40
0.5457276620
  9
$TDUSRTIMER
 40
0.5457276620
  9
$USRTIMER
 70
     1
  9
$ANGBASE
 50
0.0
  9
$ANGDIR
 70
     0
  9
$PDMODE
 70
     0
  9
$PDSIZE
 40
0.0
  9
$PLINEWID
 40
0.0
  9
$COORDS
 70
     1
  9
$SPLFRAME
 70
     0
  9
$SPLINETYPE
 70
     6
  9
$SPLINESEGS
 70
     8
  9
$ATTDIA
 70
     1
  9
$ATTREQ
 70
     1
  9
$HANDLING
 70
 12289
  9
$HANDSEED
  5
AB85
  9
$SURFTAB1
 70
     6
  9
$SURFTAB2
 70
     6
  9
$SURFTYPE
 70
     6
  9
$SURFU
 70
     6
  9
$SURFV
 70
     6
  9
$UCSNAME
  2

  9
$UCSORG
 10
0.0
 20
0.0
 30
0.0
  9
$UCSXDIR
 10
1.0
 20
0.0
 30
0.0
  9
$UCSYDIR
 10
0.0
 20
1.0
 30
0.0
  9
$PUCSNAME
  2

  9
$PUCSORG
 10
0.0
 20
0.0
 30
0.0
  9
$PUCSXDIR
 10
1.0
 20
0.0
 30
0.0
  9
$PUCSYDIR
 10
0.0
 20
1.0
 30
0.0
  9
$USERI1
 70
     0
  9
$USERI2
 70
     0
  9
$USERI3
 70
     0
  9
$USERI4
 70
     0
  9
$USERI5
 70
     0
  9
$USERR1
 40
0.0
  9
$USERR2
 40
0.0
  9
$USERR3
 40
0.0
  9
$USERR4
 40
0.0
  9
$USERR5
 40
0.0
  9
$WORLDVIEW
 70
     1
  9
$SHADEDGE
 70
     3
  9
$SHADEDIF
 70
    70
  9
$TILEMODE
 70
     1
  9
$MAXACTVP
 70
    64
  9
$PINSBASE
 10
0.0
 20
0.0
 30
0.0
  9
$PLIMCHECK
 70
     0
  9
$PEXTMIN
 10
1.000000000000000E+20
 20
1.000000000000000E+20
 30
1.000000000000000E+20
  9
$PEXTMAX
 10
-1.000000000000000E+20
 20
-1.000000000000000E+20
 30
-1.000000000000000E+20
  9
$PLIMMIN
 10
0.0
 20
0.0
  9
$PLIMMAX
 10
841.0
 20
594.0
  9
$UNITMODE
 70
     0
  9
$VISRETAIN
 70
     1
  9
$PLINEGEN
 70
     0
  9
$PSLTSCALE
 70
     0
  9
$TREEDEPTH
 70
  3020
  9
$PICKSTYLE
 70
     0
  9
$CMLSTYLE
  2
STANDARD
  9
$CMLJUST
 70
     0
  9
$CMLSCALE
 40
20.0
  9
$PROXYGRAPHICS
 70
     1
  9
$MEASUREMENT
 70
     1
  0
ENDSEC
  0
SECTION
  2
CLASSES
  0
CLASS
  1
ACDBDICTIONARYWDFLT
  2
AcDbDictionaryWithDefault
  3
AutoCAD 2000
 90
        0
280
     0
281
     0
  0
CLASS
  1
ACDBPLACEHOLDER
  2
AcDbPlaceHolder
  3
AutoCAD 2000
 90
        0
280
     0
281
     0
  0
CLASS
  1
LAYOUT
  2
AcDbLayout
  3
AutoCAD 2000
 90
        0
280
     0
281
     0
  0
CLASS
  1
AMGSETTINGSOBJ
  2
AmgSettingsObj
  3
"AcadM|Product Description: AutoCAD Mechanical 2000|Company: Autodesk"
 90
        0
280
     0
281
     0
  0
CLASS
  1
ACME_DOCUMENT
  2
AcMeDbDoc
  3
AcMeServices
 90
        0
280
     0
281
     0
  0
CLASS
  1
ACMESCOPE
  2
AcMeScope
  3
AcMeServices
 90
        0
280
     0
281
     0
  0
CLASS
  1
ACMECOMMANDHISTORY
  2
AcMeCommandHistory
  3
AcMeServices
 90
        0
280
     0
281
     0
  0
CLASS
  1
DICTIONARYVAR
  2
AcDbDictionaryVar
  3
AutoCAD 2000
 90
        0
280
     0
281
     0
  0
CLASS
  1
ACIMSYSVARMAN
  2
AcImSysVarManager
  3
AcMeServices
 90
        0
280
     0
281
     0
  0
CLASS
  1
ACIMREALSYSVAR
  2
AcImRealSysVar
  3
AcMeServices
 90
        0
280
     0
281
     0
  0
CLASS
  1
ACIMINTSYSVAR
  2
AcImIntSysVar
  3
AcMeServices
 90
        0
280
     0
281
     0
  0
CLASS
  1
ACMEDRAWINGMAN
  2
AcMeDrawingMan
  3
AcMeServices
 90
        0
280
     0
281
     0
  0
CLASS
  1
ACMEVIEW
  2
AcMeView
  3
AcMeServices
 90
        0
280
     0
281
     0
  0
CLASS
  1
ACDBENTITYCACHE
  2
AcMeEntityCache
  3
AcMeServices
 90
        0
280
     0
281
     0
  0
CLASS
  1
GSMANAGER
  2
AcMeGSManager
  3
AcMeServices
 90
        0
280
     0
281
     0
  0
CLASS
  1
AmdtInternalReactor
  2
AmdtInternalReactor
  3
AcMeServices
 90
        0
280
     0
281
     0
  0
CLASS
  1
ACMESTATEMGR
  2
AcMeStateMgr
  3
AcMeServices
 90
        0
280
     0
281
     0
  0
CLASS
  1
ACME_DATABASE
  2
AcMeDbDatabase
  3
AcMeServices
 90
        0
280
     0
281
     0
  0
CLASS
  1
ACRFINSADJUSTERMGR
  2
AcRfInsAdjusterMgr
  3
AcMeServices
 90
        0
280
     0
281
     0
  0
CLASS
  1
ACMDATADICTIONARY
  2
AcmDataDictionary
  3
"AcmSymBB|Product Description: AutoCAD Mechanical 2000|Company: Autodesk"
 90
        0
280
     0
281
     0
  0
CLASS
  1
ACMDATAENTRYBLOCK
  2
AcmDataEntryBlock
  3
"AcmSymBB|Product Description: AutoCAD Mechanical 2000|Company: Autodesk"
 90
        0
280
     0
281
     0
  0
CLASS
  1
AMGOBJPROPCFG
  2
AmgObjPropCfg
  3
"AmgLay|Product Description: AutoCAD Mechanical 2000|Company: Autodesk"
 90
        1
280
     0
281
     0
  0
CLASS
  1
ACAMGFILTERDAT
  2
AcAmgFilterDat
  3
"AcadM|Product Description: AutoCAD Mechanical 2000|Company: Autodesk"
 90
        0
280
     0
281
     0
  0
CLASS
  1
LAYER_INDEX
  2
AcDbLayerIndex
  3
AutoCAD 2000
 90
        0
280
     0
281
     0
  0
CLASS
  1
IDBUFFER
  2
AcDbIdBuffer
  3
AutoCAD 2000
 90
        0
280
     0
281
     0
  0
CLASS
  1
ACIMSTRSYSVAR
  2
AcImStrSysVar
  3
AcMeServices
 90
        0
280
     0
281
     0
  0
CLASS
  1
ACMSTANDARDJIS
  2
AcmStandardJIS
  3
"AcmSymBB|Product Description: AutoCAD Mechanical 2000|Company: Autodesk"
 90
        0
280
     0
281
     0
  0
CLASS
  1
ACMSURFSTANDARDJIS
  2
AcmSurfTextStdJIS
  3
"AcmSymBB|Product Description: AutoCAD Mechanical 2000|Company: Autodesk"
 90
        0
280
     0
281
     0
  0
CLASS
  1
ACMFCFSTANDARDJIS
  2
AcmFCFStdJIS
  3
"AcmSymBB|Product Description: AutoCAD Mechanical 2000|Company: Autodesk"
 90
        0
280
     0
281
     0
  0
CLASS
  1
ACMWELDSTANDARDJIS
  2
AcmWeldingStdJIS
  3
"AcmSymBB|Product Description: AutoCAD Mechanical 2000|Company: Autodesk"
 90
        0
280
     0
281
     0
  0
CLASS
  1
ACMIDSTANDARDJIS
  2
AcmIdStdJIS
  3
"AcmSymBB|Product Description: AutoCAD Mechanical 2000|Company: Autodesk"
 90
        0
280
     0
281
     0
  0
CLASS
  1
ACMDATUMSTANDARDJIS
  2
AcmDatumStdJIS
  3
"AcmSymBB|Product Description: AutoCAD Mechanical 2000|Company: Autodesk"
 90
        0
280
     0
281
     0
  0
CLASS
  1
ACMBOMSTANDARDJIS
  2
AcmBOMStdJIS
  3
"AcmSymBB|Product Description: AutoCAD Mechanical 2000|Company: Autodesk"
 90
        0
280
     0
281
     0
  0
CLASS
  1
ACMSTANDARDANSI
  2
AcmStandardANSI
  3
"AcmSymBB|Product Description: AutoCAD Mechanical 2000|Company: Autodesk"
 90
        0
280
     0
281
     0
  0
CLASS
  1
ACMSURFSTANDARDANSI
  2
AcmSurfTextStdANSI
  3
"AcmSymBB|Product Description: AutoCAD Mechanical 2000|Company: Autodesk"
 90
        0
280
     0
281
     0
  0
CLASS
  1
ACMFCFSTANDARDANSI
  2
AcmFCFStdANSI
  3
"AcmSymBB|Product Description: AutoCAD Mechanical 2000|Company: Autodesk"
 90
        0
280
     0
281
     0
  0
CLASS
  1
ACMWELDSTANDARDANSI
  2
AcmWeldingStdANSI
  3
"AcmSymBB|Product Description: AutoCAD Mechanical 2000|Company: Autodesk"
 90
        0
280
     0
281
     0
  0
CLASS
  1
ACMIDSTANDARDANSI
  2
AcmIdStdANSI
  3
"AcmSymBB|Product Description: AutoCAD Mechanical 2000|Company: Autodesk"
 90
        0
280
     0
281
     0
  0
CLASS
  1
ACMDATUMSTANDARDANSI
  2
AcmDatumStdANSI
  3
"AcmSymBB|Product Description: AutoCAD Mechanical 2000|Company: Autodesk"
 90
        0
280
     0
281
     0
  0
CLASS
  1
ACMBOMSTANDARDANSI
  2
AcmBOMStdANSI
  3
"AcmSymBB|Product Description: AutoCAD Mechanical 2000|Company: Autodesk"
 90
        0
280
     0
281
     0
  0
CLASS
  1
ACMSTANDARDBSI
  2
AcmStandardBSI
  3
"AcmSymBB|Product Description: AutoCAD Mechanical 2000|Company: Autodesk"
 90
        0
280
     0
281
     0
  0
CLASS
  1
ACMSURFSTANDARDBSI
  2
AcmSurfTextStdBSI
  3
"AcmSymBB|Product Description: AutoCAD Mechanical 2000|Company: Autodesk"
 90
        0
280
     0
281
     0
  0
CLASS
  1
ACMFCFSTANDARDBSI
  2
AcmFCFStdBSI
  3
"AcmSymBB|Product Description: AutoCAD Mechanical 2000|Company: Autodesk"
 90
        0
280
     0
281
     0
  0
CLASS
  1
ACMWELDSTANDARDBSI
  2
AcmWeldingStdBSI
  3
"AcmSymBB|Product Description: AutoCAD Mechanical 2000|Company: Autodesk"
 90
        0
280
     0
281
     0
  0
CLASS
  1
ACMIDSTANDARDBSI
  2
AcmIdStdBSI
  3
"AcmSymBB|Product Description: AutoCAD Mechanical 2000|Company: Autodesk"
 90
        0
280
     0
281
     0
  0
CLASS
  1
ACMDATUMSTANDARDBSI
  2
AcmDatumStdBSI
  3
"AcmSymBB|Product Description: AutoCAD Mechanical 2000|Company: Autodesk"
 90
        0
280
     0
281
     0
  0
CLASS
  1
ACMBOMSTANDARDBSI
  2
AcmBOMStdBSI
  3
"AcmSymBB|Product Description: AutoCAD Mechanical 2000|Company: Autodesk"
 90
        0
280
     0
281
     0
  0
CLASS
  1
LONG_TRANSACTION
  2
AcDbLongTransaction
  3
AutoCAD 2000
 90
        0
280
     0
281
     0
  0
CLASS
  1
LWPOLYLINE
  2
AcDbPolyline
  3
AutoCAD 2000
 90
        0
280
     0
281
     1
  0
CLASS
  1
HATCH
  2
AcDbHatch
  3
AutoCAD 2000
 90
        0
280
     0
281
     1
  0
CLASS
  1
XRECORD
  2
AcDbXrecord
  3
AutoCAD 2000
 90
        0
280
     0
281
     0
  0
ENDSEC
  0
SECTION
  2
TABLES
  0
TABLE
  2
VPORT
  5
8
330
0
100
AcDbSymbolTable
 70
     3
  0
VPORT
  5
AB4F
330
8
100
AcDbSymbolTableRecord
100
AcDbViewportTableRecord
  2
*ACTIVE
 70
     0
 10
0.0
 20
0.0
 11
1.0
 21
1.0
 12
-19.98263863076769
 22
-10.78054306684464
 13
0.0
 23
0.0
 14
2.5
 24
2.5
 15
10.0
 25
10.0
 16
0.0
 26
0.0
 36
1.0
 17
0.0
 27
0.0
 37
0.0
 40
39.6279405319661
 41
1.56570841889117
 42
50.0
 43
0.0
 44
0.0
 50
0.0
 51
0.0
 71
     0
 72
   100
 73
     1
 74
     3
 75
     0
 76
     0
 77
     0
 78
     0
  0
ENDTAB
  0
TABLE
  2
LTYPE
  5
5
330
0
100
AcDbSymbolTable
 70
    10
  0
LTYPE
  5
14
330
5
100
AcDbSymbolTableRecord
100
AcDbLinetypeTableRecord
  2
BYBLOCK
 70
     0
  3

 72
    65
 73
     0
 40
0.0
  0
LTYPE
  5
15
330
5
100
AcDbSymbolTableRecord
100
AcDbLinetypeTableRecord
  2
BYLAYER
 70
     0
  3

 72
    65
 73
     0
 40
0.0
  0
LTYPE
  5
16
330
5
100
AcDbSymbolTableRecord
100
AcDbLinetypeTableRecord
  2
CONTINUOUS
 70
     0
  3
Solid line
 72
    65
 73
     0
 40
0.0
  0
LTYPE
  5
4B
330
5
100
AcDbSymbolTableRecord
100
AcDbLinetypeTableRecord
  2
AM_ISO02W050
 70
     0
  3
__ __ __ __ __ __ __ __ __ __ __ __ __ __ __
 72
    65
 73
     2
 40
7.5
 49
6.0
 74
     0
 49
-1.5
 74
     0
  0
LTYPE
  5
4C
330
5
100
AcDbSymbolTableRecord
100
AcDbLinetypeTableRecord
  2
AM_ISO08W050
 70
     0
  3
____ . ____ . ____ . ____ . ____ . ____ . ____
 72
    65
 73
     4
 40
18.0
 49
12.0
 74
     0
 49
-1.5
 74
     0
 49
3.0
 74
     0
 49
-1.5
 74
     0
  0
LTYPE
  5
4D
330
5
100
AcDbSymbolTableRecord
100
AcDbLinetypeTableRecord
  2
AM_ISO09W050
 70
     0
  3
_____ . . _____ . . _____ . . ____ .. ____
 72
    65
 73
     6
 40
22.5
 49
12.0
 74
     0
 49
-1.5
 74
     0
 49
3.0
 74
     0
 49
-1.5
 74
     0
 49
3.0
 74
     0
 49
-1.5
 74
     0
  0
LTYPE
  5
4E
330
5
100
AcDbSymbolTableRecord
100
AcDbLinetypeTableRecord
  2
AMCONSTR
 70
     0
  3
_______________________
 72
    65
 73
     2
 40
9999.0
 49
9999.0
 74
     0
 49
0.0
 74
     0
  0
LTYPE
  5
4F
330
5
100
AcDbSymbolTableRecord
100
AcDbLinetypeTableRecord
  2
AM_ISO02W050X2
 70
     0
  3
 _ _ _ _ _ _ _ _ _ _ _ _
 72
    65
 73
     2
 40
3.75
 49
3.0
 74
     0
 49
-0.75
 74
     0
  0
LTYPE
  5
50
330
5
100
AcDbSymbolTableRecord
100
AcDbLinetypeTableRecord
  2
AM_ISO08W050X2
 70
     0
  3
__ . __ . __ . __ . __ . __
 72
    65
 73
     4
 40
9.0
 49
6.0
 74
     0
 49
-0.75
 74
     0
 49
1.5
 74
     0
 49
-0.75
 74
     0
  0
LTYPE
  5
53
330
5
100
AcDbSymbolTableRecord
100
AcDbLinetypeTableRecord
  2
AMZIGZAG
 70
     0
  3
/\/-/\/-/\/-/\/-/\/-/\/
 72
    65
 73
     2
 40
11.00009999999999
 49
0.0001
 74
     4
 75
   135
340
52
 46
0.04
 50
0.0
 44
0.0
 45
0.0
 49
-11.0
 74
     0
  0
LTYPE
  5
166
330
5
100
AcDbSymbolTableRecord
100
AcDbLinetypeTableRecord
  2
ACJISTGL
 70
     0
  3
_ _ _ _ _
 72
    65
 73
     2
 40
3.0
 49
2.0
 74
     0
 49
-1.0
 74
     0
  0
LTYPE
  5
26A
330
5
100
AcDbSymbolTableRecord
100
AcDbLinetypeTableRecord
  2
ACJISTGB
 70
     0
  3
__ . . __ . .
 72
    65
 73
     6
 40
9.0
 49
4.0
 74
     0
 49
-1.0
 74
     0
 49
1.0
 74
     0
 49
-1.0
 74
     0
 49
1.0
 74
     0
 49
-1.0
 74
     0
  0
ENDTAB
  0
TABLE
  2
LAYER
  5
2
330
0
100
AcDbSymbolTable
 70
     7
  0
LAYER
  5
10
330
2
100
AcDbSymbolTableRecord
100
AcDbLayerTableRecord
  2
0
 70
     0
 62
     7
  6
CONTINUOUS
  0
LAYER
  5
3F9
330
2
100
AcDbSymbolTableRecord
100
AcDbLayerTableRecord
  2
AM_0
 70
     0
 62
     7
  6
CONTINUOUS
  0
LAYER
  5
BDD
330
2
100
AcDbSymbolTableRecord
100
AcDbLayerTableRecord
  2
AM_11
 70
     0
 62
     3
  6
AM_ISO09W050
  0
LAYER
  5
BDE
330
2
100
AcDbSymbolTableRecord
100
AcDbLayerTableRecord
  2
AM_7
 70
     0
 62
     4
  6
AM_ISO08W050
  0
LAYER
  5
BDF
330
2
100
AcDbSymbolTableRecord
100
AcDbLayerTableRecord
  2
AM_5
 70
     0
 62
     3
  6
CONTINUOUS
  0
LAYER
  5
BE0
330
2
100
AcDbSymbolTableRecord
100
AcDbLayerTableRecord
  2
DEFPOINTS
 70
     0
 62
     7
  6
CONTINUOUS
  0
LAYER
  5
14FF
330
2
100
AcDbSymbolTableRecord
100
AcDbLayerTableRecord
  2
AM_6
 70
     0
 62
     2
  6
CONTINUOUS
  0
ENDTAB
  0
TABLE
  2
STYLE
  5
3
330
0
100
AcDbSymbolTable
 70
     5
  0
STYLE
  5
11
330
3
100
AcDbSymbolTableRecord
100
AcDbTextStyleTableRecord
  2
STANDARD
 70
     0
 40
0.0
 41
1.0
 50
0.0
 71
     0
 42
2.5
  3
simplex.shx
  4
EXTFONT.SHX
  0
STYLE
  5
52
330
3
100
AcDbSymbolTableRecord
100
AcDbTextStyleTableRecord
  2

 70
     1
 40
0.0
 41
1.0
 50
0.0
 71
     0
 42
2.5
  3
ltypeshp.shx
  4

  0
STYLE
  5
6B
330
3
100
AcDbSymbolTableRecord
100
AcDbTextStyleTableRecord
  2
ASAMI
 70
     0
 40
0.0
 41
1.0
 50
0.0
 71
     0
 42
2.5
  3
simplex.shx
  4
EXTFONT.SHX
  0
STYLE
  5
262
330
3
100
AcDbSymbolTableRecord
100
AcDbTextStyleTableRecord
  2
ACJISTS
 70
     0
 40
1.0
 41
1.0
 50
0.0
 71
     0
 42
2.5
  3
simplex.shx
  4
bigfont.shx
  0
STYLE
  5
269
330
3
100
AcDbSymbolTableRecord
100
AcDbTextStyleTableRecord
  2
ACJISGDT
 70
     0
 40
0.0
 41
1.0
 50
0.0
 71
     0
 42
2.5
  3
amgdtans.shx
  4

  0
ENDTAB
  0
TABLE
  2
VIEW
  5
6
330
0
100
AcDbSymbolTable
 70
     0
  0
ENDTAB
  0
TABLE
  2
UCS
  5
7
330
0
100
AcDbSymbolTable
 70
     0
  0
ENDTAB
  0
TABLE
  2
APPID
  5
9
330
0
100
AcDbSymbolTable
 70
    13
  0
APPID
  5
12
330
9
100
AcDbSymbolTableRecord
100
AcDbRegAppTableRecord
  2
ACAD
 70
     0
  0
APPID
  5
30
330
9
100
AcDbSymbolTableRecord
100
AcDbRegAppTableRecord
  2
MCAD_NO_VIS
 70
     0
  0
APPID
  5
31
330
9
100
AcDbSymbolTableRecord
100
AcDbRegAppTableRecord
  2
ACAD_TEMP_GRAPHIC
 70
     0
  0
APPID
  5
2C2
330
9
100
AcDbSymbolTableRecord
100
AcDbRegAppTableRecord
  2
GENIUS_GENDTOL_13
 70
     0
  0
APPID
  5
339
330
9
100
AcDbSymbolTableRecord
100
AcDbRegAppTableRecord
  2
GENIUS_GENODEF_13
 70
     0
  0
APPID
  5
33A
330
9
100
AcDbSymbolTableRecord
100
AcDbRegAppTableRecord
  2
GENIUS_GENOBJ-N-RSBK_13
 70
     0
  0
APPID
  5
33B
330
9
100
AcDbSymbolTableRecord
100
AcDbRegAppTableRecord
  2
GENIUS_GENOBJ-N-LIB_13
 70
     0
  0
APPID
  5
33C
330
9
100
AcDbSymbolTableRecord
100
AcDbRegAppTableRecord
  2
GENIUS_GENSCALE_13
 70
     0
  0
APPID
  5
378
330
9
100
AcDbSymbolTableRecord
100
AcDbRegAppTableRecord
  2
GENIUS_GENDIMSH_14
 70
     0
  0
APPID
  5
BE1
330
9
100
AcDbSymbolTableRecord
100
AcDbRegAppTableRecord
  2
GENIUS_GENFIL_13
 70
     0
  0
APPID
  5
BE2
330
9
100
AcDbSymbolTableRecord
100
AcDbRegAppTableRecord
  2
GENIUS_GENOBJ-N-CHA_13
 70
     0
  0
APPID
  5
151B
330
9
100
AcDbSymbolTableRecord
100
AcDbRegAppTableRecord
  2
DCO15
 70
     0
  0
APPID
  5
1860
330
9
100
AcDbSymbolTableRecord
100
AcDbRegAppTableRecord
  2
GENIUS_GENOBJ-N-CEN_13
 70
     0
  0
ENDTAB
  0
TABLE
  2
DIMSTYLE
  5
A
330
0
100
AcDbSymbolTable
 70
     8
  0
DIMSTYLE
105
58
102
{ACAD_REACTORS
330
A1A7
330
A237
330
A4D3
330
A5A4
102
}
330
A
100
AcDbSymbolTableRecord
100
AcDbDimStyleTableRecord
  2
AM_JIS
 70
     0
  3

  4
"
  5
OPEN30
  6

  7

 40
0.5
 41
2.5
 42
1.0
 43
12.0
 44
1.0
 45
0.0
 46
0.0
 47
0.1
 48
0.1
140
3.2
141
0.0
142
0.0
143
0.0393701
144
1.0
145
0.0
146
0.71
147
1.5
 71
     0
 72
     0
 73
     0
 74
     0
 75
     0
 76
     0
 77
     3
 78
     8
170
     0
171
     2
172
     1
173
     0
174
     0
175
     0
176
   256
177
   256
178
     2
270
     2
271
     3
272
     3
273
     2
274
     2
340
6B
275
     0
280
     0
281
     0
282
     0
283
     0
284
     0
285
     0
286
     0
287
     3
288
     0
  0
DIMSTYLE
105
5F
330
A
100
AcDbSymbolTableRecord
100
AcDbDimStyleTableRecord
  2
AM_JIS$3
 70
     0
  3

  4
"
  5
OPEN30
  6

  7

 40
0.5
 41
2.5
 42
1.0
 43
10.0
 44
1.0
 45
0.0
 46
0.0
 47
0.1
 48
0.1
140
3.2
141
0.0
142
0.0
143
0.0393701
144
1.0
145
0.0
146
0.71
147
1.5
 71
     0
 72
     0
 73
     0
 74
     1
 75
     0
 76
     0
 77
     3
 78
     8
170
     0
171
     2
172
     0
173
     0
174
     0
175
     0
176
   256
177
   256
178
     2
270
     2
271
     2
272
     3
273
     2
274
     2
340
6B
275
     0
280
     0
281
     0
282
     0
283
     0
284
     0
285
     0
286
     0
287
     0
288
     1
  0
DIMSTYLE
105
60
330
A
100
AcDbSymbolTableRecord
100
AcDbDimStyleTableRecord
  2
AM_JIS$4
 70
     0
  3

  4
"
  5
OPEN30
  6

  7

 40
0.5
 41
2.5
 42
1.0
 43
10.0
 44
1.0
 45
0.0
 46
0.0
 47
0.1
 48
0.1
140
3.2
141
0.0
142
0.0
143
0.0393701
144
1.0
145
0.0
146
0.71
147
1.5
 71
     0
 72
     0
 73
     0
 74
     1
 75
     0
 76
     0
 77
     3
 78
     8
170
     0
171
     2
172
     0
173
     0
174
     0
175
     0
176
   256
177
   256
178
     2
270
     2
271
     2
272
     3
273
     2
274
     2
340
6B
275
     0
280
     0
281
     0
282
     0
283
     0
284
     0
285
     0
286
     0
287
     0
288
     1
  0
DIMSTYLE
105
61
330
A
100
AcDbSymbolTableRecord
100
AcDbDimStyleTableRecord
  2
AM_JIS$6
 70
     0
  3

  4
"
  5
OPEN30
  6

  7

 40
0.5
 41
2.5
 42
1.0
 43
10.0
 44
1.0
 45
0.0
 46
0.0
 47
0.1
 48
0.1
140
3.2
141
0.0
142
0.0
143
0.0393701
144
1.0
145
0.0
146
0.71
147
1.5
 71
     0
 72
     0
 73
     0
 74
     0
 75
     0
 76
     0
 77
     0
 78
     8
170
     0
171
     2
172
     1
173
     0
174
     0
175
     0
176
   256
177
   256
178
     2
270
     2
271
     2
272
     2
273
     2
274
     2
340
6B
275
     0
280
     0
281
     0
282
     0
283
     0
284
     0
285
     0
286
     0
287
     3
288
     0
  0
DIMSTYLE
105
62
330
A
100
AcDbSymbolTableRecord
100
AcDbDimStyleTableRecord
  2
AM_JIS$7
 70
     0
  3

  4
"
  5
OPEN30
  6

  7

 40
0.5
 41
2.5
 42
1.0
 43
10.0
 44
1.0
 45
0.0
 46
0.0
 47
0.1
 48
0.1
140
3.2
141
0.0
142
0.0
143
0.0393701
144
1.0
145
0.0
146
0.71
147
1.5
 71
     0
 72
     0
 73
     0
 74
     0
 75
     0
 76
     0
 77
     3
 78
     8
170
     0
171
     2
172
     1
173
     0
174
     0
175
     0
176
   256
177
   256
178
     2
270
     2
271
     2
272
     3
273
     2
274
     2
340
6B
275
     0
280
     0
281
     0
282
     0
283
     0
284
     0
285
     0
286
     0
287
     3
288
     0
  0
DIMSTYLE
105
63
330
A
100
AcDbSymbolTableRecord
100
AcDbDimStyleTableRecord
  2
AM_JIS$SF
 70
     0
  3

  4
"
  5
OPEN30
  6

  7

 40
0.5
 41
2.5
 42
1.0
 43
10.0
 44
1.0
 45
0.0
 46
0.0
 47
0.1
 48
0.1
140
3.2
141
0.0
142
0.0
143
0.0393701
144
1.0
145
0.0
146
0.71
147
1.5
 71
     0
 72
     0
 73
     0
 74
     0
 75
     1
 76
     1
 77
     3
 78
     8
170
     0
171
     2
172
     1
173
     0
174
     0
175
     0
176
   256
177
   256
178
     2
270
     2
271
     2
272
     2
273
     2
274
     2
340
6B
275
     0
280
     0
281
     0
282
     0
283
     0
284
     0
285
     0
286
     0
287
     3
288
     0
  0
DIMSTYLE
105
68
330
A
100
AcDbSymbolTableRecord
100
AcDbDimStyleTableRecord
  2
AM_JIS$SH
 70
     0
  3

  4
"
  5

  6
GENAXEH
  7
OPEN30
 40
0.5
 41
2.5
 42
1.0
 43
10.0
 44
1.0
 45
0.0
 46
0.0
 47
0.1
 48
0.1
140
3.2
141
0.0
142
0.0
143
0.0393701
144
2.0
145
0.0
146
0.71
147
1.5
 71
     0
 72
     0
 73
     0
 74
     0
 75
     1
 76
     1
 77
     3
 78
     8
170
     0
171
     2
172
     1
173
     1
174
     0
175
     0
176
   256
177
   256
178
     2
270
     2
271
     2
272
     2
273
     2
274
     2
340
6B
275
     0
280
     0
281
     0
282
     0
283
     0
284
     0
285
     0
286
     0
287
     3
288
     0
  0
DIMSTYLE
105
B34
330
A
100
AcDbSymbolTableRecord
100
AcDbDimStyleTableRecord
  2
AM_JIS$2
 70
     0
  3

  4
"
  5
OPEN30
  6

  7

 40
0.5
 41
2.5
 42
1.0
 43
12.0
 44
1.0
 45
0.0
 46
0.0
 47
0.1
 48
0.1
140
3.2
141
0.0
142
0.0
143
0.0393701
144
1.0
145
0.0
146
0.71
147
1.5
 71
     0
 72
     0
 73
     0
 74
     0
 75
     0
 76
     0
 77
     3
 78
     8
170
     0
171
     2
172
     1
173
     0
174
     0
175
     0
176
   256
177
   256
178
     2
270
     2
271
     3
272
     3
273
     2
274
     2
340
6B
275
     0
280
     0
281
     0
282
     0
283
     0
284
     0
285
     0
286
     0
287
     3
288
     0
  0
ENDTAB
  0
TABLE
  2
BLOCK_RECORD
  5
1
330
0
100
AcDbSymbolTable
 70
     9
  0
BLOCK_RECORD
  5
1F
102
{ACAD_XDICTIONARY
360
74
102
}
330
1
100
AcDbSymbolTableRecord
100
AcDbBlockTableRecord
  2
*MODEL_SPACE
  0
BLOCK_RECORD
  5
101
102
{ACAD_XDICTIONARY
360
AB78
102
}
330
1
100
AcDbSymbolTableRecord
100
AcDbBlockTableRecord
  2
*PAPER_SPACE
  0
BLOCK_RECORD
  5
59
330
1
100
AcDbSymbolTableRecord
100
AcDbBlockTableRecord
  2
_OPEN30
  0
BLOCK_RECORD
  5
64
330
1
100
AcDbSymbolTableRecord
100
AcDbBlockTableRecord
  2
GENAXEH
  0
BLOCK_RECORD
  5
A1A8
330
1
100
AcDbSymbolTableRecord
100
AcDbBlockTableRecord
  2
*D5
  0
BLOCK_RECORD
  5
A238
330
1
100
AcDbSymbolTableRecord
100
AcDbBlockTableRecord
  2
*D6
  0
BLOCK_RECORD
  5
A4D4
330
1
100
AcDbSymbolTableRecord
100
AcDbBlockTableRecord
  2
*D7
  0
BLOCK_RECORD
  5
A5A5
330
1
100
AcDbSymbolTableRecord
100
AcDbBlockTableRecord
  2
*D8
  0
ENDTAB
  0
ENDSEC
  0
SECTION
  2
BLOCKS
  0
BLOCK
  5
20
330
1F
100
AcDbEntity
  8
0
100
AcDbBlockBegin
  2
*MODEL_SPACE
 70
     0
 10
0.0
 20
0.0
 30
0.0
  3
*MODEL_SPACE
  1

  0
ENDBLK
  5
21
330
1F
100
AcDbEntity
  8
0
100
AcDbBlockEnd
  0
BLOCK
  5
103
330
101
100
AcDbEntity
 67
     1
  8
0
100
AcDbBlockBegin
  2
*PAPER_SPACE
 70
     0
 10
0.0
 20
0.0
 30
0.0
  3
*PAPER_SPACE
  1

  0
ENDBLK
  5
104
330
101
100
AcDbEntity
 67
     1
  8
0
100
AcDbBlockEnd
  0
BLOCK
  5
5D
330
59
100
AcDbEntity
  8
0
100
AcDbBlockBegin
  2
_OPEN30
 70
     0
 10
0.0
 20
0.0
 30
0.0
  3
_OPEN30
  1

  0
LINE
  5
5A
330
59
100
AcDbEntity
  8
0
 62
     0
100
AcDbLine
 10
-1.0
 20
0.26794919
 30
0.0
 11
0.0
 21
0.0
 31
0.0
  0
LINE
  5
5B
330
59
100
AcDbEntity
  8
0
 62
     0
100
AcDbLine
 10
0.0
 20
0.0
 30
0.0
 11
-1.0
 21
-0.26794919
 31
0.0
  0
LINE
  5
5C
330
59
100
AcDbEntity
  8
0
 62
     0
100
AcDbLine
 10
0.0
 20
0.0
 30
0.0
 11
-1.0
 21
0.0
 31
0.0
  0
ENDBLK
  5
5E
330
59
100
AcDbEntity
  8
0
100
AcDbBlockEnd
  0
BLOCK
  5
66
330
64
100
AcDbEntity
  8
0
100
AcDbBlockBegin
  2
GENAXEH
 70
     0
 10
0.0
 20
0.0
 30
0.0
  3
GENAXEH
  1

  0
LINE
  5
65
330
64
100
AcDbEntity
  8
0
100
AcDbLine
 10
-1.0
 20
0.0
 30
0.0
 11
1.0
 21
0.0
 31
0.0
  0
ENDBLK
  5
67
330
64
100
AcDbEntity
  8
0
100
AcDbBlockEnd
  0
BLOCK
  5
A1B2
330
A1A8
100
AcDbEntity
  8
0
100
AcDbBlockBegin
  2
*D5
 70
     1
 10
0.0
 20
0.0
 30
0.0
  3
*D5
  1

  0
LINE
  5
AA08
330
A1A8
100
AcDbEntity
  8
AM_5
100
AcDbLine
 10
0.0
 20
-1.20000000000001
 30
0.0
 11
-0.0000000000000009
 21
-15.50000100000021
 31
0.0
  0
LINE
  5
AA09
330
A1A8
100
AcDbEntity
  8
AM_5
100
AcDbLine
 10
-40.00000000000002
 20
-2.166666666666687
 30
0.0
 11
-40.00000000000002
 21
-15.50000100000021
 31
0.0
  0
LINE
  5
AA0A
330
A1A8
100
AcDbEntity
  8
AM_5
100
AcDbLine
 10
-1.25
 20
-15.00000100000021
 30
0.0
 11
-38.75000000000002
 21
-15.00000100000021
 31
0.0
  0
INSERT
  5
AA0B
330
A1A8
100
AcDbEntity
  8
AM_5
100
AcDbBlockReference
  2
_OPEN30
 10
-0.0000000000000009
 20
-15.00000100000021
 30
0.0
 41
1.25
 42
1.25
 43
1.25
  0
INSERT
  5
AA0C
330
A1A8
100
AcDbEntity
  8
AM_5
100
AcDbBlockReference
  2
_OPEN30
 10
-40.00000000000002
 20
-15.00000100000021
 30
0.0
 41
1.25
 42
1.25
 43
1.25
 50
180.0
  0
MTEXT
  5
AA0D
330
A1A8
100
AcDbEntity
  8
AM_5
 62
     2
100
AcDbMText
 10
-20.00000000000001
 20
-13.45000100000021
 30
0.0
 40
1.6
 41
0.0
 71
     5
 72
     1
  1
40
  7
ASAMI
1001
ACAD
1000
MTEXTBEGIN
1070
    73
1070
     1
1070
    44
1040
1.0
1070
    74
1070
     0
1000
MTEXTEND
  0
POINT
  5
AA0E
330
A1A8
100
AcDbEntity
  8
DEFPOINTS
 62
     0
100
AcDbPoint
 10
0.0
 20
-0.7000000000000102
 30
0.0
  0
POINT
  5
AA0F
330
A1A8
100
AcDbEntity
  8
DEFPOINTS
 62
     0
100
AcDbPoint
 10
-40.00000000000002
 20
-1.666666666666687
 30
0.0
  0
POINT
  5
AA10
330
A1A8
100
AcDbEntity
  8
DEFPOINTS
 62
     0
100
AcDbPoint
 10
-40.00000000000002
 20
-15.00000100000021
 30
0.0
  0
ENDBLK
  5
A1B3
330
A1A8
100
AcDbEntity
  8
0
100
AcDbBlockEnd
  0
BLOCK
  5
A244
330
A238
100
AcDbEntity
  8
0
100
AcDbBlockBegin
  2
*D6
 70
     1
 10
0.0
 20
0.0
 30
0.0
  3
*D6
  1

  0
LINE
  5
A9FC
330
A238
100
AcDbEntity
  8
AM_5
100
AcDbLine
 10
0.0
 20
-1.20000000000001
 30
0.0
 11
-0.0000000000000005
 21
-9.50000099999994
 31
0.0
  0
LINE
  5
A9FD
330
A238
100
AcDbEntity
  8
AM_5
100
AcDbLine
 10
-1.5
 20
-1.200000000000008
 30
0.0
 11
-1.5
 21
-9.50000099999994
 31
0.0
  0
LINE
  5
A9FE
330
A238
100
AcDbEntity
  8
AM_5
100
AcDbLine
 10
1.249999999999999
 20
-9.00000099999994
 30
0.0
 11
2.499999999999999
 21
-9.00000099999994
 31
0.0
  0
LINE
  5
A9FF
330
A238
100
AcDbEntity
  8
AM_5
100
AcDbLine
 10
-2.75
 20
-9.00000099999994
 30
0.0
 11
-8.547619047619047
 21
-9.00000099999994
 31
0.0
  0
LINE
  5
AA00
330
A238
100
AcDbEntity
  8
AM_5
100
AcDbLine
 10
-0.0000000000000005
 20
-9.00000099999994
 30
0.0
 11
-1.5
 21
-9.00000099999994
 31
0.0
  0
INSERT
  5
AA01
330
A238
100
AcDbEntity
  8
AM_5
100
AcDbBlockReference
  2
_OPEN30
 10
-0.0000000000000005
 20
-9.00000099999994
 30
0.0
 41
1.25
 42
1.25
 43
1.25
 50
180.0
  0
INSERT
  5
AA02
330
A238
100
AcDbEntity
  8
AM_5
100
AcDbBlockReference
  2
_OPEN30
 10
-1.5
 20
-9.00000099999994
 30
0.0
 41
1.25
 42
1.25
 43
1.25
  0
MTEXT
  5
AA03
330
A238
100
AcDbEntity
  8
AM_5
 62
     2
100
AcDbMText
 10
-6.273809523809523
 20
-7.45000099999994
 30
0.0
 40
1.6
 41
0.0
 71
     5
 72
     1
  1
1.5
  7
ASAMI
1001
ACAD
1000
MTEXTBEGIN
1070
    73
1070
     1
1070
    44
1040
1.0
1070
    74
1070
     0
1000
MTEXTEND
  0
POINT
  5
AA04
330
A238
100
AcDbEntity
  8
DEFPOINTS
 62
     0
100
AcDbPoint
 10
0.0
 20
-0.7000000000000102
 30
0.0
  0
POINT
  5
AA05
330
A238
100
AcDbEntity
  8
DEFPOINTS
 62
     0
100
AcDbPoint
 10
-1.5
 20
-0.7000000000000089
 30
0.0
  0
POINT
  5
AA06
330
A238
100
AcDbEntity
  8
DEFPOINTS
 62
     0
100
AcDbPoint
 10
-1.5
 20
-9.00000099999994
 30
0.0
  0
ENDBLK
  5
A245
330
A238
100
AcDbEntity
  8
0
100
AcDbBlockEnd
  0
BLOCK
  5
A4E0
330
A4D4
100
AcDbEntity
  8
0
100
AcDbBlockBegin
  2
*D7
 70
     1
 10
0.0
 20
0.0
 30
0.0
  3
*D7
  1

  0
LINE
  5
AA14
330
A4D4
100
AcDbEntity
  8
AM_5
100
AcDbLine
 10
0.4999999999943997
 20
0.7000000000000003
 30
0.0
 11
7.955777803085513
 21
0.6999999999999983
 31
0.0
  0
LINE
  5
AA15
330
A4D4
100
AcDbEntity
  8
AM_5
100
AcDbLine
 10
0.5
 20
-0.7000000000000006
 30
0.0
 11
7.955777803085513
 21
-0.7000000000000027
 31
0.0
  0
LINE
  5
AA16
330
A4D4
100
AcDbEntity
  8
AM_5
100
AcDbLine
 10
7.455777803085513
 20
1.949999999999998
 30
0.0
 11
7.455777803085514
 21
3.199999999999998
 31
0.0
  0
LINE
  5
AA17
330
A4D4
100
AcDbEntity
  8
AM_5
100
AcDbLine
 10
7.455777803085513
 20
-1.950000000000002
 30
0.0
 11
7.455777803085512
 21
-9.271428571428574
 31
0.0
  0
LINE
  5
AA18
330
A4D4
100
AcDbEntity
  8
AM_5
100
AcDbLine
 10
7.455777803085513
 20
0.6999999999999984
 30
0.0
 11
7.455777803085513
 21
-0.7000000000000025
 31
0.0
  0
INSERT
  5
AA19
330
A4D4
100
AcDbEntity
  8
AM_5
100
AcDbBlockReference
  2
_OPEN30
 10
7.455777803085513
 20
0.6999999999999984
 30
0.0
 41
1.25
 42
1.25
 43
1.25
 50
270.0
  0
INSERT
  5
AA1A
330
A4D4
100
AcDbEntity
  8
AM_5
100
AcDbBlockReference
  2
_OPEN30
 10
7.455777803085513
 20
-0.7000000000000025
 30
0.0
 41
1.25
 42
1.25
 43
1.25
 50
90.0
  0
MTEXT
  5
AA1B
330
A4D4
100
AcDbEntity
  8
AM_5
 62
     2
100
AcDbMText
 10
5.905777803085513
 20
-6.235714285714286
 30
0.0
 40
1.6
 41
0.0
 71
     5
 72
     1
  1
%%c1.4
  7
ASAMI
 11
0.0000000000000001
 21
1.0
 31
0.0
1001
ACAD
1000
MTEXTBEGIN
1070
    73
1070
     1
1070
    44
1040
1.0
1070
    74
1070
     0
1000
MTEXTEND
  0
POINT
  5
AA1C
330
A4D4
100
AcDbEntity
  8
DEFPOINTS
 62
     0
100
AcDbPoint
 10
-0.0000000000056004
 20
0.7000000000000004
 30
0.0
  0
POINT
  5
AA1D
330
A4D4
100
AcDbEntity
  8
DEFPOINTS
 62
     0
100
AcDbPoint
 10
0.0
 20
-0.7000000000000004
 30
0.0
  0
POINT
  5
AA1E
330
A4D4
100
AcDbEntity
  8
DEFPOINTS
 62
     0
100
AcDbPoint
 10
7.455777803085513
 20
-0.7000000000000025
 30
0.0
  0
ENDBLK
  5
A4E1
330
A4D4
100
AcDbEntity
  8
0
100
AcDbBlockEnd
  0
BLOCK
  5
A5B1
330
A5A5
100
AcDbEntity
  8
0
100
AcDbBlockBegin
  2
*D8
 70
     1
 10
0.0
 20
0.0
 30
0.0
  3
*D8
  1

  0
LINE
  5
AB7A
330
A5A5
100
AcDbEntity
  8
AM_5
100
AcDbLine
 10
-40.25
 20
1.999999999999978
 30
0.0
 11
-48.71056358178671
 21
1.999999999999981
 31
0.0
  0
LINE
  5
AB7B
330
A5A5
100
AcDbEntity
  8
AM_5
100
AcDbLine
 10
-40.25000000000001
 20
-2.000000000000021
 30
0.0
 11
-48.71056358178671
 21
-2.000000000000019
 31
0.0
  0
LINE
  5
AB7C
330
A5A5
100
AcDbEntity
  8
AM_5
100
AcDbLine
 10
-48.21056358178672
 20
3.24999999999998
 30
0.0
 11
-48.21056358178672
 21
4.49999999999998
 31
0.0
  0
LINE
  5
AB7D
330
A5A5
100
AcDbEntity
  8
AM_5
100
AcDbLine
 10
-48.21056358178672
 20
-3.250000000000019
 30
0.0
 11
-48.21056358178672
 21
-4.500000000000019
 31
0.0
  0
MTEXT
  5
AB7E
330
A5A5
100
AcDbEntity
  8
AM_5
 62
     2
100
AcDbMText
 10
-49.56898118015934
 20
0.2809593614727674
 30
0.0
 40
1.6
 41
0.0
 71
     5
 72
     1
  1
%%c4
  7
ASAMI
 11
0.0000000000000001
 21
1.0
 31
0.0
  0
LINE
  5
AB7F
330
A5A5
100
AcDbEntity
  8
AM_5
100
AcDbLine
 10
-48.21056358178672
 20
1.99999999999998
 30
0.0
 11
-48.21056358178672
 21
-2.000000000000019
 31
0.0
  0
INSERT
  5
AB80
330
A5A5
100
AcDbEntity
  8
AM_5
100
AcDbBlockReference
  2
_OPEN30
 10
-48.21056358178672
 20
1.99999999999998
 30
0.0
 41
1.25
 42
1.25
 43
1.25
 50
270.0
  0
INSERT
  5
AB81
330
A5A5
100
AcDbEntity
  8
AM_5
100
AcDbBlockReference
  2
_OPEN30
 10
-48.21056358178672
 20
-2.000000000000019
 30
0.0
 41
1.25
 42
1.25
 43
1.25
 50
90.0
  0
POINT
  5
AB82
330
A5A5
100
AcDbEntity
  8
DEFPOINTS
 62
     0
100
AcDbPoint
 10
-39.75
 20
1.999999999999978
 30
0.0
  0
POINT
  5
AB83
330
A5A5
100
AcDbEntity
  8
DEFPOINTS
 62
     0
100
AcDbPoint
 10
-39.75000000000001
 20
-2.000000000000021
 30
0.0
  0
POINT
  5
AB84
330
A5A5
100
AcDbEntity
  8
DEFPOINTS
 62
     0
100
AcDbPoint
 10
-48.21056358178672
 20
-2.000000000000019
 30
0.0
  0
ENDBLK
  5
A5B2
330
A5A5
100
AcDbEntity
  8
0
100
AcDbBlockEnd
  0
ENDSEC
  0
SECTION
  2
ENTITIES
  0
TEXT
  5
1500
330
1F
100
AcDbEntity
  8
AM_6
100
AcDbText
 10
-33.09523809523809
 20
-26.25000100000021
 30
0.0
 40
2.5
  1
S-SSM2014ZX
 72
     4
 11
-20.0
 21
-25.00000100000021
 31
0.0
100
AcDbText
  0
LINE
  5
9FA3
330
1F
100
AcDbEntity
  8
AM_7
  6
AM_ISO08W050X2
100
AcDbLine
 10
0.4557768030855201
 20
0.0
 30
0.0
 11
-41.21056258178671
 21
-0.0000000000000142
 31
0.0
1001
GENIUS_GENODEF_13
1002
{
1000
HIER
1070
     0
1002
}
1002
{
1000
MANEDIT
1070
     0
1002
}
1002
{
1000
NOSEL
1070
     0
1002
}
1002
{
1000
BEHIND
1070
     0
1002
}
1002
{
1000
REACTOR
1002
}
1001
GENIUS_GENOBJ-N-CEN_13
1002
{
1000
OWNER
1000
GEN
1002
}
  0
DIMENSION
  5
A1A7
330
1F
100
AcDbEntity
  8
AM_5
100
AcDbDimension
  2
*D5
 10
-40.00000000000002
 20
-15.00000100000021
 30
0.0
 11
-20.00000000000001
 21
-13.45000100000021
 31
0.0
 70
    32
  1
<>
  3
AM_JIS
100
AcDbAlignedDimension
 13
0.0
 23
-0.7000000000000102
 33
0.0
 14
-40.00000000000002
 24
-1.666666666666687
 34
0.0
 50
0.0000000000004071
100
AcDbRotatedDimension
1001
GENIUS_GENDTOL_13
1000

1000
h7
1000

1040
0.0
  0
DIMENSION
  5
A237
330
1F
100
AcDbEntity
  8
AM_5
100
AcDbDimension
  2
*D6
 10
-1.5
 20
-9.00000099999994
 30
0.0
 11
-6.273809523809523
 21
-7.45000099999994
 31
0.0
 70
    32
  1
<>
  3
AM_JIS
100
AcDbAlignedDimension
 13
0.0
 23
-0.7000000000000102
 33
0.0
 14
-1.5
 24
-0.7000000000000089
 34
0.0
 50
0.0000000000004071
100
AcDbRotatedDimension
1001
GENIUS_GENDTOL_13
1000

1000
h7
1000

1040
0.0
  0
DIMENSION
  5
A4D3
330
1F
100
AcDbEntity
  8
AM_5
100
AcDbDimension
  2
*D7
 10
7.455777803085513
 20
-0.7000000000000025
 30
0.0
 11
5.905777803085513
 21
-6.235714285714286
 31
0.0
 70
    32
  1
%%c<>
  3
AM_JIS
100
AcDbAlignedDimension
 13
-0.0000000000056004
 23
0.7000000000000004
 33
0.0
 14
0.0
 24
-0.7000000000000004
 34
0.0
 50
90.00000000000033
100
AcDbRotatedDimension
1001
GENIUS_GENDTOL_13
1000

1000
h7
1000

1040
0.0
  0
DIMENSION
  5
A5A4
330
1F
100
AcDbEntity
  8
AM_5
100
AcDbDimension
  2
*D8
 10
-48.21056358178672
 20
-2.000000000000019
 30
0.0
 11
-49.56898118015934
 21
0.2809593614727674
 31
0.0
 70
   160
  1
%%c<>
  3
AM_JIS
100
AcDbAlignedDimension
 13
-39.75
 23
1.999999999999978
 33
0.0
 14
-39.75000000000001
 24
-2.000000000000021
 34
0.0
 50
270.0
100
AcDbRotatedDimension
1001
GENIUS_GENDTOL_13
1000

1000
h7
1000

1040
0.0
1001
ACAD
1000
DSTYLE
1002
{
1070
   287
1070
     5
1070
   279
1070
     2
1002
}
  0
LINE
  5
A736
330
1F
100
AcDbEntity
  8
AM_0
100
AcDbLine
 10
-39.75000000000002
 20
-2.00000000000002
 30
0.0
 11
-11.00000000000002
 21
-2.000000000000007
 31
0.0
  0
LINE
  5
A737
330
1F
100
AcDbEntity
  8
AM_0
100
AcDbLine
 10
-39.75000000000001
 20
1.999999999999978
 30
0.0
 11
-11.0
 21
1.999999999999992
 31
0.0
  0
LINE
  5
A739
330
1F
100
AcDbEntity
  8
AM_0
100
AcDbLine
 10
-40.00000000000002
 20
-1.666666666666687
 30
0.0
 11
-39.75000000000002
 21
-2.000000000000021
 31
0.0
1001
GENIUS_GENFIL_13
1070
     0
1040
0.25
1040
0.25
1040
20.0
1040
0.0
1002
{
1002
}
1001
GENIUS_GENODEF_13
1002
{
1000
HIER
1070
     0
1002
}
1002
{
1000
MANEDIT
1070
     0
1002
}
1002
{
1000
NOSEL
1070
     0
1002
}
1002
{
1000
BEHIND
1070
     0
1002
}
1002
{
1000
REACTOR
1002
}
1001
GENIUS_GENOBJ-N-CHA_13
1002
{
1000
OWNER
1000
GEN
1002
}
  0
LINE
  5
A73A
330
1F
100
AcDbEntity
  8
AM_0
100
AcDbLine
 10
-40.0
 20
1.749999999999978
 30
0.0
 11
-40.00000000000002
 21
-1.75000000000002
 31
0.0
  0
LINE
  5
A73B
330
1F
100
AcDbEntity
  8
AM_0
100
AcDbLine
 10
-39.75
 20
1.999999999999978
 30
0.0
 11
-39.75000000000001
 21
-2.000000000000021
 31
0.0
  0
LINE
  5
A75C
330
1F
100
AcDbEntity
  8
AM_0
100
AcDbLine
 10
-39.75000000000001
 20
1.999999999999978
 30
0.0
 11
-40.0
 21
1.749999999999978
 31
0.0
1001
GENIUS_GENFIL_13
1070
     0
1040
0.25
1040
0.25
1040
20.0
1040
0.0
1002
{
1002
}
1001
GENIUS_GENODEF_13
1002
{
1000
HIER
1070
     0
1002
}
1002
{
1000
MANEDIT
1070
     0
1002
}
1002
{
1000
NOSEL
1070
     0
1002
}
1002
{
1000
BEHIND
1070
     0
1002
}
1002
{
1000
REACTOR
1002
}
1001
GENIUS_GENOBJ-N-CHA_13
1002
{
1000
OWNER
1000
GEN
1002
}
  0
LINE
  5
A75F
330
1F
100
AcDbEntity
  8
AM_0
100
AcDbLine
 10
-39.75000000000002
 20
-2.00000000000002
 30
0.0
 11
-40.00000000000002
 21
-1.75000000000002
 31
0.0
1001
GENIUS_GENFIL_13
1070
     0
1040
0.25
1040
0.25
1040
20.0
1040
0.0
1002
{
1002
}
1001
GENIUS_GENODEF_13
1002
{
1000
HIER
1070
     0
1002
}
1002
{
1000
MANEDIT
1070
     0
1002
}
1002
{
1000
NOSEL
1070
     0
1002
}
1002
{
1000
BEHIND
1070
     0
1002
}
1002
{
1000
REACTOR
1002
}
1001
GENIUS_GENOBJ-N-CHA_13
1002
{
1000
OWNER
1000
GEN
1002
}
  0
LINE
  5
A768
330
1F
100
AcDbEntity
  8
AM_0
100
AcDbLine
 10
-11.0
 20
1.999999999999992
 30
0.0
 11
-11.00000000000002
 21
-2.000000000000007
 31
0.0
  0
LINE
  5
A807
330
1F
100
AcDbEntity
  8
AM_0
100
AcDbLine
 10
-2.305308883067428
 20
0.6999999999999917
 30
0.0
 11
-3.627333634496965
 21
0.6999999999999914
 31
0.0
  0
LINE
  5
A808
330
1F
100
AcDbEntity
  8
AM_0
100
AcDbLine
 10
-1.610901570647426
 20
-0.700000000000009
 30
0.0
 11
-3.627333634497004
 21
-0.7000000000000107
 31
0.0
  0
LINE
  5
A809
330
1F
100
AcDbEntity
  8
AM_0
100
AcDbLine
 10
-3.627333634496999
 20
-0.7000000000000107
 30
0.0
 11
-3.627333634496965
 21
0.6999999999999914
 31
0.0
  0
LINE
  5
A80A
330
1F
100
AcDbEntity
  8
AM_0
100
AcDbLine
 10
-3.627333634496965
 20
0.6999999999999913
 30
0.0
 11
-11.0
 21
1.999999999999992
 31
0.0
  0
LINE
  5
A80B
330
1F
100
AcDbEntity
  8
AM_0
100
AcDbLine
 10
-11.00000000000002
 20
-2.000000000000007
 30
0.0
 11
-3.627333634496999
 21
-0.7000000000000096
 31
0.0
  0
LINE
  5
A95D
330
1F
100
AcDbEntity
  8
AM_0
100
AcDbLine
 10
0.0
 20
0.1399999999999921
 30
0.0
 11
0.0
 21
0.7000000000000004
 31
0.0
  0
LINE
  5
A95E
330
1F
100
AcDbEntity
  8
AM_0
100
AcDbLine
 10
-0.0387523084641823
 20
0.0840000000000132
 30
0.0
 11
0.0
 21
0.1399999999999921
 31
0.0
  0
LINE
  5
A95F
330
1F
100
AcDbEntity
  8
AM_0
100
AcDbLine
 10
-1.530655446377986
 20
0.1084429369084847
 30
0.0
 11
-1.5
 21
0.2046322101880501
 31
0.0
  0
LINE
  5
A960
330
1F
100
AcDbEntity
  8
AM_11
100
AcDbLine
 10
-0.0000000000001066
 20
0.7000000000000004
 30
0.0
 11
-1.5
 21
0.6999999999999919
 31
0.0
  0
LINE
  5
A961
330
1F
100
AcDbEntity
  8
AM_0
100
AcDbLine
 10
-2.204295933987812
 20
0.562919356849328
 30
0.0
 11
-0.2720851333429565
 21
0.421183479153939
 31
0.0
  0
ELLIPSE
  5
A962
330
1F
100
AcDbEntity
  8
AM_0
100
AcDbEllipse
 10
-2.521937131557169
 20
-2.298663886604891
 30
0.0
 11
0.0000000000001665
 21
3.006932254677515
 31
0.0
210
0.0
220
0.0
230
1.0
 40
0.9721362229102108
 41
-0.3655747624804091
 42
-0.0741758692319792
  0
LINE
  5
A963
330
1F
100
AcDbEntity
  8
AM_0
100
AcDbLine
 10
0.0
 20
-0.7000000000000004
 30
0.0
 11
0.0
 21
0.0280000000000044
 31
0.0
  0
LINE
  5
A964
330
1F
100
AcDbEntity
  8
AM_0
100
AcDbLine
 10
-0.0432967526564513
 20
-0.5709508258318483
 30
0.0
 11
-0.0432967526564513
 21
-0.563409760358559
 31
0.0
  0
LINE
  5
A965
330
1F
100
AcDbEntity
  8
AM_0
100
AcDbLine
 10
-0.0121230907438064
 20
-0.662681762067034
 30
0.0
 11
-0.0432967526564513
 21
-0.5709508258318483
 31
0.0
  0
LINE
  5
A966
330
1F
100
AcDbEntity
  8
AM_0
100
AcDbLine
 10
0.0
 20
-0.7000000000000004
 30
0.0
 11
-0.0121230907438064
 21
-0.662681762067034
 31
0.0
  0
LINE
  5
A967
330
1F
100
AcDbEntity
  8
AM_11
100
AcDbLine
 10
-1.5
 20
-0.7000000000000089
 30
0.0
 11
0.0
 21
-0.7000000000000004
 31
0.0
  0
LINE
  5
A968
330
1F
100
AcDbEntity
  8
AM_0
100
AcDbLine
 10
0.0
 20
0.0280000000000044
 30
0.0
 11
-0.2720851333429565
 21
0.421183479153939
 31
0.0
  0
LINE
  5
A969
330
1F
100
AcDbEntity
  8
AM_0
100
AcDbLine
 10
-0.0121230907438064
 20
-0.662681762067034
 30
0.0
 11
-0.0121230907438064
 21
0.0455187778111537
 31
0.0
  0
LINE
  5
A96B
330
1F
100
AcDbEntity
  8
AM_0
100
AcDbLine
 10
-1.530655446377986
 20
0.1084429369084847
 30
0.0
 11
-1.5
 21
-0.0144960382110633
 31
0.0
  0
SPLINE
  5
A96C
330
1F
100
AcDbEntity
  8
AM_0
100
AcDbSpline
210
0.0
220
0.0
230
1.0
 70
     8
 71
     3
 72
     8
 73
     4
 74
     0
 42
0.0000000001
 43
0.0000000001
 40
0.0
 40
0.0
 40
0.0
 40
0.0
 40
7.57842115059705
 40
7.57842115059705
 40
7.57842115059705
 40
7.57842115059705
 10
0.0
 20
0.6999999999999904
 30
0.0
 10
-0.2916631342966782
 20
0.6999999999999904
 30
0.0
 10
-0.5692721603960078
 20
0.604260985437553
 30
0.0
 10
-0.8401775252391995
 20
0.4628554715424473
 30
0.0
  0
SPLINE
  5
A96D
330
1F
100
AcDbEntity
  8
AM_0
100
AcDbSpline
210
0.0
220
0.0
230
1.0
 70
     8
 71
     3
 72
     8
 73
     4
 74
     0
 42
0.0000000001
 43
0.0000000001
 40
0.0
 40
0.0
 40
0.0
 40
0.0
 40
0.2586565323616648
 40
0.2586565323616648
 40
0.2586565323616648
 40
0.2586565323616648
 10
0.0
 20
0.570458376135767
 30
0.0
 10
-0.0638791491373792
 20
0.4778820474611556
 30
0.0
 10
-0.1735240908219722
 20
0.438126331569417
 30
0.0
 10
-0.2720851333429565
 20
0.421183479153939
 30
0.0
  0
SPLINE
  5
A96E
330
1F
100
AcDbEntity
  8
AM_0
100
AcDbSpline
210
0.0
220
0.0
230
1.0
 70
     8
 71
     3
 72
     8
 73
     4
 74
     0
 42
0.0000000001
 43
0.0000000001
 40
4.219358800530717
 40
4.219358800530717
 40
4.219358800530717
 40
4.219358800530717
 40
14.36247867694493
 40
14.36247867694493
 40
14.36247867694493
 40
14.36247867694493
 10
-0.0432967526564513
 20
-0.5709508258318183
 30
0.0
 10
-0.4180831140542903
 20
-0.4565326908364372
 30
0.0
 10
-0.777365315220297
 20
-0.2282663454182086
 30
0.0
 10
-1.13664751638636
 20
0.0000000000000199
 30
0.0
  0
SPLINE
  5
A96F
330
1F
100
AcDbEntity
  8
AM_0
100
AcDbSpline
210
0.0
220
0.0
230
1.0
 70
     8
 71
     3
 72
     8
 73
     4
 74
     0
 42
0.0000000001
 43
0.0000000001
 40
1.870660592686466
 40
1.870660592686466
 40
1.870660592686466
 40
1.870660592686466
 40
14.43901837670146
 40
14.43901837670146
 40
14.43901837670146
 40
14.43901837670146
 10
-0.0121230907438064
 20
-0.662681762067034
 30
0.0
 10
-0.4949823120015013
 20
-0.5748367307722838
 30
0.0
 10
-0.9271575740365342
 20
-0.2955330428471016
 30
0.0
 10
-1.368702858504505
 20
0.0000000000000199
 30
0.0
  0
SPLINE
  5
A970
330
1F
100
AcDbEntity
  8
AM_0
100
AcDbSpline
210
0.0
220
0.0
230
1.0
 70
     8
 71
     3
 72
     8
 73
     4
 74
     0
 42
0.0000000001
 43
0.0000000001
 40
0.0
 40
0.0
 40
0.0
 40
0.0
 40
1.446969601908026
 40
1.446969601908026
 40
1.446969601908026
 40
1.446969601908026
 10
0.0
 20
-0.7000000000000102
 30
0.0
 10
-0.5568807551574514
 20
-0.7000000000000108
 30
0.0
 10
-1.052467201392061
 20
-0.3313862216149024
 30
0.0
 10
-1.5
 20
-0.014496038211063
 30
0.0
  0
SPLINE
  5
A971
330
1F
100
AcDbEntity
  8
AM_0
100
AcDbSpline
210
0.0
220
0.0
230
1.0
 70
     8
 71
     3
 72
     8
 73
     4
 74
     0
 42
0.0000000001
 43
0.0000000001
 40
13.04429290093367
 40
13.04429290093367
 40
13.04429290093367
 40
13.04429290093367
 40
14.43901837670146
 40
14.43901837670146
 40
14.43901837670146
 40
14.43901837670146
 10
-1.530655446377986
 20
0.1084429369084847
 30
0.0
 10
-1.466700459708357
 20
0.0655913001322092
 30
0.0
 10
-1.417701659106431
 20
0.0327956500661145
 30
0.0
 10
-1.368702858504505
 20
0.0000000000000199
 30
0.0
  0
SPLINE
  5
A972
330
1F
100
AcDbEntity
  8
AM_0
100
AcDbSpline
210
0.0
220
0.0
230
1.0
 70
     8
 71
     3
 72
     8
 73
     4
 74
     0
 42
0.0000000001
 43
0.0000000001
 40
4.451443990518355
 40
4.451443990518355
 40
4.451443990518355
 40
4.451443990518355
 40
14.36247867694493
 40
14.36247867694493
 40
14.36247867694493
 40
14.36247867694493
 10
-2.20429593398782
 20
0.5629193568492882
 30
0.0
 10
-1.912869493208176
 20
0.4484816761776779
 30
0.0
 10
-1.498413760323103
 20
0.2039706863783398
 30
0.0
 10
-1.13664751638636
 20
0.0000000000000199
 30
0.0
  0
ELLIPSE
  5
A973
330
1F
100
AcDbEntity
  8
AM_0
100
AcDbEllipse
 10
-1.178685670200937
 20
2.000325945024305
 30
0.0
 11
0.7697467361452894
 21
2.650579725822614
 31
0.0
210
0.0
220
0.0
230
0.9999999999999998
 40
0.6709919979042268
 41
2.818960446327848
 42
3.342949550046655
  0
ELLIPSE
  5
A974
330
1F
100
AcDbEntity
  8
AM_0
100
AcDbEllipse
 10
-1.517759102253749
 20
1.581951838681449
 30
0.0
 11
0.1710203021097852
 21
2.241385252790653
 31
0.0
210
0.0
220
0.0
230
1.0
 40
0.782705431074043
 41
2.66629210277389
 42
3.294129640992505
  0
ELLIPSE
  5
A975
330
1F
100
AcDbEntity
  8
AM_0
100
AcDbEllipse
 10
-1.719629444105229
 20
0.1746748529141514
 30
0.0
 11
-0.2678119240140113
 21
0.8503013288202641
 31
0.0
210
0.0
220
0.0
230
1.0
 40
0.7948040922630481
 41
2.961533625105526
 42
3.240158454334476
  0
ELLIPSE
  5
A976
330
1F
100
AcDbEntity
  8
AM_0
100
AcDbEllipse
 10
-1.910936274348982
 20
7.199773495886663
 30
0.0
 11
0.0000000000003515
 21
7.87602906436154
 31
0.0
210
0.0
220
0.0
230
1.0
 40
0.8247000505990897
 41
3.217212229255329
 42
3.332707937578297
  0
ELLIPSE
  5
A977
330
1F
100
AcDbEntity
  8
AM_0
100
AcDbEllipse
 10
-1.177996078635822
 20
-2.914520020636022
 30
0.0
 11
-0.5720971530349326
 21
2.866675892582187
 31
0.0
210
0.0
220
0.0
230
1.0
 40
0.8182074188173773
 41
-0.1054653869034405
 42
0.3267294439241202
  0
ELLIPSE
  5
A978
330
1F
100
AcDbEntity
  8
AM_0
100
AcDbEllipse
 10
1.640285171459473
 20
0.0029452236391677
 30
0.0
 11
-0.0000000000000069
 21
2.118552854587669
 31
0.0
210
0.0
220
0.0
230
1.0
 40
0.8247000505990369
 41
1.489874453283511
 42
1.841418545974916
  0
LINE
  5
A9F2
330
1F
100
AcDbEntity
  8
AM_11
100
AcDbLine
 10
-1.5
 20
0.6999999999999933
 30
0.0
 11
-1.5
 21
-0.7000000000000072
 31
0.0
  0
VIEWPORT
  5
110
330
101
100
AcDbEntity
 67
     1
  8
0
100
AcDbViewport
 10
420.5
 20
297.0
 30
0.0
 40
948.9782706766916
 41
628.452
 68
     1
 69
     1
1001
ACAD
1000
MVIEW
1002
{
1070
    16
1010
0.0
1020
0.0
1030
0.0
1010
0.0
1020
0.0
1030
1.0
1040
0.0
1040
628.452
1040
420.5
1040
297.0
1040
50.0
1040
0.0
1040
0.0
1070
     0
1070
   100
1070
     1
1070
     1
1070
     0
1070
     0
1070
     0
1070
     0
1040
0.0
1040
0.0
1040
0.0
1040
10.0
1040
10.0
1040
10.0
1040
10.0
1070
     0
1002
{
1002
}
1002
}
  0
ENDSEC
  0
SECTION
  2
OBJECTS
  0
DICTIONARY
  5
C
330
0
100
AcDbDictionary
  3
ACAD_GROUP
350
D
  3
ACAD_LAYOUT
350
1A
  3
ACAD_MLINESTYLE
350
17
  3
ACAD_PLOTSETTINGS
350
19
  3
ACAD_PLOTSTYLENAME
350
E
  3
ACDBVARIABLEDICTIONARY
350
34
  3
ACMDICTIONARY
350
43
  3
AMG
350
2B
  3
AMGSNAPSETTINGS
350
6E
  3
ASE_INDEX_DICTIONARY
350
151A
  3
DWGPROPS
350
AB44
  3
ACDBHEADERROUNDTRIPXREC
350
AB50
  0
DICTIONARY
  5
74
330
1F
100
AcDbDictionary
280
     1
  3
ACAD_INDEX
360
AB46
  3
ACAD_LAYOUTSELFREF
360
AB73
  0
DICTIONARY
  5
AB78
330
101
100
AcDbDictionary
280
     1
  3
ACAD_LAYOUTSELFREF
360
AB79
  0
DICTIONARY
  5
D
102
{ACAD_REACTORS
330
C
102
}
330
C
100
AcDbDictionary
  0
DICTIONARY
  5
1A
102
{ACAD_REACTORS
330
C
102
}
330
C
100
AcDbDictionary
  0
DICTIONARY
  5
17
102
{ACAD_REACTORS
330
C
102
}
330
C
100
AcDbDictionary
  3
STANDARD
350
18
  0
DICTIONARY
  5
19
102
{ACAD_REACTORS
330
C
102
}
330
C
100
AcDbDictionary
  0
ACDBDICTIONARYWDFLT
  5
E
102
{ACAD_REACTORS
330
C
102
}
330
C
100
AcDbDictionary
281
     1
  3
Normal
350
F
100
AcDbDictionaryWithDefault
340
F
  0
DICTIONARY
  5
34
102
{ACAD_REACTORS
330
C
102
}
330
C
100
AcDbDictionary
  3
INDEXCTL
350
35
  3
SORTENTS
350
B5E
  0
DICTIONARY
  5
43
102
{ACAD_REACTORS
330
C
102
}
330
C
100
AcDbDictionary
  3
ACMSTDDICTIONARY
350
260
  0
DICTIONARY
  5
2B
102
{ACAD_REACTORS
330
C
102
}
330
C
100
AcDbDictionary
  3
ACMGSETTINGS
350
2C
  0
DICTIONARY
  5
6E
102
{ACAD_REACTORS
330
C
102
}
330
C
100
AcDbDictionary
  0
DICTIONARY
  5
151A
102
{ACAD_REACTORS
330
C
102
}
330
C
100
AcDbDictionary
  3
ASEBLOCKHIERARCHYINDEXRECORD
350
151C
1001
DCO15
1040
1471862535.906
  0
XRECORD
  5
AB44
102
{ACAD_REACTORS
330
C
102
}
330
C
100
AcDbXrecord
  1
DWGPROPS COOKIE
  2

  3

  4

  6

  7

  8

  9

300
AmdtFileType=82
301
=
302
=
303
=
304
=
305
=
306
=
307
=
308
=
309
=
 40
0.545524212962963
 41
2452838.430434386
 42
2453054.430561342
  1

 90
        1
  0
DICTIONARY
  5
AB50
102
{ACAD_REACTORS
330
C
102
}
330
C
100
AcDbDictionary
  3
TSTACKALIGN
350
AB51
  3
TSTACKSIZE
350
AB52
  3
HYPERLINKBASE
350
AB53
  3
STYLESHEET
350
AB54
  3
LAYOUTDICT
350
AB55
  3
PLOTSETDICT
350
AB56
  3
PLOTSTYLNAMDICT
350
AB57
  3
LWETCUNION
350
AB58
  3
INSUNITS
350
AB59
  3
CEPSNTYPE
350
AB5A
  3
FINGERPRINTGUID
350
AB5B
  3
VERSIONGUID
350
AB5C
  3
PSVPSCALE
350
AB5D
  3
DIMSTYLEDATA
350
AB5E
  3
PUCSORTHOREF
350
AB5F
  3
PUCSORTHOVIEW
350
AB60
  3
PUCSBASE
350
AB61
  3
PUCSORGTOP
350
AB62
  3
PUCSORGBOTTOM
350
AB63
  3
PUCSORGLEFT
350
AB64
  3
PUCSORGRIGHT
350
AB65
  3
PUCSORGFRONT
350
AB66
  3
PUCSORGBACK
350
AB67
  3
UCSORTHOREF
350
AB68
  3
UCSORTHOVIEW
350
AB69
  3
UCSBASE
350
AB6A
  3
UCSORGTOP
350
AB6B
  3
UCSORGBOTTOM
350
AB6C
  3
UCSORGLEFT
350
AB6D
  3
UCSORGRIGHT
350
AB6E
  3
UCSORGFRONT
350
AB6F
  3
UCSORGBACK
350
AB70
  0
DICTIONARY
  5
AB46
102
{ACAD_REACTORS
330
74
102
}
330
74
100
AcDbDictionary
  3
*A1
350
AB47
  0
XRECORD
  5
AB73
102
{ACAD_REACTORS
330
74
102
}
330
74
100
AcDbXrecord
340
1F
  0
XRECORD
  5
AB79
102
{ACAD_REACTORS
330
AB78
102
}
330
AB78
100
AcDbXrecord
340
101
  0
MLINESTYLE
  5
18
102
{ACAD_REACTORS
330
17
102
}
330
17
100
AcDbMlineStyle
  2
STANDARD
 70
     0
  3

 62
   256
 51
90.0
 52
90.0
 71
     2
 49
0.5
 62
   256
  6
BYLAYER
 49
-0.5
 62
   256
  6
BYLAYER
  0
ACDBPLACEHOLDER
  5
F
102
{ACAD_REACTORS
330
E
102
}
330
E
100
AcDbPlaceHolder
280
     0
  0
DICTIONARYVAR
  5
35
102
{ACAD_REACTORS
330
34
102
}
330
34
100
DictionaryVariables
280
     0
  1
1
  0
DICTIONARYVAR
  5
B5E
102
{ACAD_REACTORS
330
34
102
}
330
34
100
DictionaryVariables
280
     0
  1
96
  0
DICTIONARY
  5
260
102
{ACAD_REACTORS
330
43
102
}
330
43
100
AcDbDictionary
  0
DICTIONARY
  5
2C
102
{ACAD_REACTORS
330
2B
102
}
330
2B
100
AcDbDictionary
  3
DWGSETTINGS
350
2D
  0
XRECORD
  5
151C
102
{ACAD_REACTORS
330
151A
102
}
330
151A
100
AcDbXrecord
330
0
330
0
330
0
330
0
330
0
330
0
330
0
330
0
  0
XRECORD
  5
AB51
102
{ACAD_REACTORS
330
AB50
102
}
330
AB50
100
AcDbXrecord
 90
        1
  0
XRECORD
  5
AB52
102
{ACAD_REACTORS
330
AB50
102
}
330
AB50
100
AcDbXrecord
 90
       70
  0
XRECORD
  5
AB53
102
{ACAD_REACTORS
330
AB50
102
}
330
AB50
100
AcDbXrecord
  1

  0
XRECORD
  5
AB54
102
{ACAD_REACTORS
330
AB50
102
}
330
AB50
100
AcDbXrecord
  1
ASAMI.ctb
  0
XRECORD
  5
AB55
102
{ACAD_REACTORS
330
AB50
102
}
330
AB50
100
AcDbXrecord
340
1A
  0
XRECORD
  5
AB56
102
{ACAD_REACTORS
330
AB50
102
}
330
AB50
100
AcDbXrecord
340
19
  0
XRECORD
  5
AB57
102
{ACAD_REACTORS
330
AB50
102
}
330
AB50
100
AcDbXrecord
340
E
  0
XRECORD
  5
AB58
102
{ACAD_REACTORS
330
AB50
102
}
330
AB50
100
AcDbXrecord
 90
    10781
  0
XRECORD
  5
AB59
102
{ACAD_REACTORS
330
AB50
102
}
330
AB50
100
AcDbXrecord
 90
        4
  0
XRECORD
  5
AB5A
102
{ACAD_REACTORS
330
AB50
102
}
330
AB50
100
AcDbXrecord
 90
        0
  0
XRECORD
  5
AB5B
102
{ACAD_REACTORS
330
AB50
102
}
330
AB50
100
AcDbXrecord
  1
{AFB28963-8C59-40AE-9337-C84526B81ACE}
  0
XRECORD
  5
AB5C
102
{ACAD_REACTORS
330
AB50
102
}
330
AB50
100
AcDbXrecord
  1
{A3E69476-5878-463A-9CF1-84EBABEC38E0}
  0
XRECORD
  5
AB5D
102
{ACAD_REACTORS
330
AB50
102
}
330
AB50
100
AcDbXrecord
 40
0.0
  0
XRECORD
  5
AB5E
102
{ACAD_REACTORS
330
AB50
102
}
330
AB50
100
AcDbXrecord
1000
DSTYLE
1002
{
1070
    79
 70
     2
1070
   341
340
59
1070
   342
340
59
1070
   371
 70
    -1
1070
   372
 70
    -1
1002
}
  0
XRECORD
  5
AB5F
102
{ACAD_REACTORS
330
AB50
102
}
330
AB50
100
AcDbXrecord
340
0
  0
XRECORD
  5
AB60
102
{ACAD_REACTORS
330
AB50
102
}
330
AB50
100
AcDbXrecord
 70
     0
  0
XRECORD
  5
AB61
102
{ACAD_REACTORS
330
AB50
102
}
330
AB50
100
AcDbXrecord
340
0
  0
XRECORD
  5
AB62
102
{ACAD_REACTORS
330
AB50
102
}
330
AB50
100
AcDbXrecord
 10
0.0
 20
0.0
 30
0.0
  0
XRECORD
  5
AB63
102
{ACAD_REACTORS
330
AB50
102
}
330
AB50
100
AcDbXrecord
 10
0.0
 20
0.0
 30
0.0
  0
XRECORD
  5
AB64
102
{ACAD_REACTORS
330
AB50
102
}
330
AB50
100
AcDbXrecord
 10
0.0
 20
0.0
 30
0.0
  0
XRECORD
  5
AB65
102
{ACAD_REACTORS
330
AB50
102
}
330
AB50
100
AcDbXrecord
 10
0.0
 20
0.0
 30
0.0
  0
XRECORD
  5
AB66
102
{ACAD_REACTORS
330
AB50
102
}
330
AB50
100
AcDbXrecord
 10
0.0
 20
0.0
 30
0.0
  0
XRECORD
  5
AB67
102
{ACAD_REACTORS
330
AB50
102
}
330
AB50
100
AcDbXrecord
 10
0.0
 20
0.0
 30
0.0
  0
XRECORD
  5
AB68
102
{ACAD_REACTORS
330
AB50
102
}
330
AB50
100
AcDbXrecord
340
0
  0
XRECORD
  5
AB69
102
{ACAD_REACTORS
330
AB50
102
}
330
AB50
100
AcDbXrecord
 70
     0
  0
XRECORD
  5
AB6A
102
{ACAD_REACTORS
330
AB50
102
}
330
AB50
100
AcDbXrecord
340
0
  0
XRECORD
  5
AB6B
102
{ACAD_REACTORS
330
AB50
102
}
330
AB50
100
AcDbXrecord
 10
0.0
 20
0.0
 30
0.0
  0
XRECORD
  5
AB6C
102
{ACAD_REACTORS
330
AB50
102
}
330
AB50
100
AcDbXrecord
 10
0.0
 20
0.0
 30
0.0
  0
XRECORD
  5
AB6D
102
{ACAD_REACTORS
330
AB50
102
}
330
AB50
100
AcDbXrecord
 10
0.0
 20
0.0
 30
0.0
  0
XRECORD
  5
AB6E
102
{ACAD_REACTORS
330
AB50
102
}
330
AB50
100
AcDbXrecord
 10
0.0
 20
0.0
 30
0.0
  0
XRECORD
  5
AB6F
102
{ACAD_REACTORS
330
AB50
102
}
330
AB50
100
AcDbXrecord
 10
0.0
 20
0.0
 30
0.0
  0
XRECORD
  5
AB70
102
{ACAD_REACTORS
330
AB50
102
}
330
AB50
100
AcDbXrecord
 10
0.0
 20
0.0
 30
0.0
  0
LAYER_INDEX
  5
AB47
102
{ACAD_REACTORS
330
AB46
102
}
330
AB46
100
AcDbIndex
 40
2453151.767296898
100
AcDbLayerIndex
  8
0
360
AB48
 90
        0
  8
AM_0
360
AB49
 90
       38
  8
AM_11
360
AB4A
 90
        3
  8
AM_7
360
AB4B
 90
        1
  8
AM_5
360
AB4C
 90
        4
  8
Defpoints
360
AB4D
 90
        0
  8
AM_6
360
AB4E
 90
        1
  0
XRECORD
  5
2D
102
{ACAD_REACTORS
330
2C
102
}
330
2C
100
AcDbXrecord
  1
VERSION
140
15.0
  1
PRODUCT
  2
AutoCAD Mechanical 2000
  0
IDBUFFER
  5
AB48
330
0
100
AcDbIdBuffer
  0
IDBUFFER
  5
AB49
330
0
100
AcDbIdBuffer
330
A961
330
A962
330
A963
330
A964
330
A965
330
A966
330
A968
330
A969
330
A96B
330
A96C
330
A96D
330
A96E
330
A96F
330
A970
330
A971
330
A972
330
A973
330
A974
330
A975
330
A976
330
A977
330
A978
330
A736
330
A737
330
A739
330
A73A
330
A73B
330
A75C
330
A75F
330
A768
330
A807
330
A808
330
A809
330
A80A
330
A80B
330
A95D
330
A95E
330
A95F
  0
IDBUFFER
  5
AB4A
330
0
100
AcDbIdBuffer
330
A960
330
A967
330
A9F2
  0
IDBUFFER
  5
AB4B
330
0
100
AcDbIdBuffer
330
9FA3
  0
IDBUFFER
  5
AB4C
330
0
100
AcDbIdBuffer
330
A1A7
330
A237
330
A4D3
330
A5A4
  0
IDBUFFER
  5
AB4D
330
0
100
AcDbIdBuffer
  0
IDBUFFER
  5
AB4E
330
0
100
AcDbIdBuffer
330
1500
  0
ENDSEC
  0
EOF
