  0
SECTION
  2
HEADER
  9
$ACADVER
  1
AC1014
  9
$ACADMAINTVER
 70
     9
  9
$DWGCODEPAGE
  3
ANSI_932
  9
$INSBASE
 10
0.0
 20
0.0
 30
0.0
  9
$EXTMIN
 10
-55.56056358178672
 20
-27.25000100000022
 30
-0.00000001
  9
$EXTMAX
 10
7.955777803085519
 20
4.249999999999973
 30
0.00000001
  9
$LIMMIN
 10
-58.68383952371633
 20
-35.35176192079362
  9
$LIMMAX
 10
13.1247162030225
 20
15.91501171194607
  9
$ORTHOMODE
 70
     0
  9
$REGENMODE
 70
     1
  9
$FILLMODE
 70
     1
  9
$QTEXTMODE
 70
     0
  9
$MIRRTEXT
 70
     0
  9
$DRAGMODE
 70
     2
  9
$LTSCALE
 40
1.0
  9
$OSMODE
 70
    55
  9
$ATTMODE
 70
     1
  9
$TEXTSIZE
 40
2.5
  9
$TRACEWID
 40
1.0
  9
$TEXTSTYLE
  7
STANDARD
  9
$CLAYER
  8
AM_0
  9
$CELTYPE
  6
BYLAYER
  9
$CECOLOR
 62
   256
  9
$CELTSCALE
 40
1.0
  9
$DELOBJ
 70
     1
  9
$DISPSILH
 70
     0
  9
$DIMSCALE
 40
0.5
  9
$DIMASZ
 40
2.5
  9
$DIMEXO
 40
1.0
  9
$DIMDLI
 40
12.0
  9
$DIMRND
 40
0.0
  9
$DIMDLE
 40
0.0
  9
$DIMEXE
 40
1.0
  9
$DIMTP
 40
0.1
  9
$DIMTM
 40
0.1
  9
$DIMTXT
 40
3.2
  9
$DIMCEN
 40
0.0
  9
$DIMTSZ
 40
0.0
  9
$DIMTOL
 70
     0
  9
$DIMLIM
 70
     0
  9
$DIMTIH
 70
     0
  9
$DIMTOH
 70
     0
  9
$DIMSE1
 70
     0
  9
$DIMSE2
 70
     0
  9
$DIMTAD
 70
     3
  9
$DIMZIN
 70
     8
  9
$DIMBLK
  1
OPEN30
  9
$DIMASO
 70
     1
  9
$DIMSHO
 70
     1
  9
$DIMPOST
  1

  9
$DIMAPOST
  1
"
  9
$DIMALT
 70
     0
  9
$DIMALTD
 70
     2
  9
$DIMALTF
 40
0.0393701
  9
$DIMLFAC
 40
1.0
  9
$DIMTOFL
 70
     1
  9
$DIMTVP
 40
0.0
  9
$DIMTIX
 70
     0
  9
$DIMSOXD
 70
     0
  9
$DIMSAH
 70
     0
  9
$DIMBLK1
  1

  9
$DIMBLK2
  1

  9
$DIMSTYLE
  2
AM_JIS
  9
$DIMCLRD
 70
   256
  9
$DIMCLRE
 70
   256
  9
$DIMCLRT
 70
     2
  9
$DIMTFAC
 40
0.71
  9
$DIMGAP
 40
1.5
  9
$DIMJUST
 70
     0
  9
$DIMSD1
 70
     0
  9
$DIMSD2
 70
     0
  9
$DIMTOLJ
 70
     0
  9
$DIMTZIN
 70
     0
  9
$DIMALTZ
 70
     0
  9
$DIMALTTZ
 70
     0
  9
$DIMFIT
 70
     3
  9
$DIMUPT
 70
     0
  9
$DIMUNIT
 70
     2
  9
$DIMDEC
 70
     3
  9
$DIMTDEC
 70
     3
  9
$DIMALTU
 70
     2
  9
$DIMALTTD
 70
     2
  9
$DIMTXSTY
  7
ASAMI
  9
$DIMAUNIT
 70
     0
  9
$LUNITS
 70
     2
  9
$LUPREC
 70
     2
  9
$SKETCHINC
 40
1.0
  9
$FILLETRAD
 40
2.5
  9
$AUNITS
 70
     0
  9
$AUPREC
 70
     0
  9
$MENU
  1
.
  9
$ELEVATION
 40
0.0
  9
$PELEVATION
 40
0.0
  9
$THICKNESS
 40
0.0
  9
$LIMCHECK
 70
     0
  9
$BLIPMODE
 70
     0
  9
$CHAMFERA
 40
0.5
  9
$CHAMFERB
 40
0.5
  9
$CHAMFERC
 40
20.0
  9
$CHAMFERD
 40
0.0
  9
$SKPOLY
 70
     0
  9
$TDCREATE
 40
2452838.430434386
  9
$TDUPDATE
 40
2453151.769400127
  9
$TDINDWG
 40
0.3752660532
  9
$TDUSRTIMER
 40
0.3752660532
  9
$USRTIMER
 70
     1
  9
$ANGBASE
 50
0.0
  9
$ANGDIR
 70
     0
  9
$PDMODE
 70
     0
  9
$PDSIZE
 40
0.0
  9
$PLINEWID
 40
0.0
  9
$COORDS
 70
     1
  9
$SPLFRAME
 70
     0
  9
$SPLINETYPE
 70
     6
  9
$SPLINESEGS
 70
     8
  9
$ATTDIA
 70
     1
  9
$ATTREQ
 70
     1
  9
$HANDLING
 70
 12289
  9
$HANDSEED
  5
A73E
  9
$SURFTAB1
 70
     6
  9
$SURFTAB2
 70
     6
  9
$SURFTYPE
 70
     6
  9
$SURFU
 70
     6
  9
$SURFV
 70
     6
  9
$UCSNAME
  2

  9
$UCSORG
 10
0.0
 20
0.0
 30
0.0
  9
$UCSXDIR
 10
1.0
 20
0.0
 30
0.0
  9
$UCSYDIR
 10
0.0
 20
1.0
 30
0.0
  9
$PUCSNAME
  2

  9
$PUCSORG
 10
0.0
 20
0.0
 30
0.0
  9
$PUCSXDIR
 10
1.0
 20
0.0
 30
0.0
  9
$PUCSYDIR
 10
0.0
 20
1.0
 30
0.0
  9
$USERI1
 70
     0
  9
$USERI2
 70
     0
  9
$USERI3
 70
     0
  9
$USERI4
 70
     0
  9
$USERI5
 70
     0
  9
$USERR1
 40
0.0
  9
$USERR2
 40
0.0
  9
$USERR3
 40
0.0
  9
$USERR4
 40
0.0
  9
$USERR5
 40
0.0
  9
$WORLDVIEW
 70
     1
  9
$SHADEDGE
 70
     3
  9
$SHADEDIF
 70
    70
  9
$TILEMODE
 70
     1
  9
$MAXACTVP
 70
    64
  9
$PINSBASE
 10
0.0
 20
0.0
 30
0.0
  9
$PLIMCHECK
 70
     0
  9
$PEXTMIN
 10
1.000000000000000E+20
 20
1.000000000000000E+20
 30
1.000000000000000E+20
  9
$PEXTMAX
 10
-1.000000000000000E+20
 20
-1.000000000000000E+20
 30
-1.000000000000000E+20
  9
$PLIMMIN
 10
0.0
 20
0.0
  9
$PLIMMAX
 10
841.0
 20
594.0
  9
$UNITMODE
 70
     0
  9
$VISRETAIN
 70
     1
  9
$PLINEGEN
 70
     0
  9
$PSLTSCALE
 70
     0
  9
$TREEDEPTH
 70
  3020
  9
$PICKSTYLE
 70
     0
  9
$CMLSTYLE
  2
STANDARD
  9
$CMLJUST
 70
     0
  9
$CMLSCALE
 40
20.0
  9
$PROXYGRAPHICS
 70
     1
  9
$MEASUREMENT
 70
     1
  0
ENDSEC
  0
SECTION
  2
CLASSES
  0
CLASS
  1
ACDBDICTIONARYWDFLT
  2
AcDbDictionaryWithDefault
  3
AutoCAD 2000
 90
        0
280
     0
281
     0
  0
CLASS
  1
ACDBPLACEHOLDER
  2
AcDbPlaceHolder
  3
AutoCAD 2000
 90
        0
280
     0
281
     0
  0
CLASS
  1
LAYOUT
  2
AcDbLayout
  3
AutoCAD 2000
 90
        0
280
     0
281
     0
  0
CLASS
  1
AMGSETTINGSOBJ
  2
AmgSettingsObj
  3
"AcadM|Product Description: AutoCAD Mechanical 2000|Company: Autodesk"
 90
        0
280
     0
281
     0
  0
CLASS
  1
ACME_DOCUMENT
  2
AcMeDbDoc
  3
AcMeServices
 90
        0
280
     0
281
     0
  0
CLASS
  1
ACMESCOPE
  2
AcMeScope
  3
AcMeServices
 90
        0
280
     0
281
     0
  0
CLASS
  1
ACMECOMMANDHISTORY
  2
AcMeCommandHistory
  3
AcMeServices
 90
        0
280
     0
281
     0
  0
CLASS
  1
DICTIONARYVAR
  2
AcDbDictionaryVar
  3
AutoCAD 2000
 90
        0
280
     0
281
     0
  0
CLASS
  1
ACIMSYSVARMAN
  2
AcImSysVarManager
  3
AcMeServices
 90
        0
280
     0
281
     0
  0
CLASS
  1
ACIMREALSYSVAR
  2
AcImRealSysVar
  3
AcMeServices
 90
        0
280
     0
281
     0
  0
CLASS
  1
ACIMINTSYSVAR
  2
AcImIntSysVar
  3
AcMeServices
 90
        0
280
     0
281
     0
  0
CLASS
  1
ACMEDRAWINGMAN
  2
AcMeDrawingMan
  3
AcMeServices
 90
        0
280
     0
281
     0
  0
CLASS
  1
ACMEVIEW
  2
AcMeView
  3
AcMeServices
 90
        0
280
     0
281
     0
  0
CLASS
  1
ACDBENTITYCACHE
  2
AcMeEntityCache
  3
AcMeServices
 90
        0
280
     0
281
     0
  0
CLASS
  1
GSMANAGER
  2
AcMeGSManager
  3
AcMeServices
 90
        0
280
     0
281
     0
  0
CLASS
  1
AmdtInternalReactor
  2
AmdtInternalReactor
  3
AcMeServices
 90
        0
280
     0
281
     0
  0
CLASS
  1
ACMESTATEMGR
  2
AcMeStateMgr
  3
AcMeServices
 90
        0
280
     0
281
     0
  0
CLASS
  1
ACME_DATABASE
  2
AcMeDbDatabase
  3
AcMeServices
 90
        0
280
     0
281
     0
  0
CLASS
  1
ACRFINSADJUSTERMGR
  2
AcRfInsAdjusterMgr
  3
AcMeServices
 90
        0
280
     0
281
     0
  0
CLASS
  1
ACMDATADICTIONARY
  2
AcmDataDictionary
  3
"AcmSymBB|Product Description: AutoCAD Mechanical 2000|Company: Autodesk"
 90
        0
280
     0
281
     0
  0
CLASS
  1
ACMDATAENTRYBLOCK
  2
AcmDataEntryBlock
  3
"AcmSymBB|Product Description: AutoCAD Mechanical 2000|Company: Autodesk"
 90
        0
280
     0
281
     0
  0
CLASS
  1
AMGOBJPROPCFG
  2
AmgObjPropCfg
  3
"AmgLay|Product Description: AutoCAD Mechanical 2000|Company: Autodesk"
 90
        1
280
     0
281
     0
  0
CLASS
  1
ACAMGFILTERDAT
  2
AcAmgFilterDat
  3
"AcadM|Product Description: AutoCAD Mechanical 2000|Company: Autodesk"
 90
        0
280
     0
281
     0
  0
CLASS
  1
LAYER_INDEX
  2
AcDbLayerIndex
  3
AutoCAD 2000
 90
        0
280
     0
281
     0
  0
CLASS
  1
IDBUFFER
  2
AcDbIdBuffer
  3
AutoCAD 2000
 90
        0
280
     0
281
     0
  0
CLASS
  1
ACIMSTRSYSVAR
  2
AcImStrSysVar
  3
AcMeServices
 90
        0
280
     0
281
     0
  0
CLASS
  1
ACMSTANDARDJIS
  2
AcmStandardJIS
  3
"AcmSymBB|Product Description: AutoCAD Mechanical 2000|Company: Autodesk"
 90
        0
280
     0
281
     0
  0
CLASS
  1
ACMSURFSTANDARDJIS
  2
AcmSurfTextStdJIS
  3
"AcmSymBB|Product Description: AutoCAD Mechanical 2000|Company: Autodesk"
 90
        0
280
     0
281
     0
  0
CLASS
  1
ACMFCFSTANDARDJIS
  2
AcmFCFStdJIS
  3
"AcmSymBB|Product Description: AutoCAD Mechanical 2000|Company: Autodesk"
 90
        0
280
     0
281
     0
  0
CLASS
  1
ACMWELDSTANDARDJIS
  2
AcmWeldingStdJIS
  3
"AcmSymBB|Product Description: AutoCAD Mechanical 2000|Company: Autodesk"
 90
        0
280
     0
281
     0
  0
CLASS
  1
ACMIDSTANDARDJIS
  2
AcmIdStdJIS
  3
"AcmSymBB|Product Description: AutoCAD Mechanical 2000|Company: Autodesk"
 90
        0
280
     0
281
     0
  0
CLASS
  1
ACMDATUMSTANDARDJIS
  2
AcmDatumStdJIS
  3
"AcmSymBB|Product Description: AutoCAD Mechanical 2000|Company: Autodesk"
 90
        0
280
     0
281
     0
  0
CLASS
  1
ACMBOMSTANDARDJIS
  2
AcmBOMStdJIS
  3
"AcmSymBB|Product Description: AutoCAD Mechanical 2000|Company: Autodesk"
 90
        0
280
     0
281
     0
  0
CLASS
  1
ACMSTANDARDANSI
  2
AcmStandardANSI
  3
"AcmSymBB|Product Description: AutoCAD Mechanical 2000|Company: Autodesk"
 90
        0
280
     0
281
     0
  0
CLASS
  1
ACMSURFSTANDARDANSI
  2
AcmSurfTextStdANSI
  3
"AcmSymBB|Product Description: AutoCAD Mechanical 2000|Company: Autodesk"
 90
        0
280
     0
281
     0
  0
CLASS
  1
ACMFCFSTANDARDANSI
  2
AcmFCFStdANSI
  3
"AcmSymBB|Product Description: AutoCAD Mechanical 2000|Company: Autodesk"
 90
        0
280
     0
281
     0
  0
CLASS
  1
ACMWELDSTANDARDANSI
  2
AcmWeldingStdANSI
  3
"AcmSymBB|Product Description: AutoCAD Mechanical 2000|Company: Autodesk"
 90
        0
280
     0
281
     0
  0
CLASS
  1
ACMIDSTANDARDANSI
  2
AcmIdStdANSI
  3
"AcmSymBB|Product Description: AutoCAD Mechanical 2000|Company: Autodesk"
 90
        0
280
     0
281
     0
  0
CLASS
  1
ACMDATUMSTANDARDANSI
  2
AcmDatumStdANSI
  3
"AcmSymBB|Product Description: AutoCAD Mechanical 2000|Company: Autodesk"
 90
        0
280
     0
281
     0
  0
CLASS
  1
ACMBOMSTANDARDANSI
  2
AcmBOMStdANSI
  3
"AcmSymBB|Product Description: AutoCAD Mechanical 2000|Company: Autodesk"
 90
        0
280
     0
281
     0
  0
CLASS
  1
ACMSTANDARDBSI
  2
AcmStandardBSI
  3
"AcmSymBB|Product Description: AutoCAD Mechanical 2000|Company: Autodesk"
 90
        0
280
     0
281
     0
  0
CLASS
  1
ACMSURFSTANDARDBSI
  2
AcmSurfTextStdBSI
  3
"AcmSymBB|Product Description: AutoCAD Mechanical 2000|Company: Autodesk"
 90
        0
280
     0
281
     0
  0
CLASS
  1
ACMFCFSTANDARDBSI
  2
AcmFCFStdBSI
  3
"AcmSymBB|Product Description: AutoCAD Mechanical 2000|Company: Autodesk"
 90
        0
280
     0
281
     0
  0
CLASS
  1
ACMWELDSTANDARDBSI
  2
AcmWeldingStdBSI
  3
"AcmSymBB|Product Description: AutoCAD Mechanical 2000|Company: Autodesk"
 90
        0
280
     0
281
     0
  0
CLASS
  1
ACMIDSTANDARDBSI
  2
AcmIdStdBSI
  3
"AcmSymBB|Product Description: AutoCAD Mechanical 2000|Company: Autodesk"
 90
        0
280
     0
281
     0
  0
CLASS
  1
ACMDATUMSTANDARDBSI
  2
AcmDatumStdBSI
  3
"AcmSymBB|Product Description: AutoCAD Mechanical 2000|Company: Autodesk"
 90
        0
280
     0
281
     0
  0
CLASS
  1
ACMBOMSTANDARDBSI
  2
AcmBOMStdBSI
  3
"AcmSymBB|Product Description: AutoCAD Mechanical 2000|Company: Autodesk"
 90
        0
280
     0
281
     0
  0
CLASS
  1
LONG_TRANSACTION
  2
AcDbLongTransaction
  3
AutoCAD 2000
 90
        0
280
     0
281
     0
  0
CLASS
  1
LWPOLYLINE
  2
AcDbPolyline
  3
AutoCAD 2000
 90
        0
280
     0
281
     1
  0
CLASS
  1
HATCH
  2
AcDbHatch
  3
AutoCAD 2000
 90
        0
280
     0
281
     1
  0
CLASS
  1
XRECORD
  2
AcDbXrecord
  3
AutoCAD 2000
 90
        0
280
     0
281
     0
  0
ENDSEC
  0
SECTION
  2
TABLES
  0
TABLE
  2
VPORT
  5
8
330
0
100
AcDbSymbolTable
 70
     3
  0
VPORT
  5
A713
330
8
100
AcDbSymbolTableRecord
100
AcDbViewportTableRecord
  2
*ACTIVE
 70
     0
 10
0.0
 20
0.0
 11
1.0
 21
1.0
 12
-22.04616103566157
 22
-9.03699060191758
 13
0.0
 23
0.0
 14
2.5
 24
2.5
 15
10.0
 25
10.0
 16
0.0
 26
0.0
 36
1.0
 17
0.0
 27
0.0
 37
0.0
 40
48.19546709038252
 41
1.56570841889117
 42
50.0
 43
0.0
 44
0.0
 50
0.0
 51
0.0
 71
     0
 72
   100
 73
     1
 74
     3
 75
     0
 76
     0
 77
     0
 78
     0
  0
ENDTAB
  0
TABLE
  2
LTYPE
  5
5
330
0
100
AcDbSymbolTable
 70
    10
  0
LTYPE
  5
14
330
5
100
AcDbSymbolTableRecord
100
AcDbLinetypeTableRecord
  2
BYBLOCK
 70
     0
  3

 72
    65
 73
     0
 40
0.0
  0
LTYPE
  5
15
330
5
100
AcDbSymbolTableRecord
100
AcDbLinetypeTableRecord
  2
BYLAYER
 70
     0
  3

 72
    65
 73
     0
 40
0.0
  0
LTYPE
  5
16
330
5
100
AcDbSymbolTableRecord
100
AcDbLinetypeTableRecord
  2
CONTINUOUS
 70
     0
  3
Solid line
 72
    65
 73
     0
 40
0.0
  0
LTYPE
  5
4B
330
5
100
AcDbSymbolTableRecord
100
AcDbLinetypeTableRecord
  2
AM_ISO02W050
 70
     0
  3
__ __ __ __ __ __ __ __ __ __ __ __ __ __ __
 72
    65
 73
     2
 40
7.5
 49
6.0
 74
     0
 49
-1.5
 74
     0
  0
LTYPE
  5
4C
330
5
100
AcDbSymbolTableRecord
100
AcDbLinetypeTableRecord
  2
AM_ISO08W050
 70
     0
  3
____ . ____ . ____ . ____ . ____ . ____ . ____
 72
    65
 73
     4
 40
18.0
 49
12.0
 74
     0
 49
-1.5
 74
     0
 49
3.0
 74
     0
 49
-1.5
 74
     0
  0
LTYPE
  5
4D
330
5
100
AcDbSymbolTableRecord
100
AcDbLinetypeTableRecord
  2
AM_ISO09W050
 70
     0
  3
_____ . . _____ . . _____ . . ____ .. ____
 72
    65
 73
     6
 40
22.5
 49
12.0
 74
     0
 49
-1.5
 74
     0
 49
3.0
 74
     0
 49
-1.5
 74
     0
 49
3.0
 74
     0
 49
-1.5
 74
     0
  0
LTYPE
  5
4E
330
5
100
AcDbSymbolTableRecord
100
AcDbLinetypeTableRecord
  2
AMCONSTR
 70
     0
  3
_______________________
 72
    65
 73
     2
 40
9999.0
 49
9999.0
 74
     0
 49
0.0
 74
     0
  0
LTYPE
  5
4F
330
5
100
AcDbSymbolTableRecord
100
AcDbLinetypeTableRecord
  2
AM_ISO02W050X2
 70
     0
  3
 _ _ _ _ _ _ _ _ _ _ _ _
 72
    65
 73
     2
 40
3.75
 49
3.0
 74
     0
 49
-0.75
 74
     0
  0
LTYPE
  5
50
330
5
100
AcDbSymbolTableRecord
100
AcDbLinetypeTableRecord
  2
AM_ISO08W050X2
 70
     0
  3
__ . __ . __ . __ . __ . __
 72
    65
 73
     4
 40
9.0
 49
6.0
 74
     0
 49
-0.75
 74
     0
 49
1.5
 74
     0
 49
-0.75
 74
     0
  0
LTYPE
  5
53
330
5
100
AcDbSymbolTableRecord
100
AcDbLinetypeTableRecord
  2
AMZIGZAG
 70
     0
  3
/\/-/\/-/\/-/\/-/\/-/\/
 72
    65
 73
     2
 40
11.00009999999999
 49
0.0001
 74
     4
 75
   135
340
52
 46
0.04
 50
0.0
 44
0.0
 45
0.0
 49
-11.0
 74
     0
  0
LTYPE
  5
166
330
5
100
AcDbSymbolTableRecord
100
AcDbLinetypeTableRecord
  2
ACJISTGL
 70
     0
  3
_ _ _ _ _
 72
    65
 73
     2
 40
3.0
 49
2.0
 74
     0
 49
-1.0
 74
     0
  0
LTYPE
  5
26A
330
5
100
AcDbSymbolTableRecord
100
AcDbLinetypeTableRecord
  2
ACJISTGB
 70
     0
  3
__ . . __ . .
 72
    65
 73
     6
 40
9.0
 49
4.0
 74
     0
 49
-1.0
 74
     0
 49
1.0
 74
     0
 49
-1.0
 74
     0
 49
1.0
 74
     0
 49
-1.0
 74
     0
  0
ENDTAB
  0
TABLE
  2
LAYER
  5
2
330
0
100
AcDbSymbolTable
 70
     7
  0
LAYER
  5
10
330
2
100
AcDbSymbolTableRecord
100
AcDbLayerTableRecord
  2
0
 70
     0
 62
     7
  6
CONTINUOUS
  0
LAYER
  5
3F9
330
2
100
AcDbSymbolTableRecord
100
AcDbLayerTableRecord
  2
AM_0
 70
     0
 62
     7
  6
CONTINUOUS
  0
LAYER
  5
BDD
330
2
100
AcDbSymbolTableRecord
100
AcDbLayerTableRecord
  2
AM_11
 70
     0
 62
     3
  6
AM_ISO09W050
  0
LAYER
  5
BDE
330
2
100
AcDbSymbolTableRecord
100
AcDbLayerTableRecord
  2
AM_7
 70
     0
 62
     4
  6
AM_ISO08W050
  0
LAYER
  5
BDF
330
2
100
AcDbSymbolTableRecord
100
AcDbLayerTableRecord
  2
AM_5
 70
     0
 62
     3
  6
CONTINUOUS
  0
LAYER
  5
BE0
330
2
100
AcDbSymbolTableRecord
100
AcDbLayerTableRecord
  2
DEFPOINTS
 70
     0
 62
     7
  6
CONTINUOUS
  0
LAYER
  5
14FF
330
2
100
AcDbSymbolTableRecord
100
AcDbLayerTableRecord
  2
AM_6
 70
     0
 62
     2
  6
CONTINUOUS
  0
ENDTAB
  0
TABLE
  2
STYLE
  5
3
330
0
100
AcDbSymbolTable
 70
     5
  0
STYLE
  5
11
330
3
100
AcDbSymbolTableRecord
100
AcDbTextStyleTableRecord
  2
STANDARD
 70
     0
 40
0.0
 41
1.0
 50
0.0
 71
     0
 42
2.5
  3
simplex.shx
  4
EXTFONT.SHX
  0
STYLE
  5
52
330
3
100
AcDbSymbolTableRecord
100
AcDbTextStyleTableRecord
  2

 70
     1
 40
0.0
 41
1.0
 50
0.0
 71
     0
 42
2.5
  3
ltypeshp.shx
  4

  0
STYLE
  5
6B
330
3
100
AcDbSymbolTableRecord
100
AcDbTextStyleTableRecord
  2
ASAMI
 70
     0
 40
0.0
 41
1.0
 50
0.0
 71
     0
 42
2.5
  3
simplex.shx
  4
EXTFONT.SHX
  0
STYLE
  5
262
330
3
100
AcDbSymbolTableRecord
100
AcDbTextStyleTableRecord
  2
ACJISTS
 70
     0
 40
1.0
 41
1.0
 50
0.0
 71
     0
 42
2.5
  3
simplex.shx
  4
bigfont.shx
  0
STYLE
  5
269
330
3
100
AcDbSymbolTableRecord
100
AcDbTextStyleTableRecord
  2
ACJISGDT
 70
     0
 40
0.0
 41
1.0
 50
0.0
 71
     0
 42
2.5
  3
amgdtans.shx
  4

  0
ENDTAB
  0
TABLE
  2
VIEW
  5
6
330
0
100
AcDbSymbolTable
 70
     0
  0
ENDTAB
  0
TABLE
  2
UCS
  5
7
330
0
100
AcDbSymbolTable
 70
     0
  0
ENDTAB
  0
TABLE
  2
APPID
  5
9
330
0
100
AcDbSymbolTable
 70
    13
  0
APPID
  5
12
330
9
100
AcDbSymbolTableRecord
100
AcDbRegAppTableRecord
  2
ACAD
 70
     0
  0
APPID
  5
30
330
9
100
AcDbSymbolTableRecord
100
AcDbRegAppTableRecord
  2
MCAD_NO_VIS
 70
     0
  0
APPID
  5
31
330
9
100
AcDbSymbolTableRecord
100
AcDbRegAppTableRecord
  2
ACAD_TEMP_GRAPHIC
 70
     0
  0
APPID
  5
2C2
330
9
100
AcDbSymbolTableRecord
100
AcDbRegAppTableRecord
  2
GENIUS_GENDTOL_13
 70
     0
  0
APPID
  5
339
330
9
100
AcDbSymbolTableRecord
100
AcDbRegAppTableRecord
  2
GENIUS_GENODEF_13
 70
     0
  0
APPID
  5
33A
330
9
100
AcDbSymbolTableRecord
100
AcDbRegAppTableRecord
  2
GENIUS_GENOBJ-N-RSBK_13
 70
     0
  0
APPID
  5
33B
330
9
100
AcDbSymbolTableRecord
100
AcDbRegAppTableRecord
  2
GENIUS_GENOBJ-N-LIB_13
 70
     0
  0
APPID
  5
33C
330
9
100
AcDbSymbolTableRecord
100
AcDbRegAppTableRecord
  2
GENIUS_GENSCALE_13
 70
     0
  0
APPID
  5
378
330
9
100
AcDbSymbolTableRecord
100
AcDbRegAppTableRecord
  2
GENIUS_GENDIMSH_14
 70
     0
  0
APPID
  5
BE1
330
9
100
AcDbSymbolTableRecord
100
AcDbRegAppTableRecord
  2
GENIUS_GENFIL_13
 70
     0
  0
APPID
  5
BE2
330
9
100
AcDbSymbolTableRecord
100
AcDbRegAppTableRecord
  2
GENIUS_GENOBJ-N-CHA_13
 70
     0
  0
APPID
  5
151B
330
9
100
AcDbSymbolTableRecord
100
AcDbRegAppTableRecord
  2
DCO15
 70
     0
  0
APPID
  5
1860
330
9
100
AcDbSymbolTableRecord
100
AcDbRegAppTableRecord
  2
GENIUS_GENOBJ-N-CEN_13
 70
     0
  0
ENDTAB
  0
TABLE
  2
DIMSTYLE
  5
A
330
0
100
AcDbSymbolTable
 70
     8
  0
DIMSTYLE
105
58
102
{ACAD_REACTORS
330
A0FE
330
A1A7
330
A237
330
A492
102
}
330
A
100
AcDbSymbolTableRecord
100
AcDbDimStyleTableRecord
  2
AM_JIS
 70
     0
  3

  4
"
  5
OPEN30
  6

  7

 40
0.5
 41
2.5
 42
1.0
 43
12.0
 44
1.0
 45
0.0
 46
0.0
 47
0.1
 48
0.1
140
3.2
141
0.0
142
0.0
143
0.0393701
144
1.0
145
0.0
146
0.71
147
1.5
 71
     0
 72
     0
 73
     0
 74
     0
 75
     0
 76
     0
 77
     3
 78
     8
170
     0
171
     2
172
     1
173
     0
174
     0
175
     0
176
   256
177
   256
178
     2
270
     2
271
     3
272
     3
273
     2
274
     2
340
6B
275
     0
280
     0
281
     0
282
     0
283
     0
284
     0
285
     0
286
     0
287
     3
288
     0
  0
DIMSTYLE
105
5F
330
A
100
AcDbSymbolTableRecord
100
AcDbDimStyleTableRecord
  2
AM_JIS$3
 70
     0
  3

  4
"
  5
OPEN30
  6

  7

 40
0.5
 41
2.5
 42
1.0
 43
10.0
 44
1.0
 45
0.0
 46
0.0
 47
0.1
 48
0.1
140
3.2
141
0.0
142
0.0
143
0.0393701
144
1.0
145
0.0
146
0.71
147
1.5
 71
     0
 72
     0
 73
     0
 74
     1
 75
     0
 76
     0
 77
     3
 78
     8
170
     0
171
     2
172
     0
173
     0
174
     0
175
     0
176
   256
177
   256
178
     2
270
     2
271
     2
272
     3
273
     2
274
     2
340
6B
275
     0
280
     0
281
     0
282
     0
283
     0
284
     0
285
     0
286
     0
287
     0
288
     1
  0
DIMSTYLE
105
60
330
A
100
AcDbSymbolTableRecord
100
AcDbDimStyleTableRecord
  2
AM_JIS$4
 70
     0
  3

  4
"
  5
OPEN30
  6

  7

 40
0.5
 41
2.5
 42
1.0
 43
10.0
 44
1.0
 45
0.0
 46
0.0
 47
0.1
 48
0.1
140
3.2
141
0.0
142
0.0
143
0.0393701
144
1.0
145
0.0
146
0.71
147
1.5
 71
     0
 72
     0
 73
     0
 74
     1
 75
     0
 76
     0
 77
     3
 78
     8
170
     0
171
     2
172
     0
173
     0
174
     0
175
     0
176
   256
177
   256
178
     2
270
     2
271
     2
272
     3
273
     2
274
     2
340
6B
275
     0
280
     0
281
     0
282
     0
283
     0
284
     0
285
     0
286
     0
287
     0
288
     1
  0
DIMSTYLE
105
61
330
A
100
AcDbSymbolTableRecord
100
AcDbDimStyleTableRecord
  2
AM_JIS$6
 70
     0
  3

  4
"
  5
OPEN30
  6

  7

 40
0.5
 41
2.5
 42
1.0
 43
10.0
 44
1.0
 45
0.0
 46
0.0
 47
0.1
 48
0.1
140
3.2
141
0.0
142
0.0
143
0.0393701
144
1.0
145
0.0
146
0.71
147
1.5
 71
     0
 72
     0
 73
     0
 74
     0
 75
     0
 76
     0
 77
     0
 78
     8
170
     0
171
     2
172
     1
173
     0
174
     0
175
     0
176
   256
177
   256
178
     2
270
     2
271
     2
272
     2
273
     2
274
     2
340
6B
275
     0
280
     0
281
     0
282
     0
283
     0
284
     0
285
     0
286
     0
287
     3
288
     0
  0
DIMSTYLE
105
62
330
A
100
AcDbSymbolTableRecord
100
AcDbDimStyleTableRecord
  2
AM_JIS$7
 70
     0
  3

  4
"
  5
OPEN30
  6

  7

 40
0.5
 41
2.5
 42
1.0
 43
10.0
 44
1.0
 45
0.0
 46
0.0
 47
0.1
 48
0.1
140
3.2
141
0.0
142
0.0
143
0.0393701
144
1.0
145
0.0
146
0.71
147
1.5
 71
     0
 72
     0
 73
     0
 74
     0
 75
     0
 76
     0
 77
     3
 78
     8
170
     0
171
     2
172
     1
173
     0
174
     0
175
     0
176
   256
177
   256
178
     2
270
     2
271
     2
272
     3
273
     2
274
     2
340
6B
275
     0
280
     0
281
     0
282
     0
283
     0
284
     0
285
     0
286
     0
287
     3
288
     0
  0
DIMSTYLE
105
63
330
A
100
AcDbSymbolTableRecord
100
AcDbDimStyleTableRecord
  2
AM_JIS$SF
 70
     0
  3

  4
"
  5
OPEN30
  6

  7

 40
0.5
 41
2.5
 42
1.0
 43
10.0
 44
1.0
 45
0.0
 46
0.0
 47
0.1
 48
0.1
140
3.2
141
0.0
142
0.0
143
0.0393701
144
1.0
145
0.0
146
0.71
147
1.5
 71
     0
 72
     0
 73
     0
 74
     0
 75
     1
 76
     1
 77
     3
 78
     8
170
     0
171
     2
172
     1
173
     0
174
     0
175
     0
176
   256
177
   256
178
     2
270
     2
271
     2
272
     2
273
     2
274
     2
340
6B
275
     0
280
     0
281
     0
282
     0
283
     0
284
     0
285
     0
286
     0
287
     3
288
     0
  0
DIMSTYLE
105
68
330
A
100
AcDbSymbolTableRecord
100
AcDbDimStyleTableRecord
  2
AM_JIS$SH
 70
     0
  3

  4
"
  5

  6
GENAXEH
  7
OPEN30
 40
0.5
 41
2.5
 42
1.0
 43
10.0
 44
1.0
 45
0.0
 46
0.0
 47
0.1
 48
0.1
140
3.2
141
0.0
142
0.0
143
0.0393701
144
2.0
145
0.0
146
0.71
147
1.5
 71
     0
 72
     0
 73
     0
 74
     0
 75
     1
 76
     1
 77
     3
 78
     8
170
     0
171
     2
172
     1
173
     1
174
     0
175
     0
176
   256
177
   256
178
     2
270
     2
271
     2
272
     2
273
     2
274
     2
340
6B
275
     0
280
     0
281
     0
282
     0
283
     0
284
     0
285
     0
286
     0
287
     3
288
     0
  0
DIMSTYLE
105
B34
330
A
100
AcDbSymbolTableRecord
100
AcDbDimStyleTableRecord
  2
AM_JIS$2
 70
     0
  3

  4
"
  5
OPEN30
  6

  7

 40
0.5
 41
2.5
 42
1.0
 43
12.0
 44
1.0
 45
0.0
 46
0.0
 47
0.1
 48
0.1
140
3.2
141
0.0
142
0.0
143
0.0393701
144
1.0
145
0.0
146
0.71
147
1.5
 71
     0
 72
     0
 73
     0
 74
     0
 75
     0
 76
     0
 77
     3
 78
     8
170
     0
171
     2
172
     1
173
     0
174
     0
175
     0
176
   256
177
   256
178
     2
270
     2
271
     3
272
     3
273
     2
274
     2
340
6B
275
     0
280
     0
281
     0
282
     0
283
     0
284
     0
285
     0
286
     0
287
     3
288
     0
  0
ENDTAB
  0
TABLE
  2
BLOCK_RECORD
  5
1
330
0
100
AcDbSymbolTable
 70
     9
  0
BLOCK_RECORD
  5
1F
102
{ACAD_XDICTIONARY
360
74
102
}
330
1
100
AcDbSymbolTableRecord
100
AcDbBlockTableRecord
  2
*MODEL_SPACE
  0
BLOCK_RECORD
  5
101
102
{ACAD_XDICTIONARY
360
A73C
102
}
330
1
100
AcDbSymbolTableRecord
100
AcDbBlockTableRecord
  2
*PAPER_SPACE
  0
BLOCK_RECORD
  5
59
330
1
100
AcDbSymbolTableRecord
100
AcDbBlockTableRecord
  2
_OPEN30
  0
BLOCK_RECORD
  5
64
330
1
100
AcDbSymbolTableRecord
100
AcDbBlockTableRecord
  2
GENAXEH
  0
BLOCK_RECORD
  5
A0FF
330
1
100
AcDbSymbolTableRecord
100
AcDbBlockTableRecord
  2
*D5
  0
BLOCK_RECORD
  5
A1A8
330
1
100
AcDbSymbolTableRecord
100
AcDbBlockTableRecord
  2
*D6
  0
BLOCK_RECORD
  5
A238
330
1
100
AcDbSymbolTableRecord
100
AcDbBlockTableRecord
  2
*D7
  0
BLOCK_RECORD
  5
A493
330
1
100
AcDbSymbolTableRecord
100
AcDbBlockTableRecord
  2
*D8
  0
ENDTAB
  0
ENDSEC
  0
SECTION
  2
BLOCKS
  0
BLOCK
  5
20
330
1F
100
AcDbEntity
  8
0
100
AcDbBlockBegin
  2
*MODEL_SPACE
 70
     0
 10
0.0
 20
0.0
 30
0.0
  3
*MODEL_SPACE
  1

  0
ENDBLK
  5
21
330
1F
100
AcDbEntity
  8
0
100
AcDbBlockEnd
  0
BLOCK
  5
103
330
101
100
AcDbEntity
 67
     1
  8
0
100
AcDbBlockBegin
  2
*PAPER_SPACE
 70
     0
 10
0.0
 20
0.0
 30
0.0
  3
*PAPER_SPACE
  1

  0
ENDBLK
  5
104
330
101
100
AcDbEntity
 67
     1
  8
0
100
AcDbBlockEnd
  0
BLOCK
  5
5D
330
59
100
AcDbEntity
  8
0
100
AcDbBlockBegin
  2
_OPEN30
 70
     0
 10
0.0
 20
0.0
 30
0.0
  3
_OPEN30
  1

  0
LINE
  5
5A
330
59
100
AcDbEntity
  8
0
 62
     0
100
AcDbLine
 10
-1.0
 20
0.26794919
 30
0.0
 11
0.0
 21
0.0
 31
0.0
  0
LINE
  5
5B
330
59
100
AcDbEntity
  8
0
 62
     0
100
AcDbLine
 10
0.0
 20
0.0
 30
0.0
 11
-1.0
 21
-0.26794919
 31
0.0
  0
LINE
  5
5C
330
59
100
AcDbEntity
  8
0
 62
     0
100
AcDbLine
 10
0.0
 20
0.0
 30
0.0
 11
-1.0
 21
0.0
 31
0.0
  0
ENDBLK
  5
5E
330
59
100
AcDbEntity
  8
0
100
AcDbBlockEnd
  0
BLOCK
  5
66
330
64
100
AcDbEntity
  8
0
100
AcDbBlockBegin
  2
GENAXEH
 70
     0
 10
0.0
 20
0.0
 30
0.0
  3
GENAXEH
  1

  0
LINE
  5
65
330
64
100
AcDbEntity
  8
0
100
AcDbLine
 10
-1.0
 20
0.0
 30
0.0
 11
1.0
 21
0.0
 31
0.0
  0
ENDBLK
  5
67
330
64
100
AcDbEntity
  8
0
100
AcDbBlockEnd
  0
BLOCK
  5
A10B
330
A0FF
100
AcDbEntity
  8
0
100
AcDbBlockBegin
  2
*D5
 70
     1
 10
0.0
 20
0.0
 30
0.0
  3
*D5
  1

  0
LINE
  5
A5E9
330
A0FF
100
AcDbEntity
  8
AM_5
100
AcDbLine
 10
0.5
 20
1.749999999999975
 30
0.0
 11
7.955777803085519
 21
1.749999999999972
 31
0.0
  0
LINE
  5
A5EA
330
A0FF
100
AcDbEntity
  8
AM_5
100
AcDbLine
 10
0.5
 20
-1.750000000000025
 30
0.0
 11
7.955777803085519
 21
-1.750000000000027
 31
0.0
  0
LINE
  5
A5EB
330
A0FF
100
AcDbEntity
  8
AM_5
100
AcDbLine
 10
7.45577780308552
 20
2.999999999999972
 30
0.0
 11
7.45577780308552
 21
4.249999999999973
 31
0.0
  0
LINE
  5
A5EC
330
A0FF
100
AcDbEntity
  8
AM_5
100
AcDbLine
 10
7.455777803085518
 20
-3.000000000000027
 30
0.0
 11
7.455777803085516
 21
-10.55000000000002
 31
0.0
  0
LINE
  5
A5ED
330
A0FF
100
AcDbEntity
  8
AM_5
100
AcDbLine
 10
7.455777803085519
 20
1.749999999999973
 30
0.0
 11
7.455777803085519
 21
-1.750000000000027
 31
0.0
  0
INSERT
  5
A5EE
330
A0FF
100
AcDbEntity
  8
AM_5
100
AcDbBlockReference
  2
_OPEN30
 10
7.455777803085519
 20
1.749999999999973
 30
0.0
 41
1.25
 42
1.25
 43
1.25
 50
270.0
  0
INSERT
  5
A5EF
330
A0FF
100
AcDbEntity
  8
AM_5
100
AcDbBlockReference
  2
_OPEN30
 10
7.455777803085519
 20
-1.750000000000027
 30
0.0
 41
1.25
 42
1.25
 43
1.25
 50
90.0
  0
MTEXT
  5
A5F0
330
A0FF
100
AcDbEntity
  8
AM_5
 62
     2
100
AcDbMText
 10
5.905777803085517
 20
-7.400000000000025
 30
0.0
 40
1.6
 41
0.0
 71
     5
 72
     1
  1
%%c3.5
  7
ASAMI
 11
0.0000000000000001
 21
1.0
 31
0.0
1001
ACAD
1000
MTEXTBEGIN
1070
    73
1070
     1
1070
    44
1040
1.0
1070
    74
1070
     0
1000
MTEXTEND
  0
POINT
  5
A5F1
330
A0FF
100
AcDbEntity
  8
DEFPOINTS
 62
     0
100
AcDbPoint
 10
0.0
 20
1.749999999999975
 30
0.0
  0
POINT
  5
A5F2
330
A0FF
100
AcDbEntity
  8
DEFPOINTS
 62
     0
100
AcDbPoint
 10
0.0
 20
-1.750000000000025
 30
0.0
  0
POINT
  5
A5F3
330
A0FF
100
AcDbEntity
  8
DEFPOINTS
 62
     0
100
AcDbPoint
 10
7.455777803085519
 20
-1.750000000000027
 30
0.0
  0
ENDBLK
  5
A10C
330
A0FF
100
AcDbEntity
  8
0
100
AcDbBlockEnd
  0
BLOCK
  5
A1B2
330
A1A8
100
AcDbEntity
  8
0
100
AcDbBlockBegin
  2
*D6
 70
     1
 10
0.0
 20
0.0
 30
0.0
  3
*D6
  1

  0
LINE
  5
A5D9
330
A1A8
100
AcDbEntity
  8
AM_5
100
AcDbLine
 10
-0.0000000000004965
 20
-2.25
 30
0.0
 11
-0.0000000000004974
 21
-16.5000010000002
 31
0.0
  0
LINE
  5
A5DA
330
A1A8
100
AcDbEntity
  8
AM_5
100
AcDbLine
 10
-45.00000000000002
 20
-3.000000000000024
 30
0.0
 11
-45.00000000000002
 21
-16.5000010000002
 31
0.0
  0
LINE
  5
A5DB
330
A1A8
100
AcDbEntity
  8
AM_5
100
AcDbLine
 10
-1.250000000000497
 20
-16.0000010000002
 30
0.0
 11
-43.75000000000002
 21
-16.0000010000002
 31
0.0
  0
INSERT
  5
A5DC
330
A1A8
100
AcDbEntity
  8
AM_5
100
AcDbBlockReference
  2
_OPEN30
 10
-0.0000000000004974
 20
-16.0000010000002
 30
0.0
 41
1.25
 42
1.25
 43
1.25
  0
INSERT
  5
A5DD
330
A1A8
100
AcDbEntity
  8
AM_5
100
AcDbBlockReference
  2
_OPEN30
 10
-45.00000000000002
 20
-16.0000010000002
 30
0.0
 41
1.25
 42
1.25
 43
1.25
 50
180.0
  0
MTEXT
  5
A5DE
330
A1A8
100
AcDbEntity
  8
AM_5
 62
     2
100
AcDbMText
 10
-22.50000000000026
 20
-14.4500010000002
 30
0.0
 40
1.6
 41
0.0
 71
     5
 72
     1
  1
45
  7
ASAMI
1001
ACAD
1000
MTEXTBEGIN
1070
    73
1070
     1
1070
    44
1040
1.0
1070
    74
1070
     0
1000
MTEXTEND
  0
POINT
  5
A5DF
330
A1A8
100
AcDbEntity
  8
DEFPOINTS
 62
     0
100
AcDbPoint
 10
-0.0000000000004965
 20
-1.75
 30
0.0
  0
POINT
  5
A5E0
330
A1A8
100
AcDbEntity
  8
DEFPOINTS
 62
     0
100
AcDbPoint
 10
-45.00000000000002
 20
-2.500000000000024
 30
0.0
  0
POINT
  5
A5E1
330
A1A8
100
AcDbEntity
  8
DEFPOINTS
 62
     0
100
AcDbPoint
 10
-45.00000000000002
 20
-16.0000010000002
 30
0.0
  0
ENDBLK
  5
A1B3
330
A1A8
100
AcDbEntity
  8
0
100
AcDbBlockEnd
  0
BLOCK
  5
A244
330
A238
100
AcDbEntity
  8
0
100
AcDbBlockBegin
  2
*D7
 70
     1
 10
0.0
 20
0.0
 30
0.0
  3
*D7
  1

  0
LINE
  5
A5D0
330
A238
100
AcDbEntity
  8
AM_5
100
AcDbLine
 10
-0.0000000000004965
 20
-2.25
 30
0.0
 11
-0.000000000000497
 21
-10.50000099999991
 31
0.0
  0
LINE
  5
A5D1
330
A238
100
AcDbEntity
  8
AM_5
100
AcDbLine
 10
-5.5
 20
-2.250000000000025
 30
0.0
 11
-5.5
 21
-10.50000099999991
 31
0.0
  0
LINE
  5
A5D2
330
A238
100
AcDbEntity
  8
AM_5
100
AcDbLine
 10
-1.250000000000496
 20
-10.00000099999992
 30
0.0
 11
-4.25
 21
-10.00000099999992
 31
0.0
  0
INSERT
  5
A5D3
330
A238
100
AcDbEntity
  8
AM_5
100
AcDbBlockReference
  2
_OPEN30
 10
-0.000000000000497
 20
-10.00000099999992
 30
0.0
 41
1.25
 42
1.25
 43
1.25
  0
INSERT
  5
A5D4
330
A238
100
AcDbEntity
  8
AM_5
100
AcDbBlockReference
  2
_OPEN30
 10
-5.5
 20
-10.00000099999992
 30
0.0
 41
1.25
 42
1.25
 43
1.25
 50
180.0
  0
MTEXT
  5
A5D5
330
A238
100
AcDbEntity
  8
AM_5
 62
     2
100
AcDbMText
 10
-2.750000000000248
 20
-8.450000999999918
 30
0.0
 40
1.6
 41
0.0
 71
     5
 72
     1
  1
5.5
  7
ASAMI
1001
ACAD
1000
MTEXTBEGIN
1070
    73
1070
     1
1070
    44
1040
1.0
1070
    74
1070
     0
1000
MTEXTEND
  0
POINT
  5
A5D6
330
A238
100
AcDbEntity
  8
DEFPOINTS
 62
     0
100
AcDbPoint
 10
-0.0000000000004965
 20
-1.75
 30
0.0
  0
POINT
  5
A5D7
330
A238
100
AcDbEntity
  8
DEFPOINTS
 62
     0
100
AcDbPoint
 10
-5.5
 20
-1.750000000000025
 30
0.0
  0
POINT
  5
A5D8
330
A238
100
AcDbEntity
  8
DEFPOINTS
 62
     0
100
AcDbPoint
 10
-5.5
 20
-10.00000099999992
 30
0.0
  0
ENDBLK
  5
A245
330
A238
100
AcDbEntity
  8
0
100
AcDbBlockEnd
  0
BLOCK
  5
A49D
330
A493
100
AcDbEntity
  8
0
100
AcDbBlockBegin
  2
*D8
 70
     1
 10
0.0
 20
0.0
 30
0.0
  3
*D8
  1

  0
LINE
  5
A4D4
330
A493
100
AcDbEntity
  8
AM_5
100
AcDbLine
 10
-45.0
 20
2.999999999999976
 30
0.0
 11
-53.71056358178671
 21
2.999999999999978
 31
0.0
  0
LINE
  5
A4D5
330
A493
100
AcDbEntity
  8
AM_5
100
AcDbLine
 10
-45.00000000000002
 20
-3.000000000000024
 30
0.0
 11
-53.71056358178671
 21
-3.000000000000022
 31
0.0
  0
LINE
  5
A4D6
330
A493
100
AcDbEntity
  8
AM_5
100
AcDbLine
 10
-53.21056358178672
 20
1.749999999999977
 30
0.0
 11
-53.21056358178672
 21
-1.750000000000022
 31
0.0
  0
INSERT
  5
A4D7
330
A493
100
AcDbEntity
  8
AM_5
100
AcDbBlockReference
  2
_OPEN30
 10
-53.21056358178672
 20
2.999999999999978
 30
0.0
 41
1.25
 42
1.25
 43
1.25
 50
90.0
  0
INSERT
  5
A4D8
330
A493
100
AcDbEntity
  8
AM_5
100
AcDbBlockReference
  2
_OPEN30
 10
-53.21056358178672
 20
-3.000000000000022
 30
0.0
 41
1.25
 42
1.25
 43
1.25
 50
270.0
  0
MTEXT
  5
A4D9
330
A493
100
AcDbEntity
  8
AM_5
 62
     2
100
AcDbMText
 10
-54.76056358178671
 20
-0.0000000000000305
 30
0.0
 40
1.6
 41
0.0
 71
     5
 72
     1
  1
%%c6
  7
ASAMI
 11
0.0000000000000001
 21
1.0
 31
0.0
1001
ACAD
1000
MTEXTBEGIN
1070
    73
1070
     1
1070
    44
1040
1.0
1070
    74
1070
     0
1000
MTEXTEND
  0
POINT
  5
A4DA
330
A493
100
AcDbEntity
  8
DEFPOINTS
 62
     0
100
AcDbPoint
 10
-44.50000000000001
 20
2.999999999999975
 30
0.0
  0
POINT
  5
A4DB
330
A493
100
AcDbEntity
  8
DEFPOINTS
 62
     0
100
AcDbPoint
 10
-44.50000000000001
 20
-3.000000000000024
 30
0.0
  0
POINT
  5
A4DC
330
A493
100
AcDbEntity
  8
DEFPOINTS
 62
     0
100
AcDbPoint
 10
-53.21056358178672
 20
-3.000000000000022
 30
0.0
  0
ENDBLK
  5
A49E
330
A493
100
AcDbEntity
  8
0
100
AcDbBlockEnd
  0
ENDSEC
  0
SECTION
  2
ENTITIES
  0
TEXT
  5
1500
330
1F
100
AcDbEntity
  8
AM_6
100
AcDbText
 10
-35.83333333333357
 20
-27.2500010000002
 30
0.0
 40
2.5
  1
S-SSM2035ZX
 72
     4
 11
-22.50000000000025
 21
-26.0000010000002
 31
0.0
100
AcDbText
  0
SPLINE
  5
9F99
330
1F
100
AcDbEntity
  8
AM_0
100
AcDbSpline
210
0.0
220
0.0
230
1.0
 70
     8
 71
     3
 72
     8
 73
     4
 74
     2
 42
0.0000000001
 43
0.0000000001
 44
0.0000000001
 12
-1.0
 22
-0.0000000000000008
 32
0.0
 40
0.0
 40
0.0
 40
0.0
 40
0.0
 40
5.071498792270362
 40
5.071498792270362
 40
5.071498792270362
 40
5.071498792270362
 10
0.0
 20
-1.750000000000025
 30
0.0
 10
-1.690499597423453
 20
-1.750000000000026
 30
0.0
 10
-3.225249798711713
 20
-0.8750000000000255
 30
0.0
 10
-4.759999999999973
 20
-0.0000000000000249
 30
0.0
 11
0.0
 21
-1.750000000000025
 31
0.0
 11
-4.759999999999973
 21
-0.0000000000000249
 31
0.0
  0
SPLINE
  5
9F9A
330
1F
100
AcDbEntity
  8
AM_0
100
AcDbSpline
210
0.0
220
0.0
230
1.0
 70
     8
 71
     3
 72
     8
 73
     4
 74
     0
 42
0.0000000001
 43
0.0000000001
 40
1.870660592686466
 40
1.870660592686466
 40
1.870660592686466
 40
1.870660592686466
 40
14.43901837670146
 40
14.43901837670146
 40
14.43901837670146
 40
14.43901837670146
 10
-0.0367500000000014
 20
-1.656704405167584
 30
0.0
 10
-1.472087606930017
 20
-1.477665214235482
 30
0.0
 10
-2.810590266615935
 20
-0.7388326071177538
 30
0.0
 10
-4.149092926301854
 20
0.0000000000000497
 30
0.0
  0
SPLINE
  5
9F9B
330
1F
100
AcDbEntity
  8
AM_0
100
AcDbSpline
210
0.0
220
0.0
230
1.0
 70
     8
 71
     3
 72
     8
 73
     4
 74
     0
 42
0.0000000001
 43
0.0000000001
 40
4.219358800530717
 40
4.219358800530717
 40
4.219358800530717
 40
4.219358800530717
 40
14.36247867694493
 40
14.36247867694493
 40
14.36247867694493
 40
14.36247867694493
 10
-0.131250000000005
 20
-1.427377064579545
 30
0.0
 10
-1.26737931491154
 20
-1.141331727091092
 30
0.0
 10
-2.356509238284992
 20
-0.5706658635455213
 30
0.0
 10
-3.445639161658618
 20
0.0000000000000497
 30
0.0
  0
SPLINE
  5
9F9C
330
1F
100
AcDbEntity
  8
AM_0
100
AcDbSpline
210
0.0
220
0.0
230
1.0
 70
     8
 71
     3
 72
     8
 73
     4
 74
     2
 42
0.0000000001
 43
0.0000000001
 44
0.0000000001
 12
-0.6417012268563094
 22
-0.7669547153848834
 32
0.0
 13
-0.9900999427831042
 23
-0.140364180975397
 33
0.0
 40
0.0
 40
0.0
 40
0.0
 40
0.0
 40
0.9052978632658268
 40
0.9052978632658268
 40
0.9052978632658268
 40
0.9052978632658268
 10
0.0
 20
1.426145940339416
 30
0.0
 10
-0.1936435831760255
 20
1.194705118652888
 30
0.0
 10
-0.5260218266505765
 20
1.095315828923542
 30
0.0
 10
-0.8248002808576302
 20
1.052958697884847
 30
0.0
 11
0.0
 21
1.426145940339416
 31
0.0
 11
-0.8248002808576302
 21
1.052958697884847
 31
0.0
  0
SPLINE
  5
9F9D
330
1F
100
AcDbEntity
  8
AM_0
100
AcDbSpline
210
0.0
220
0.0
230
1.0
 70
     8
 71
     3
 72
     8
 73
     4
 74
     0
 42
0.0000000001
 43
0.0000000001
 40
12.94851199316644
 40
12.94851199316644
 40
12.94851199316644
 40
12.94851199316644
 40
14.48999654934388
 40
14.48999654934388
 40
14.48999654934388
 40
14.48999654934388
 10
-5.5
 20
0.3806212249440364
 30
0.0
 10
-5.086541655799482
 20
0.2078377811623113
 30
0.0
 10
-4.923270827899727
 20
0.0930848383616407
 30
0.0
 10
-4.759999999999973
 20
0.0000000000000497
 30
0.0
  0
SPLINE
  5
9F9E
330
1F
100
AcDbEntity
  8
AM_0
100
AcDbSpline
210
0.0
220
0.0
230
1.0
 70
     8
 71
     3
 72
     8
 73
     4
 74
     0
 42
0.0000000001
 43
0.0000000001
 40
10.71027982889745
 40
10.71027982889745
 40
10.71027982889745
 40
10.71027982889745
 40
14.43901837670146
 40
14.43901837670146
 40
14.43901837670146
 40
14.43901837670146
 10
-5.592929078747232
 20
0.7127816727764243
 30
0.0
 10
-4.943297952810048
 20
0.4695872347692216
 30
0.0
 10
-4.546195439555951
 20
0.2191943983357163
 30
0.0
 10
-4.149092926301854
 20
0.0000000000000497
 30
0.0
  0
SPLINE
  5
9F9F
330
1F
100
AcDbEntity
  8
AM_0
100
AcDbSpline
210
0.0
220
0.0
230
1.0
 70
     8
 71
     3
 72
     8
 73
     4
 74
     0
 42
0.0000000001
 43
0.0000000001
 40
4.451443990518355
 40
4.451443990518355
 40
4.451443990518355
 40
4.451443990518355
 40
14.36247867694493
 40
14.36247867694493
 40
14.36247867694493
 40
14.36247867694493
 10
-7.065781559221218
 20
1.407298392123219
 30
0.0
 10
-5.574058145186711
 20
1.115216863622215
 30
0.0
 10
-4.509848653422714
 20
0.5576084318111328
 30
0.0
 10
-3.445639161658618
 20
0.0000000000000497
 30
0.0
  0
SPLINE
  5
9FA0
330
1F
100
AcDbEntity
  8
AM_0
100
AcDbSpline
210
0.0
220
0.0
230
1.0
 70
     8
 71
     3
 72
     8
 73
     4
 74
     0
 42
0.0000000001
 43
0.0000000001
 40
0.0
 40
0.0
 40
0.0
 40
0.0
 40
7.57842115059705
 40
7.57842115059705
 40
7.57842115059705
 40
7.57842115059705
 10
0.0
 20
1.749999999999975
 30
0.0
 10
-0.8841491342362035
 20
1.749999999999975
 30
0.0
 10
-1.725694572173551
 20
1.510652463593881
 30
0.0
 10
-2.546918496697422
 20
1.157138678856117
 30
0.0
  0
LINE
  5
9FA3
330
1F
100
AcDbEntity
  8
AM_7
  6
AM_ISO08W050X2
100
AcDbLine
 10
0.4557768030855201
 20
0.0
 30
0.0
 11
-46.21056258178671
 21
-0.0000000000000178
 31
0.0
1001
GENIUS_GENODEF_13
1002
{
1000
HIER
1070
     0
1002
}
1002
{
1000
MANEDIT
1070
     0
1002
}
1002
{
1000
NOSEL
1070
     0
1002
}
1002
{
1000
BEHIND
1070
     0
1002
}
1002
{
1000
REACTOR
1002
}
1001
GENIUS_GENOBJ-N-CEN_13
1002
{
1000
OWNER
1000
GEN
1002
}
  0
ARC
  5
9FA4
330
1F
100
AcDbEntity
  8
AM_0
100
AcDbCircle
 10
-6.737536291591091
 20
18.06819766888477
 30
0.0
 40
19.69007266090383
100
AcDbArc
 50
274.3326825342026
 51
282.3508609069303
  0
LINE
  5
9FA5
330
1F
100
AcDbEntity
  8
AM_11
100
AcDbLine
 10
-5.5
 20
-1.750000000000026
 30
0.0
 11
0.0
 21
-1.75
 31
0.0
  0
LINE
  5
9FA6
330
1F
100
AcDbEntity
  8
AM_0
100
AcDbLine
 10
-7.065781559221193
 20
1.407298392123319
 30
0.0
 11
-0.8248002808576302
 21
1.052958697884847
 31
0.0
  0
LINE
  5
9FA7
330
1F
100
AcDbEntity
  8
AM_11
100
AcDbLine
 10
-0.0000000000003233
 20
1.75
 30
0.0
 11
-5.5
 21
1.749999999999974
 31
0.0
  0
ARC
  5
9FA8
330
1F
100
AcDbEntity
  8
AM_0
100
AcDbCircle
 10
4.972368954833978
 20
0.0073630590979192
 30
0.0
 40
5.296382136469146
100
AcDbArc
 50
175.3635181775062
 51
195.5055110014797
  0
LINE
  5
9FA9
330
1F
100
AcDbEntity
  8
AM_0
100
AcDbLine
 10
0.0
 20
-1.75
 30
0.0
 11
0.0
 21
0.070000000000011
 31
0.0
  0
LINE
  5
9FAA
330
1F
100
AcDbEntity
  8
AM_0
100
AcDbLine
 10
-0.0367500000000014
 20
-1.656704405167584
 30
0.0
 11
-0.0367500000000014
 21
0.1137969445278842
 31
0.0
  0
LINE
  5
9FAB
330
1F
100
AcDbEntity
  8
AM_0
100
AcDbLine
 10
-0.1174739483647223
 20
0.2100000000000328
 30
0.0
 11
0.0
 21
0.3499999999999801
 31
0.0
  0
LINE
  5
9FAC
330
1F
100
AcDbEntity
  8
AM_0
100
AcDbLine
 10
0.0
 20
0.070000000000011
 30
0.0
 11
-0.8248002808576302
 21
1.052958697884847
 31
0.0
  0
LINE
  5
9FAD
330
1F
100
AcDbEntity
  8
AM_0
100
AcDbLine
 10
0.0
 20
0.3499999999999801
 30
0.0
 11
0.0
 21
1.75
 31
0.0
  0
LINE
  5
9FAE
330
1F
100
AcDbEntity
  8
AM_0
100
AcDbLine
 10
0.0
 20
-1.75
 30
0.0
 11
-0.0367500000000014
 21
-1.656704405167584
 31
0.0
  0
LINE
  5
9FAF
330
1F
100
AcDbEntity
  8
AM_0
100
AcDbLine
 10
-0.0367500000000014
 20
-1.656704405167584
 30
0.0
 11
-0.131250000000005
 21
-1.427377064579619
 31
0.0
  0
LINE
  5
9FB0
330
1F
100
AcDbEntity
  8
AM_0
100
AcDbLine
 10
-0.131250000000005
 20
-1.427377064579619
 30
0.0
 11
-0.131250000000005
 21
-1.408524400896396
 31
0.0
  0
ARC
  5
9FB2
330
1F
100
AcDbEntity
  8
AM_0
100
AcDbCircle
 10
-4.476404330059896
 20
-6.604552824780417
 30
0.0
 40
7.059773693289623
100
AcDbArc
 50
98.3366925829967
 51
121.8173282142032
  0
ARC
  5
9FB3
330
1F
100
AcDbEntity
  8
AM_0
100
AcDbCircle
 10
-7.789206801650604
 20
-6.378814653115743
 30
0.0
 40
8.154697856819604
100
AcDbArc
 50
70.53701686576866
 51
85.43377143209744
  0
LINE
  5
9FB4
330
1F
100
AcDbEntity
  8
AM_0
100
AcDbLine
 10
-5.592929078747232
 20
0.7127816727764243
 30
0.0
 11
-5.5
 21
0.3806212249440364
 31
0.0
  0
LINE
  5
9FB5
330
1F
100
AcDbEntity
  8
AM_0
100
AcDbLine
 10
-5.592929078747232
 20
0.7127816727764243
 30
0.0
 11
-5.5
 21
0.9638313470194413
 31
0.0
  0
ARC
  5
9FB6
330
1F
100
AcDbEntity
  8
AM_0
100
AcDbCircle
 10
-5.495050271676753
 20
2.689522614858988
 30
0.0
 40
4.262177667863834
100
AcDbArc
 50
230.6343851651098
 51
273.2959895622032
  0
ARC
  5
9FB7
330
1F
100
AcDbEntity
  8
AM_0
100
AcDbCircle
 10
-5.047935016365558
 20
2.573216817966208
 30
0.0
 40
4.475548207648489
100
AcDbArc
 50
225.2568389343718
 51
249.1462443979203
  0
ARC
  5
9FB8
330
1F
100
AcDbEntity
  8
AM_0
100
AcDbCircle
 10
-5.857893775327685
 20
0.5191499872763017
 30
0.0
 40
2.269164520310062
100
AcDbArc
 50
270.205060971575
 51
295.1170414189565
  0
ARC
  5
9FB9
330
1F
100
AcDbEntity
  8
AM_0
100
AcDbCircle
 10
-5.867087685877426
 20
0.4463577174186444
 30
0.0
 40
2.196425969456865
100
AcDbArc
 50
249.3644317468464
 51
270.4516877188453
  0
DIMENSION
  5
A0FE
330
1F
100
AcDbEntity
  8
AM_5
100
AcDbDimension
  2
*D5
 10
7.455777803085519
 20
-1.750000000000027
 30
0.0
 11
5.905777803085517
 21
-7.400000000000025
 31
0.0
 70
    32
  1
%%c<>
  3
AM_JIS
100
AcDbAlignedDimension
 13
0.0
 23
1.749999999999975
 33
0.0
 14
0.0
 24
-1.750000000000025
 34
0.0
 50
90.00000000000035
100
AcDbRotatedDimension
1001
GENIUS_GENDTOL_13
1000

1000
h7
1000

1040
0.0
  0
DIMENSION
  5
A1A7
330
1F
100
AcDbEntity
  8
AM_5
100
AcDbDimension
  2
*D6
 10
-45.00000000000002
 20
-16.0000010000002
 30
0.0
 11
-22.50000000000026
 21
-14.4500010000002
 31
0.0
 70
    32
  1
<>
  3
AM_JIS
100
AcDbAlignedDimension
 13
-0.0000000000004965
 23
-1.75
 33
0.0
 14
-45.00000000000002
 24
-2.500000000000024
 34
0.0
 50
0.0000000000004071
100
AcDbRotatedDimension
1001
GENIUS_GENDTOL_13
1000

1000
h7
1000

1040
0.0
  0
DIMENSION
  5
A237
330
1F
100
AcDbEntity
  8
AM_5
100
AcDbDimension
  2
*D7
 10
-5.5
 20
-10.00000099999992
 30
0.0
 11
-2.750000000000248
 21
-8.450000999999918
 31
0.0
 70
    32
  1
<>
  3
AM_JIS
100
AcDbAlignedDimension
 13
-0.0000000000004965
 23
-1.75
 33
0.0
 14
-5.5
 24
-1.750000000000025
 34
0.0
 50
0.0000000000004071
100
AcDbRotatedDimension
1001
GENIUS_GENDTOL_13
1000

1000
h7
1000

1040
0.0
  0
LINE
  5
A48D
330
1F
100
AcDbEntity
  8
AM_0
100
AcDbLine
 10
-44.50000000000001
 20
-3.000000000000024
 30
0.0
 11
-16.50000000000001
 21
-3.000000000000004
 31
0.0
  0
LINE
  5
A490
330
1F
100
AcDbEntity
  8
AM_0
100
AcDbLine
 10
-45.0
 20
2.499999999999975
 30
0.0
 11
-45.00000000000002
 21
-2.500000000000025
 31
0.0
  0
LINE
  5
A491
330
1F
100
AcDbEntity
  8
AM_0
100
AcDbLine
 10
-44.50000000000001
 20
2.999999999999975
 30
0.0
 11
-44.50000000000001
 21
-3.000000000000024
 31
0.0
  0
DIMENSION
  5
A492
330
1F
100
AcDbEntity
  8
AM_5
100
AcDbDimension
  2
*D8
 10
-53.21056358178672
 20
-3.000000000000022
 30
0.0
 11
-54.76056358178671
 21
-0.0000000000000305
 31
0.0
 70
    32
  1
%%c<>
  3
AM_JIS
100
AcDbAlignedDimension
 13
-44.50000000000001
 23
2.999999999999975
 33
0.0
 14
-44.50000000000001
 24
-3.000000000000024
 34
0.0
 50
270.0
100
AcDbRotatedDimension
1001
GENIUS_GENDTOL_13
1000

1000
h7
1000

1040
0.0
  0
LINE
  5
A49F
330
1F
100
AcDbEntity
  8
AM_0
100
AcDbLine
 10
-44.50000000000001
 20
2.999999999999975
 30
0.0
 11
-16.5
 21
2.999999999999996
 31
0.0
  0
LINE
  5
A4AB
330
1F
100
AcDbEntity
  8
AM_0
100
AcDbLine
 10
-44.50000000000001
 20
2.999999999999975
 30
0.0
 11
-45.0
 21
2.499999999999975
 31
0.0
1001
GENIUS_GENFIL_13
1070
     0
1040
0.5
1040
0.5
1040
20.0
1040
0.0
1002
{
1002
}
1001
GENIUS_GENODEF_13
1002
{
1000
HIER
1070
     0
1002
}
1002
{
1000
MANEDIT
1070
     0
1002
}
1002
{
1000
NOSEL
1070
     0
1002
}
1002
{
1000
BEHIND
1070
     0
1002
}
1002
{
1000
REACTOR
1002
}
1001
GENIUS_GENOBJ-N-CHA_13
1002
{
1000
OWNER
1000
GEN
1002
}
  0
LINE
  5
A4AE
330
1F
100
AcDbEntity
  8
AM_0
100
AcDbLine
 10
-45.00000000000002
 20
-2.500000000000025
 30
0.0
 11
-44.50000000000001
 21
-3.000000000000024
 31
0.0
1001
GENIUS_GENFIL_13
1070
     0
1040
0.5
1040
0.5
1040
20.0
1040
0.0
1002
{
1002
}
1001
GENIUS_GENODEF_13
1002
{
1000
HIER
1070
     0
1002
}
1002
{
1000
MANEDIT
1070
     0
1002
}
1002
{
1000
NOSEL
1070
     0
1002
}
1002
{
1000
BEHIND
1070
     0
1002
}
1002
{
1000
REACTOR
1002
}
1001
GENIUS_GENOBJ-N-CHA_13
1002
{
1000
OWNER
1000
GEN
1002
}
  0
LINE
  5
A53D
330
1F
100
AcDbEntity
  8
AM_0
100
AcDbLine
 10
-16.50000000000001
 20
2.999999999999996
 30
0.0
 11
-16.50000000000001
 21
-3.000000000000004
 31
0.0
  0
LINE
  5
A556
330
1F
100
AcDbEntity
  8
AM_0
100
AcDbLine
 10
-7.139999999999988
 20
1.749999999999976
 30
0.0
 11
-11.83493649053884
 21
1.749999999999976
 31
0.0
  0
LINE
  5
A557
330
1F
100
AcDbEntity
  8
AM_0
100
AcDbLine
 10
-5.849772477533848
 20
-1.750000000000025
 30
0.0
 11
-11.83493649053889
 21
-1.750000000000029
 31
0.0
  0
LINE
  5
A55A
330
1F
100
AcDbEntity
  8
AM_0
100
AcDbLine
 10
-11.83493649053884
 20
1.749999999999976
 30
0.0
 11
-11.83493649053884
 21
-1.750000000000016
 31
0.0
  0
LINE
  5
A567
330
1F
100
AcDbEntity
  8
AM_0
100
AcDbLine
 10
-16.50000000000001
 20
2.999999999999996
 30
0.0
 11
-11.83493649053884
 21
1.749999999999976
 31
0.0
  0
LINE
  5
A568
330
1F
100
AcDbEntity
  8
AM_0
100
AcDbLine
 10
-11.83493649053884
 20
-1.750000000000015
 30
0.0
 11
-16.50000000000001
 21
-3.000000000000003
 31
0.0
  0
LINE
  5
A5C2
330
1F
100
AcDbEntity
  8
AM_11
100
AcDbLine
 10
-5.5
 20
1.749999999999975
 30
0.0
 11
-5.5
 21
-1.750000000000025
 31
0.0
  0
VIEWPORT
  5
110
330
101
100
AcDbEntity
 67
     1
  8
0
100
AcDbViewport
 10
420.5
 20
297.0
 30
0.0
 40
948.9782706766916
 41
628.452
 68
     1
 69
     1
1001
ACAD
1000
MVIEW
1002
{
1070
    16
1010
0.0
1020
0.0
1030
0.0
1010
0.0
1020
0.0
1030
1.0
1040
0.0
1040
628.452
1040
420.5
1040
297.0
1040
50.0
1040
0.0
1040
0.0
1070
     0
1070
   100
1070
     1
1070
     1
1070
     0
1070
     0
1070
     0
1070
     0
1040
0.0
1040
0.0
1040
0.0
1040
10.0
1040
10.0
1040
10.0
1040
10.0
1070
     0
1002
{
1002
}
1002
}
  0
ENDSEC
  0
SECTION
  2
OBJECTS
  0
DICTIONARY
  5
C
330
0
100
AcDbDictionary
  3
ACAD_GROUP
350
D
  3
ACAD_LAYOUT
350
1A
  3
ACAD_MLINESTYLE
350
17
  3
ACAD_PLOTSETTINGS
350
19
  3
ACAD_PLOTSTYLENAME
350
E
  3
ACDBVARIABLEDICTIONARY
350
34
  3
ACMDICTIONARY
350
43
  3
AMG
350
2B
  3
AMGSNAPSETTINGS
350
6E
  3
ASE_INDEX_DICTIONARY
350
151A
  3
DWGPROPS
350
A708
  3
ACDBHEADERROUNDTRIPXREC
350
A714
  0
DICTIONARY
  5
74
330
1F
100
AcDbDictionary
280
     1
  3
ACAD_INDEX
360
A70A
  3
ACAD_LAYOUTSELFREF
360
A737
  0
DICTIONARY
  5
A73C
330
101
100
AcDbDictionary
280
     1
  3
ACAD_LAYOUTSELFREF
360
A73D
  0
DICTIONARY
  5
D
102
{ACAD_REACTORS
330
C
102
}
330
C
100
AcDbDictionary
  0
DICTIONARY
  5
1A
102
{ACAD_REACTORS
330
C
102
}
330
C
100
AcDbDictionary
  0
DICTIONARY
  5
17
102
{ACAD_REACTORS
330
C
102
}
330
C
100
AcDbDictionary
  3
STANDARD
350
18
  0
DICTIONARY
  5
19
102
{ACAD_REACTORS
330
C
102
}
330
C
100
AcDbDictionary
  0
ACDBDICTIONARYWDFLT
  5
E
102
{ACAD_REACTORS
330
C
102
}
330
C
100
AcDbDictionary
281
     1
  3
Normal
350
F
100
AcDbDictionaryWithDefault
340
F
  0
DICTIONARY
  5
34
102
{ACAD_REACTORS
330
C
102
}
330
C
100
AcDbDictionary
  3
INDEXCTL
350
35
  3
SORTENTS
350
B5E
  0
DICTIONARY
  5
43
102
{ACAD_REACTORS
330
C
102
}
330
C
100
AcDbDictionary
  3
ACMSTDDICTIONARY
350
260
  0
DICTIONARY
  5
2B
102
{ACAD_REACTORS
330
C
102
}
330
C
100
AcDbDictionary
  3
ACMGSETTINGS
350
2C
  0
DICTIONARY
  5
6E
102
{ACAD_REACTORS
330
C
102
}
330
C
100
AcDbDictionary
  0
DICTIONARY
  5
151A
102
{ACAD_REACTORS
330
C
102
}
330
C
100
AcDbDictionary
  3
ASEBLOCKHIERARCHYINDEXRECORD
350
151C
1001
DCO15
1040
1471862535.906
  0
XRECORD
  5
A708
102
{ACAD_REACTORS
330
C
102
}
330
C
100
AcDbXrecord
  1
DWGPROPS COOKIE
  2

  3

  4

  6

  7

  8

  9

300
AmdtFileType=82
301
=
302
=
303
=
304
=
305
=
306
=
307
=
308
=
309
=
 40
0.375065324074074
 41
2452838.430434386
 42
2453054.432376342
  1

 90
        1
  0
DICTIONARY
  5
A714
102
{ACAD_REACTORS
330
C
102
}
330
C
100
AcDbDictionary
  3
TSTACKALIGN
350
A715
  3
TSTACKSIZE
350
A716
  3
HYPERLINKBASE
350
A717
  3
STYLESHEET
350
A718
  3
LAYOUTDICT
350
A719
  3
PLOTSETDICT
350
A71A
  3
PLOTSTYLNAMDICT
350
A71B
  3
LWETCUNION
350
A71C
  3
INSUNITS
350
A71D
  3
CEPSNTYPE
350
A71E
  3
FINGERPRINTGUID
350
A71F
  3
VERSIONGUID
350
A720
  3
PSVPSCALE
350
A721
  3
DIMSTYLEDATA
350
A722
  3
PUCSORTHOREF
350
A723
  3
PUCSORTHOVIEW
350
A724
  3
PUCSBASE
350
A725
  3
PUCSORGTOP
350
A726
  3
PUCSORGBOTTOM
350
A727
  3
PUCSORGLEFT
350
A728
  3
PUCSORGRIGHT
350
A729
  3
PUCSORGFRONT
350
A72A
  3
PUCSORGBACK
350
A72B
  3
UCSORTHOREF
350
A72C
  3
UCSORTHOVIEW
350
A72D
  3
UCSBASE
350
A72E
  3
UCSORGTOP
350
A72F
  3
UCSORGBOTTOM
350
A730
  3
UCSORGLEFT
350
A731
  3
UCSORGRIGHT
350
A732
  3
UCSORGFRONT
350
A733
  3
UCSORGBACK
350
A734
  0
DICTIONARY
  5
A70A
102
{ACAD_REACTORS
330
74
102
}
330
74
100
AcDbDictionary
  3
*A1
350
A70B
  0
XRECORD
  5
A737
102
{ACAD_REACTORS
330
74
102
}
330
74
100
AcDbXrecord
340
1F
  0
XRECORD
  5
A73D
102
{ACAD_REACTORS
330
A73C
102
}
330
A73C
100
AcDbXrecord
340
101
  0
MLINESTYLE
  5
18
102
{ACAD_REACTORS
330
17
102
}
330
17
100
AcDbMlineStyle
  2
STANDARD
 70
     0
  3

 62
   256
 51
90.0
 52
90.0
 71
     2
 49
0.5
 62
   256
  6
BYLAYER
 49
-0.5
 62
   256
  6
BYLAYER
  0
ACDBPLACEHOLDER
  5
F
102
{ACAD_REACTORS
330
E
102
}
330
E
100
AcDbPlaceHolder
280
     0
  0
DICTIONARYVAR
  5
35
102
{ACAD_REACTORS
330
34
102
}
330
34
100
DictionaryVariables
280
     0
  1
1
  0
DICTIONARYVAR
  5
B5E
102
{ACAD_REACTORS
330
34
102
}
330
34
100
DictionaryVariables
280
     0
  1
96
  0
DICTIONARY
  5
260
102
{ACAD_REACTORS
330
43
102
}
330
43
100
AcDbDictionary
  0
DICTIONARY
  5
2C
102
{ACAD_REACTORS
330
2B
102
}
330
2B
100
AcDbDictionary
  3
DWGSETTINGS
350
2D
  0
XRECORD
  5
151C
102
{ACAD_REACTORS
330
151A
102
}
330
151A
100
AcDbXrecord
330
0
330
0
330
0
330
0
330
0
330
0
330
0
330
0
  0
XRECORD
  5
A715
102
{ACAD_REACTORS
330
A714
102
}
330
A714
100
AcDbXrecord
 90
        1
  0
XRECORD
  5
A716
102
{ACAD_REACTORS
330
A714
102
}
330
A714
100
AcDbXrecord
 90
       70
  0
XRECORD
  5
A717
102
{ACAD_REACTORS
330
A714
102
}
330
A714
100
AcDbXrecord
  1

  0
XRECORD
  5
A718
102
{ACAD_REACTORS
330
A714
102
}
330
A714
100
AcDbXrecord
  1
ASAMI.ctb
  0
XRECORD
  5
A719
102
{ACAD_REACTORS
330
A714
102
}
330
A714
100
AcDbXrecord
340
1A
  0
XRECORD
  5
A71A
102
{ACAD_REACTORS
330
A714
102
}
330
A714
100
AcDbXrecord
340
19
  0
XRECORD
  5
A71B
102
{ACAD_REACTORS
330
A714
102
}
330
A714
100
AcDbXrecord
340
E
  0
XRECORD
  5
A71C
102
{ACAD_REACTORS
330
A714
102
}
330
A714
100
AcDbXrecord
 90
    10781
  0
XRECORD
  5
A71D
102
{ACAD_REACTORS
330
A714
102
}
330
A714
100
AcDbXrecord
 90
        4
  0
XRECORD
  5
A71E
102
{ACAD_REACTORS
330
A714
102
}
330
A714
100
AcDbXrecord
 90
        0
  0
XRECORD
  5
A71F
102
{ACAD_REACTORS
330
A714
102
}
330
A714
100
AcDbXrecord
  1
{AFB28963-8C59-40AE-9337-C84526B81ACE}
  0
XRECORD
  5
A720
102
{ACAD_REACTORS
330
A714
102
}
330
A714
100
AcDbXrecord
  1
{B06757F9-5D25-491B-BE32-B72170EF7BEB}
  0
XRECORD
  5
A721
102
{ACAD_REACTORS
330
A714
102
}
330
A714
100
AcDbXrecord
 40
0.0
  0
XRECORD
  5
A722
102
{ACAD_REACTORS
330
A714
102
}
330
A714
100
AcDbXrecord
1000
DSTYLE
1002
{
1070
    79
 70
     2
1070
   341
340
59
1070
   342
340
59
1070
   371
 70
    -1
1070
   372
 70
    -1
1002
}
  0
XRECORD
  5
A723
102
{ACAD_REACTORS
330
A714
102
}
330
A714
100
AcDbXrecord
340
0
  0
XRECORD
  5
A724
102
{ACAD_REACTORS
330
A714
102
}
330
A714
100
AcDbXrecord
 70
     0
  0
XRECORD
  5
A725
102
{ACAD_REACTORS
330
A714
102
}
330
A714
100
AcDbXrecord
340
0
  0
XRECORD
  5
A726
102
{ACAD_REACTORS
330
A714
102
}
330
A714
100
AcDbXrecord
 10
0.0
 20
0.0
 30
0.0
  0
XRECORD
  5
A727
102
{ACAD_REACTORS
330
A714
102
}
330
A714
100
AcDbXrecord
 10
0.0
 20
0.0
 30
0.0
  0
XRECORD
  5
A728
102
{ACAD_REACTORS
330
A714
102
}
330
A714
100
AcDbXrecord
 10
0.0
 20
0.0
 30
0.0
  0
XRECORD
  5
A729
102
{ACAD_REACTORS
330
A714
102
}
330
A714
100
AcDbXrecord
 10
0.0
 20
0.0
 30
0.0
  0
XRECORD
  5
A72A
102
{ACAD_REACTORS
330
A714
102
}
330
A714
100
AcDbXrecord
 10
0.0
 20
0.0
 30
0.0
  0
XRECORD
  5
A72B
102
{ACAD_REACTORS
330
A714
102
}
330
A714
100
AcDbXrecord
 10
0.0
 20
0.0
 30
0.0
  0
XRECORD
  5
A72C
102
{ACAD_REACTORS
330
A714
102
}
330
A714
100
AcDbXrecord
340
0
  0
XRECORD
  5
A72D
102
{ACAD_REACTORS
330
A714
102
}
330
A714
100
AcDbXrecord
 70
     0
  0
XRECORD
  5
A72E
102
{ACAD_REACTORS
330
A714
102
}
330
A714
100
AcDbXrecord
340
0
  0
XRECORD
  5
A72F
102
{ACAD_REACTORS
330
A714
102
}
330
A714
100
AcDbXrecord
 10
0.0
 20
0.0
 30
0.0
  0
XRECORD
  5
A730
102
{ACAD_REACTORS
330
A714
102
}
330
A714
100
AcDbXrecord
 10
0.0
 20
0.0
 30
0.0
  0
XRECORD
  5
A731
102
{ACAD_REACTORS
330
A714
102
}
330
A714
100
AcDbXrecord
 10
0.0
 20
0.0
 30
0.0
  0
XRECORD
  5
A732
102
{ACAD_REACTORS
330
A714
102
}
330
A714
100
AcDbXrecord
 10
0.0
 20
0.0
 30
0.0
  0
XRECORD
  5
A733
102
{ACAD_REACTORS
330
A714
102
}
330
A714
100
AcDbXrecord
 10
0.0
 20
0.0
 30
0.0
  0
XRECORD
  5
A734
102
{ACAD_REACTORS
330
A714
102
}
330
A714
100
AcDbXrecord
 10
0.0
 20
0.0
 30
0.0
  0
LAYER_INDEX
  5
A70B
102
{ACAD_REACTORS
330
A70A
102
}
330
A70A
100
AcDbIndex
 40
2453151.769400127
100
AcDbLayerIndex
  8
0
360
A70C
 90
        0
  8
AM_0
360
A70D
 90
       39
  8
AM_11
360
A70E
 90
        3
  8
AM_7
360
A70F
 90
        1
  8
AM_5
360
A710
 90
        4
  8
Defpoints
360
A711
 90
        0
  8
AM_6
360
A712
 90
        1
  0
XRECORD
  5
2D
102
{ACAD_REACTORS
330
2C
102
}
330
2C
100
AcDbXrecord
  1
VERSION
140
15.0
  1
PRODUCT
  2
AutoCAD Mechanical 2000
  0
IDBUFFER
  5
A70C
330
0
100
AcDbIdBuffer
  0
IDBUFFER
  5
A70D
330
0
100
AcDbIdBuffer
330
9FAE
330
9FAF
330
9FB0
330
9FB2
330
9FB3
330
9FB4
330
9FB5
330
9FB6
330
9FB7
330
9FB8
330
9FB9
330
A48D
330
A490
330
A491
330
A49F
330
A4AB
330
A4AE
330
A53D
330
A556
330
A557
330
A55A
330
A567
330
A568
330
9F99
330
9F9A
330
9F9B
330
9F9C
330
9F9D
330
9F9E
330
9F9F
330
9FA0
330
9FA4
330
9FA6
330
9FA8
330
9FA9
330
9FAA
330
9FAB
330
9FAC
330
9FAD
  0
IDBUFFER
  5
A70E
330
0
100
AcDbIdBuffer
330
9FA5
330
9FA7
330
A5C2
  0
IDBUFFER
  5
A70F
330
0
100
AcDbIdBuffer
330
9FA3
  0
IDBUFFER
  5
A710
330
0
100
AcDbIdBuffer
330
A0FE
330
A1A7
330
A237
330
A492
  0
IDBUFFER
  5
A711
330
0
100
AcDbIdBuffer
  0
IDBUFFER
  5
A712
330
0
100
AcDbIdBuffer
330
1500
  0
ENDSEC
  0
EOF
