  0
SECTION
  2
HEADER
  9
$ACADVER
  1
AC1014
  9
$ACADMAINTVER
 70
     9
  9
$DWGCODEPAGE
  3
ANSI_932
  9
$INSBASE
 10
0.0
 20
0.0
 30
0.0
  9
$EXTMIN
 10
-60.56056358178672
 20
-27.25000100000025
 30
-0.00000001
  9
$EXTMAX
 10
7.955777803085537
 20
2.999999999999996
 30
0.00000001
  9
$LIMMIN
 10
-62.17906193569061
 20
-37.39067643594165
  9
$LIMMAX
 10
11.92544074711116
 20
12.93876891718588
  9
$ORTHOMODE
 70
     0
  9
$REGENMODE
 70
     1
  9
$FILLMODE
 70
     1
  9
$QTEXTMODE
 70
     0
  9
$MIRRTEXT
 70
     0
  9
$DRAGMODE
 70
     2
  9
$LTSCALE
 40
1.0
  9
$OSMODE
 70
    55
  9
$ATTMODE
 70
     1
  9
$TEXTSIZE
 40
2.5
  9
$TRACEWID
 40
1.0
  9
$TEXTSTYLE
  7
STANDARD
  9
$CLAYER
  8
AM_0
  9
$CELTYPE
  6
BYLAYER
  9
$CECOLOR
 62
   256
  9
$CELTSCALE
 40
1.0
  9
$DELOBJ
 70
     1
  9
$DISPSILH
 70
     0
  9
$DIMSCALE
 40
0.5
  9
$DIMASZ
 40
2.5
  9
$DIMEXO
 40
1.0
  9
$DIMDLI
 40
12.0
  9
$DIMRND
 40
0.0
  9
$DIMDLE
 40
0.0
  9
$DIMEXE
 40
1.0
  9
$DIMTP
 40
0.1
  9
$DIMTM
 40
0.1
  9
$DIMTXT
 40
3.2
  9
$DIMCEN
 40
0.0
  9
$DIMTSZ
 40
0.0
  9
$DIMTOL
 70
     0
  9
$DIMLIM
 70
     0
  9
$DIMTIH
 70
     0
  9
$DIMTOH
 70
     0
  9
$DIMSE1
 70
     0
  9
$DIMSE2
 70
     0
  9
$DIMTAD
 70
     3
  9
$DIMZIN
 70
     8
  9
$DIMBLK
  1
OPEN30
  9
$DIMASO
 70
     1
  9
$DIMSHO
 70
     1
  9
$DIMPOST
  1

  9
$DIMAPOST
  1
"
  9
$DIMALT
 70
     0
  9
$DIMALTD
 70
     2
  9
$DIMALTF
 40
0.0393701
  9
$DIMLFAC
 40
1.0
  9
$DIMTOFL
 70
     1
  9
$DIMTVP
 40
0.0
  9
$DIMTIX
 70
     0
  9
$DIMSOXD
 70
     0
  9
$DIMSAH
 70
     0
  9
$DIMBLK1
  1

  9
$DIMBLK2
  1

  9
$DIMSTYLE
  2
AM_JIS
  9
$DIMCLRD
 70
   256
  9
$DIMCLRE
 70
   256
  9
$DIMCLRT
 70
     2
  9
$DIMTFAC
 40
0.71
  9
$DIMGAP
 40
1.5
  9
$DIMJUST
 70
     0
  9
$DIMSD1
 70
     0
  9
$DIMSD2
 70
     0
  9
$DIMTOLJ
 70
     0
  9
$DIMTZIN
 70
     0
  9
$DIMALTZ
 70
     0
  9
$DIMALTTZ
 70
     0
  9
$DIMFIT
 70
     3
  9
$DIMUPT
 70
     0
  9
$DIMUNIT
 70
     2
  9
$DIMDEC
 70
     3
  9
$DIMTDEC
 70
     3
  9
$DIMALTU
 70
     2
  9
$DIMALTTD
 70
     2
  9
$DIMTXSTY
  7
ASAMI
  9
$DIMAUNIT
 70
     0
  9
$LUNITS
 70
     2
  9
$LUPREC
 70
     2
  9
$SKETCHINC
 40
1.0
  9
$FILLETRAD
 40
2.5
  9
$AUNITS
 70
     0
  9
$AUPREC
 70
     0
  9
$MENU
  1
.
  9
$ELEVATION
 40
0.0
  9
$PELEVATION
 40
0.0
  9
$THICKNESS
 40
0.0
  9
$LIMCHECK
 70
     0
  9
$BLIPMODE
 70
     0
  9
$CHAMFERA
 40
0.5
  9
$CHAMFERB
 40
0.5
  9
$CHAMFERC
 40
20.0
  9
$CHAMFERD
 40
0.0
  9
$SKPOLY
 70
     0
  9
$TDCREATE
 40
2452838.430434386
  9
$TDUPDATE
 40
2453151.770100532
  9
$TDINDWG
 40
0.3701846875
  9
$TDUSRTIMER
 40
0.3701846875
  9
$USRTIMER
 70
     1
  9
$ANGBASE
 50
0.0
  9
$ANGDIR
 70
     0
  9
$PDMODE
 70
     0
  9
$PDSIZE
 40
0.0
  9
$PLINEWID
 40
0.0
  9
$COORDS
 70
     1
  9
$SPLFRAME
 70
     0
  9
$SPLINETYPE
 70
     6
  9
$SPLINESEGS
 70
     8
  9
$ATTDIA
 70
     1
  9
$ATTREQ
 70
     1
  9
$HANDLING
 70
 12289
  9
$HANDSEED
  5
A76C
  9
$SURFTAB1
 70
     6
  9
$SURFTAB2
 70
     6
  9
$SURFTYPE
 70
     6
  9
$SURFU
 70
     6
  9
$SURFV
 70
     6
  9
$UCSNAME
  2

  9
$UCSORG
 10
0.0
 20
0.0
 30
0.0
  9
$UCSXDIR
 10
1.0
 20
0.0
 30
0.0
  9
$UCSYDIR
 10
0.0
 20
1.0
 30
0.0
  9
$PUCSNAME
  2

  9
$PUCSORG
 10
0.0
 20
0.0
 30
0.0
  9
$PUCSXDIR
 10
1.0
 20
0.0
 30
0.0
  9
$PUCSYDIR
 10
0.0
 20
1.0
 30
0.0
  9
$USERI1
 70
     0
  9
$USERI2
 70
     0
  9
$USERI3
 70
     0
  9
$USERI4
 70
     0
  9
$USERI5
 70
     0
  9
$USERR1
 40
0.0
  9
$USERR2
 40
0.0
  9
$USERR3
 40
0.0
  9
$USERR4
 40
0.0
  9
$USERR5
 40
0.0
  9
$WORLDVIEW
 70
     1
  9
$SHADEDGE
 70
     3
  9
$SHADEDIF
 70
    70
  9
$TILEMODE
 70
     1
  9
$MAXACTVP
 70
    64
  9
$PINSBASE
 10
0.0
 20
0.0
 30
0.0
  9
$PLIMCHECK
 70
     0
  9
$PEXTMIN
 10
1.000000000000000E+20
 20
1.000000000000000E+20
 30
1.000000000000000E+20
  9
$PEXTMAX
 10
-1.000000000000000E+20
 20
-1.000000000000000E+20
 30
-1.000000000000000E+20
  9
$PLIMMIN
 10
0.0
 20
0.0
  9
$PLIMMAX
 10
841.0
 20
594.0
  9
$UNITMODE
 70
     0
  9
$VISRETAIN
 70
     1
  9
$PLINEGEN
 70
     0
  9
$PSLTSCALE
 70
     0
  9
$TREEDEPTH
 70
  3020
  9
$PICKSTYLE
 70
     0
  9
$CMLSTYLE
  2
STANDARD
  9
$CMLJUST
 70
     0
  9
$CMLSCALE
 40
20.0
  9
$PROXYGRAPHICS
 70
     1
  9
$MEASUREMENT
 70
     1
  0
ENDSEC
  0
SECTION
  2
CLASSES
  0
CLASS
  1
ACDBDICTIONARYWDFLT
  2
AcDbDictionaryWithDefault
  3
AutoCAD 2000
 90
        0
280
     0
281
     0
  0
CLASS
  1
ACDBPLACEHOLDER
  2
AcDbPlaceHolder
  3
AutoCAD 2000
 90
        0
280
     0
281
     0
  0
CLASS
  1
LAYOUT
  2
AcDbLayout
  3
AutoCAD 2000
 90
        0
280
     0
281
     0
  0
CLASS
  1
AMGSETTINGSOBJ
  2
AmgSettingsObj
  3
"AcadM|Product Description: AutoCAD Mechanical 2000|Company: Autodesk"
 90
        0
280
     0
281
     0
  0
CLASS
  1
ACME_DOCUMENT
  2
AcMeDbDoc
  3
AcMeServices
 90
        0
280
     0
281
     0
  0
CLASS
  1
ACMESCOPE
  2
AcMeScope
  3
AcMeServices
 90
        0
280
     0
281
     0
  0
CLASS
  1
ACMECOMMANDHISTORY
  2
AcMeCommandHistory
  3
AcMeServices
 90
        0
280
     0
281
     0
  0
CLASS
  1
DICTIONARYVAR
  2
AcDbDictionaryVar
  3
AutoCAD 2000
 90
        0
280
     0
281
     0
  0
CLASS
  1
ACIMSYSVARMAN
  2
AcImSysVarManager
  3
AcMeServices
 90
        0
280
     0
281
     0
  0
CLASS
  1
ACIMREALSYSVAR
  2
AcImRealSysVar
  3
AcMeServices
 90
        0
280
     0
281
     0
  0
CLASS
  1
ACIMINTSYSVAR
  2
AcImIntSysVar
  3
AcMeServices
 90
        0
280
     0
281
     0
  0
CLASS
  1
ACMEDRAWINGMAN
  2
AcMeDrawingMan
  3
AcMeServices
 90
        0
280
     0
281
     0
  0
CLASS
  1
ACMEVIEW
  2
AcMeView
  3
AcMeServices
 90
        0
280
     0
281
     0
  0
CLASS
  1
ACDBENTITYCACHE
  2
AcMeEntityCache
  3
AcMeServices
 90
        0
280
     0
281
     0
  0
CLASS
  1
GSMANAGER
  2
AcMeGSManager
  3
AcMeServices
 90
        0
280
     0
281
     0
  0
CLASS
  1
AmdtInternalReactor
  2
AmdtInternalReactor
  3
AcMeServices
 90
        0
280
     0
281
     0
  0
CLASS
  1
ACMESTATEMGR
  2
AcMeStateMgr
  3
AcMeServices
 90
        0
280
     0
281
     0
  0
CLASS
  1
ACME_DATABASE
  2
AcMeDbDatabase
  3
AcMeServices
 90
        0
280
     0
281
     0
  0
CLASS
  1
ACRFINSADJUSTERMGR
  2
AcRfInsAdjusterMgr
  3
AcMeServices
 90
        0
280
     0
281
     0
  0
CLASS
  1
ACMDATADICTIONARY
  2
AcmDataDictionary
  3
"AcmSymBB|Product Description: AutoCAD Mechanical 2000|Company: Autodesk"
 90
        0
280
     0
281
     0
  0
CLASS
  1
ACMDATAENTRYBLOCK
  2
AcmDataEntryBlock
  3
"AcmSymBB|Product Description: AutoCAD Mechanical 2000|Company: Autodesk"
 90
        0
280
     0
281
     0
  0
CLASS
  1
AMGOBJPROPCFG
  2
AmgObjPropCfg
  3
"AmgLay|Product Description: AutoCAD Mechanical 2000|Company: Autodesk"
 90
        1
280
     0
281
     0
  0
CLASS
  1
ACAMGFILTERDAT
  2
AcAmgFilterDat
  3
"AcadM|Product Description: AutoCAD Mechanical 2000|Company: Autodesk"
 90
        0
280
     0
281
     0
  0
CLASS
  1
LAYER_INDEX
  2
AcDbLayerIndex
  3
AutoCAD 2000
 90
        0
280
     0
281
     0
  0
CLASS
  1
IDBUFFER
  2
AcDbIdBuffer
  3
AutoCAD 2000
 90
        0
280
     0
281
     0
  0
CLASS
  1
ACIMSTRSYSVAR
  2
AcImStrSysVar
  3
AcMeServices
 90
        0
280
     0
281
     0
  0
CLASS
  1
ACMSTANDARDJIS
  2
AcmStandardJIS
  3
"AcmSymBB|Product Description: AutoCAD Mechanical 2000|Company: Autodesk"
 90
        0
280
     0
281
     0
  0
CLASS
  1
ACMSURFSTANDARDJIS
  2
AcmSurfTextStdJIS
  3
"AcmSymBB|Product Description: AutoCAD Mechanical 2000|Company: Autodesk"
 90
        0
280
     0
281
     0
  0
CLASS
  1
ACMFCFSTANDARDJIS
  2
AcmFCFStdJIS
  3
"AcmSymBB|Product Description: AutoCAD Mechanical 2000|Company: Autodesk"
 90
        0
280
     0
281
     0
  0
CLASS
  1
ACMWELDSTANDARDJIS
  2
AcmWeldingStdJIS
  3
"AcmSymBB|Product Description: AutoCAD Mechanical 2000|Company: Autodesk"
 90
        0
280
     0
281
     0
  0
CLASS
  1
ACMIDSTANDARDJIS
  2
AcmIdStdJIS
  3
"AcmSymBB|Product Description: AutoCAD Mechanical 2000|Company: Autodesk"
 90
        0
280
     0
281
     0
  0
CLASS
  1
ACMDATUMSTANDARDJIS
  2
AcmDatumStdJIS
  3
"AcmSymBB|Product Description: AutoCAD Mechanical 2000|Company: Autodesk"
 90
        0
280
     0
281
     0
  0
CLASS
  1
ACMBOMSTANDARDJIS
  2
AcmBOMStdJIS
  3
"AcmSymBB|Product Description: AutoCAD Mechanical 2000|Company: Autodesk"
 90
        0
280
     0
281
     0
  0
CLASS
  1
ACMSTANDARDANSI
  2
AcmStandardANSI
  3
"AcmSymBB|Product Description: AutoCAD Mechanical 2000|Company: Autodesk"
 90
        0
280
     0
281
     0
  0
CLASS
  1
ACMSURFSTANDARDANSI
  2
AcmSurfTextStdANSI
  3
"AcmSymBB|Product Description: AutoCAD Mechanical 2000|Company: Autodesk"
 90
        0
280
     0
281
     0
  0
CLASS
  1
ACMFCFSTANDARDANSI
  2
AcmFCFStdANSI
  3
"AcmSymBB|Product Description: AutoCAD Mechanical 2000|Company: Autodesk"
 90
        0
280
     0
281
     0
  0
CLASS
  1
ACMWELDSTANDARDANSI
  2
AcmWeldingStdANSI
  3
"AcmSymBB|Product Description: AutoCAD Mechanical 2000|Company: Autodesk"
 90
        0
280
     0
281
     0
  0
CLASS
  1
ACMIDSTANDARDANSI
  2
AcmIdStdANSI
  3
"AcmSymBB|Product Description: AutoCAD Mechanical 2000|Company: Autodesk"
 90
        0
280
     0
281
     0
  0
CLASS
  1
ACMDATUMSTANDARDANSI
  2
AcmDatumStdANSI
  3
"AcmSymBB|Product Description: AutoCAD Mechanical 2000|Company: Autodesk"
 90
        0
280
     0
281
     0
  0
CLASS
  1
ACMBOMSTANDARDANSI
  2
AcmBOMStdANSI
  3
"AcmSymBB|Product Description: AutoCAD Mechanical 2000|Company: Autodesk"
 90
        0
280
     0
281
     0
  0
CLASS
  1
ACMSTANDARDBSI
  2
AcmStandardBSI
  3
"AcmSymBB|Product Description: AutoCAD Mechanical 2000|Company: Autodesk"
 90
        0
280
     0
281
     0
  0
CLASS
  1
ACMSURFSTANDARDBSI
  2
AcmSurfTextStdBSI
  3
"AcmSymBB|Product Description: AutoCAD Mechanical 2000|Company: Autodesk"
 90
        0
280
     0
281
     0
  0
CLASS
  1
ACMFCFSTANDARDBSI
  2
AcmFCFStdBSI
  3
"AcmSymBB|Product Description: AutoCAD Mechanical 2000|Company: Autodesk"
 90
        0
280
     0
281
     0
  0
CLASS
  1
ACMWELDSTANDARDBSI
  2
AcmWeldingStdBSI
  3
"AcmSymBB|Product Description: AutoCAD Mechanical 2000|Company: Autodesk"
 90
        0
280
     0
281
     0
  0
CLASS
  1
ACMIDSTANDARDBSI
  2
AcmIdStdBSI
  3
"AcmSymBB|Product Description: AutoCAD Mechanical 2000|Company: Autodesk"
 90
        0
280
     0
281
     0
  0
CLASS
  1
ACMDATUMSTANDARDBSI
  2
AcmDatumStdBSI
  3
"AcmSymBB|Product Description: AutoCAD Mechanical 2000|Company: Autodesk"
 90
        0
280
     0
281
     0
  0
CLASS
  1
ACMBOMSTANDARDBSI
  2
AcmBOMStdBSI
  3
"AcmSymBB|Product Description: AutoCAD Mechanical 2000|Company: Autodesk"
 90
        0
280
     0
281
     0
  0
CLASS
  1
LONG_TRANSACTION
  2
AcDbLongTransaction
  3
AutoCAD 2000
 90
        0
280
     0
281
     0
  0
CLASS
  1
LWPOLYLINE
  2
AcDbPolyline
  3
AutoCAD 2000
 90
        0
280
     0
281
     1
  0
CLASS
  1
HATCH
  2
AcDbHatch
  3
AutoCAD 2000
 90
        0
280
     0
281
     1
  0
CLASS
  1
XRECORD
  2
AcDbXrecord
  3
AutoCAD 2000
 90
        0
280
     0
281
     0
  0
ENDSEC
  0
SECTION
  2
TABLES
  0
TABLE
  2
VPORT
  5
8
330
0
100
AcDbSymbolTable
 70
     3
  0
VPORT
  5
A741
330
8
100
AcDbSymbolTableRecord
100
AcDbViewportTableRecord
  2
*ACTIVE
 70
     0
 10
0.0
 20
0.0
 11
1.0
 21
1.0
 12
-22.3728199606459
 22
-8.56317120122058
 13
0.0
 23
0.0
 14
2.5
 24
2.5
 15
10.0
 25
10.0
 16
0.0
 26
0.0
 36
1.0
 17
0.0
 27
0.0
 37
0.0
 40
50.9661099582285
 41
1.56570841889117
 42
50.0
 43
0.0
 44
0.0
 50
0.0
 51
0.0
 71
     0
 72
   100
 73
     1
 74
     3
 75
     0
 76
     0
 77
     0
 78
     0
  0
ENDTAB
  0
TABLE
  2
LTYPE
  5
5
330
0
100
AcDbSymbolTable
 70
    10
  0
LTYPE
  5
14
330
5
100
AcDbSymbolTableRecord
100
AcDbLinetypeTableRecord
  2
BYBLOCK
 70
     0
  3

 72
    65
 73
     0
 40
0.0
  0
LTYPE
  5
15
330
5
100
AcDbSymbolTableRecord
100
AcDbLinetypeTableRecord
  2
BYLAYER
 70
     0
  3

 72
    65
 73
     0
 40
0.0
  0
LTYPE
  5
16
330
5
100
AcDbSymbolTableRecord
100
AcDbLinetypeTableRecord
  2
CONTINUOUS
 70
     0
  3
Solid line
 72
    65
 73
     0
 40
0.0
  0
LTYPE
  5
4B
330
5
100
AcDbSymbolTableRecord
100
AcDbLinetypeTableRecord
  2
AM_ISO02W050
 70
     0
  3
__ __ __ __ __ __ __ __ __ __ __ __ __ __ __
 72
    65
 73
     2
 40
7.5
 49
6.0
 74
     0
 49
-1.5
 74
     0
  0
LTYPE
  5
4C
330
5
100
AcDbSymbolTableRecord
100
AcDbLinetypeTableRecord
  2
AM_ISO08W050
 70
     0
  3
____ . ____ . ____ . ____ . ____ . ____ . ____
 72
    65
 73
     4
 40
18.0
 49
12.0
 74
     0
 49
-1.5
 74
     0
 49
3.0
 74
     0
 49
-1.5
 74
     0
  0
LTYPE
  5
4D
330
5
100
AcDbSymbolTableRecord
100
AcDbLinetypeTableRecord
  2
AM_ISO09W050
 70
     0
  3
_____ . . _____ . . _____ . . ____ .. ____
 72
    65
 73
     6
 40
22.5
 49
12.0
 74
     0
 49
-1.5
 74
     0
 49
3.0
 74
     0
 49
-1.5
 74
     0
 49
3.0
 74
     0
 49
-1.5
 74
     0
  0
LTYPE
  5
4E
330
5
100
AcDbSymbolTableRecord
100
AcDbLinetypeTableRecord
  2
AMCONSTR
 70
     0
  3
_______________________
 72
    65
 73
     2
 40
9999.0
 49
9999.0
 74
     0
 49
0.0
 74
     0
  0
LTYPE
  5
4F
330
5
100
AcDbSymbolTableRecord
100
AcDbLinetypeTableRecord
  2
AM_ISO02W050X2
 70
     0
  3
 _ _ _ _ _ _ _ _ _ _ _ _
 72
    65
 73
     2
 40
3.75
 49
3.0
 74
     0
 49
-0.75
 74
     0
  0
LTYPE
  5
50
330
5
100
AcDbSymbolTableRecord
100
AcDbLinetypeTableRecord
  2
AM_ISO08W050X2
 70
     0
  3
__ . __ . __ . __ . __ . __
 72
    65
 73
     4
 40
9.0
 49
6.0
 74
     0
 49
-0.75
 74
     0
 49
1.5
 74
     0
 49
-0.75
 74
     0
  0
LTYPE
  5
53
330
5
100
AcDbSymbolTableRecord
100
AcDbLinetypeTableRecord
  2
AMZIGZAG
 70
     0
  3
/\/-/\/-/\/-/\/-/\/-/\/
 72
    65
 73
     2
 40
11.00009999999999
 49
0.0001
 74
     4
 75
   135
340
52
 46
0.04
 50
0.0
 44
0.0
 45
0.0
 49
-11.0
 74
     0
  0
LTYPE
  5
166
330
5
100
AcDbSymbolTableRecord
100
AcDbLinetypeTableRecord
  2
ACJISTGL
 70
     0
  3
_ _ _ _ _
 72
    65
 73
     2
 40
3.0
 49
2.0
 74
     0
 49
-1.0
 74
     0
  0
LTYPE
  5
26A
330
5
100
AcDbSymbolTableRecord
100
AcDbLinetypeTableRecord
  2
ACJISTGB
 70
     0
  3
__ . . __ . .
 72
    65
 73
     6
 40
9.0
 49
4.0
 74
     0
 49
-1.0
 74
     0
 49
1.0
 74
     0
 49
-1.0
 74
     0
 49
1.0
 74
     0
 49
-1.0
 74
     0
  0
ENDTAB
  0
TABLE
  2
LAYER
  5
2
330
0
100
AcDbSymbolTable
 70
     7
  0
LAYER
  5
10
330
2
100
AcDbSymbolTableRecord
100
AcDbLayerTableRecord
  2
0
 70
     0
 62
     7
  6
CONTINUOUS
  0
LAYER
  5
3F9
330
2
100
AcDbSymbolTableRecord
100
AcDbLayerTableRecord
  2
AM_0
 70
     0
 62
     7
  6
CONTINUOUS
  0
LAYER
  5
BDD
330
2
100
AcDbSymbolTableRecord
100
AcDbLayerTableRecord
  2
AM_11
 70
     0
 62
     3
  6
AM_ISO09W050
  0
LAYER
  5
BDE
330
2
100
AcDbSymbolTableRecord
100
AcDbLayerTableRecord
  2
AM_7
 70
     0
 62
     4
  6
AM_ISO08W050
  0
LAYER
  5
BDF
330
2
100
AcDbSymbolTableRecord
100
AcDbLayerTableRecord
  2
AM_5
 70
     0
 62
     3
  6
CONTINUOUS
  0
LAYER
  5
BE0
330
2
100
AcDbSymbolTableRecord
100
AcDbLayerTableRecord
  2
DEFPOINTS
 70
     0
 62
     7
  6
CONTINUOUS
  0
LAYER
  5
14FF
330
2
100
AcDbSymbolTableRecord
100
AcDbLayerTableRecord
  2
AM_6
 70
     0
 62
     2
  6
CONTINUOUS
  0
ENDTAB
  0
TABLE
  2
STYLE
  5
3
330
0
100
AcDbSymbolTable
 70
     5
  0
STYLE
  5
11
330
3
100
AcDbSymbolTableRecord
100
AcDbTextStyleTableRecord
  2
STANDARD
 70
     0
 40
0.0
 41
1.0
 50
0.0
 71
     0
 42
2.5
  3
simplex.shx
  4
EXTFONT.SHX
  0
STYLE
  5
52
330
3
100
AcDbSymbolTableRecord
100
AcDbTextStyleTableRecord
  2

 70
     1
 40
0.0
 41
1.0
 50
0.0
 71
     0
 42
2.5
  3
ltypeshp.shx
  4

  0
STYLE
  5
6B
330
3
100
AcDbSymbolTableRecord
100
AcDbTextStyleTableRecord
  2
ASAMI
 70
     0
 40
0.0
 41
1.0
 50
0.0
 71
     0
 42
2.5
  3
simplex.shx
  4
EXTFONT.SHX
  0
STYLE
  5
262
330
3
100
AcDbSymbolTableRecord
100
AcDbTextStyleTableRecord
  2
ACJISTS
 70
     0
 40
1.0
 41
1.0
 50
0.0
 71
     0
 42
2.5
  3
simplex.shx
  4
bigfont.shx
  0
STYLE
  5
269
330
3
100
AcDbSymbolTableRecord
100
AcDbTextStyleTableRecord
  2
ACJISGDT
 70
     0
 40
0.0
 41
1.0
 50
0.0
 71
     0
 42
2.5
  3
amgdtans.shx
  4

  0
ENDTAB
  0
TABLE
  2
VIEW
  5
6
330
0
100
AcDbSymbolTable
 70
     0
  0
ENDTAB
  0
TABLE
  2
UCS
  5
7
330
0
100
AcDbSymbolTable
 70
     0
  0
ENDTAB
  0
TABLE
  2
APPID
  5
9
330
0
100
AcDbSymbolTable
 70
    13
  0
APPID
  5
12
330
9
100
AcDbSymbolTableRecord
100
AcDbRegAppTableRecord
  2
ACAD
 70
     0
  0
APPID
  5
30
330
9
100
AcDbSymbolTableRecord
100
AcDbRegAppTableRecord
  2
MCAD_NO_VIS
 70
     0
  0
APPID
  5
31
330
9
100
AcDbSymbolTableRecord
100
AcDbRegAppTableRecord
  2
ACAD_TEMP_GRAPHIC
 70
     0
  0
APPID
  5
2C2
330
9
100
AcDbSymbolTableRecord
100
AcDbRegAppTableRecord
  2
GENIUS_GENDTOL_13
 70
     0
  0
APPID
  5
339
330
9
100
AcDbSymbolTableRecord
100
AcDbRegAppTableRecord
  2
GENIUS_GENODEF_13
 70
     0
  0
APPID
  5
33A
330
9
100
AcDbSymbolTableRecord
100
AcDbRegAppTableRecord
  2
GENIUS_GENOBJ-N-RSBK_13
 70
     0
  0
APPID
  5
33B
330
9
100
AcDbSymbolTableRecord
100
AcDbRegAppTableRecord
  2
GENIUS_GENOBJ-N-LIB_13
 70
     0
  0
APPID
  5
33C
330
9
100
AcDbSymbolTableRecord
100
AcDbRegAppTableRecord
  2
GENIUS_GENSCALE_13
 70
     0
  0
APPID
  5
378
330
9
100
AcDbSymbolTableRecord
100
AcDbRegAppTableRecord
  2
GENIUS_GENDIMSH_14
 70
     0
  0
APPID
  5
BE1
330
9
100
AcDbSymbolTableRecord
100
AcDbRegAppTableRecord
  2
GENIUS_GENFIL_13
 70
     0
  0
APPID
  5
BE2
330
9
100
AcDbSymbolTableRecord
100
AcDbRegAppTableRecord
  2
GENIUS_GENOBJ-N-CHA_13
 70
     0
  0
APPID
  5
151B
330
9
100
AcDbSymbolTableRecord
100
AcDbRegAppTableRecord
  2
DCO15
 70
     0
  0
APPID
  5
1860
330
9
100
AcDbSymbolTableRecord
100
AcDbRegAppTableRecord
  2
GENIUS_GENOBJ-N-CEN_13
 70
     0
  0
ENDTAB
  0
TABLE
  2
DIMSTYLE
  5
A
330
0
100
AcDbSymbolTable
 70
     8
  0
DIMSTYLE
105
58
102
{ACAD_REACTORS
330
A0FE
330
A1A7
330
A237
330
A478
102
}
330
A
100
AcDbSymbolTableRecord
100
AcDbDimStyleTableRecord
  2
AM_JIS
 70
     0
  3

  4
"
  5
OPEN30
  6

  7

 40
0.5
 41
2.5
 42
1.0
 43
12.0
 44
1.0
 45
0.0
 46
0.0
 47
0.1
 48
0.1
140
3.2
141
0.0
142
0.0
143
0.0393701
144
1.0
145
0.0
146
0.71
147
1.5
 71
     0
 72
     0
 73
     0
 74
     0
 75
     0
 76
     0
 77
     3
 78
     8
170
     0
171
     2
172
     1
173
     0
174
     0
175
     0
176
   256
177
   256
178
     2
270
     2
271
     3
272
     3
273
     2
274
     2
340
6B
275
     0
280
     0
281
     0
282
     0
283
     0
284
     0
285
     0
286
     0
287
     3
288
     0
  0
DIMSTYLE
105
5F
330
A
100
AcDbSymbolTableRecord
100
AcDbDimStyleTableRecord
  2
AM_JIS$3
 70
     0
  3

  4
"
  5
OPEN30
  6

  7

 40
0.5
 41
2.5
 42
1.0
 43
10.0
 44
1.0
 45
0.0
 46
0.0
 47
0.1
 48
0.1
140
3.2
141
0.0
142
0.0
143
0.0393701
144
1.0
145
0.0
146
0.71
147
1.5
 71
     0
 72
     0
 73
     0
 74
     1
 75
     0
 76
     0
 77
     3
 78
     8
170
     0
171
     2
172
     0
173
     0
174
     0
175
     0
176
   256
177
   256
178
     2
270
     2
271
     2
272
     3
273
     2
274
     2
340
6B
275
     0
280
     0
281
     0
282
     0
283
     0
284
     0
285
     0
286
     0
287
     0
288
     1
  0
DIMSTYLE
105
60
330
A
100
AcDbSymbolTableRecord
100
AcDbDimStyleTableRecord
  2
AM_JIS$4
 70
     0
  3

  4
"
  5
OPEN30
  6

  7

 40
0.5
 41
2.5
 42
1.0
 43
10.0
 44
1.0
 45
0.0
 46
0.0
 47
0.1
 48
0.1
140
3.2
141
0.0
142
0.0
143
0.0393701
144
1.0
145
0.0
146
0.71
147
1.5
 71
     0
 72
     0
 73
     0
 74
     1
 75
     0
 76
     0
 77
     3
 78
     8
170
     0
171
     2
172
     0
173
     0
174
     0
175
     0
176
   256
177
   256
178
     2
270
     2
271
     2
272
     3
273
     2
274
     2
340
6B
275
     0
280
     0
281
     0
282
     0
283
     0
284
     0
285
     0
286
     0
287
     0
288
     1
  0
DIMSTYLE
105
61
330
A
100
AcDbSymbolTableRecord
100
AcDbDimStyleTableRecord
  2
AM_JIS$6
 70
     0
  3

  4
"
  5
OPEN30
  6

  7

 40
0.5
 41
2.5
 42
1.0
 43
10.0
 44
1.0
 45
0.0
 46
0.0
 47
0.1
 48
0.1
140
3.2
141
0.0
142
0.0
143
0.0393701
144
1.0
145
0.0
146
0.71
147
1.5
 71
     0
 72
     0
 73
     0
 74
     0
 75
     0
 76
     0
 77
     0
 78
     8
170
     0
171
     2
172
     1
173
     0
174
     0
175
     0
176
   256
177
   256
178
     2
270
     2
271
     2
272
     2
273
     2
274
     2
340
6B
275
     0
280
     0
281
     0
282
     0
283
     0
284
     0
285
     0
286
     0
287
     3
288
     0
  0
DIMSTYLE
105
62
330
A
100
AcDbSymbolTableRecord
100
AcDbDimStyleTableRecord
  2
AM_JIS$7
 70
     0
  3

  4
"
  5
OPEN30
  6

  7

 40
0.5
 41
2.5
 42
1.0
 43
10.0
 44
1.0
 45
0.0
 46
0.0
 47
0.1
 48
0.1
140
3.2
141
0.0
142
0.0
143
0.0393701
144
1.0
145
0.0
146
0.71
147
1.5
 71
     0
 72
     0
 73
     0
 74
     0
 75
     0
 76
     0
 77
     3
 78
     8
170
     0
171
     2
172
     1
173
     0
174
     0
175
     0
176
   256
177
   256
178
     2
270
     2
271
     2
272
     3
273
     2
274
     2
340
6B
275
     0
280
     0
281
     0
282
     0
283
     0
284
     0
285
     0
286
     0
287
     3
288
     0
  0
DIMSTYLE
105
63
330
A
100
AcDbSymbolTableRecord
100
AcDbDimStyleTableRecord
  2
AM_JIS$SF
 70
     0
  3

  4
"
  5
OPEN30
  6

  7

 40
0.5
 41
2.5
 42
1.0
 43
10.0
 44
1.0
 45
0.0
 46
0.0
 47
0.1
 48
0.1
140
3.2
141
0.0
142
0.0
143
0.0393701
144
1.0
145
0.0
146
0.71
147
1.5
 71
     0
 72
     0
 73
     0
 74
     0
 75
     1
 76
     1
 77
     3
 78
     8
170
     0
171
     2
172
     1
173
     0
174
     0
175
     0
176
   256
177
   256
178
     2
270
     2
271
     2
272
     2
273
     2
274
     2
340
6B
275
     0
280
     0
281
     0
282
     0
283
     0
284
     0
285
     0
286
     0
287
     3
288
     0
  0
DIMSTYLE
105
68
330
A
100
AcDbSymbolTableRecord
100
AcDbDimStyleTableRecord
  2
AM_JIS$SH
 70
     0
  3

  4
"
  5

  6
GENAXEH
  7
OPEN30
 40
0.5
 41
2.5
 42
1.0
 43
10.0
 44
1.0
 45
0.0
 46
0.0
 47
0.1
 48
0.1
140
3.2
141
0.0
142
0.0
143
0.0393701
144
2.0
145
0.0
146
0.71
147
1.5
 71
     0
 72
     0
 73
     0
 74
     0
 75
     1
 76
     1
 77
     3
 78
     8
170
     0
171
     2
172
     1
173
     1
174
     0
175
     0
176
   256
177
   256
178
     2
270
     2
271
     2
272
     2
273
     2
274
     2
340
6B
275
     0
280
     0
281
     0
282
     0
283
     0
284
     0
285
     0
286
     0
287
     3
288
     0
  0
DIMSTYLE
105
B34
330
A
100
AcDbSymbolTableRecord
100
AcDbDimStyleTableRecord
  2
AM_JIS$2
 70
     0
  3

  4
"
  5
OPEN30
  6

  7

 40
0.5
 41
2.5
 42
1.0
 43
12.0
 44
1.0
 45
0.0
 46
0.0
 47
0.1
 48
0.1
140
3.2
141
0.0
142
0.0
143
0.0393701
144
1.0
145
0.0
146
0.71
147
1.5
 71
     0
 72
     0
 73
     0
 74
     0
 75
     0
 76
     0
 77
     3
 78
     8
170
     0
171
     2
172
     1
173
     0
174
     0
175
     0
176
   256
177
   256
178
     2
270
     2
271
     3
272
     3
273
     2
274
     2
340
6B
275
     0
280
     0
281
     0
282
     0
283
     0
284
     0
285
     0
286
     0
287
     3
288
     0
  0
ENDTAB
  0
TABLE
  2
BLOCK_RECORD
  5
1
330
0
100
AcDbSymbolTable
 70
     9
  0
BLOCK_RECORD
  5
1F
102
{ACAD_XDICTIONARY
360
74
102
}
330
1
100
AcDbSymbolTableRecord
100
AcDbBlockTableRecord
  2
*MODEL_SPACE
  0
BLOCK_RECORD
  5
101
102
{ACAD_XDICTIONARY
360
A76A
102
}
330
1
100
AcDbSymbolTableRecord
100
AcDbBlockTableRecord
  2
*PAPER_SPACE
  0
BLOCK_RECORD
  5
59
330
1
100
AcDbSymbolTableRecord
100
AcDbBlockTableRecord
  2
_OPEN30
  0
BLOCK_RECORD
  5
64
330
1
100
AcDbSymbolTableRecord
100
AcDbBlockTableRecord
  2
GENAXEH
  0
BLOCK_RECORD
  5
A0FF
330
1
100
AcDbSymbolTableRecord
100
AcDbBlockTableRecord
  2
*D5
  0
BLOCK_RECORD
  5
A1A8
330
1
100
AcDbSymbolTableRecord
100
AcDbBlockTableRecord
  2
*D6
  0
BLOCK_RECORD
  5
A238
330
1
100
AcDbSymbolTableRecord
100
AcDbBlockTableRecord
  2
*D7
  0
BLOCK_RECORD
  5
A479
330
1
100
AcDbSymbolTableRecord
100
AcDbBlockTableRecord
  2
*D8
  0
ENDTAB
  0
ENDSEC
  0
SECTION
  2
BLOCKS
  0
BLOCK
  5
20
330
1F
100
AcDbEntity
  8
0
100
AcDbBlockBegin
  2
*MODEL_SPACE
 70
     0
 10
0.0
 20
0.0
 30
0.0
  3
*MODEL_SPACE
  1

  0
ENDBLK
  5
21
330
1F
100
AcDbEntity
  8
0
100
AcDbBlockEnd
  0
BLOCK
  5
103
330
101
100
AcDbEntity
 67
     1
  8
0
100
AcDbBlockBegin
  2
*PAPER_SPACE
 70
     0
 10
0.0
 20
0.0
 30
0.0
  3
*PAPER_SPACE
  1

  0
ENDBLK
  5
104
330
101
100
AcDbEntity
 67
     1
  8
0
100
AcDbBlockEnd
  0
BLOCK
  5
5D
330
59
100
AcDbEntity
  8
0
100
AcDbBlockBegin
  2
_OPEN30
 70
     0
 10
0.0
 20
0.0
 30
0.0
  3
_OPEN30
  1

  0
LINE
  5
5A
330
59
100
AcDbEntity
  8
0
 62
     0
100
AcDbLine
 10
-1.0
 20
0.26794919
 30
0.0
 11
0.0
 21
0.0
 31
0.0
  0
LINE
  5
5B
330
59
100
AcDbEntity
  8
0
 62
     0
100
AcDbLine
 10
0.0
 20
0.0
 30
0.0
 11
-1.0
 21
-0.26794919
 31
0.0
  0
LINE
  5
5C
330
59
100
AcDbEntity
  8
0
 62
     0
100
AcDbLine
 10
0.0
 20
0.0
 30
0.0
 11
-1.0
 21
0.0
 31
0.0
  0
ENDBLK
  5
5E
330
59
100
AcDbEntity
  8
0
100
AcDbBlockEnd
  0
BLOCK
  5
66
330
64
100
AcDbEntity
  8
0
100
AcDbBlockBegin
  2
GENAXEH
 70
     0
 10
0.0
 20
0.0
 30
0.0
  3
GENAXEH
  1

  0
LINE
  5
65
330
64
100
AcDbEntity
  8
0
100
AcDbLine
 10
-1.0
 20
0.0
 30
0.0
 11
1.0
 21
0.0
 31
0.0
  0
ENDBLK
  5
67
330
64
100
AcDbEntity
  8
0
100
AcDbBlockEnd
  0
BLOCK
  5
A10B
330
A0FF
100
AcDbEntity
  8
0
100
AcDbBlockBegin
  2
*D5
 70
     1
 10
0.0
 20
0.0
 30
0.0
  3
*D5
  1

  0
LINE
  5
A543
330
A0FF
100
AcDbEntity
  8
AM_5
100
AcDbLine
 10
0.5
 20
2.499999999999964
 30
0.0
 11
7.955777803085537
 21
2.499999999999962
 31
0.0
  0
LINE
  5
A544
330
A0FF
100
AcDbEntity
  8
AM_5
100
AcDbLine
 10
0.5
 20
-2.500000000000035
 30
0.0
 11
7.955777803085535
 21
-2.500000000000037
 31
0.0
  0
LINE
  5
A545
330
A0FF
100
AcDbEntity
  8
AM_5
100
AcDbLine
 10
7.455777803085536
 20
1.249999999999962
 30
0.0
 11
7.455777803085536
 21
-1.250000000000037
 31
0.0
  0
INSERT
  5
A546
330
A0FF
100
AcDbEntity
  8
AM_5
100
AcDbBlockReference
  2
_OPEN30
 10
7.455777803085537
 20
2.499999999999962
 30
0.0
 41
1.25
 42
1.25
 43
1.25
 50
90.0
  0
INSERT
  5
A547
330
A0FF
100
AcDbEntity
  8
AM_5
100
AcDbBlockReference
  2
_OPEN30
 10
7.455777803085535
 20
-2.500000000000037
 30
0.0
 41
1.25
 42
1.25
 43
1.25
 50
270.0
  0
MTEXT
  5
A548
330
A0FF
100
AcDbEntity
  8
AM_5
 62
     2
100
AcDbMText
 10
5.905777803085536
 20
-0.0000000000000362
 30
0.0
 40
1.6
 41
0.0
 71
     5
 72
     1
  1
%%c5
  7
ASAMI
 11
0.0000000000000001
 21
1.0
 31
0.0
1001
ACAD
1000
MTEXTBEGIN
1070
    73
1070
     1
1070
    44
1040
1.0
1070
    74
1070
     0
1000
MTEXTEND
  0
POINT
  5
A549
330
A0FF
100
AcDbEntity
  8
DEFPOINTS
 62
     0
100
AcDbPoint
 10
0.0
 20
2.499999999999964
 30
0.0
  0
POINT
  5
A54A
330
A0FF
100
AcDbEntity
  8
DEFPOINTS
 62
     0
100
AcDbPoint
 10
0.0
 20
-2.500000000000035
 30
0.0
  0
POINT
  5
A54B
330
A0FF
100
AcDbEntity
  8
DEFPOINTS
 62
     0
100
AcDbPoint
 10
7.455777803085535
 20
-2.500000000000037
 30
0.0
  0
ENDBLK
  5
A10C
330
A0FF
100
AcDbEntity
  8
0
100
AcDbBlockEnd
  0
BLOCK
  5
A1B2
330
A1A8
100
AcDbEntity
  8
0
100
AcDbBlockBegin
  2
*D6
 70
     1
 10
0.0
 20
0.0
 30
0.0
  3
*D6
  1

  0
LINE
  5
A53A
330
A1A8
100
AcDbEntity
  8
AM_5
100
AcDbLine
 10
-0.0000000000007115
 20
-3.0
 30
0.0
 11
-0.0000000000007123
 21
-16.50000100000024
 31
0.0
  0
LINE
  5
A53B
330
A1A8
100
AcDbEntity
  8
AM_5
100
AcDbLine
 10
-50.00000000000002
 20
-3.000000000000026
 30
0.0
 11
-50.00000000000002
 21
-16.50000100000024
 31
0.0
  0
LINE
  5
A53C
330
A1A8
100
AcDbEntity
  8
AM_5
100
AcDbLine
 10
-1.250000000000712
 20
-16.00000100000024
 30
0.0
 11
-48.75000000000002
 21
-16.00000100000024
 31
0.0
  0
INSERT
  5
A53D
330
A1A8
100
AcDbEntity
  8
AM_5
100
AcDbBlockReference
  2
_OPEN30
 10
-0.0000000000007123
 20
-16.00000100000024
 30
0.0
 41
1.25
 42
1.25
 43
1.25
  0
INSERT
  5
A53E
330
A1A8
100
AcDbEntity
  8
AM_5
100
AcDbBlockReference
  2
_OPEN30
 10
-50.00000000000002
 20
-16.00000100000024
 30
0.0
 41
1.25
 42
1.25
 43
1.25
 50
180.0
  0
MTEXT
  5
A53F
330
A1A8
100
AcDbEntity
  8
AM_5
 62
     2
100
AcDbMText
 10
-25.00000000000036
 20
-14.45000100000024
 30
0.0
 40
1.6
 41
0.0
 71
     5
 72
     1
  1
50
  7
ASAMI
1001
ACAD
1000
MTEXTBEGIN
1070
    73
1070
     1
1070
    44
1040
1.0
1070
    74
1070
     0
1000
MTEXTEND
  0
POINT
  5
A540
330
A1A8
100
AcDbEntity
  8
DEFPOINTS
 62
     0
100
AcDbPoint
 10
-0.0000000000007114
 20
-2.5
 30
0.0
  0
POINT
  5
A541
330
A1A8
100
AcDbEntity
  8
DEFPOINTS
 62
     0
100
AcDbPoint
 10
-50.00000000000002
 20
-2.500000000000026
 30
0.0
  0
POINT
  5
A542
330
A1A8
100
AcDbEntity
  8
DEFPOINTS
 62
     0
100
AcDbPoint
 10
-50.00000000000002
 20
-16.00000100000024
 30
0.0
  0
ENDBLK
  5
A1B3
330
A1A8
100
AcDbEntity
  8
0
100
AcDbBlockEnd
  0
BLOCK
  5
A244
330
A238
100
AcDbEntity
  8
0
100
AcDbBlockBegin
  2
*D7
 70
     1
 10
0.0
 20
0.0
 30
0.0
  3
*D7
  1

  0
LINE
  5
A54C
330
A238
100
AcDbEntity
  8
AM_5
100
AcDbLine
 10
-0.0000000000007115
 20
-3.0
 30
0.0
 11
-0.0000000000007119
 21
-10.50000099999994
 31
0.0
  0
LINE
  5
A54D
330
A238
100
AcDbEntity
  8
AM_5
100
AcDbLine
 10
-7.5
 20
-3.000000000000035
 30
0.0
 11
-7.5
 21
-10.50000099999994
 31
0.0
  0
LINE
  5
A54E
330
A238
100
AcDbEntity
  8
AM_5
100
AcDbLine
 10
-1.250000000000711
 20
-10.00000099999994
 30
0.0
 11
-6.25
 21
-10.00000099999994
 31
0.0
  0
INSERT
  5
A54F
330
A238
100
AcDbEntity
  8
AM_5
100
AcDbBlockReference
  2
_OPEN30
 10
-0.0000000000007119
 20
-10.00000099999994
 30
0.0
 41
1.25
 42
1.25
 43
1.25
  0
INSERT
  5
A550
330
A238
100
AcDbEntity
  8
AM_5
100
AcDbBlockReference
  2
_OPEN30
 10
-7.5
 20
-10.00000099999994
 30
0.0
 41
1.25
 42
1.25
 43
1.25
 50
180.0
  0
MTEXT
  5
A551
330
A238
100
AcDbEntity
  8
AM_5
 62
     2
100
AcDbMText
 10
-3.750000000000356
 20
-8.450000999999943
 30
0.0
 40
1.6
 41
0.0
 71
     5
 72
     1
  1
7.5
  7
ASAMI
1001
ACAD
1000
MTEXTBEGIN
1070
    73
1070
     1
1070
    44
1040
1.0
1070
    74
1070
     0
1000
MTEXTEND
  0
POINT
  5
A552
330
A238
100
AcDbEntity
  8
DEFPOINTS
 62
     0
100
AcDbPoint
 10
-0.0000000000007114
 20
-2.5
 30
0.0
  0
POINT
  5
A553
330
A238
100
AcDbEntity
  8
DEFPOINTS
 62
     0
100
AcDbPoint
 10
-7.5
 20
-2.500000000000035
 30
0.0
  0
POINT
  5
A554
330
A238
100
AcDbEntity
  8
DEFPOINTS
 62
     0
100
AcDbPoint
 10
-7.5
 20
-10.00000099999994
 30
0.0
  0
ENDBLK
  5
A245
330
A238
100
AcDbEntity
  8
0
100
AcDbBlockEnd
  0
BLOCK
  5
A483
330
A479
100
AcDbEntity
  8
0
100
AcDbBlockBegin
  2
*D8
 70
     1
 10
0.0
 20
0.0
 30
0.0
  3
*D8
  1

  0
LINE
  5
A4BA
330
A479
100
AcDbEntity
  8
AM_5
100
AcDbLine
 10
-50.0
 20
2.999999999999973
 30
0.0
 11
-58.71056358178671
 21
2.999999999999976
 31
0.0
  0
LINE
  5
A4BB
330
A479
100
AcDbEntity
  8
AM_5
100
AcDbLine
 10
-50.00000000000002
 20
-3.000000000000026
 30
0.0
 11
-58.71056358178671
 21
-3.000000000000024
 31
0.0
  0
LINE
  5
A4BC
330
A479
100
AcDbEntity
  8
AM_5
100
AcDbLine
 10
-58.21056358178672
 20
1.749999999999976
 30
0.0
 11
-58.21056358178672
 21
-1.750000000000024
 31
0.0
  0
INSERT
  5
A4BD
330
A479
100
AcDbEntity
  8
AM_5
100
AcDbBlockReference
  2
_OPEN30
 10
-58.21056358178672
 20
2.999999999999976
 30
0.0
 41
1.25
 42
1.25
 43
1.25
 50
90.0
  0
INSERT
  5
A4BE
330
A479
100
AcDbEntity
  8
AM_5
100
AcDbBlockReference
  2
_OPEN30
 10
-58.21056358178672
 20
-3.000000000000024
 30
0.0
 41
1.25
 42
1.25
 43
1.25
 50
270.0
  0
MTEXT
  5
A4BF
330
A479
100
AcDbEntity
  8
AM_5
 62
     2
100
AcDbMText
 10
-59.76056358178671
 20
-0.0000000000000333
 30
0.0
 40
1.6
 41
0.0
 71
     5
 72
     1
  1
%%c6
  7
ASAMI
 11
0.0000000000000001
 21
1.0
 31
0.0
1001
ACAD
1000
MTEXTBEGIN
1070
    73
1070
     1
1070
    44
1040
1.0
1070
    74
1070
     0
1000
MTEXTEND
  0
POINT
  5
A4C0
330
A479
100
AcDbEntity
  8
DEFPOINTS
 62
     0
100
AcDbPoint
 10
-49.50000000000001
 20
2.999999999999973
 30
0.0
  0
POINT
  5
A4C1
330
A479
100
AcDbEntity
  8
DEFPOINTS
 62
     0
100
AcDbPoint
 10
-49.50000000000002
 20
-3.000000000000026
 30
0.0
  0
POINT
  5
A4C2
330
A479
100
AcDbEntity
  8
DEFPOINTS
 62
     0
100
AcDbPoint
 10
-58.21056358178672
 20
-3.000000000000024
 30
0.0
  0
ENDBLK
  5
A484
330
A479
100
AcDbEntity
  8
0
100
AcDbBlockEnd
  0
ENDSEC
  0
SECTION
  2
ENTITIES
  0
TEXT
  5
1500
330
1F
100
AcDbEntity
  8
AM_6
100
AcDbText
 10
-38.33333333333369
 20
-27.25000100000024
 30
0.0
 40
2.5
  1
S-SSM2050ZX
 72
     4
 11
-25.00000000000035
 21
-26.00000100000024
 31
0.0
100
AcDbText
  0
SPLINE
  5
9F99
330
1F
100
AcDbEntity
  8
AM_0
100
AcDbSpline
210
0.0
220
0.0
230
1.0
 70
     8
 71
     3
 72
     8
 73
     4
 74
     2
 42
0.0000000001
 43
0.0000000001
 44
0.0000000001
 12
-1.0
 22
-0.0000000000000008
 32
0.0
 40
0.0
 40
0.0
 40
0.0
 40
0.0
 40
7.244998274671946
 40
7.244998274671946
 40
7.244998274671946
 40
7.244998274671946
 10
0.0
 20
-2.500000000000035
 30
0.0
 10
-2.414999424890648
 20
-2.500000000000037
 30
0.0
 10
-4.607499712445305
 20
-1.250000000000036
 30
0.0
 10
-6.799999999999961
 20
-0.0000000000000355
 30
0.0
 11
0.0
 21
-2.500000000000035
 31
0.0
 11
-6.799999999999961
 21
-0.0000000000000355
 31
0.0
  0
SPLINE
  5
9F9A
330
1F
100
AcDbEntity
  8
AM_0
100
AcDbSpline
210
0.0
220
0.0
230
1.0
 70
     8
 71
     3
 72
     8
 73
     4
 74
     0
 42
0.0000000001
 43
0.0000000001
 40
1.870660592686466
 40
1.870660592686466
 40
1.870660592686466
 40
1.870660592686466
 40
14.43901837670146
 40
14.43901837670146
 40
14.43901837670146
 40
14.43901837670146
 10
-0.052500000000002
 20
-2.366720578810834
 30
0.0
 10
-2.10298229561431
 20
-2.110950306050689
 30
0.0
 10
-4.015128952308479
 20
-1.055475153025362
 30
0.0
 10
-5.927275609002649
 20
0.0000000000000711
 30
0.0
  0
SPLINE
  5
9F9B
330
1F
100
AcDbEntity
  8
AM_0
100
AcDbSpline
210
0.0
220
0.0
230
1.0
 70
     8
 71
     3
 72
     8
 73
     4
 74
     0
 42
0.0000000001
 43
0.0000000001
 40
4.219358800530717
 40
4.219358800530717
 40
4.219358800530717
 40
4.219358800530717
 40
14.36247867694493
 40
14.36247867694493
 40
14.36247867694493
 40
14.36247867694493
 10
-0.1875000000000071
 20
-2.039110092256493
 30
0.0
 10
-1.810541878445057
 20
-1.630473895844417
 30
0.0
 10
-3.36644176897856
 20
-0.8152369479221732
 30
0.0
 10
-4.922341659512312
 20
0.0000000000000711
 30
0.0
  0
SPLINE
  5
9F9C
330
1F
100
AcDbEntity
  8
AM_0
100
AcDbSpline
210
0.0
220
0.0
230
1.0
 70
     8
 71
     3
 72
     8
 73
     4
 74
     2
 42
0.0000000001
 43
0.0000000001
 44
0.0000000001
 12
-0.6417012268563095
 22
-0.7669547153848834
 32
0.0
 13
-0.9900999427831042
 23
-0.140364180975397
 33
0.0
 40
0.0
 40
0.0
 40
0.0
 40
0.0
 40
1.293282661808323
 40
1.293282661808323
 40
1.293282661808323
 40
1.293282661808323
 10
0.0
 20
2.037351343342024
 30
0.0
 10
-0.276633690251465
 20
1.706721598075555
 30
0.0
 10
-0.7514597523579663
 20
1.564736898462202
 30
0.0
 10
-1.1782861155109
 20
1.504226711264067
 30
0.0
 11
0.0
 21
2.037351343342024
 31
0.0
 11
-1.1782861155109
 21
1.504226711264067
 31
0.0
  0
SPLINE
  5
9F9D
330
1F
100
AcDbEntity
  8
AM_0
100
AcDbSpline
210
0.0
220
0.0
230
1.0
 70
     8
 71
     3
 72
     8
 73
     4
 74
     0
 42
0.0000000001
 43
0.0000000001
 40
12.94851199316644
 40
12.94851199316644
 40
12.94851199316644
 40
12.94851199316644
 40
14.48999654934388
 40
14.48999654934388
 40
14.48999654934388
 40
14.48999654934388
 10
-7.500000000020037
 20
0.3974300693683119
 30
0.0
 10
-7.266488079713546
 20
0.2659566810331526
 30
0.0
 10
-7.033244039856754
 20
0.1329783405166296
 30
0.0
 10
-6.799999999999961
 20
0.0000000000000711
 30
0.0
  0
SPLINE
  5
9F9E
330
1F
100
AcDbEntity
  8
AM_0
100
AcDbSpline
210
0.0
220
0.0
230
1.0
 70
     8
 71
     3
 72
     8
 73
     4
 74
     0
 42
0.0000000001
 43
0.0000000001
 40
10.71027982889745
 40
10.71027982889745
 40
10.71027982889745
 40
10.71027982889745
 40
14.43901837670146
 40
14.43901837670146
 40
14.43901837670146
 40
14.43901837670146
 10
-7.632755826781725
 20
0.9185221870085769
 30
0.0
 10
-7.061854218300069
 20
0.626269709530547
 30
0.0
 10
-6.494564913651359
 20
0.313134854765309
 30
0.0
 10
-5.927275609002649
 20
0.0000000000000711
 30
0.0
  0
SPLINE
  5
9F9F
330
1F
100
AcDbEntity
  8
AM_0
100
AcDbSpline
210
0.0
220
0.0
230
1.0
 70
     8
 71
     3
 72
     8
 73
     4
 74
     0
 42
0.0000000001
 43
0.0000000001
 40
4.451443990518355
 40
4.451443990518355
 40
4.451443990518355
 40
4.451443990518355
 40
14.36247867694493
 40
14.36247867694493
 40
14.36247867694493
 40
14.36247867694493
 10
-9.54587728327354
 20
2.010426274461742
 30
0.0
 10
-7.962940207409587
 20
1.593166948031736
 30
0.0
 10
-6.442640933461021
 20
0.7965834740159039
 30
0.0
 10
-4.922341659512312
 20
0.0000000000000711
 30
0.0
  0
SPLINE
  5
9FA0
330
1F
100
AcDbEntity
  8
AM_0
100
AcDbSpline
210
0.0
220
0.0
230
1.0
 70
     8
 71
     3
 72
     8
 73
     4
 74
     0
 42
0.0000000001
 43
0.0000000001
 40
0.0
 40
0.0
 40
0.0
 40
0.0
 40
7.57842115059705
 40
7.57842115059705
 40
7.57842115059705
 40
7.57842115059705
 10
0.0
 20
2.499999999999964
 30
0.0
 10
-1.263070191766004
 20
2.499999999999964
 30
0.0
 10
-2.465277960247931
 20
2.158074947991259
 30
0.0
 10
-3.638454995282032
 20
1.653055255508739
 30
0.0
  0
LINE
  5
9FA3
330
1F
100
AcDbEntity
  8
AM_7
  6
AM_ISO08W050X2
100
AcDbLine
 10
0.4557768030855201
 20
0.0
 30
0.0
 11
-51.21056258178672
 21
-0.0000000000000195
 31
0.0
1001
GENIUS_GENODEF_13
1002
{
1000
HIER
1070
     0
1002
}
1002
{
1000
MANEDIT
1070
     0
1002
}
1002
{
1000
NOSEL
1070
     0
1002
}
1002
{
1000
BEHIND
1070
     0
1002
}
1002
{
1000
REACTOR
1002
}
1001
GENIUS_GENOBJ-N-CEN_13
1002
{
1000
OWNER
1000
GEN
1002
}
  0
ARC
  5
9FA4
330
1F
100
AcDbEntity
  8
AM_0
100
AcDbCircle
 10
-9.62505184513013
 20
25.81171095554967
 30
0.0
 40
28.12867522986262
100
AcDbArc
 50
274.3326825342026
 51
282.3508609069303
  0
LINE
  5
9FA5
330
1F
100
AcDbEntity
  8
AM_11
100
AcDbLine
 10
-7.5
 20
-2.500000000000035
 30
0.0
 11
0.0
 21
-2.5
 31
0.0
  0
LINE
  5
9FA6
330
1F
100
AcDbEntity
  8
AM_0
100
AcDbLine
 10
-9.545877283273505
 20
2.010426274461885
 30
0.0
 11
-1.1782861155109
 21
1.504226711264067
 31
0.0
  0
LINE
  5
9FA7
330
1F
100
AcDbEntity
  8
AM_11
100
AcDbLine
 10
-0.0000000000004619
 20
2.5
 30
0.0
 11
-7.5
 21
2.499999999999964
 31
0.0
  0
ARC
  5
9FA8
330
1F
100
AcDbEntity
  8
AM_0
100
AcDbCircle
 10
7.103384221191397
 20
0.0105186558541703
 30
0.0
 40
7.566260194955924
100
AcDbArc
 50
175.3635181775062
 51
195.5055110014797
  0
LINE
  5
9FA9
330
1F
100
AcDbEntity
  8
AM_0
100
AcDbLine
 10
0.0
 20
-2.5
 30
0.0
 11
0.0
 21
0.1000000000000156
 31
0.0
  0
LINE
  5
9FAA
330
1F
100
AcDbEntity
  8
AM_0
100
AcDbLine
 10
-0.052500000000002
 20
-2.366720578810834
 30
0.0
 11
-0.052500000000002
 21
0.162567063611263
 31
0.0
  0
LINE
  5
9FAB
330
1F
100
AcDbEntity
  8
AM_0
100
AcDbLine
 10
-0.1678199262353175
 20
0.3000000000000469
 30
0.0
 11
0.0
 21
0.4999999999999716
 31
0.0
  0
LINE
  5
9FAC
330
1F
100
AcDbEntity
  8
AM_0
100
AcDbLine
 10
0.0
 20
0.1000000000000156
 30
0.0
 11
-1.1782861155109
 21
1.504226711264067
 31
0.0
  0
LINE
  5
9FAD
330
1F
100
AcDbEntity
  8
AM_0
100
AcDbLine
 10
0.0
 20
0.4999999999999716
 30
0.0
 11
0.0
 21
2.5
 31
0.0
  0
LINE
  5
9FAE
330
1F
100
AcDbEntity
  8
AM_0
100
AcDbLine
 10
0.0
 20
-2.5
 30
0.0
 11
-0.052500000000002
 21
-2.366720578810834
 31
0.0
  0
LINE
  5
9FAF
330
1F
100
AcDbEntity
  8
AM_0
100
AcDbLine
 10
-0.052500000000002
 20
-2.366720578810834
 30
0.0
 11
-0.1875000000000071
 21
-2.039110092256599
 31
0.0
  0
LINE
  5
9FB0
330
1F
100
AcDbEntity
  8
AM_0
100
AcDbLine
 10
-0.1875000000000071
 20
-2.039110092256599
 30
0.0
 11
-0.1875000000000071
 21
-2.012177715566281
 31
0.0
  0
LINE
  5
9FB1
330
1F
100
AcDbEntity
  8
AM_11
100
AcDbLine
 10
-7.5
 20
2.499999999999964
 30
0.0
 11
-7.5
 21
-2.500000000000035
 31
0.0
  0
ARC
  5
9FB2
330
1F
100
AcDbEntity
  8
AM_0
100
AcDbCircle
 10
-6.105536638377344
 20
-10.02288262304201
 30
0.0
 40
10.51320334980168
100
AcDbArc
 50
97.62213097231189
 51
122.2272946209595
  0
ARC
  5
9FB3
330
1F
100
AcDbEntity
  8
AM_0
100
AcDbCircle
 10
-11.12743828807229
 20
-9.112592361593918
 30
0.0
 40
11.64956836688514
100
AcDbArc
 50
70.53701686576866
 51
85.43377143209744
  0
LINE
  5
9FB4
330
1F
100
AcDbEntity
  8
AM_0
100
AcDbLine
 10
-7.63275582678176
 20
0.9185221870085769
 30
0.0
 11
-7.5
 21
0.3974300693570498
 31
0.0
  0
LINE
  5
9FB5
330
1F
100
AcDbEntity
  8
AM_0
100
AcDbLine
 10
-7.63275582678176
 20
0.9185221870085769
 30
0.0
 11
-7.5
 21
1.277164578784315
 31
0.0
  0
ARC
  5
9FB6
330
1F
100
AcDbEntity
  8
AM_0
100
AcDbCircle
 10
-7.576907192050299
 20
6.035945445948946
 30
0.0
 40
8.272881135027301
100
AcDbArc
 50
240.0106926152335
 51
270.5326464768187
  0
ARC
  5
9FB7
330
1F
100
AcDbEntity
  8
AM_0
100
AcDbCircle
 10
-6.108522969003225
 20
7.530138682887717
 30
0.0
 40
10.31435145911826
100
AcDbArc
 50
237.093413589489
 51
252.3518836890289
  0
ARC
  5
9FB8
330
1F
100
AcDbEntity
  8
AM_0
100
AcDbCircle
 10
-8.10632808258755
 20
0.6543538539330925
 30
0.0
 40
3.154354143338526
100
AcDbArc
 50
270.0245434567908
 51
296.7174160411491
  0
ARC
  5
9FB9
330
1F
100
AcDbEntity
  8
AM_0
100
AcDbCircle
 10
-8.129712882378761
 20
0.6376538820266351
 30
0.0
 40
3.137751384938379
100
AcDbArc
 50
249.3644317468464
 51
270.4516877188453
  0
DIMENSION
  5
A0FE
330
1F
100
AcDbEntity
  8
AM_5
100
AcDbDimension
  2
*D5
 10
7.455777803085535
 20
-2.500000000000037
 30
0.0
 11
5.905777803085536
 21
-0.0000000000000362
 31
0.0
 70
    32
  1
%%c<>
  3
AM_JIS
100
AcDbAlignedDimension
 13
0.0
 23
2.499999999999964
 33
0.0
 14
0.0
 24
-2.500000000000035
 34
0.0
 50
90.00000000000039
100
AcDbRotatedDimension
1001
GENIUS_GENDTOL_13
1000

1000
h7
1000

1040
0.0
  0
DIMENSION
  5
A1A7
330
1F
100
AcDbEntity
  8
AM_5
100
AcDbDimension
  2
*D6
 10
-50.00000000000002
 20
-16.00000100000024
 30
0.0
 11
-25.00000000000036
 21
-14.45000100000024
 31
0.0
 70
    32
  1
<>
  3
AM_JIS
100
AcDbAlignedDimension
 13
-0.0000000000007114
 23
-2.5
 33
0.0
 14
-50.00000000000002
 24
-2.500000000000026
 34
0.0
 50
0.0000000000004071
100
AcDbRotatedDimension
1001
GENIUS_GENDTOL_13
1000

1000
h7
1000

1040
0.0
  0
DIMENSION
  5
A237
330
1F
100
AcDbEntity
  8
AM_5
100
AcDbDimension
  2
*D7
 10
-7.5
 20
-10.00000099999994
 30
0.0
 11
-3.750000000000356
 21
-8.450000999999943
 31
0.0
 70
    32
  1
<>
  3
AM_JIS
100
AcDbAlignedDimension
 13
-0.0000000000007114
 23
-2.5
 33
0.0
 14
-7.5
 24
-2.500000000000035
 34
0.0
 50
0.0000000000004071
100
AcDbRotatedDimension
1001
GENIUS_GENDTOL_13
1000

1000
h7
1000

1040
0.0
  0
LINE
  5
A473
330
1F
100
AcDbEntity
  8
AM_0
100
AcDbLine
 10
-49.50000000000002
 20
-3.000000000000026
 30
0.0
 11
-16.00000000000002
 21
-3.000000000000003
 31
0.0
  0
LINE
  5
A476
330
1F
100
AcDbEntity
  8
AM_0
100
AcDbLine
 10
-50.0
 20
2.499999999999973
 30
0.0
 11
-50.00000000000002
 21
-2.500000000000027
 31
0.0
  0
LINE
  5
A477
330
1F
100
AcDbEntity
  8
AM_0
100
AcDbLine
 10
-49.50000000000001
 20
2.999999999999973
 30
0.0
 11
-49.50000000000002
 21
-3.000000000000026
 31
0.0
  0
DIMENSION
  5
A478
330
1F
100
AcDbEntity
  8
AM_5
100
AcDbDimension
  2
*D8
 10
-58.21056358178672
 20
-3.000000000000024
 30
0.0
 11
-59.76056358178671
 21
-0.0000000000000333
 31
0.0
 70
    32
  1
%%c<>
  3
AM_JIS
100
AcDbAlignedDimension
 13
-49.50000000000001
 23
2.999999999999973
 33
0.0
 14
-49.50000000000002
 24
-3.000000000000026
 34
0.0
 50
270.0
100
AcDbRotatedDimension
1001
GENIUS_GENDTOL_13
1000

1000
h7
1000

1040
0.0
  0
LINE
  5
A485
330
1F
100
AcDbEntity
  8
AM_0
100
AcDbLine
 10
-49.50000000000001
 20
2.999999999999973
 30
0.0
 11
-16.0
 21
2.999999999999996
 31
0.0
  0
LINE
  5
A491
330
1F
100
AcDbEntity
  8
AM_0
100
AcDbLine
 10
-49.50000000000001
 20
2.999999999999973
 30
0.0
 11
-50.0
 21
2.499999999999973
 31
0.0
1001
GENIUS_GENFIL_13
1070
     0
1040
0.5
1040
0.5
1040
20.0
1040
0.0
1002
{
1002
}
1001
GENIUS_GENODEF_13
1002
{
1000
HIER
1070
     0
1002
}
1002
{
1000
MANEDIT
1070
     0
1002
}
1002
{
1000
NOSEL
1070
     0
1002
}
1002
{
1000
BEHIND
1070
     0
1002
}
1002
{
1000
REACTOR
1002
}
1001
GENIUS_GENOBJ-N-CHA_13
1002
{
1000
OWNER
1000
GEN
1002
}
  0
LINE
  5
A494
330
1F
100
AcDbEntity
  8
AM_0
100
AcDbLine
 10
-50.00000000000002
 20
-2.500000000000027
 30
0.0
 11
-49.50000000000002
 21
-3.000000000000026
 31
0.0
1001
GENIUS_GENFIL_13
1070
     0
1040
0.5
1040
0.5
1040
20.0
1040
0.0
1002
{
1002
}
1001
GENIUS_GENODEF_13
1002
{
1000
HIER
1070
     0
1002
}
1002
{
1000
MANEDIT
1070
     0
1002
}
1002
{
1000
NOSEL
1070
     0
1002
}
1002
{
1000
BEHIND
1070
     0
1002
}
1002
{
1000
REACTOR
1002
}
1001
GENIUS_GENOBJ-N-CHA_13
1002
{
1000
OWNER
1000
GEN
1002
}
  0
LINE
  5
A4CA
330
1F
100
AcDbEntity
  8
AM_0
100
AcDbLine
 10
-16.0
 20
2.999999999999996
 30
0.0
 11
-16.00000000000002
 21
-3.000000000000003
 31
0.0
  0
LINE
  5
A52F
330
1F
100
AcDbEntity
  8
AM_0
100
AcDbLine
 10
-10.19999999999995
 20
2.499999999999962
 30
0.0
 11
-14.13397459621542
 21
2.499999999999959
 31
0.0
  0
LINE
  5
A530
330
1F
100
AcDbEntity
  8
AM_0
100
AcDbLine
 10
-8.104976870459379
 20
-2.500000000000035
 30
0.0
 11
-14.13397459621572
 21
-2.50000000000004
 31
0.0
  0
LINE
  5
A531
330
1F
100
AcDbEntity
  8
AM_0
100
AcDbLine
 10
-16.0
 20
2.999999999999996
 30
0.0
 11
-14.13397459621542
 21
2.499999999999959
 31
0.0
  0
LINE
  5
A532
330
1F
100
AcDbEntity
  8
AM_0
100
AcDbLine
 10
-14.13397459621542
 20
2.499999999999959
 30
0.0
 11
-14.13397459621572
 21
-2.50000000000004
 31
0.0
  0
LINE
  5
A533
330
1F
100
AcDbEntity
  8
AM_0
100
AcDbLine
 10
-14.13397459621572
 20
-2.50000000000004
 30
0.0
 11
-16.00000000000002
 21
-3.000000000000003
 31
0.0
  0
VIEWPORT
  5
110
330
101
100
AcDbEntity
 67
     1
  8
0
100
AcDbViewport
 10
420.5
 20
297.0
 30
0.0
 40
948.9782706766916
 41
628.452
 68
     1
 69
     1
1001
ACAD
1000
MVIEW
1002
{
1070
    16
1010
0.0
1020
0.0
1030
0.0
1010
0.0
1020
0.0
1030
1.0
1040
0.0
1040
628.452
1040
420.5
1040
297.0
1040
50.0
1040
0.0
1040
0.0
1070
     0
1070
   100
1070
     1
1070
     1
1070
     0
1070
     0
1070
     0
1070
     0
1040
0.0
1040
0.0
1040
0.0
1040
10.0
1040
10.0
1040
10.0
1040
10.0
1070
     0
1002
{
1002
}
1002
}
  0
ENDSEC
  0
SECTION
  2
OBJECTS
  0
DICTIONARY
  5
C
330
0
100
AcDbDictionary
  3
ACAD_GROUP
350
D
  3
ACAD_LAYOUT
350
1A
  3
ACAD_MLINESTYLE
350
17
  3
ACAD_PLOTSETTINGS
350
19
  3
ACAD_PLOTSTYLENAME
350
E
  3
ACDBVARIABLEDICTIONARY
350
34
  3
ACMDICTIONARY
350
43
  3
AMG
350
2B
  3
AMGSNAPSETTINGS
350
6E
  3
ASE_INDEX_DICTIONARY
350
151A
  3
DWGPROPS
350
A736
  3
ACDBHEADERROUNDTRIPXREC
350
A742
  0
DICTIONARY
  5
74
330
1F
100
AcDbDictionary
280
     1
  3
ACAD_INDEX
360
A738
  3
ACAD_LAYOUTSELFREF
360
A765
  0
DICTIONARY
  5
A76A
330
101
100
AcDbDictionary
280
     1
  3
ACAD_LAYOUTSELFREF
360
A76B
  0
DICTIONARY
  5
D
102
{ACAD_REACTORS
330
C
102
}
330
C
100
AcDbDictionary
  0
DICTIONARY
  5
1A
102
{ACAD_REACTORS
330
C
102
}
330
C
100
AcDbDictionary
  0
DICTIONARY
  5
17
102
{ACAD_REACTORS
330
C
102
}
330
C
100
AcDbDictionary
  3
STANDARD
350
18
  0
DICTIONARY
  5
19
102
{ACAD_REACTORS
330
C
102
}
330
C
100
AcDbDictionary
  0
ACDBDICTIONARYWDFLT
  5
E
102
{ACAD_REACTORS
330
C
102
}
330
C
100
AcDbDictionary
281
     1
  3
Normal
350
F
100
AcDbDictionaryWithDefault
340
F
  0
DICTIONARY
  5
34
102
{ACAD_REACTORS
330
C
102
}
330
C
100
AcDbDictionary
  3
INDEXCTL
350
35
  3
SORTENTS
350
B5E
  0
DICTIONARY
  5
43
102
{ACAD_REACTORS
330
C
102
}
330
C
100
AcDbDictionary
  3
ACMSTDDICTIONARY
350
260
  0
DICTIONARY
  5
2B
102
{ACAD_REACTORS
330
C
102
}
330
C
100
AcDbDictionary
  3
ACMGSETTINGS
350
2C
  0
DICTIONARY
  5
6E
102
{ACAD_REACTORS
330
C
102
}
330
C
100
AcDbDictionary
  0
DICTIONARY
  5
151A
102
{ACAD_REACTORS
330
C
102
}
330
C
100
AcDbDictionary
  3
ASEBLOCKHIERARCHYINDEXRECORD
350
151C
1001
DCO15
1040
1471862535.906
  0
XRECORD
  5
A736
102
{ACAD_REACTORS
330
C
102
}
330
C
100
AcDbXrecord
  1
DWGPROPS COOKIE
  2

  3

  4

  6

  7

  8

  9

300
AmdtFileType=82
301
=
302
=
303
=
304
=
305
=
306
=
307
=
308
=
309
=
 40
0.3699837731481481
 41
2452838.430434386
 42
2453054.432762315
  1

 90
        1
  0
DICTIONARY
  5
A742
102
{ACAD_REACTORS
330
C
102
}
330
C
100
AcDbDictionary
  3
TSTACKALIGN
350
A743
  3
TSTACKSIZE
350
A744
  3
HYPERLINKBASE
350
A745
  3
STYLESHEET
350
A746
  3
LAYOUTDICT
350
A747
  3
PLOTSETDICT
350
A748
  3
PLOTSTYLNAMDICT
350
A749
  3
LWETCUNION
350
A74A
  3
INSUNITS
350
A74B
  3
CEPSNTYPE
350
A74C
  3
FINGERPRINTGUID
350
A74D
  3
VERSIONGUID
350
A74E
  3
PSVPSCALE
350
A74F
  3
DIMSTYLEDATA
350
A750
  3
PUCSORTHOREF
350
A751
  3
PUCSORTHOVIEW
350
A752
  3
PUCSBASE
350
A753
  3
PUCSORGTOP
350
A754
  3
PUCSORGBOTTOM
350
A755
  3
PUCSORGLEFT
350
A756
  3
PUCSORGRIGHT
350
A757
  3
PUCSORGFRONT
350
A758
  3
PUCSORGBACK
350
A759
  3
UCSORTHOREF
350
A75A
  3
UCSORTHOVIEW
350
A75B
  3
UCSBASE
350
A75C
  3
UCSORGTOP
350
A75D
  3
UCSORGBOTTOM
350
A75E
  3
UCSORGLEFT
350
A75F
  3
UCSORGRIGHT
350
A760
  3
UCSORGFRONT
350
A761
  3
UCSORGBACK
350
A762
  0
DICTIONARY
  5
A738
102
{ACAD_REACTORS
330
74
102
}
330
74
100
AcDbDictionary
  3
*A1
350
A739
  0
XRECORD
  5
A765
102
{ACAD_REACTORS
330
74
102
}
330
74
100
AcDbXrecord
340
1F
  0
XRECORD
  5
A76B
102
{ACAD_REACTORS
330
A76A
102
}
330
A76A
100
AcDbXrecord
340
101
  0
MLINESTYLE
  5
18
102
{ACAD_REACTORS
330
17
102
}
330
17
100
AcDbMlineStyle
  2
STANDARD
 70
     0
  3

 62
   256
 51
90.0
 52
90.0
 71
     2
 49
0.5
 62
   256
  6
BYLAYER
 49
-0.5
 62
   256
  6
BYLAYER
  0
ACDBPLACEHOLDER
  5
F
102
{ACAD_REACTORS
330
E
102
}
330
E
100
AcDbPlaceHolder
280
     0
  0
DICTIONARYVAR
  5
35
102
{ACAD_REACTORS
330
34
102
}
330
34
100
DictionaryVariables
280
     0
  1
1
  0
DICTIONARYVAR
  5
B5E
102
{ACAD_REACTORS
330
34
102
}
330
34
100
DictionaryVariables
280
     0
  1
96
  0
DICTIONARY
  5
260
102
{ACAD_REACTORS
330
43
102
}
330
43
100
AcDbDictionary
  0
DICTIONARY
  5
2C
102
{ACAD_REACTORS
330
2B
102
}
330
2B
100
AcDbDictionary
  3
DWGSETTINGS
350
2D
  0
XRECORD
  5
151C
102
{ACAD_REACTORS
330
151A
102
}
330
151A
100
AcDbXrecord
330
0
330
0
330
0
330
0
330
0
330
0
330
0
330
0
  0
XRECORD
  5
A743
102
{ACAD_REACTORS
330
A742
102
}
330
A742
100
AcDbXrecord
 90
        1
  0
XRECORD
  5
A744
102
{ACAD_REACTORS
330
A742
102
}
330
A742
100
AcDbXrecord
 90
       70
  0
XRECORD
  5
A745
102
{ACAD_REACTORS
330
A742
102
}
330
A742
100
AcDbXrecord
  1

  0
XRECORD
  5
A746
102
{ACAD_REACTORS
330
A742
102
}
330
A742
100
AcDbXrecord
  1
ASAMI.ctb
  0
XRECORD
  5
A747
102
{ACAD_REACTORS
330
A742
102
}
330
A742
100
AcDbXrecord
340
1A
  0
XRECORD
  5
A748
102
{ACAD_REACTORS
330
A742
102
}
330
A742
100
AcDbXrecord
340
19
  0
XRECORD
  5
A749
102
{ACAD_REACTORS
330
A742
102
}
330
A742
100
AcDbXrecord
340
E
  0
XRECORD
  5
A74A
102
{ACAD_REACTORS
330
A742
102
}
330
A742
100
AcDbXrecord
 90
    10781
  0
XRECORD
  5
A74B
102
{ACAD_REACTORS
330
A742
102
}
330
A742
100
AcDbXrecord
 90
        4
  0
XRECORD
  5
A74C
102
{ACAD_REACTORS
330
A742
102
}
330
A742
100
AcDbXrecord
 90
        0
  0
XRECORD
  5
A74D
102
{ACAD_REACTORS
330
A742
102
}
330
A742
100
AcDbXrecord
  1
{AFB28963-8C59-40AE-9337-C84526B81ACE}
  0
XRECORD
  5
A74E
102
{ACAD_REACTORS
330
A742
102
}
330
A742
100
AcDbXrecord
  1
{E0AEBC63-C53E-4030-BB0E-E7B63E1A9D97}
  0
XRECORD
  5
A74F
102
{ACAD_REACTORS
330
A742
102
}
330
A742
100
AcDbXrecord
 40
0.0
  0
XRECORD
  5
A750
102
{ACAD_REACTORS
330
A742
102
}
330
A742
100
AcDbXrecord
1000
DSTYLE
1002
{
1070
    79
 70
     2
1070
   341
340
59
1070
   342
340
59
1070
   371
 70
    -1
1070
   372
 70
    -1
1002
}
  0
XRECORD
  5
A751
102
{ACAD_REACTORS
330
A742
102
}
330
A742
100
AcDbXrecord
340
0
  0
XRECORD
  5
A752
102
{ACAD_REACTORS
330
A742
102
}
330
A742
100
AcDbXrecord
 70
     0
  0
XRECORD
  5
A753
102
{ACAD_REACTORS
330
A742
102
}
330
A742
100
AcDbXrecord
340
0
  0
XRECORD
  5
A754
102
{ACAD_REACTORS
330
A742
102
}
330
A742
100
AcDbXrecord
 10
0.0
 20
0.0
 30
0.0
  0
XRECORD
  5
A755
102
{ACAD_REACTORS
330
A742
102
}
330
A742
100
AcDbXrecord
 10
0.0
 20
0.0
 30
0.0
  0
XRECORD
  5
A756
102
{ACAD_REACTORS
330
A742
102
}
330
A742
100
AcDbXrecord
 10
0.0
 20
0.0
 30
0.0
  0
XRECORD
  5
A757
102
{ACAD_REACTORS
330
A742
102
}
330
A742
100
AcDbXrecord
 10
0.0
 20
0.0
 30
0.0
  0
XRECORD
  5
A758
102
{ACAD_REACTORS
330
A742
102
}
330
A742
100
AcDbXrecord
 10
0.0
 20
0.0
 30
0.0
  0
XRECORD
  5
A759
102
{ACAD_REACTORS
330
A742
102
}
330
A742
100
AcDbXrecord
 10
0.0
 20
0.0
 30
0.0
  0
XRECORD
  5
A75A
102
{ACAD_REACTORS
330
A742
102
}
330
A742
100
AcDbXrecord
340
0
  0
XRECORD
  5
A75B
102
{ACAD_REACTORS
330
A742
102
}
330
A742
100
AcDbXrecord
 70
     0
  0
XRECORD
  5
A75C
102
{ACAD_REACTORS
330
A742
102
}
330
A742
100
AcDbXrecord
340
0
  0
XRECORD
  5
A75D
102
{ACAD_REACTORS
330
A742
102
}
330
A742
100
AcDbXrecord
 10
0.0
 20
0.0
 30
0.0
  0
XRECORD
  5
A75E
102
{ACAD_REACTORS
330
A742
102
}
330
A742
100
AcDbXrecord
 10
0.0
 20
0.0
 30
0.0
  0
XRECORD
  5
A75F
102
{ACAD_REACTORS
330
A742
102
}
330
A742
100
AcDbXrecord
 10
0.0
 20
0.0
 30
0.0
  0
XRECORD
  5
A760
102
{ACAD_REACTORS
330
A742
102
}
330
A742
100
AcDbXrecord
 10
0.0
 20
0.0
 30
0.0
  0
XRECORD
  5
A761
102
{ACAD_REACTORS
330
A742
102
}
330
A742
100
AcDbXrecord
 10
0.0
 20
0.0
 30
0.0
  0
XRECORD
  5
A762
102
{ACAD_REACTORS
330
A742
102
}
330
A742
100
AcDbXrecord
 10
0.0
 20
0.0
 30
0.0
  0
LAYER_INDEX
  5
A739
102
{ACAD_REACTORS
330
A738
102
}
330
A738
100
AcDbIndex
 40
2453151.770100532
100
AcDbLayerIndex
  8
0
360
A73A
 90
        0
  8
AM_0
360
A73B
 90
       39
  8
AM_11
360
A73C
 90
        3
  8
AM_7
360
A73D
 90
        1
  8
AM_5
360
A73E
 90
        4
  8
Defpoints
360
A73F
 90
        0
  8
AM_6
360
A740
 90
        1
  0
XRECORD
  5
2D
102
{ACAD_REACTORS
330
2C
102
}
330
2C
100
AcDbXrecord
  1
VERSION
140
15.0
  1
PRODUCT
  2
AutoCAD Mechanical 2000
  0
IDBUFFER
  5
A73A
330
0
100
AcDbIdBuffer
  0
IDBUFFER
  5
A73B
330
0
100
AcDbIdBuffer
330
9FAE
330
9FAF
330
9FB0
330
9FB2
330
9FB3
330
9FB4
330
9FB5
330
9FB6
330
9FB7
330
9FB8
330
9FB9
330
A473
330
A476
330
A477
330
A485
330
A491
330
A494
330
A4CA
330
A52F
330
A530
330
A531
330
A532
330
A533
330
9F99
330
9F9A
330
9F9B
330
9F9C
330
9F9D
330
9F9E
330
9F9F
330
9FA0
330
9FA4
330
9FA6
330
9FA8
330
9FA9
330
9FAA
330
9FAB
330
9FAC
330
9FAD
  0
IDBUFFER
  5
A73C
330
0
100
AcDbIdBuffer
330
9FA5
330
9FA7
330
9FB1
  0
IDBUFFER
  5
A73D
330
0
100
AcDbIdBuffer
330
9FA3
  0
IDBUFFER
  5
A73E
330
0
100
AcDbIdBuffer
330
A0FE
330
A1A7
330
A237
330
A478
  0
IDBUFFER
  5
A73F
330
0
100
AcDbIdBuffer
  0
IDBUFFER
  5
A740
330
0
100
AcDbIdBuffer
330
1500
  0
ENDSEC
  0
EOF
