  0
SECTION
  2
HEADER
  9
$ACADVER
  1
AC1014
  9
$ACADMAINTVER
 70
     9
  9
$DWGCODEPAGE
  3
ANSI_932
  9
$INSBASE
 10
0.0
 20
0.0
 30
0.0
  9
$EXTMIN
 10
-89.35000000000007
 20
-33.24999999999987
 30
-0.00000001
  9
$EXTMAX
 10
8.829530889074508
 20
8.585734943800522
 30
0.00000001
  9
$LIMMIN
 10
-110.7624335220597
 20
-50.41532748630266
  9
$LIMMAX
 10
23.48697032489889
 20
20.68965772717771
  9
$ORTHOMODE
 70
     0
  9
$REGENMODE
 70
     1
  9
$FILLMODE
 70
     1
  9
$QTEXTMODE
 70
     0
  9
$MIRRTEXT
 70
     0
  9
$DRAGMODE
 70
     2
  9
$LTSCALE
 40
0.3
  9
$OSMODE
 70
    55
  9
$ATTMODE
 70
     1
  9
$TEXTSIZE
 40
2.5
  9
$TRACEWID
 40
1.0
  9
$TEXTSTYLE
  7
STANDARD
  9
$CLAYER
  8
AM_0
  9
$CELTYPE
  6
BYLAYER
  9
$CECOLOR
 62
   256
  9
$CELTSCALE
 40
1.0
  9
$DELOBJ
 70
     1
  9
$DISPSILH
 70
     0
  9
$DIMSCALE
 40
0.5
  9
$DIMASZ
 40
2.5
  9
$DIMEXO
 40
1.0
  9
$DIMDLI
 40
12.0
  9
$DIMRND
 40
0.0
  9
$DIMDLE
 40
0.0
  9
$DIMEXE
 40
1.0
  9
$DIMTP
 40
0.1
  9
$DIMTM
 40
0.1
  9
$DIMTXT
 40
3.2
  9
$DIMCEN
 40
0.0
  9
$DIMTSZ
 40
0.0
  9
$DIMTOL
 70
     0
  9
$DIMLIM
 70
     0
  9
$DIMTIH
 70
     0
  9
$DIMTOH
 70
     0
  9
$DIMSE1
 70
     0
  9
$DIMSE2
 70
     0
  9
$DIMTAD
 70
     3
  9
$DIMZIN
 70
     8
  9
$DIMBLK
  1
OPEN30
  9
$DIMASO
 70
     1
  9
$DIMSHO
 70
     1
  9
$DIMPOST
  1

  9
$DIMAPOST
  1
"
  9
$DIMALT
 70
     0
  9
$DIMALTD
 70
     2
  9
$DIMALTF
 40
0.0393701
  9
$DIMLFAC
 40
1.0
  9
$DIMTOFL
 70
     1
  9
$DIMTVP
 40
0.0
  9
$DIMTIX
 70
     0
  9
$DIMSOXD
 70
     0
  9
$DIMSAH
 70
     0
  9
$DIMBLK1
  1

  9
$DIMBLK2
  1

  9
$DIMSTYLE
  2
AM_JIS
  9
$DIMCLRD
 70
   256
  9
$DIMCLRE
 70
   256
  9
$DIMCLRT
 70
     2
  9
$DIMTFAC
 40
0.71
  9
$DIMGAP
 40
1.5
  9
$DIMJUST
 70
     0
  9
$DIMSD1
 70
     0
  9
$DIMSD2
 70
     0
  9
$DIMTOLJ
 70
     0
  9
$DIMTZIN
 70
     0
  9
$DIMALTZ
 70
     0
  9
$DIMALTTZ
 70
     0
  9
$DIMFIT
 70
     3
  9
$DIMUPT
 70
     0
  9
$DIMUNIT
 70
     2
  9
$DIMDEC
 70
     3
  9
$DIMTDEC
 70
     3
  9
$DIMALTU
 70
     2
  9
$DIMALTTD
 70
     2
  9
$DIMTXSTY
  7
ASAMI
  9
$DIMAUNIT
 70
     0
  9
$LUNITS
 70
     2
  9
$LUPREC
 70
     2
  9
$SKETCHINC
 40
1.0
  9
$FILLETRAD
 40
0.5
  9
$AUNITS
 70
     0
  9
$AUPREC
 70
     0
  9
$MENU
  1
.
  9
$ELEVATION
 40
0.0
  9
$PELEVATION
 40
0.0
  9
$THICKNESS
 40
0.0
  9
$LIMCHECK
 70
     0
  9
$BLIPMODE
 70
     0
  9
$CHAMFERA
 40
2.5
  9
$CHAMFERB
 40
2.5
  9
$CHAMFERC
 40
20.0
  9
$CHAMFERD
 40
0.0
  9
$SKPOLY
 70
     0
  9
$TDCREATE
 40
2452838.620506898
  9
$TDUPDATE
 40
2453151.867207291
  9
$TDINDWG
 40
0.2242504167
  9
$TDUSRTIMER
 40
0.2242504167
  9
$USRTIMER
 70
     1
  9
$ANGBASE
 50
0.0
  9
$ANGDIR
 70
     0
  9
$PDMODE
 70
     0
  9
$PDSIZE
 40
0.0
  9
$PLINEWID
 40
0.0
  9
$COORDS
 70
     1
  9
$SPLFRAME
 70
     0
  9
$SPLINETYPE
 70
     6
  9
$SPLINESEGS
 70
     8
  9
$ATTDIA
 70
     1
  9
$ATTREQ
 70
     1
  9
$HANDLING
 70
 12289
  9
$HANDSEED
  5
23ED
  9
$SURFTAB1
 70
     6
  9
$SURFTAB2
 70
     6
  9
$SURFTYPE
 70
     6
  9
$SURFU
 70
     6
  9
$SURFV
 70
     6
  9
$UCSNAME
  2

  9
$UCSORG
 10
-0.0000000000000568
 20
-0.0000000000000036
 30
0.0
  9
$UCSXDIR
 10
1.0
 20
0.0
 30
0.0
  9
$UCSYDIR
 10
0.0
 20
1.0
 30
0.0
  9
$PUCSNAME
  2

  9
$PUCSORG
 10
0.0
 20
0.0
 30
0.0
  9
$PUCSXDIR
 10
1.0
 20
0.0
 30
0.0
  9
$PUCSYDIR
 10
0.0
 20
1.0
 30
0.0
  9
$USERI1
 70
     0
  9
$USERI2
 70
     0
  9
$USERI3
 70
     0
  9
$USERI4
 70
     0
  9
$USERI5
 70
     0
  9
$USERR1
 40
0.0
  9
$USERR2
 40
0.0
  9
$USERR3
 40
0.0
  9
$USERR4
 40
0.0
  9
$USERR5
 40
0.0
  9
$WORLDVIEW
 70
     1
  9
$SHADEDGE
 70
     3
  9
$SHADEDIF
 70
    70
  9
$TILEMODE
 70
     1
  9
$MAXACTVP
 70
    64
  9
$PINSBASE
 10
0.0
 20
0.0
 30
0.0
  9
$PLIMCHECK
 70
     0
  9
$PEXTMIN
 10
1.000000000000000E+20
 20
1.000000000000000E+20
 30
1.000000000000000E+20
  9
$PEXTMAX
 10
-1.000000000000000E+20
 20
-1.000000000000000E+20
 30
-1.000000000000000E+20
  9
$PLIMMIN
 10
0.0
 20
0.0
  9
$PLIMMAX
 10
841.0
 20
594.0
  9
$UNITMODE
 70
     0
  9
$VISRETAIN
 70
     1
  9
$PLINEGEN
 70
     0
  9
$PSLTSCALE
 70
     0
  9
$TREEDEPTH
 70
  3020
  9
$PICKSTYLE
 70
     0
  9
$CMLSTYLE
  2
STANDARD
  9
$CMLJUST
 70
     0
  9
$CMLSCALE
 40
20.0
  9
$PROXYGRAPHICS
 70
     1
  9
$MEASUREMENT
 70
     1
  0
ENDSEC
  0
SECTION
  2
CLASSES
  0
CLASS
  1
ACDBDICTIONARYWDFLT
  2
AcDbDictionaryWithDefault
  3
AutoCAD 2000
 90
        0
280
     0
281
     0
  0
CLASS
  1
ACDBPLACEHOLDER
  2
AcDbPlaceHolder
  3
AutoCAD 2000
 90
        0
280
     0
281
     0
  0
CLASS
  1
LAYOUT
  2
AcDbLayout
  3
AutoCAD 2000
 90
        0
280
     0
281
     0
  0
CLASS
  1
AMGSETTINGSOBJ
  2
AmgSettingsObj
  3
"AcadM|Product Description: AutoCAD Mechanical 2000|Company: Autodesk"
 90
        0
280
     0
281
     0
  0
CLASS
  1
ACME_DOCUMENT
  2
AcMeDbDoc
  3
AcMeServices
 90
        0
280
     0
281
     0
  0
CLASS
  1
ACMESCOPE
  2
AcMeScope
  3
AcMeServices
 90
        0
280
     0
281
     0
  0
CLASS
  1
ACMECOMMANDHISTORY
  2
AcMeCommandHistory
  3
AcMeServices
 90
        0
280
     0
281
     0
  0
CLASS
  1
DICTIONARYVAR
  2
AcDbDictionaryVar
  3
AutoCAD 2000
 90
        0
280
     0
281
     0
  0
CLASS
  1
ACIMSYSVARMAN
  2
AcImSysVarManager
  3
AcMeServices
 90
        0
280
     0
281
     0
  0
CLASS
  1
ACIMREALSYSVAR
  2
AcImRealSysVar
  3
AcMeServices
 90
        0
280
     0
281
     0
  0
CLASS
  1
ACIMINTSYSVAR
  2
AcImIntSysVar
  3
AcMeServices
 90
        0
280
     0
281
     0
  0
CLASS
  1
ACMEDRAWINGMAN
  2
AcMeDrawingMan
  3
AcMeServices
 90
        0
280
     0
281
     0
  0
CLASS
  1
ACMEVIEW
  2
AcMeView
  3
AcMeServices
 90
        0
280
     0
281
     0
  0
CLASS
  1
ACDBENTITYCACHE
  2
AcMeEntityCache
  3
AcMeServices
 90
        0
280
     0
281
     0
  0
CLASS
  1
GSMANAGER
  2
AcMeGSManager
  3
AcMeServices
 90
        0
280
     0
281
     0
  0
CLASS
  1
AmdtInternalReactor
  2
AmdtInternalReactor
  3
AcMeServices
 90
        0
280
     0
281
     0
  0
CLASS
  1
ACMESTATEMGR
  2
AcMeStateMgr
  3
AcMeServices
 90
        0
280
     0
281
     0
  0
CLASS
  1
ACME_DATABASE
  2
AcMeDbDatabase
  3
AcMeServices
 90
        0
280
     0
281
     0
  0
CLASS
  1
ACRFINSADJUSTERMGR
  2
AcRfInsAdjusterMgr
  3
AcMeServices
 90
        0
280
     0
281
     0
  0
CLASS
  1
ACMDATADICTIONARY
  2
AcmDataDictionary
  3
"AcmSymBB|Product Description: AutoCAD Mechanical 2000|Company: Autodesk"
 90
        0
280
     0
281
     0
  0
CLASS
  1
ACMDATAENTRYBLOCK
  2
AcmDataEntryBlock
  3
"AcmSymBB|Product Description: AutoCAD Mechanical 2000|Company: Autodesk"
 90
        0
280
     0
281
     0
  0
CLASS
  1
AMGOBJPROPCFG
  2
AmgObjPropCfg
  3
"AmgLay|Product Description: AutoCAD Mechanical 2000|Company: Autodesk"
 90
        1
280
     0
281
     0
  0
CLASS
  1
ACAMGFILTERDAT
  2
AcAmgFilterDat
  3
"AcadM|Product Description: AutoCAD Mechanical 2000|Company: Autodesk"
 90
        0
280
     0
281
     0
  0
CLASS
  1
LAYER_INDEX
  2
AcDbLayerIndex
  3
AutoCAD 2000
 90
        0
280
     0
281
     0
  0
CLASS
  1
IDBUFFER
  2
AcDbIdBuffer
  3
AutoCAD 2000
 90
        0
280
     0
281
     0
  0
CLASS
  1
ACIMSTRSYSVAR
  2
AcImStrSysVar
  3
AcMeServices
 90
        0
280
     0
281
     0
  0
CLASS
  1
ACMSTANDARDJIS
  2
AcmStandardJIS
  3
"AcmSymBB|Product Description: AutoCAD Mechanical 2000|Company: Autodesk"
 90
        0
280
     0
281
     0
  0
CLASS
  1
ACMSURFSTANDARDJIS
  2
AcmSurfTextStdJIS
  3
"AcmSymBB|Product Description: AutoCAD Mechanical 2000|Company: Autodesk"
 90
        0
280
     0
281
     0
  0
CLASS
  1
ACMFCFSTANDARDJIS
  2
AcmFCFStdJIS
  3
"AcmSymBB|Product Description: AutoCAD Mechanical 2000|Company: Autodesk"
 90
        0
280
     0
281
     0
  0
CLASS
  1
ACMWELDSTANDARDJIS
  2
AcmWeldingStdJIS
  3
"AcmSymBB|Product Description: AutoCAD Mechanical 2000|Company: Autodesk"
 90
        0
280
     0
281
     0
  0
CLASS
  1
ACMIDSTANDARDJIS
  2
AcmIdStdJIS
  3
"AcmSymBB|Product Description: AutoCAD Mechanical 2000|Company: Autodesk"
 90
        0
280
     0
281
     0
  0
CLASS
  1
ACMDATUMSTANDARDJIS
  2
AcmDatumStdJIS
  3
"AcmSymBB|Product Description: AutoCAD Mechanical 2000|Company: Autodesk"
 90
        0
280
     0
281
     0
  0
CLASS
  1
ACMBOMSTANDARDJIS
  2
AcmBOMStdJIS
  3
"AcmSymBB|Product Description: AutoCAD Mechanical 2000|Company: Autodesk"
 90
        0
280
     0
281
     0
  0
CLASS
  1
ACMSTANDARDANSI
  2
AcmStandardANSI
  3
"AcmSymBB|Product Description: AutoCAD Mechanical 2000|Company: Autodesk"
 90
        0
280
     0
281
     0
  0
CLASS
  1
ACMSURFSTANDARDANSI
  2
AcmSurfTextStdANSI
  3
"AcmSymBB|Product Description: AutoCAD Mechanical 2000|Company: Autodesk"
 90
        0
280
     0
281
     0
  0
CLASS
  1
ACMFCFSTANDARDANSI
  2
AcmFCFStdANSI
  3
"AcmSymBB|Product Description: AutoCAD Mechanical 2000|Company: Autodesk"
 90
        0
280
     0
281
     0
  0
CLASS
  1
ACMWELDSTANDARDANSI
  2
AcmWeldingStdANSI
  3
"AcmSymBB|Product Description: AutoCAD Mechanical 2000|Company: Autodesk"
 90
        0
280
     0
281
     0
  0
CLASS
  1
ACMIDSTANDARDANSI
  2
AcmIdStdANSI
  3
"AcmSymBB|Product Description: AutoCAD Mechanical 2000|Company: Autodesk"
 90
        0
280
     0
281
     0
  0
CLASS
  1
ACMDATUMSTANDARDANSI
  2
AcmDatumStdANSI
  3
"AcmSymBB|Product Description: AutoCAD Mechanical 2000|Company: Autodesk"
 90
        0
280
     0
281
     0
  0
CLASS
  1
ACMBOMSTANDARDANSI
  2
AcmBOMStdANSI
  3
"AcmSymBB|Product Description: AutoCAD Mechanical 2000|Company: Autodesk"
 90
        0
280
     0
281
     0
  0
CLASS
  1
ACMSTANDARDBSI
  2
AcmStandardBSI
  3
"AcmSymBB|Product Description: AutoCAD Mechanical 2000|Company: Autodesk"
 90
        0
280
     0
281
     0
  0
CLASS
  1
ACMSURFSTANDARDBSI
  2
AcmSurfTextStdBSI
  3
"AcmSymBB|Product Description: AutoCAD Mechanical 2000|Company: Autodesk"
 90
        0
280
     0
281
     0
  0
CLASS
  1
ACMFCFSTANDARDBSI
  2
AcmFCFStdBSI
  3
"AcmSymBB|Product Description: AutoCAD Mechanical 2000|Company: Autodesk"
 90
        0
280
     0
281
     0
  0
CLASS
  1
ACMWELDSTANDARDBSI
  2
AcmWeldingStdBSI
  3
"AcmSymBB|Product Description: AutoCAD Mechanical 2000|Company: Autodesk"
 90
        0
280
     0
281
     0
  0
CLASS
  1
ACMIDSTANDARDBSI
  2
AcmIdStdBSI
  3
"AcmSymBB|Product Description: AutoCAD Mechanical 2000|Company: Autodesk"
 90
        0
280
     0
281
     0
  0
CLASS
  1
ACMDATUMSTANDARDBSI
  2
AcmDatumStdBSI
  3
"AcmSymBB|Product Description: AutoCAD Mechanical 2000|Company: Autodesk"
 90
        0
280
     0
281
     0
  0
CLASS
  1
ACMBOMSTANDARDBSI
  2
AcmBOMStdBSI
  3
"AcmSymBB|Product Description: AutoCAD Mechanical 2000|Company: Autodesk"
 90
        0
280
     0
281
     0
  0
CLASS
  1
LONG_TRANSACTION
  2
AcDbLongTransaction
  3
AutoCAD 2000
 90
        0
280
     0
281
     0
  0
CLASS
  1
LWPOLYLINE
  2
AcDbPolyline
  3
AutoCAD 2000
 90
        0
280
     0
281
     1
  0
CLASS
  1
HATCH
  2
AcDbHatch
  3
AutoCAD 2000
 90
        0
280
     0
281
     1
  0
CLASS
  1
XRECORD
  2
AcDbXrecord
  3
AutoCAD 2000
 90
        0
280
     0
281
     0
  0
ENDSEC
  0
SECTION
  2
TABLES
  0
TABLE
  2
VPORT
  5
8
330
0
100
AcDbSymbolTable
 70
     3
  0
VPORT
  5
23C2
330
8
100
AcDbSymbolTableRecord
100
AcDbViewportTableRecord
  2
*ACTIVE
 70
     0
 10
0.0
 20
0.0
 11
1.0
 21
1.0
 12
-25.22643280384476
 22
-3.342523251972664
 13
0.0
 23
0.0
 14
2.5
 24
2.5
 15
10.0
 25
10.0
 16
0.0
 26
0.0
 36
1.0
 17
0.0
 27
0.0
 37
0.0
 40
137.9671241860263
 41
1.56570841889117
 42
50.0
 43
0.0
 44
0.0
 50
0.0
 51
0.0
 71
     0
 72
   100
 73
     1
 74
     3
 75
     0
 76
     0
 77
     0
 78
     0
  0
ENDTAB
  0
TABLE
  2
LTYPE
  5
5
330
0
100
AcDbSymbolTable
 70
    10
  0
LTYPE
  5
14
330
5
100
AcDbSymbolTableRecord
100
AcDbLinetypeTableRecord
  2
BYBLOCK
 70
     0
  3

 72
    65
 73
     0
 40
0.0
  0
LTYPE
  5
15
330
5
100
AcDbSymbolTableRecord
100
AcDbLinetypeTableRecord
  2
BYLAYER
 70
     0
  3

 72
    65
 73
     0
 40
0.0
  0
LTYPE
  5
16
330
5
100
AcDbSymbolTableRecord
100
AcDbLinetypeTableRecord
  2
CONTINUOUS
 70
     0
  3
Solid line
 72
    65
 73
     0
 40
0.0
  0
LTYPE
  5
4B
330
5
100
AcDbSymbolTableRecord
100
AcDbLinetypeTableRecord
  2
AM_ISO02W050
 70
     0
  3
__ __ __ __ __ __ __ __ __ __ __ __ __ __ __
 72
    65
 73
     2
 40
7.5
 49
6.0
 74
     0
 49
-1.5
 74
     0
  0
LTYPE
  5
4C
330
5
100
AcDbSymbolTableRecord
100
AcDbLinetypeTableRecord
  2
AM_ISO08W050
 70
     0
  3
____ . ____ . ____ . ____ . ____ . ____ . ____
 72
    65
 73
     4
 40
18.0
 49
12.0
 74
     0
 49
-1.5
 74
     0
 49
3.0
 74
     0
 49
-1.5
 74
     0
  0
LTYPE
  5
4D
330
5
100
AcDbSymbolTableRecord
100
AcDbLinetypeTableRecord
  2
AM_ISO09W050
 70
     0
  3
_____ . . _____ . . _____ . . ____ .. ____
 72
    65
 73
     6
 40
22.5
 49
12.0
 74
     0
 49
-1.5
 74
     0
 49
3.0
 74
     0
 49
-1.5
 74
     0
 49
3.0
 74
     0
 49
-1.5
 74
     0
  0
LTYPE
  5
4E
330
5
100
AcDbSymbolTableRecord
100
AcDbLinetypeTableRecord
  2
AMCONSTR
 70
     0
  3
_______________________
 72
    65
 73
     2
 40
9999.0
 49
9999.0
 74
     0
 49
0.0
 74
     0
  0
LTYPE
  5
4F
330
5
100
AcDbSymbolTableRecord
100
AcDbLinetypeTableRecord
  2
AM_ISO02W050X2
 70
     0
  3
 _ _ _ _ _ _ _ _ _ _ _ _
 72
    65
 73
     2
 40
3.75
 49
3.0
 74
     0
 49
-0.75
 74
     0
  0
LTYPE
  5
50
330
5
100
AcDbSymbolTableRecord
100
AcDbLinetypeTableRecord
  2
AM_ISO08W050X2
 70
     0
  3
__ . __ . __ . __ . __ . __
 72
    65
 73
     4
 40
9.0
 49
6.0
 74
     0
 49
-0.75
 74
     0
 49
1.5
 74
     0
 49
-0.75
 74
     0
  0
LTYPE
  5
53
330
5
100
AcDbSymbolTableRecord
100
AcDbLinetypeTableRecord
  2
AMZIGZAG
 70
     0
  3
/\/-/\/-/\/-/\/-/\/-/\/
 72
    65
 73
     2
 40
11.00009999999999
 49
0.0001
 74
     4
 75
   135
340
52
 46
0.04
 50
0.0
 44
0.0
 45
0.0
 49
-11.0
 74
     0
  0
LTYPE
  5
166
330
5
100
AcDbSymbolTableRecord
100
AcDbLinetypeTableRecord
  2
ACJISTGL
 70
     0
  3
_ _ _ _ _
 72
    65
 73
     2
 40
3.0
 49
2.0
 74
     0
 49
-1.0
 74
     0
  0
LTYPE
  5
26A
330
5
100
AcDbSymbolTableRecord
100
AcDbLinetypeTableRecord
  2
ACJISTGB
 70
     0
  3
__ . . __ . .
 72
    65
 73
     6
 40
9.0
 49
4.0
 74
     0
 49
-1.0
 74
     0
 49
1.0
 74
     0
 49
-1.0
 74
     0
 49
1.0
 74
     0
 49
-1.0
 74
     0
  0
ENDTAB
  0
TABLE
  2
LAYER
  5
2
330
0
100
AcDbSymbolTable
 70
     8
  0
LAYER
  5
10
330
2
100
AcDbSymbolTableRecord
100
AcDbLayerTableRecord
  2
0
 70
     0
 62
     7
  6
CONTINUOUS
  0
LAYER
  5
3F9
330
2
100
AcDbSymbolTableRecord
100
AcDbLayerTableRecord
  2
AM_0
 70
     0
 62
     7
  6
CONTINUOUS
  0
LAYER
  5
BD6
330
2
100
AcDbSymbolTableRecord
100
AcDbLayerTableRecord
  2
AM_11
 70
     0
 62
     3
  6
AM_ISO09W050
  0
LAYER
  5
BD7
330
2
100
AcDbSymbolTableRecord
100
AcDbLayerTableRecord
  2
AM_7
 70
     0
 62
     4
  6
AM_ISO08W050
  0
LAYER
  5
BD8
330
2
100
AcDbSymbolTableRecord
100
AcDbLayerTableRecord
  2
AM_5
 70
     0
 62
     3
  6
CONTINUOUS
  0
LAYER
  5
BD9
330
2
100
AcDbSymbolTableRecord
100
AcDbLayerTableRecord
  2
DEFPOINTS
 70
     0
 62
     7
  6
CONTINUOUS
  0
LAYER
  5
BDA
330
2
100
AcDbSymbolTableRecord
100
AcDbLayerTableRecord
  2
AM_6
 70
     0
 62
     2
  6
CONTINUOUS
  0
LAYER
  5
22B7
330
2
100
AcDbSymbolTableRecord
100
AcDbLayerTableRecord
  2
AM_CL
 70
     0
 62
     1
  6
AMCONSTR
  0
ENDTAB
  0
TABLE
  2
STYLE
  5
3
330
0
100
AcDbSymbolTable
 70
     5
  0
STYLE
  5
11
330
3
100
AcDbSymbolTableRecord
100
AcDbTextStyleTableRecord
  2
STANDARD
 70
     0
 40
0.0
 41
1.0
 50
0.0
 71
     0
 42
2.5
  3
simplex.shx
  4
EXTFONT.SHX
  0
STYLE
  5
52
330
3
100
AcDbSymbolTableRecord
100
AcDbTextStyleTableRecord
  2

 70
     1
 40
0.0
 41
1.0
 50
0.0
 71
     0
 42
2.5
  3
ltypeshp.shx
  4

  0
STYLE
  5
6B
330
3
100
AcDbSymbolTableRecord
100
AcDbTextStyleTableRecord
  2
ASAMI
 70
     0
 40
0.0
 41
1.0
 50
0.0
 71
     0
 42
2.5
  3
simplex.shx
  4
EXTFONT.SHX
  0
STYLE
  5
262
330
3
100
AcDbSymbolTableRecord
100
AcDbTextStyleTableRecord
  2
ACJISTS
 70
     0
 40
1.0
 41
1.0
 50
0.0
 71
     0
 42
2.5
  3
simplex.shx
  4
bigfont.shx
  0
STYLE
  5
269
330
3
100
AcDbSymbolTableRecord
100
AcDbTextStyleTableRecord
  2
ACJISGDT
 70
     0
 40
0.0
 41
1.0
 50
0.0
 71
     0
 42
2.5
  3
amgdtans.shx
  4

  0
ENDTAB
  0
TABLE
  2
VIEW
  5
6
330
0
100
AcDbSymbolTable
 70
     0
  0
ENDTAB
  0
TABLE
  2
UCS
  5
7
330
0
100
AcDbSymbolTable
 70
     0
  0
ENDTAB
  0
TABLE
  2
APPID
  5
9
330
0
100
AcDbSymbolTable
 70
    13
  0
APPID
  5
12
330
9
100
AcDbSymbolTableRecord
100
AcDbRegAppTableRecord
  2
ACAD
 70
     0
  0
APPID
  5
30
330
9
100
AcDbSymbolTableRecord
100
AcDbRegAppTableRecord
  2
MCAD_NO_VIS
 70
     0
  0
APPID
  5
31
330
9
100
AcDbSymbolTableRecord
100
AcDbRegAppTableRecord
  2
ACAD_TEMP_GRAPHIC
 70
     0
  0
APPID
  5
2C2
330
9
100
AcDbSymbolTableRecord
100
AcDbRegAppTableRecord
  2
GENIUS_GENDTOL_13
 70
     0
  0
APPID
  5
339
330
9
100
AcDbSymbolTableRecord
100
AcDbRegAppTableRecord
  2
GENIUS_GENODEF_13
 70
     0
  0
APPID
  5
33A
330
9
100
AcDbSymbolTableRecord
100
AcDbRegAppTableRecord
  2
GENIUS_GENOBJ-N-RSBK_13
 70
     0
  0
APPID
  5
33B
330
9
100
AcDbSymbolTableRecord
100
AcDbRegAppTableRecord
  2
GENIUS_GENOBJ-N-LIB_13
 70
     0
  0
APPID
  5
33C
330
9
100
AcDbSymbolTableRecord
100
AcDbRegAppTableRecord
  2
GENIUS_GENSCALE_13
 70
     0
  0
APPID
  5
378
330
9
100
AcDbSymbolTableRecord
100
AcDbRegAppTableRecord
  2
GENIUS_GENDIMSH_14
 70
     0
  0
APPID
  5
BDB
330
9
100
AcDbSymbolTableRecord
100
AcDbRegAppTableRecord
  2
GENIUS_GENOBJ-N-CEN_13
 70
     0
  0
APPID
  5
BDC
330
9
100
AcDbSymbolTableRecord
100
AcDbRegAppTableRecord
  2
GENIUS_GENFIL_13
 70
     0
  0
APPID
  5
BDD
330
9
100
AcDbSymbolTableRecord
100
AcDbRegAppTableRecord
  2
GENIUS_GENOBJ-N-FIL_13
 70
     0
  0
APPID
  5
12AD
330
9
100
AcDbSymbolTableRecord
100
AcDbRegAppTableRecord
  2
GENIUS_GENOREF_13
 70
     0
  0
ENDTAB
  0
TABLE
  2
DIMSTYLE
  5
A
330
0
100
AcDbSymbolTable
 70
     8
  0
DIMSTYLE
105
58
102
{ACAD_REACTORS
330
194C
330
195B
330
1CC3
330
1E6A
330
C4F
102
}
330
A
100
AcDbSymbolTableRecord
100
AcDbDimStyleTableRecord
  2
AM_JIS
 70
     0
  3

  4
"
  5
OPEN30
  6

  7

 40
0.5
 41
2.5
 42
1.0
 43
12.0
 44
1.0
 45
0.0
 46
0.0
 47
0.1
 48
0.1
140
3.2
141
0.0
142
0.0
143
0.0393701
144
1.0
145
0.0
146
0.71
147
1.5
 71
     0
 72
     0
 73
     0
 74
     0
 75
     0
 76
     0
 77
     3
 78
     8
170
     0
171
     2
172
     1
173
     0
174
     0
175
     0
176
   256
177
   256
178
     2
270
     2
271
     3
272
     3
273
     2
274
     2
340
6B
275
     0
280
     0
281
     0
282
     0
283
     0
284
     0
285
     0
286
     0
287
     3
288
     0
  0
DIMSTYLE
105
5F
330
A
100
AcDbSymbolTableRecord
100
AcDbDimStyleTableRecord
  2
AM_JIS$3
 70
     0
  3

  4
"
  5
OPEN30
  6

  7

 40
0.5
 41
2.5
 42
1.0
 43
10.0
 44
1.0
 45
0.0
 46
0.0
 47
0.1
 48
0.1
140
3.2
141
0.0
142
0.0
143
0.0393701
144
1.0
145
0.0
146
0.71
147
1.5
 71
     0
 72
     0
 73
     0
 74
     1
 75
     0
 76
     0
 77
     3
 78
     8
170
     0
171
     2
172
     0
173
     0
174
     0
175
     0
176
   256
177
   256
178
     2
270
     2
271
     2
272
     3
273
     2
274
     2
340
6B
275
     0
280
     0
281
     0
282
     0
283
     0
284
     0
285
     0
286
     0
287
     0
288
     1
  0
DIMSTYLE
105
60
102
{ACAD_REACTORS
330
21E5
102
}
330
A
100
AcDbSymbolTableRecord
100
AcDbDimStyleTableRecord
  2
AM_JIS$4
 70
     0
  3

  4
"
  5
OPEN30
  6

  7

 40
0.5
 41
2.5
 42
1.0
 43
10.0
 44
1.0
 45
0.0
 46
0.0
 47
0.1
 48
0.1
140
3.2
141
0.0
142
0.0
143
0.0393701
144
1.0
145
0.0
146
0.71
147
1.5
 71
     0
 72
     0
 73
     0
 74
     1
 75
     0
 76
     0
 77
     3
 78
     8
170
     0
171
     2
172
     0
173
     0
174
     0
175
     0
176
   256
177
   256
178
     2
270
     2
271
     2
272
     3
273
     2
274
     2
340
6B
275
     0
280
     0
281
     0
282
     0
283
     0
284
     0
285
     0
286
     0
287
     0
288
     1
  0
DIMSTYLE
105
61
330
A
100
AcDbSymbolTableRecord
100
AcDbDimStyleTableRecord
  2
AM_JIS$6
 70
     0
  3

  4
"
  5
OPEN30
  6

  7

 40
0.5
 41
2.5
 42
1.0
 43
10.0
 44
1.0
 45
0.0
 46
0.0
 47
0.1
 48
0.1
140
3.2
141
0.0
142
0.0
143
0.0393701
144
1.0
145
0.0
146
0.71
147
1.5
 71
     0
 72
     0
 73
     0
 74
     0
 75
     0
 76
     0
 77
     0
 78
     8
170
     0
171
     2
172
     1
173
     0
174
     0
175
     0
176
   256
177
   256
178
     2
270
     2
271
     2
272
     2
273
     2
274
     2
340
6B
275
     0
280
     0
281
     0
282
     0
283
     0
284
     0
285
     0
286
     0
287
     3
288
     0
  0
DIMSTYLE
105
62
330
A
100
AcDbSymbolTableRecord
100
AcDbDimStyleTableRecord
  2
AM_JIS$7
 70
     0
  3

  4
"
  5
OPEN30
  6

  7

 40
0.5
 41
2.5
 42
1.0
 43
10.0
 44
1.0
 45
0.0
 46
0.0
 47
0.1
 48
0.1
140
3.2
141
0.0
142
0.0
143
0.0393701
144
1.0
145
0.0
146
0.71
147
1.5
 71
     0
 72
     0
 73
     0
 74
     0
 75
     0
 76
     0
 77
     3
 78
     8
170
     0
171
     2
172
     1
173
     0
174
     0
175
     0
176
   256
177
   256
178
     2
270
     2
271
     2
272
     3
273
     2
274
     2
340
6B
275
     0
280
     0
281
     0
282
     0
283
     0
284
     0
285
     0
286
     0
287
     3
288
     0
  0
DIMSTYLE
105
63
330
A
100
AcDbSymbolTableRecord
100
AcDbDimStyleTableRecord
  2
AM_JIS$SF
 70
     0
  3

  4
"
  5
OPEN30
  6

  7

 40
0.5
 41
2.5
 42
1.0
 43
10.0
 44
1.0
 45
0.0
 46
0.0
 47
0.1
 48
0.1
140
3.2
141
0.0
142
0.0
143
0.0393701
144
1.0
145
0.0
146
0.71
147
1.5
 71
     0
 72
     0
 73
     0
 74
     0
 75
     1
 76
     1
 77
     3
 78
     8
170
     0
171
     2
172
     1
173
     0
174
     0
175
     0
176
   256
177
   256
178
     2
270
     2
271
     2
272
     2
273
     2
274
     2
340
6B
275
     0
280
     0
281
     0
282
     0
283
     0
284
     0
285
     0
286
     0
287
     3
288
     0
  0
DIMSTYLE
105
68
330
A
100
AcDbSymbolTableRecord
100
AcDbDimStyleTableRecord
  2
AM_JIS$SH
 70
     0
  3

  4
"
  5

  6
GENAXEH
  7
OPEN30
 40
0.5
 41
2.5
 42
1.0
 43
10.0
 44
1.0
 45
0.0
 46
0.0
 47
0.1
 48
0.1
140
3.2
141
0.0
142
0.0
143
0.0393701
144
2.0
145
0.0
146
0.71
147
1.5
 71
     0
 72
     0
 73
     0
 74
     0
 75
     1
 76
     1
 77
     3
 78
     8
170
     0
171
     2
172
     1
173
     1
174
     0
175
     0
176
   256
177
   256
178
     2
270
     2
271
     2
272
     2
273
     2
274
     2
340
6B
275
     0
280
     0
281
     0
282
     0
283
     0
284
     0
285
     0
286
     0
287
     3
288
     0
  0
DIMSTYLE
105
B34
330
A
100
AcDbSymbolTableRecord
100
AcDbDimStyleTableRecord
  2
AM_JIS$2
 70
     0
  3

  4
"
  5
OPEN30
  6

  7

 40
0.5
 41
2.5
 42
1.0
 43
12.0
 44
1.0
 45
0.0
 46
0.0
 47
0.1
 48
0.1
140
3.2
141
0.0
142
0.0
143
0.0393701
144
1.0
145
0.0
146
0.71
147
1.5
 71
     0
 72
     0
 73
     0
 74
     0
 75
     0
 76
     0
 77
     3
 78
     8
170
     0
171
     2
172
     1
173
     0
174
     0
175
     0
176
   256
177
   256
178
     2
270
     2
271
     3
272
     3
273
     2
274
     2
340
6B
275
     0
280
     0
281
     0
282
     0
283
     0
284
     0
285
     0
286
     0
287
     3
288
     0
  0
ENDTAB
  0
TABLE
  2
BLOCK_RECORD
  5
1
330
0
100
AcDbSymbolTable
 70
    11
  0
BLOCK_RECORD
  5
1F
102
{ACAD_XDICTIONARY
360
74
102
}
330
1
100
AcDbSymbolTableRecord
100
AcDbBlockTableRecord
  2
*MODEL_SPACE
  0
BLOCK_RECORD
  5
101
102
{ACAD_XDICTIONARY
360
23EB
102
}
330
1
100
AcDbSymbolTableRecord
100
AcDbBlockTableRecord
  2
*PAPER_SPACE
  0
BLOCK_RECORD
  5
59
330
1
100
AcDbSymbolTableRecord
100
AcDbBlockTableRecord
  2
_OPEN30
  0
BLOCK_RECORD
  5
64
330
1
100
AcDbSymbolTableRecord
100
AcDbBlockTableRecord
  2
GENAXEH
  0
BLOCK_RECORD
  5
C75
330
1
100
AcDbSymbolTableRecord
100
AcDbBlockTableRecord
  2
*D5
  0
BLOCK_RECORD
  5
194D
330
1
100
AcDbSymbolTableRecord
100
AcDbBlockTableRecord
  2
*D6
  0
BLOCK_RECORD
  5
195C
330
1
100
AcDbSymbolTableRecord
100
AcDbBlockTableRecord
  2
*D7
  0
BLOCK_RECORD
  5
1CC4
330
1
100
AcDbSymbolTableRecord
100
AcDbBlockTableRecord
  2
*D8
  0
BLOCK_RECORD
  5
1E6B
330
1
100
AcDbSymbolTableRecord
100
AcDbBlockTableRecord
  2
*D9
  0
BLOCK_RECORD
  5
21E6
330
1
100
AcDbSymbolTableRecord
100
AcDbBlockTableRecord
  2
*D10
  0
ENDTAB
  0
ENDSEC
  0
SECTION
  2
BLOCKS
  0
BLOCK
  5
20
330
1F
100
AcDbEntity
  8
0
100
AcDbBlockBegin
  2
*MODEL_SPACE
 70
     0
 10
0.0
 20
0.0
 30
0.0
  3
*MODEL_SPACE
  1

  0
ENDBLK
  5
21
330
1F
100
AcDbEntity
  8
0
100
AcDbBlockEnd
  0
BLOCK
  5
103
330
101
100
AcDbEntity
 67
     1
  8
0
100
AcDbBlockBegin
  2
*PAPER_SPACE
 70
     0
 10
0.0
 20
0.0
 30
0.0
  3
*PAPER_SPACE
  1

  0
ENDBLK
  5
104
330
101
100
AcDbEntity
 67
     1
  8
0
100
AcDbBlockEnd
  0
BLOCK
  5
5D
330
59
100
AcDbEntity
  8
0
100
AcDbBlockBegin
  2
_OPEN30
 70
     0
 10
0.0
 20
0.0
 30
0.0
  3
_OPEN30
  1

  0
LINE
  5
5A
330
59
100
AcDbEntity
  8
0
 62
     0
100
AcDbLine
 10
-1.0
 20
0.26794919
 30
0.0
 11
0.0
 21
0.0
 31
0.0
  0
LINE
  5
5B
330
59
100
AcDbEntity
  8
0
 62
     0
100
AcDbLine
 10
0.0
 20
0.0
 30
0.0
 11
-1.0
 21
-0.26794919
 31
0.0
  0
LINE
  5
5C
330
59
100
AcDbEntity
  8
0
 62
     0
100
AcDbLine
 10
0.0
 20
0.0
 30
0.0
 11
-1.0
 21
0.0
 31
0.0
  0
ENDBLK
  5
5E
330
59
100
AcDbEntity
  8
0
100
AcDbBlockEnd
  0
BLOCK
  5
66
330
64
100
AcDbEntity
  8
0
100
AcDbBlockBegin
  2
GENAXEH
 70
     0
 10
0.0
 20
0.0
 30
0.0
  3
GENAXEH
  1

  0
LINE
  5
65
330
64
100
AcDbEntity
  8
0
100
AcDbLine
 10
-1.0
 20
0.0
 30
0.0
 11
1.0
 21
0.0
 31
0.0
  0
ENDBLK
  5
67
330
64
100
AcDbEntity
  8
0
100
AcDbBlockEnd
  0
BLOCK
  5
C7F
330
C75
100
AcDbEntity
  8
0
100
AcDbBlockBegin
  2
*D5
 70
     1
 10
0.0
 20
0.0
 30
0.0
  3
*D5
  1

  0
LINE
  5
236E
330
C75
100
AcDbEntity
  8
AM_5
100
AcDbLine
 10
-80.00000000000007
 20
-2.750000000000006
 30
0.0
 11
-80.00000000000007
 21
-22.49999999999983
 31
0.0
  0
LINE
  5
236F
330
C75
100
AcDbEntity
  8
AM_5
100
AcDbLine
 10
0.0009378691810899
 20
-0.5047412466678765
 30
0.0
 11
0.0009378691810886
 21
-22.49999999999983
 31
0.0
  0
LINE
  5
2370
330
C75
100
AcDbEntity
  8
AM_5
100
AcDbLine
 10
-78.75000000000007
 20
-21.99999999999983
 30
0.0
 11
-1.249062130818911
 21
-21.99999999999983
 31
0.0
  0
INSERT
  5
2371
330
C75
100
AcDbEntity
  8
AM_5
100
AcDbBlockReference
  2
_OPEN30
 10
-80.00000000000007
 20
-21.99999999999983
 30
0.0
 41
1.25
 42
1.25
 43
1.25
 50
180.0
  0
INSERT
  5
2372
330
C75
100
AcDbEntity
  8
AM_5
100
AcDbBlockReference
  2
_OPEN30
 10
0.0009378691810886
 20
-21.99999999999983
 30
0.0
 41
1.25
 42
1.25
 43
1.25
  0
MTEXT
  5
2373
330
C75
100
AcDbEntity
  8
AM_5
 62
     2
100
AcDbMText
 10
-39.99953106540949
 20
-20.44999999999983
 30
0.0
 40
1.6
 41
0.0
 71
     5
 72
     1
  1
80
  7
ASAMI
1001
ACAD
1000
MTEXTBEGIN
1070
    73
1070
     1
1070
    44
1040
1.0
1070
    74
1070
     0
1000
MTEXTEND
  0
POINT
  5
2374
330
C75
100
AcDbEntity
  8
DEFPOINTS
 62
     0
100
AcDbPoint
 10
-80.00000000000007
 20
-2.250000000000006
 30
0.0
  0
POINT
  5
2375
330
C75
100
AcDbEntity
  8
DEFPOINTS
 62
     0
100
AcDbPoint
 10
0.00093786918109
 20
-0.0047412466678765
 30
0.0
  0
POINT
  5
2376
330
C75
100
AcDbEntity
  8
DEFPOINTS
 62
     0
100
AcDbPoint
 10
0.0009378691810886
 20
-21.99999999999983
 30
0.0
  0
ENDBLK
  5
C80
330
C75
100
AcDbEntity
  8
0
100
AcDbBlockEnd
  0
BLOCK
  5
1959
330
194D
100
AcDbEntity
  8
0
100
AcDbBlockBegin
  2
*D6
 70
     1
 10
0.0
 20
0.0
 30
0.0
  3
*D6
  1

  0
LINE
  5
2143
330
194D
100
AcDbEntity
  8
AM_5
100
AcDbLine
 10
-1.49906213081191
 20
-2.004741246661664
 30
0.0
 11
8.829530889074508
 21
-2.004741246661666
 31
0.0
  0
LINE
  5
2144
330
194D
100
AcDbEntity
  8
AM_5
100
AcDbLine
 10
-1.499062130811909
 20
1.995258753324336
 30
0.0
 11
8.829530889074508
 21
1.995258753324333
 31
0.0
  0
LINE
  5
2145
330
194D
100
AcDbEntity
  8
AM_5
100
AcDbLine
 10
8.329530889074508
 20
-3.254741246661666
 30
0.0
 11
8.329530889074506
 21
-4.504741246661666
 31
0.0
  0
LINE
  5
2146
330
194D
100
AcDbEntity
  8
AM_5
100
AcDbLine
 10
8.329530889074508
 20
3.245258753324333
 30
0.0
 11
8.32953088907451
 21
8.585734943800522
 31
0.0
  0
LINE
  5
2147
330
194D
100
AcDbEntity
  8
AM_5
100
AcDbLine
 10
8.329530889074508
 20
-2.004741246661666
 30
0.0
 11
8.329530889074508
 21
1.995258753324333
 31
0.0
  0
INSERT
  5
2148
330
194D
100
AcDbEntity
  8
AM_5
100
AcDbBlockReference
  2
_OPEN30
 10
8.329530889074508
 20
-2.004741246661666
 30
0.0
 41
1.25
 42
1.25
 43
1.25
 50
90.0
  0
INSERT
  5
2149
330
194D
100
AcDbEntity
  8
AM_5
100
AcDbBlockReference
  2
_OPEN30
 10
8.329530889074508
 20
1.995258753324333
 30
0.0
 41
1.25
 42
1.25
 43
1.25
 50
270.0
  0
MTEXT
  5
214A
330
194D
100
AcDbEntity
  8
AM_5
 62
     2
100
AcDbMText
 10
6.779530889074507
 20
6.54049684856243
 30
0.0
 40
1.6
 41
0.0
 71
     5
 72
     1
  1
%%c4
  7
ASAMI
 11
0.0000000000000001
 21
1.0
 31
0.0
1001
ACAD
1000
MTEXTBEGIN
1070
    73
1070
     1
1070
    44
1040
1.0
1070
    74
1070
     0
1000
MTEXTEND
  0
POINT
  5
214B
330
194D
100
AcDbEntity
  8
DEFPOINTS
 62
     0
100
AcDbPoint
 10
-1.99906213081191
 20
-2.004741246661664
 30
0.0
  0
POINT
  5
214C
330
194D
100
AcDbEntity
  8
DEFPOINTS
 62
     0
100
AcDbPoint
 10
-1.999062130811909
 20
1.995258753324336
 30
0.0
  0
POINT
  5
214D
330
194D
100
AcDbEntity
  8
DEFPOINTS
 62
     0
100
AcDbPoint
 10
8.329530889074508
 20
1.995258753324333
 30
0.0
  0
ENDBLK
  5
195A
330
194D
100
AcDbEntity
  8
0
100
AcDbBlockEnd
  0
BLOCK
  5
1968
330
195C
100
AcDbEntity
  8
0
100
AcDbBlockBegin
  2
*D7
 70
     1
 10
0.0
 20
0.0
 30
0.0
  3
*D7
  1

  0
LINE
  5
2380
330
195C
100
AcDbEntity
  8
AM_5
100
AcDbLine
 10
-6.000937869181207
 20
-2.504741246669551
 30
0.0
 11
-6.000937869181208
 21
-10.49999999999997
 31
0.0
  0
LINE
  5
2381
330
195C
100
AcDbEntity
  8
AM_5
100
AcDbLine
 10
-0.0009378691812048
 20
-2.504741246669551
 30
0.0
 11
-0.0009378691812053
 21
-10.49999999999997
 31
0.0
  0
LINE
  5
2382
330
195C
100
AcDbEntity
  8
AM_5
100
AcDbLine
 10
-4.750937869181208
 20
-9.999999999999978
 30
0.0
 11
-1.250937869181205
 21
-9.999999999999978
 31
0.0
  0
INSERT
  5
2383
330
195C
100
AcDbEntity
  8
AM_5
100
AcDbBlockReference
  2
_OPEN30
 10
-6.000937869181208
 20
-9.999999999999978
 30
0.0
 41
1.25
 42
1.25
 43
1.25
 50
180.0
  0
INSERT
  5
2384
330
195C
100
AcDbEntity
  8
AM_5
100
AcDbBlockReference
  2
_OPEN30
 10
-0.0009378691812052
 20
-9.999999999999978
 30
0.0
 41
1.25
 42
1.25
 43
1.25
  0
MTEXT
  5
2385
330
195C
100
AcDbEntity
  8
AM_5
 62
     2
100
AcDbMText
 10
-3.000937869181206
 20
-8.449999999999977
 30
0.0
 40
1.6
 41
0.0
 71
     5
 72
     1
  1
6
  7
ASAMI
1001
ACAD
1000
MTEXTBEGIN
1070
    73
1070
     1
1070
    44
1040
1.0
1070
    74
1070
     0
1000
MTEXTEND
  0
POINT
  5
2386
330
195C
100
AcDbEntity
  8
DEFPOINTS
 62
     0
100
AcDbPoint
 10
-6.000937869181207
 20
-2.004741246669551
 30
0.0
  0
POINT
  5
2387
330
195C
100
AcDbEntity
  8
DEFPOINTS
 62
     0
100
AcDbPoint
 10
-0.0009378691812048
 20
-2.004741246669551
 30
0.0
  0
POINT
  5
2388
330
195C
100
AcDbEntity
  8
DEFPOINTS
 62
     0
100
AcDbPoint
 10
-0.0009378691812052
 20
-9.999999999999978
 30
0.0
  0
ENDBLK
  5
1969
330
195C
100
AcDbEntity
  8
0
100
AcDbBlockEnd
  0
BLOCK
  5
1CD0
330
1CC4
100
AcDbEntity
  8
0
100
AcDbBlockBegin
  2
*D8
 70
     1
 10
0.0
 20
0.0
 30
0.0
  3
*D8
  1

  0
LINE
  5
2377
330
1CC4
100
AcDbEntity
  8
AM_5
100
AcDbLine
 10
-0.0009378691812057
 20
-2.504741246661664
 30
0.0
 11
-0.0009378691812065
 21
-16.49999999999987
 31
0.0
  0
LINE
  5
2378
330
1CC4
100
AcDbEntity
  8
AM_5
100
AcDbLine
 10
-12.0009378691812
 20
-2.509678402129314
 30
0.0
 11
-12.0009378691812
 21
-16.49999999999987
 31
0.0
  0
LINE
  5
2379
330
1CC4
100
AcDbEntity
  8
AM_5
100
AcDbLine
 10
-1.250937869181206
 20
-15.99999999999988
 30
0.0
 11
-10.7509378691812
 21
-15.99999999999988
 31
0.0
  0
INSERT
  5
237A
330
1CC4
100
AcDbEntity
  8
AM_5
100
AcDbBlockReference
  2
_OPEN30
 10
-0.0009378691812065
 20
-15.99999999999988
 30
0.0
 41
1.25
 42
1.25
 43
1.25
  0
INSERT
  5
237B
330
1CC4
100
AcDbEntity
  8
AM_5
100
AcDbBlockReference
  2
_OPEN30
 10
-12.0009378691812
 20
-15.99999999999988
 30
0.0
 41
1.25
 42
1.25
 43
1.25
 50
180.0
  0
MTEXT
  5
237C
330
1CC4
100
AcDbEntity
  8
AM_5
 62
     2
100
AcDbMText
 10
-6.000937869181205
 20
-14.44999999999988
 30
0.0
 40
1.6
 41
0.0
 71
     5
 72
     1
  1
12
  7
ASAMI
1001
ACAD
1000
MTEXTBEGIN
1070
    73
1070
     1
1070
    44
1040
1.0
1070
    74
1070
     0
1000
MTEXTEND
  0
POINT
  5
237D
330
1CC4
100
AcDbEntity
  8
DEFPOINTS
 62
     0
100
AcDbPoint
 10
-0.0009378691812056
 20
-2.004741246661664
 30
0.0
  0
POINT
  5
237E
330
1CC4
100
AcDbEntity
  8
DEFPOINTS
 62
     0
100
AcDbPoint
 10
-12.0009378691812
 20
-2.009678402129314
 30
0.0
  0
POINT
  5
237F
330
1CC4
100
AcDbEntity
  8
DEFPOINTS
 62
     0
100
AcDbPoint
 10
-12.0009378691812
 20
-15.99999999999988
 30
0.0
  0
ENDBLK
  5
1CD1
330
1CC4
100
AcDbEntity
  8
0
100
AcDbBlockEnd
  0
BLOCK
  5
1E77
330
1E6B
100
AcDbEntity
  8
0
100
AcDbBlockBegin
  2
*D9
 70
     1
 10
0.0
 20
0.0
 30
0.0
  3
*D9
  1

  0
LINE
  5
2362
330
1E6B
100
AcDbEntity
  8
AM_5
100
AcDbLine
 10
-80.00000000000007
 20
-3.000000000000007
 30
0.0
 11
-87.50000000000007
 21
-3.000000000000005
 31
0.0
  0
LINE
  5
2363
330
1E6B
100
AcDbEntity
  8
AM_5
100
AcDbLine
 10
-80.00000000000007
 20
2.999999999999997
 30
0.0
 11
-87.50000000000007
 21
2.999999999999999
 31
0.0
  0
LINE
  5
2364
330
1E6B
100
AcDbEntity
  8
AM_5
100
AcDbLine
 10
-87.00000000000008
 20
-4.250000000000005
 30
0.0
 11
-87.00000000000008
 21
-5.500000000000005
 31
0.0
  0
LINE
  5
2365
330
1E6B
100
AcDbEntity
  8
AM_5
100
AcDbLine
 10
-87.00000000000008
 20
4.25
 30
0.0
 11
-87.00000000000008
 21
5.5
 31
0.0
  0
LINE
  5
2366
330
1E6B
100
AcDbEntity
  8
AM_5
100
AcDbLine
 10
-87.00000000000008
 20
-3.000000000000005
 30
0.0
 11
-87.00000000000008
 21
2.999999999999999
 31
0.0
  0
INSERT
  5
2367
330
1E6B
100
AcDbEntity
  8
AM_5
100
AcDbBlockReference
  2
_OPEN30
 10
-87.00000000000008
 20
-3.000000000000005
 30
0.0
 41
1.25
 42
1.25
 43
1.25
 50
90.0
  0
INSERT
  5
2368
330
1E6B
100
AcDbEntity
  8
AM_5
100
AcDbBlockReference
  2
_OPEN30
 10
-87.00000000000008
 20
2.999999999999999
 30
0.0
 41
1.25
 42
1.25
 43
1.25
 50
270.0
  0
MTEXT
  5
2369
330
1E6B
100
AcDbEntity
  8
AM_5
 62
     2
100
AcDbMText
 10
-88.55000000000007
 20
-0.0000000000000183
 30
0.0
 40
1.6
 41
0.0
 71
     5
 72
     1
  1
%%c6
  7
ASAMI
 11
0.0000000000000001
 21
1.0
 31
0.0
1001
ACAD
1000
MTEXTBEGIN
1070
    73
1070
     1
1070
    44
1040
1.0
1070
    74
1070
     0
1000
MTEXTEND
  0
POINT
  5
236A
330
1E6B
100
AcDbEntity
  8
DEFPOINTS
 62
     0
100
AcDbPoint
 10
-79.50000000000007
 20
-3.000000000000007
 30
0.0
  0
POINT
  5
236B
330
1E6B
100
AcDbEntity
  8
DEFPOINTS
 62
     0
100
AcDbPoint
 10
-79.50000000000007
 20
2.999999999999997
 30
0.0
  0
POINT
  5
236C
330
1E6B
100
AcDbEntity
  8
DEFPOINTS
 62
     0
100
AcDbPoint
 10
-87.00000000000008
 20
2.999999999999999
 30
0.0
  0
ENDBLK
  5
1E78
330
1E6B
100
AcDbEntity
  8
0
100
AcDbBlockEnd
  0
BLOCK
  5
21ED
330
21E6
100
AcDbEntity
  8
0
100
AcDbBlockBegin
  2
*D10
 70
     1
 10
0.0
 20
0.0
 30
0.0
  3
*D10
  1

  0
LINE
  5
2247
330
21E6
100
AcDbEntity
  8
AM_5
100
AcDbLine
 10
0.1094149136344162
 20
-2.477962739579758
 30
0.0
 11
6.48669264066005
 21
-9.958442729763746
 31
0.0
  0
INSERT
  5
2248
330
21E6
100
AcDbEntity
  8
AM_5
100
AcDbBlockReference
  2
_OPEN30
 10
-0.7015377957697643
 20
-1.526723703842674
 30
0.0
 41
1.25
 42
1.25
 43
1.25
 50
130.4483394961306
  0
MTEXT
  5
2249
330
21E6
100
AcDbEntity
  8
AM_5
 62
     2
100
AcDbMText
 10
5.573198718797533
 20
-6.497758715962088
 30
0.0
 40
1.6
 41
0.0
 71
     5
 72
     1
  1
R2.0
  7
ASAMI
 11
0.6487621675233437
 21
-0.7609912285896684
 31
0.0
1001
ACAD
1000
MTEXTBEGIN
1070
    73
1070
     1
1070
    44
1040
1.0
1070
    74
1070
     0
1000
MTEXTEND
  0
POINT
  5
224A
330
21E6
100
AcDbEntity
  8
DEFPOINTS
 62
     0
100
AcDbPoint
 10
-0.7015377957697643
 20
-1.526723703842674
 30
0.0
  0
POINT
  5
224B
330
21E6
100
AcDbEntity
  8
DEFPOINTS
 62
     0
100
AcDbPoint
 10
-1.99906213081191
 20
-0.004741246668664
 30
0.0
  0
ENDBLK
  5
21EE
330
21E6
100
AcDbEntity
  8
0
100
AcDbBlockEnd
  0
ENDSEC
  0
SECTION
  2
ENTITIES
  0
DIMENSION
  5
C4F
330
1F
100
AcDbEntity
  8
AM_5
100
AcDbDimension
  2
*D5
 10
0.0009378691810886
 20
-21.99999999999983
 30
0.0
 11
-39.99953106540949
 21
-20.44999999999983
 31
0.0
 70
    32
  1
<>
  3
AM_JIS
100
AcDbAlignedDimension
 13
-80.00000000000007
 23
-2.250000000000006
 33
0.0
 14
0.00093786918109
 24
-0.0047412466678765
 34
0.0
 50
0.0000000000002036
100
AcDbRotatedDimension
1001
GENIUS_GENDTOL_13
1000

1000
H7
1000

1040
0.0
1001
ACAD
1000
DSTYLE
1002
{
1070
   271
1070
     2
1002
}
  0
LINE
  5
C50
330
1F
100
AcDbEntity
  8
AM_7
100
AcDbLine
 10
-82.38487321524642
 20
-0.0000000000000036
 30
0.0
 11
1.32952988907452
 21
-0.0000000000000036
 31
0.0
1001
GENIUS_GENODEF_13
1002
{
1000
HIER
1070
     0
1002
}
1002
{
1000
MANEDIT
1070
     0
1002
}
1002
{
1000
NOSEL
1070
     0
1002
}
1002
{
1000
BEHIND
1070
     0
1002
}
1002
{
1000
REACTOR
1002
}
1001
GENIUS_GENOBJ-N-CEN_13
1002
{
1000
OWNER
1000
GEN
1002
}
  0
TEXT
  5
C58
330
1F
100
AcDbEntity
  8
AM_6
100
AcDbText
 10
-50.47572154159996
 20
-33.24999999999987
 30
0.0
 40
2.5
  1
SNB2040DL
 50
0.0000000000002036
 72
     4
 11
-39.99953106540949
 21
-31.99999999999983
 31
0.0
100
AcDbText
  0
DIMENSION
  5
194C
330
1F
100
AcDbEntity
  8
AM_5
100
AcDbDimension
  2
*D6
 10
8.329530889074508
 20
1.995258753324333
 30
0.0
 11
6.779530889074507
 21
6.54049684856243
 31
0.0
 70
    32
  1
%%c<>
  3
AM_JIS
100
AcDbAlignedDimension
 13
-1.99906213081191
 23
-2.004741246661664
 33
0.0
 14
-1.999062130811909
 24
1.995258753324336
 34
0.0
 50
90.00000000000003
100
AcDbRotatedDimension
1001
ACAD
1000
DSTYLE
1002
{
1070
    48
1040
0.05
1070
    47
1040
0.0
1070
   274
1070
     1
1070
   272
1070
     2
1002
}
1001
GENIUS_GENDTOL_13
1000

1000
H7
1000

1040
0.0
  0
DIMENSION
  5
195B
330
1F
100
AcDbEntity
  8
AM_5
100
AcDbDimension
  2
*D7
 10
-0.0009378691812052
 20
-9.999999999999978
 30
0.0
 11
-3.000937869181206
 21
-8.449999999999977
 31
0.0
 70
    32
  1
<>
  3
AM_JIS
100
AcDbAlignedDimension
 13
-6.000937869181207
 23
-2.004741246669551
 33
0.0
 14
-0.0009378691812048
 24
-2.004741246669551
 34
0.0
 50
359.9999999999988
100
AcDbRotatedDimension
1001
GENIUS_GENDTOL_13
1000

1000
H7
1000

1040
0.0
  0
LINE
  5
1C97
330
1F
100
AcDbEntity
  8
AM_11
 48
0.4
100
AcDbLine
 10
-6.000937869181206
 20
2.0189649866773
 30
0.0
 11
-6.000937869181206
 21
-1.981035013322699
 31
0.0
  0
ARC
  5
1C9A
330
1F
100
AcDbEntity
  8
AM_11
100
AcDbCircle
 10
-1.99906213081191
 20
-0.0000000000000036
 30
0.0
 40
1.999999999993
100
AcDbArc
 50
270.0
 51
90.0
  0
LINE
  5
1CA1
330
1F
100
AcDbEntity
  8
AM_11
100
AcDbLine
 10
-6.000937869181206
 20
-1.999999999993004
 30
0.0
 11
-1.99906213081191
 21
-1.999999999993004
 31
0.0
1001
GENIUS_GENODEF_13
1002
{
1000
HIER
1070
     0
1002
}
1002
{
1000
MANEDIT
1070
     0
1002
}
1002
{
1000
NOSEL
1070
     0
1002
}
1002
{
1000
BEHIND
1070
     0
1002
}
1002
{
1000
REACTOR
1002
}
1001
GENIUS_GENOBJ-N-CEN_13
1002
{
1000
OWNER
1000
GEN
1002
}
  0
LINE
  5
1CB1
330
1F
100
AcDbEntity
  8
AM_11
100
AcDbLine
 10
-6.000937869181206
 20
2.000000000006995
 30
0.0
 11
-1.99906213081191
 21
2.000000000006995
 31
0.0
1001
GENIUS_GENODEF_13
1002
{
1000
HIER
1070
     0
1002
}
1002
{
1000
MANEDIT
1070
     0
1002
}
1002
{
1000
NOSEL
1070
     0
1002
}
1002
{
1000
BEHIND
1070
     0
1002
}
1002
{
1000
REACTOR
1002
}
1001
GENIUS_GENOBJ-N-CEN_13
1002
{
1000
OWNER
1000
GEN
1002
}
  0
DIMENSION
  5
1CC3
330
1F
100
AcDbEntity
  8
AM_5
100
AcDbDimension
  2
*D8
 10
-12.0009378691812
 20
-15.99999999999988
 30
0.0
 11
-6.000937869181205
 21
-14.44999999999988
 31
0.0
 70
    32
  1
<>
  3
AM_JIS
100
AcDbAlignedDimension
 13
-0.0009378691812056
 23
-2.004741246661664
 33
0.0
 14
-12.0009378691812
 24
-2.009678402129314
 34
0.0
 50
0.0000000000001132
100
AcDbRotatedDimension
1001
GENIUS_GENDTOL_13
1000

1000
h7
1000

1040
0.0
  0
LINE
  5
1E64
330
1F
100
AcDbEntity
  8
AM_0
100
AcDbLine
 10
-79.50000000000007
 20
2.999999999999992
 30
0.0
 11
-15.70000000000007
 21
2.999999999999992
 31
0.0
1001
GENIUS_GENODEF_13
1002
{
1000
HIER
1070
     0
1002
}
1002
{
1000
MANEDIT
1070
     0
1002
}
1002
{
1000
NOSEL
1070
     0
1002
}
1002
{
1000
BEHIND
1070
     0
1002
}
1002
{
1000
REACTOR
1002
}
1001
GENIUS_GENOBJ-N-CEN_13
1002
{
1000
OWNER
1000
GEN
1002
}
  0
LINE
  5
1E65
330
1F
100
AcDbEntity
  8
AM_0
100
AcDbLine
 10
-79.50000000000007
 20
-3.000000000000007
 30
0.0
 11
-15.70000000000007
 21
-3.000000000000007
 31
0.0
1001
GENIUS_GENODEF_13
1002
{
1000
HIER
1070
     0
1002
}
1002
{
1000
MANEDIT
1070
     0
1002
}
1002
{
1000
NOSEL
1070
     0
1002
}
1002
{
1000
BEHIND
1070
     0
1002
}
1002
{
1000
REACTOR
1002
}
1001
GENIUS_GENOBJ-N-CEN_13
1002
{
1000
OWNER
1000
GEN
1002
}
  0
LINE
  5
1E66
330
1F
100
AcDbEntity
  8
AM_0
100
AcDbLine
 10
-80.00000000000007
 20
2.249999999999992
 30
0.0
 11
-79.50000000000007
 21
2.999999999999992
 31
0.0
1001
GENIUS_GENFIL_13
1070
     0
1040
0.5
1040
0.5
1040
0.4999999999999716
1040
45.0
1002
{
1002
}
  0
LINE
  5
1E67
330
1F
100
AcDbEntity
  8
AM_0
100
AcDbLine
 10
-80.00000000000007
 20
-2.250000000000007
 30
0.0
 11
-79.50000000000007
 21
-3.000000000000007
 31
0.0
1001
GENIUS_GENFIL_13
1070
     0
1040
0.5
1040
0.5
1040
0.4999999999999716
1040
45.00000000000036
1002
{
1002
}
  0
LINE
  5
1E68
330
1F
100
AcDbEntity
  8
0
100
AcDbLine
 10
-79.50000000000007
 20
-3.000000000000007
 30
0.0
 11
-79.50000000000007
 21
2.999999999999992
 31
0.0
  0
LINE
  5
1E69
330
1F
100
AcDbEntity
  8
AM_0
100
AcDbLine
 10
-80.00000000000007
 20
-2.250000000000007
 30
0.0
 11
-80.00000000000007
 21
2.249999999999992
 31
0.0
  0
DIMENSION
  5
1E6A
330
1F
100
AcDbEntity
  8
AM_5
100
AcDbDimension
  2
*D9
 10
-87.00000000000008
 20
2.999999999999999
 30
0.0
 11
-87.00000000000008
 21
-0.0000000000000184
 31
0.0
 70
   160
  1
%%c<>
  3
AM_JIS
100
AcDbAlignedDimension
 13
-79.50000000000007
 23
-3.000000000000007
 33
0.0
 14
-79.50000000000007
 24
2.999999999999997
 34
0.0
 50
270.0
100
AcDbRotatedDimension
1001
ACAD
1000
DSTYLE
1002
{
1070
    48
1040
0.1
1070
    47
1040
0.1
1070
   274
1070
     2
1070
   272
1070
     3
1002
}
1001
GENIUS_GENDTOL_13
1000

1000
h6
1000

1040
0.0
  0
LINE
  5
1E8C
330
1F
100
AcDbEntity
  8
AM_0
100
AcDbLine
 10
-15.70000000000007
 20
2.999999999999992
 30
0.0
 11
-11.99510388690824
 21
2.007276078455826
 31
0.0
  0
LINE
  5
1E97
330
1F
100
AcDbEntity
  8
AM_0
100
AcDbLine
 10
-15.70000000000007
 20
-3.0
 30
0.0
 11
-12.0009378691812
 21
-2.008839289294531
 31
0.0
  0
LINE
  5
1FEA
330
1F
100
AcDbEntity
  8
0
100
AcDbLine
 10
-15.70000000000007
 20
-3.000000000000007
 30
0.0
 11
-15.70000000000007
 21
2.999999999999992
 31
0.0
  0
DIMENSION
  5
21E5
330
1F
100
AcDbEntity
  8
AM_5
100
AcDbDimension
  2
*D10
 10
-1.99906213081191
 20
-0.004741246668664
 30
0.0
 11
4.393662314483547
 21
-7.503340075623271
 31
0.0
 70
   164
  1
<>
  3
AM_JIS$4
100
AcDbRadialDimension
 15
-0.7015377957697643
 25
-1.526723703842674
 35
0.0
 40
0.0
1001
GENIUS_GENDTOL_13
1000

1000
h7
1000

1040
0.0
1001
ACAD
1000
DSTYLE
1002
{
1070
    78
1070
     0
1070
   271
1070
     1
1070
   288
1070
     1
1070
   289
1070
     0
1070
    74
1070
     0
1002
}
  0
LINE
  5
229C
330
1F
100
AcDbEntity
  8
AM_0
100
AcDbLine
 10
-12.0009378691812
 20
-2.008839289294532
 30
0.0
 11
-12.0009378691812
 21
2.007276078455826
 31
0.0
  0
LINE
  5
22AC
330
1F
100
AcDbEntity
  8
AM_0
100
AcDbLine
 10
-11.99510388690824
 20
2.007276078455826
 30
0.0
 11
-10.00185325881603
 21
2.007276078455826
 31
0.0
  0
LINE
  5
22BD
330
1F
100
AcDbEntity
  8
AM_0
100
AcDbLine
 10
-12.0009378691812
 20
-2.009678402129314
 30
0.0
 11
-8.000937869181205
 21
-2.009678402129314
 31
0.0
  0
SPLINE
  5
231F
330
1F
100
AcDbEntity
  8
AM_0
100
AcDbSpline
210
0.0
220
0.0
230
1.0
 70
     8
 71
     3
 72
     8
 73
     4
 74
     0
 42
0.0000000001
 43
0.0000000001
 40
0.3452954108917051
 40
0.3452954108917051
 40
0.3452954108917051
 40
0.3452954108917051
 40
2.887810088788897
 40
2.887810088788897
 40
2.887810088788897
 40
2.887810088788897
 10
-10.00185325881603
 20
2.007276078455826
 30
0.0
 10
-8.340062909838422
 20
1.933341479624857
 30
0.0
 10
-6.847181757264964
 20
1.298354109643411
 30
0.0
 10
-5.13341364794179
 20
0.4184366742620578
 30
0.0
  0
LINE
  5
2320
330
1F
100
AcDbEntity
  8
AM_0
100
AcDbLine
 10
-10.04857795125401
 20
-0.0094824933375541
 30
0.0
 11
-8.001853258816037
 21
1.101175602532567
 31
0.0
  0
LINE
  5
2321
330
1F
100
AcDbEntity
  8
AM_0
100
AcDbLine
 10
-8.001853258816037
 20
1.101175602532567
 30
0.0
 11
-8.001853258816037
 21
1.373453068482884
 31
0.0
  0
LINE
  5
2322
330
1F
100
AcDbEntity
  8
AM_0
100
AcDbLine
 10
-8.001853258816037
 20
1.101175602532567
 30
0.0
 11
-8.001853258816037
 21
1.650841304521557
 31
0.0
  0
SPLINE
  5
2323
330
1F
100
AcDbEntity
  8
AM_0
100
AcDbSpline
210
0.0
220
0.0
230
1.0
 70
     8
 71
     3
 72
     8
 73
     4
 74
     0
 42
0.0000000001
 43
0.0000000001
 40
1.778590444965923
 40
1.778590444965923
 40
1.778590444965923
 40
1.778590444965923
 40
2.897999309858686
 40
2.897999309858686
 40
2.897999309858686
 40
2.897999309858686
 10
-8.001853259809582
 20
1.101175601990771
 30
0.0
 10
-7.314077756895701
 20
0.7725390824199146
 30
0.0
 10
-6.636560892123291
 20
0.3862695408500691
 30
0.0
 10
-5.959044027350882
 20
-0.0000000007197762
 30
0.0
  0
LINE
  5
2324
330
1F
100
AcDbEntity
  8
AM_0
100
AcDbLine
 10
-8.050993187077533
 20
1.686046638570577
 30
0.0
 11
-2.779888540201508
 21
1.625828382894173
 31
0.0
  0
SPLINE
  5
2325
330
1F
100
AcDbEntity
  8
AM_0
100
AcDbSpline
210
0.0
220
0.0
230
1.0
 70
     8
 71
     3
 72
     8
 73
     4
 74
     0
 42
0.0000000001
 43
0.0000000001
 40
5.336187364352841
 40
5.336187364352841
 40
5.336187364352841
 40
5.336187364352841
 40
14.43905044399483
 40
14.43905044399483
 40
14.43905044399483
 40
14.43905044399483
 10
-1.767600675204282
 20
-1.173202843358378
 30
0.0
 10
-2.917569742438726
 20
-0.8047001876564044
 30
0.0
 10
-4.025491695190258
 20
-0.1931317566971733
 30
0.0
 10
-5.13341364794179
 20
0.4184366742620578
 30
0.0
  0
SPLINE
  5
2326
330
1F
100
AcDbEntity
  8
AM_0
100
AcDbSpline
210
0.0
220
0.0
230
1.0
 70
     8
 71
     3
 72
     8
 73
     4
 74
     0
 42
0.0000000001
 43
0.0000000001
 40
3.7904089959839
 40
3.7904089959839
 40
3.7904089959839
 40
3.7904089959839
 40
14.48999654934396
 40
14.48999654934396
 40
14.48999654934396
 40
14.48999654934396
 10
-2.001853259428043
 20
-1.812615193687999
 30
0.0
 10
-3.368694338033688
 20
-1.476824031268915
 30
0.0
 10
-4.663869182692377
 20
-0.7384120159943457
 30
0.0
 10
-5.959044027350882
 20
-0.0000000007197762
 30
0.0
  0
ARC
  5
2327
330
1F
100
AcDbEntity
  8
AM_0
100
AcDbCircle
 10
-5.971428907129499
 20
4.215833122552718
 30
0.0
 40
5.871663851234301
100
AcDbArc
 50
226.0223973858334
 51
269.7120499157446
  0
SPLINE
  5
2328
330
1F
100
AcDbEntity
  8
AM_0
100
AcDbSpline
210
0.0
220
0.0
230
1.0
 70
     8
 71
     3
 72
     8
 73
     4
 74
     0
 42
0.0000000001
 43
0.0000000001
 40
4.071346735624547
 40
4.071346735624547
 40
4.071346735624547
 40
4.071346735624547
 40
6.91280490763674
 40
6.91280490763674
 40
6.91280490763674
 40
6.91280490763674
 10
-8.000937869181205
 20
-2.009678402129314
 30
0.0
 10
-8.761792950884029
 20
-1.831529310545416
 30
0.0
 10
-9.410391816156678
 20
-1.625681833108952
 30
0.0
 10
-10.04857795130479
 20
-1.187054562141799
 30
0.0
  0
LINE
  5
232A
330
1F
100
AcDbEntity
  8
AM_0
100
AcDbLine
 10
-7.264917128722333
 20
-1.667608057047779
 30
0.0
 11
-2.646380212094674
 21
-1.62430315590905
 31
0.0
  0
ARC
  5
232B
330
1F
100
AcDbEntity
  8
AM_0
100
AcDbCircle
 10
-7.261179818825633
 20
-2.638508200865486
 30
0.0
 40
0.9709113702313164
100
AcDbArc
 50
90.21094830778849
 51
139.6338691918287
  0
LINE
  5
232C
330
1F
100
AcDbEntity
  8
AM_0
100
AcDbLine
 10
-10.0485779513048
 20
-1.187054562141714
 30
0.0
 11
-9.096850102612457
 21
-0.722966222204633
 31
0.0
  0
ARC
  5
232D
330
1F
100
AcDbEntity
  8
AM_0
100
AcDbCircle
 10
-4.121687986715198
 20
-4.361990579331566
 30
0.0
 40
6.0
100
AcDbArc
 50
46.63534851283901
 51
88.85558655531113
  0
SPLINE
  5
232E
330
1F
100
AcDbEntity
  8
AM_0
100
AcDbSpline
210
0.0
220
0.0
230
1.0
 70
     8
 71
     3
 72
     8
 73
     4
 74
     2
 42
0.0000000001
 43
0.0000000001
 44
0.0000000001
 12
-0.9396926207859113
 22
0.3420201433256611
 32
0.0
 13
0.9955394717441446
 23
0.094345960164651
 33
0.0
 40
0.0
 40
0.0
 40
0.0
 40
0.0
 40
2.364500618782903
 40
2.364500618782903
 40
2.364500618782903
 40
2.364500618782903
 10
-1.755618326477649
 20
0.3468903361451666
 30
0.0
 10
-2.496252920915654
 20
0.6164592829884143
 30
0.0
 10
-4.528844031263265
 20
1.551762067155735
 30
0.0
 10
-3.744192798942653
 20
1.626122427552063
 30
0.0
 11
-1.755618326477649
 21
0.3468903361451666
 31
0.0
 11
-3.744192798942653
 21
1.626122427552063
 31
0.0
  0
SPLINE
  5
232F
330
1F
100
AcDbEntity
  8
AM_0
100
AcDbSpline
210
0.0
220
0.0
230
1.0
 70
     8
 71
     3
 72
     8
 73
     4
 74
     2
 42
0.0000000001
 43
0.0000000001
 44
0.0000000001
 12
0.6039933128154179
 22
-0.7969893839156561
 32
0.0
 40
0.0
 40
0.0
 40
0.0
 40
0.0
 40
0.8001426187159921
 40
0.8001426187159921
 40
0.8001426187159921
 40
0.8001426187159921
 10
-2.00185325942277
 20
1.812615192969525
 30
0.0
 10
-1.840759662421745
 20
1.600046802057819
 30
0.0
 10
-2.310324101311631
 20
1.612937592835899
 30
0.0
 10
-2.779888540201516
 20
1.625828383613979
 30
0.0
 11
-2.00185325942277
 21
1.812615192969525
 31
0.0
 11
-2.779888540201516
 21
1.625828383613979
 31
0.0
  0
SPLINE
  5
2330
330
1F
100
AcDbEntity
  8
AM_0
100
AcDbSpline
210
0.0
220
0.0
230
1.0
 70
     8
 71
     3
 72
     8
 73
     4
 74
     0
 42
0.0000000001
 43
0.0000000001
 40
3.790408995970492
 40
3.790408995970492
 40
3.790408995970492
 40
3.790408995970492
 40
5.485524909568358
 40
5.485524909568358
 40
5.485524909568358
 40
5.485524909568358
 10
-2.00185325942277
 20
1.812615192969525
 30
0.0
 10
-2.218399369462003
 20
1.759416418696973
 30
0.0
 10
-2.433146694278019
 20
1.696112070281907
 30
0.0
 10
-2.646380212094681
 20
1.624303155189346
 30
0.0
  0
LINE
  5
2331
330
1F
100
AcDbEntity
  8
AM_0
100
AcDbLine
 10
-0.3246532594341405
 20
-0.1421728638510288
 30
0.0
 11
-1.732376605199729
 21
0.3384310414069503
 31
0.0
  0
ARC
  5
2332
330
1F
100
AcDbEntity
  8
AM_0
100
AcDbCircle
 10
-0.2315046220283086
 20
-0.0530708751791011
 30
0.0
 40
1.551093311364568
100
AcDbArc
 50
165.3801949031469
 51
216.4487634976409
  0
ARC
  5
2333
330
1F
100
AcDbEntity
  8
AM_0
100
AcDbCircle
 10
-1.71449599910849
 20
0.5686493223460985
 30
0.0
 40
1.561067269984169
100
AcDbArc
 50
278.6696104128123
 51
332.9129476995664
  0
SPLINE
  5
2334
330
1F
100
AcDbEntity
  8
AM_0
100
AcDbSpline
210
0.0
220
0.0
230
1.0
 70
     8
 71
     3
 72
     8
 73
     4
 74
     2
 42
0.0000000001
 43
0.0000000001
 44
0.0000000001
 12
-0.0000000000000001
 22
-1.0
 32
0.0
 13
-1.0
 23
0.0000000000000001
 33
0.0
 40
0.0
 40
0.0
 40
0.0
 40
0.0
 40
0.3501906582279143
 40
0.3501906582279143
 40
0.3501906582279143
 40
0.3501906582279143
 10
-1.479186177158607
 20
-0.974581155939559
 30
0.0
 10
-1.479186177158607
 20
-1.091311375348863
 30
0.0
 10
-1.650870455794977
 20
-1.173202842638572
 30
0.0
 10
-1.767600675204282
 20
-1.173202842638572
 30
0.0
 11
-1.479186177158607
 21
-0.974581155939559
 31
0.0
 11
-1.767600675204282
 21
-1.173202842638572
 31
0.0
  0
SPLINE
  5
2335
330
1F
100
AcDbEntity
  8
AM_0
100
AcDbSpline
210
0.0
220
0.0
230
1.0
 70
     8
 71
     3
 72
     8
 73
     4
 74
     2
 42
0.0000000001
 43
0.0000000001
 44
0.0000000001
 12
0.0000000000000001
 22
1.0
 32
0.0
 40
0.0
 40
0.0
 40
0.0
 40
0.0
 40
0.6809716785370452
 40
0.6809716785370452
 40
0.6809716785370452
 40
0.6809716785370452
 10
-2.001853259428043
 20
-1.812615192968193
 30
0.0
 10
-2.001853259428043
 20
-1.585624633455845
 30
0.0
 10
-1.884726967316163
 20
-1.379413738047209
 30
0.0
 10
-1.767600675204282
 20
-1.173202842638572
 30
0.0
 11
-2.001853259428043
 21
-1.812615192968193
 31
0.0
 11
-1.767600675204282
 21
-1.173202842638572
 31
0.0
  0
ARC
  5
2336
330
1F
100
AcDbEntity
  8
AM_0
100
AcDbCircle
 10
-1.993057463513484
 20
0.1873654654235267
 30
0.0
 40
1.999999999993002
100
AcDbArc
 50
269.7480181961756
 51
354.6244921778448
  0
ARC
  5
2339
330
1F
100
AcDbEntity
  8
AM_0
100
AcDbCircle
 10
-1.993057463513484
 20
-0.1873654654235168
 30
0.0
 40
1.999999999993002
100
AcDbArc
 50
5.375507822156816
 51
90.25198180382437
  0
LINE
  5
239B
330
1F
100
AcDbEntity
  8
AM_0
100
AcDbLine
 10
-0.324653259433995
 20
-0.1421728638509287
 30
0.0
 11
-0.0018532594353013
 21
-0.0000000000000036
 31
0.0
  0
VIEWPORT
  5
110
330
101
100
AcDbEntity
 67
     1
  8
0
100
AcDbViewport
 10
420.5
 20
297.0
 30
0.0
 40
948.9782706766916
 41
628.452
 68
     1
 69
     1
1001
ACAD
1000
MVIEW
1002
{
1070
    16
1010
0.0
1020
0.0
1030
0.0
1010
0.0
1020
0.0
1030
1.0
1040
0.0
1040
628.452
1040
420.5
1040
297.0
1040
50.0
1040
0.0
1040
0.0
1070
     0
1070
   100
1070
     1
1070
     1
1070
     0
1070
     0
1070
     0
1070
     0
1040
0.0
1040
0.0
1040
0.0
1040
10.0
1040
10.0
1040
10.0
1040
10.0
1070
     0
1002
{
1002
}
1002
}
  0
ENDSEC
  0
SECTION
  2
OBJECTS
  0
DICTIONARY
  5
C
330
0
100
AcDbDictionary
  3
ACAD_GROUP
350
D
  3
ACAD_LAYOUT
350
1A
  3
ACAD_MLINESTYLE
350
17
  3
ACAD_PLOTSETTINGS
350
19
  3
ACAD_PLOTSTYLENAME
350
E
  3
ACDBVARIABLEDICTIONARY
350
34
  3
ACMDICTIONARY
350
43
  3
AMG
350
2B
  3
AMGSNAPSETTINGS
350
6E
  3
DWGPROPS
350
23B6
  3
ACDBHEADERROUNDTRIPXREC
350
23C3
  0
DICTIONARY
  5
74
330
1F
100
AcDbDictionary
280
     1
  3
ACAD_INDEX
360
23B8
  3
ACAD_LAYOUTSELFREF
360
23E6
  0
DICTIONARY
  5
23EB
330
101
100
AcDbDictionary
280
     1
  3
ACAD_LAYOUTSELFREF
360
23EC
  0
DICTIONARY
  5
D
102
{ACAD_REACTORS
330
C
102
}
330
C
100
AcDbDictionary
  0
DICTIONARY
  5
1A
102
{ACAD_REACTORS
330
C
102
}
330
C
100
AcDbDictionary
  0
DICTIONARY
  5
17
102
{ACAD_REACTORS
330
C
102
}
330
C
100
AcDbDictionary
  3
STANDARD
350
18
  0
DICTIONARY
  5
19
102
{ACAD_REACTORS
330
C
102
}
330
C
100
AcDbDictionary
  0
ACDBDICTIONARYWDFLT
  5
E
102
{ACAD_REACTORS
330
C
102
}
330
C
100
AcDbDictionary
281
     1
  3
Normal
350
F
100
AcDbDictionaryWithDefault
340
F
  0
DICTIONARY
  5
34
102
{ACAD_REACTORS
330
C
102
}
330
C
100
AcDbDictionary
  3
INDEXCTL
350
35
  3
SORTENTS
350
B5E
  0
DICTIONARY
  5
43
102
{ACAD_REACTORS
330
C
102
}
330
C
100
AcDbDictionary
  3
ACMSTDDICTIONARY
350
260
  0
DICTIONARY
  5
2B
102
{ACAD_REACTORS
330
C
102
}
330
C
100
AcDbDictionary
  3
ACMGSETTINGS
350
2C
  0
DICTIONARY
  5
6E
102
{ACAD_REACTORS
330
C
102
}
330
C
100
AcDbDictionary
  0
XRECORD
  5
23B6
102
{ACAD_REACTORS
330
C
102
}
330
C
100
AcDbXrecord
  1
DWGPROPS COOKIE
  2

  3

  4

  6

  7

  8

  9

300
AmdtFileType=82
301
=
302
=
303
=
304
=
305
=
306
=
307
=
308
=
309
=
 40
0.2240073611111111
 41
2452838.620506898
 42
2453045.55991684
  1

 90
        1
  0
DICTIONARY
  5
23C3
102
{ACAD_REACTORS
330
C
102
}
330
C
100
AcDbDictionary
  3
TSTACKALIGN
350
23C4
  3
TSTACKSIZE
350
23C5
  3
HYPERLINKBASE
350
23C6
  3
STYLESHEET
350
23C7
  3
LAYOUTDICT
350
23C8
  3
PLOTSETDICT
350
23C9
  3
PLOTSTYLNAMDICT
350
23CA
  3
LWETCUNION
350
23CB
  3
INSUNITS
350
23CC
  3
CEPSNTYPE
350
23CD
  3
FINGERPRINTGUID
350
23CE
  3
VERSIONGUID
350
23CF
  3
PSVPSCALE
350
23D0
  3
DIMSTYLEDATA
350
23D1
  3
PUCSORTHOREF
350
23D2
  3
PUCSORTHOVIEW
350
23D3
  3
PUCSBASE
350
23D4
  3
PUCSORGTOP
350
23D5
  3
PUCSORGBOTTOM
350
23D6
  3
PUCSORGLEFT
350
23D7
  3
PUCSORGRIGHT
350
23D8
  3
PUCSORGFRONT
350
23D9
  3
PUCSORGBACK
350
23DA
  3
UCSORTHOREF
350
23DB
  3
UCSORTHOVIEW
350
23DC
  3
UCSBASE
350
23DD
  3
UCSORGTOP
350
23DE
  3
UCSORGBOTTOM
350
23DF
  3
UCSORGLEFT
350
23E0
  3
UCSORGRIGHT
350
23E1
  3
UCSORGFRONT
350
23E2
  3
UCSORGBACK
350
23E3
  0
DICTIONARY
  5
23B8
102
{ACAD_REACTORS
330
74
102
}
330
74
100
AcDbDictionary
  3
*A1
350
23B9
  0
XRECORD
  5
23E6
102
{ACAD_REACTORS
330
74
102
}
330
74
100
AcDbXrecord
340
1F
  0
XRECORD
  5
23EC
102
{ACAD_REACTORS
330
23EB
102
}
330
23EB
100
AcDbXrecord
340
101
  0
MLINESTYLE
  5
18
102
{ACAD_REACTORS
330
17
102
}
330
17
100
AcDbMlineStyle
  2
STANDARD
 70
     0
  3

 62
   256
 51
90.0
 52
90.0
 71
     2
 49
0.5
 62
   256
  6
BYLAYER
 49
-0.5
 62
   256
  6
BYLAYER
  0
ACDBPLACEHOLDER
  5
F
102
{ACAD_REACTORS
330
E
102
}
330
E
100
AcDbPlaceHolder
280
     0
  0
DICTIONARYVAR
  5
35
102
{ACAD_REACTORS
330
34
102
}
330
34
100
DictionaryVariables
280
     0
  1
1
  0
DICTIONARYVAR
  5
B5E
102
{ACAD_REACTORS
330
34
102
}
330
34
100
DictionaryVariables
280
     0
  1
96
  0
DICTIONARY
  5
260
102
{ACAD_REACTORS
330
43
102
}
330
43
100
AcDbDictionary
  0
DICTIONARY
  5
2C
102
{ACAD_REACTORS
330
2B
102
}
330
2B
100
AcDbDictionary
  3
DWGSETTINGS
350
2D
  0
XRECORD
  5
23C4
102
{ACAD_REACTORS
330
23C3
102
}
330
23C3
100
AcDbXrecord
 90
        1
  0
XRECORD
  5
23C5
102
{ACAD_REACTORS
330
23C3
102
}
330
23C3
100
AcDbXrecord
 90
       70
  0
XRECORD
  5
23C6
102
{ACAD_REACTORS
330
23C3
102
}
330
23C3
100
AcDbXrecord
  1

  0
XRECORD
  5
23C7
102
{ACAD_REACTORS
330
23C3
102
}
330
23C3
100
AcDbXrecord
  1
ASAMI.ctb
  0
XRECORD
  5
23C8
102
{ACAD_REACTORS
330
23C3
102
}
330
23C3
100
AcDbXrecord
340
1A
  0
XRECORD
  5
23C9
102
{ACAD_REACTORS
330
23C3
102
}
330
23C3
100
AcDbXrecord
340
19
  0
XRECORD
  5
23CA
102
{ACAD_REACTORS
330
23C3
102
}
330
23C3
100
AcDbXrecord
340
E
  0
XRECORD
  5
23CB
102
{ACAD_REACTORS
330
23C3
102
}
330
23C3
100
AcDbXrecord
 90
    10781
  0
XRECORD
  5
23CC
102
{ACAD_REACTORS
330
23C3
102
}
330
23C3
100
AcDbXrecord
 90
        4
  0
XRECORD
  5
23CD
102
{ACAD_REACTORS
330
23C3
102
}
330
23C3
100
AcDbXrecord
 90
        0
  0
XRECORD
  5
23CE
102
{ACAD_REACTORS
330
23C3
102
}
330
23C3
100
AcDbXrecord
  1
{AFB28963-8C59-40AE-9337-C84526B81ACE}
  0
XRECORD
  5
23CF
102
{ACAD_REACTORS
330
23C3
102
}
330
23C3
100
AcDbXrecord
  1
{1FFE88D0-2616-4876-8108-363A0A14575C}
  0
XRECORD
  5
23D0
102
{ACAD_REACTORS
330
23C3
102
}
330
23C3
100
AcDbXrecord
 40
0.0
  0
XRECORD
  5
23D1
102
{ACAD_REACTORS
330
23C3
102
}
330
23C3
100
AcDbXrecord
1000
DSTYLE
1002
{
1070
    79
 70
     2
1070
   341
340
59
1070
   342
340
59
1070
   371
 70
    -1
1070
   372
 70
    -1
1002
}
  0
XRECORD
  5
23D2
102
{ACAD_REACTORS
330
23C3
102
}
330
23C3
100
AcDbXrecord
340
0
  0
XRECORD
  5
23D3
102
{ACAD_REACTORS
330
23C3
102
}
330
23C3
100
AcDbXrecord
 70
     0
  0
XRECORD
  5
23D4
102
{ACAD_REACTORS
330
23C3
102
}
330
23C3
100
AcDbXrecord
340
0
  0
XRECORD
  5
23D5
102
{ACAD_REACTORS
330
23C3
102
}
330
23C3
100
AcDbXrecord
 10
0.0
 20
0.0
 30
0.0
  0
XRECORD
  5
23D6
102
{ACAD_REACTORS
330
23C3
102
}
330
23C3
100
AcDbXrecord
 10
0.0
 20
0.0
 30
0.0
  0
XRECORD
  5
23D7
102
{ACAD_REACTORS
330
23C3
102
}
330
23C3
100
AcDbXrecord
 10
0.0
 20
0.0
 30
0.0
  0
XRECORD
  5
23D8
102
{ACAD_REACTORS
330
23C3
102
}
330
23C3
100
AcDbXrecord
 10
0.0
 20
0.0
 30
0.0
  0
XRECORD
  5
23D9
102
{ACAD_REACTORS
330
23C3
102
}
330
23C3
100
AcDbXrecord
 10
0.0
 20
0.0
 30
0.0
  0
XRECORD
  5
23DA
102
{ACAD_REACTORS
330
23C3
102
}
330
23C3
100
AcDbXrecord
 10
0.0
 20
0.0
 30
0.0
  0
XRECORD
  5
23DB
102
{ACAD_REACTORS
330
23C3
102
}
330
23C3
100
AcDbXrecord
340
0
  0
XRECORD
  5
23DC
102
{ACAD_REACTORS
330
23C3
102
}
330
23C3
100
AcDbXrecord
 70
     0
  0
XRECORD
  5
23DD
102
{ACAD_REACTORS
330
23C3
102
}
330
23C3
100
AcDbXrecord
340
0
  0
XRECORD
  5
23DE
102
{ACAD_REACTORS
330
23C3
102
}
330
23C3
100
AcDbXrecord
 10
0.0
 20
0.0
 30
0.0
  0
XRECORD
  5
23DF
102
{ACAD_REACTORS
330
23C3
102
}
330
23C3
100
AcDbXrecord
 10
0.0
 20
0.0
 30
0.0
  0
XRECORD
  5
23E0
102
{ACAD_REACTORS
330
23C3
102
}
330
23C3
100
AcDbXrecord
 10
0.0
 20
0.0
 30
0.0
  0
XRECORD
  5
23E1
102
{ACAD_REACTORS
330
23C3
102
}
330
23C3
100
AcDbXrecord
 10
0.0
 20
0.0
 30
0.0
  0
XRECORD
  5
23E2
102
{ACAD_REACTORS
330
23C3
102
}
330
23C3
100
AcDbXrecord
 10
0.0
 20
0.0
 30
0.0
  0
XRECORD
  5
23E3
102
{ACAD_REACTORS
330
23C3
102
}
330
23C3
100
AcDbXrecord
 10
0.0
 20
0.0
 30
0.0
  0
LAYER_INDEX
  5
23B9
102
{ACAD_REACTORS
330
23B8
102
}
330
23B8
100
AcDbIndex
 40
2453151.867207291
100
AcDbLayerIndex
  8
0
360
23BA
 90
        2
  8
AM_0
360
23BB
 90
       35
  8
AM_11
360
23BC
 90
        4
  8
AM_7
360
23BD
 90
        1
  8
AM_5
360
23BE
 90
        6
  8
Defpoints
360
23BF
 90
        0
  8
AM_6
360
23C0
 90
        1
  8
AM_CL
360
23C1
 90
        0
  0
XRECORD
  5
2D
102
{ACAD_REACTORS
330
2C
102
}
330
2C
100
AcDbXrecord
  1
VERSION
140
15.0
  1
PRODUCT
  2
AutoCAD Mechanical 2000
  0
IDBUFFER
  5
23BA
330
0
100
AcDbIdBuffer
330
1E68
330
1FEA
  0
IDBUFFER
  5
23BB
330
0
100
AcDbIdBuffer
330
2325
330
2326
330
2327
330
2328
330
232A
330
232B
330
232C
330
232D
330
232E
330
232F
330
2330
330
2331
330
2332
330
2333
330
2334
330
2335
330
2336
330
2339
330
239B
330
1E64
330
1E65
330
1E66
330
1E67
330
1E69
330
1E8C
330
1E97
330
229C
330
22AC
330
22BD
330
231F
330
2320
330
2321
330
2322
330
2323
330
2324
  0
IDBUFFER
  5
23BC
330
0
100
AcDbIdBuffer
330
1C97
330
1C9A
330
1CA1
330
1CB1
  0
IDBUFFER
  5
23BD
330
0
100
AcDbIdBuffer
330
C50
  0
IDBUFFER
  5
23BE
330
0
100
AcDbIdBuffer
330
C4F
330
194C
330
195B
330
1CC3
330
1E6A
330
21E5
  0
IDBUFFER
  5
23BF
330
0
100
AcDbIdBuffer
  0
IDBUFFER
  5
23C0
330
0
100
AcDbIdBuffer
330
C58
  0
IDBUFFER
  5
23C1
330
0
100
AcDbIdBuffer
  0
ENDSEC
  0
EOF
