  0
SECTION
  2
HEADER
  9
$ACADVER
  1
AC1014
  9
$ACADMAINTVER
 70
     9
  9
$DWGCODEPAGE
  3
ANSI_932
  9
$INSBASE
 10
0.0
 20
0.0
 30
0.0
  9
$EXTMIN
 10
-178.7
 20
-68.50000000000005
 30
-0.00000001
  9
$EXTMAX
 10
15.28207767453921
 20
8.000000000000003
 30
0.00000001
  9
$LIMMIN
 10
-197.8570957928759
 20
-95.38508142699862
  9
$LIMMAX
 10
36.07606928006123
 20
29.35943230235017
  9
$ORTHOMODE
 70
     0
  9
$REGENMODE
 70
     1
  9
$FILLMODE
 70
     1
  9
$QTEXTMODE
 70
     0
  9
$MIRRTEXT
 70
     0
  9
$DRAGMODE
 70
     2
  9
$LTSCALE
 40
0.3
  9
$OSMODE
 70
    55
  9
$ATTMODE
 70
     1
  9
$TEXTSIZE
 40
2.5
  9
$TRACEWID
 40
1.0
  9
$TEXTSTYLE
  7
STANDARD
  9
$CLAYER
  8
AM_0
  9
$CELTYPE
  6
BYLAYER
  9
$CECOLOR
 62
   256
  9
$CELTSCALE
 40
1.0
  9
$DELOBJ
 70
     1
  9
$DISPSILH
 70
     0
  9
$DIMSCALE
 40
0.5
  9
$DIMASZ
 40
2.5
  9
$DIMEXO
 40
1.0
  9
$DIMDLI
 40
12.0
  9
$DIMRND
 40
0.0
  9
$DIMDLE
 40
0.0
  9
$DIMEXE
 40
1.0
  9
$DIMTP
 40
0.1
  9
$DIMTM
 40
0.1
  9
$DIMTXT
 40
3.2
  9
$DIMCEN
 40
0.0
  9
$DIMTSZ
 40
0.0
  9
$DIMTOL
 70
     0
  9
$DIMLIM
 70
     0
  9
$DIMTIH
 70
     0
  9
$DIMTOH
 70
     0
  9
$DIMSE1
 70
     0
  9
$DIMSE2
 70
     0
  9
$DIMTAD
 70
     3
  9
$DIMZIN
 70
     8
  9
$DIMBLK
  1
OPEN30
  9
$DIMASO
 70
     1
  9
$DIMSHO
 70
     1
  9
$DIMPOST
  1

  9
$DIMAPOST
  1
"
  9
$DIMALT
 70
     0
  9
$DIMALTD
 70
     2
  9
$DIMALTF
 40
0.0393701
  9
$DIMLFAC
 40
1.0
  9
$DIMTOFL
 70
     1
  9
$DIMTVP
 40
0.0
  9
$DIMTIX
 70
     0
  9
$DIMSOXD
 70
     0
  9
$DIMSAH
 70
     0
  9
$DIMBLK1
  1

  9
$DIMBLK2
  1

  9
$DIMSTYLE
  2
AM_JIS
  9
$DIMCLRD
 70
   256
  9
$DIMCLRE
 70
   256
  9
$DIMCLRT
 70
     2
  9
$DIMTFAC
 40
0.71
  9
$DIMGAP
 40
1.5
  9
$DIMJUST
 70
     0
  9
$DIMSD1
 70
     0
  9
$DIMSD2
 70
     0
  9
$DIMTOLJ
 70
     0
  9
$DIMTZIN
 70
     0
  9
$DIMALTZ
 70
     0
  9
$DIMALTTZ
 70
     0
  9
$DIMFIT
 70
     3
  9
$DIMUPT
 70
     0
  9
$DIMUNIT
 70
     2
  9
$DIMDEC
 70
     3
  9
$DIMTDEC
 70
     3
  9
$DIMALTU
 70
     2
  9
$DIMALTTD
 70
     2
  9
$DIMTXSTY
  7
ASAMI
  9
$DIMAUNIT
 70
     0
  9
$LUNITS
 70
     2
  9
$LUPREC
 70
     2
  9
$SKETCHINC
 40
1.0
  9
$FILLETRAD
 40
0.5
  9
$AUNITS
 70
     0
  9
$AUPREC
 70
     0
  9
$MENU
  1
.
  9
$ELEVATION
 40
0.0
  9
$PELEVATION
 40
0.0
  9
$THICKNESS
 40
0.0
  9
$LIMCHECK
 70
     0
  9
$BLIPMODE
 70
     0
  9
$CHAMFERA
 40
2.5
  9
$CHAMFERB
 40
2.5
  9
$CHAMFERC
 40
20.0
  9
$CHAMFERD
 40
0.0
  9
$SKPOLY
 70
     0
  9
$TDCREATE
 40
2452838.620506898
  9
$TDUPDATE
 40
2453151.865011609
  9
$TDINDWG
 40
0.2957581597
  9
$TDUSRTIMER
 40
0.2957581597
  9
$USRTIMER
 70
     1
  9
$ANGBASE
 50
0.0
  9
$ANGDIR
 70
     0
  9
$PDMODE
 70
     0
  9
$PDSIZE
 40
0.0
  9
$PLINEWID
 40
0.0
  9
$COORDS
 70
     1
  9
$SPLFRAME
 70
     0
  9
$SPLINETYPE
 70
     6
  9
$SPLINESEGS
 70
     8
  9
$ATTDIA
 70
     1
  9
$ATTREQ
 70
     1
  9
$HANDLING
 70
 12289
  9
$HANDSEED
  5
278E
  9
$SURFTAB1
 70
     6
  9
$SURFTAB2
 70
     6
  9
$SURFTYPE
 70
     6
  9
$SURFU
 70
     6
  9
$SURFV
 70
     6
  9
$UCSNAME
  2

  9
$UCSORG
 10
-0.0000000000000568
 20
-0.0000000000000036
 30
0.0
  9
$UCSXDIR
 10
1.0
 20
0.0
 30
0.0
  9
$UCSYDIR
 10
0.0
 20
1.0
 30
0.0
  9
$PUCSNAME
  2

  9
$PUCSORG
 10
0.0
 20
0.0
 30
0.0
  9
$PUCSXDIR
 10
1.0
 20
0.0
 30
0.0
  9
$PUCSYDIR
 10
0.0
 20
1.0
 30
0.0
  9
$USERI1
 70
     0
  9
$USERI2
 70
     0
  9
$USERI3
 70
     0
  9
$USERI4
 70
     0
  9
$USERI5
 70
     0
  9
$USERR1
 40
0.0
  9
$USERR2
 40
0.0
  9
$USERR3
 40
0.0
  9
$USERR4
 40
0.0
  9
$USERR5
 40
0.0
  9
$WORLDVIEW
 70
     1
  9
$SHADEDGE
 70
     3
  9
$SHADEDIF
 70
    70
  9
$TILEMODE
 70
     1
  9
$MAXACTVP
 70
    64
  9
$PINSBASE
 10
0.0
 20
0.0
 30
0.0
  9
$PLIMCHECK
 70
     0
  9
$PEXTMIN
 10
1.000000000000000E+20
 20
1.000000000000000E+20
 30
1.000000000000000E+20
  9
$PEXTMAX
 10
-1.000000000000000E+20
 20
-1.000000000000000E+20
 30
-1.000000000000000E+20
  9
$PLIMMIN
 10
0.0
 20
0.0
  9
$PLIMMAX
 10
841.0
 20
594.0
  9
$UNITMODE
 70
     0
  9
$VISRETAIN
 70
     1
  9
$PLINEGEN
 70
     0
  9
$PSLTSCALE
 70
     0
  9
$TREEDEPTH
 70
  3020
  9
$PICKSTYLE
 70
     0
  9
$CMLSTYLE
  2
STANDARD
  9
$CMLJUST
 70
     0
  9
$CMLSCALE
 40
20.0
  9
$PROXYGRAPHICS
 70
     1
  9
$MEASUREMENT
 70
     1
  0
ENDSEC
  0
SECTION
  2
CLASSES
  0
CLASS
  1
ACDBDICTIONARYWDFLT
  2
AcDbDictionaryWithDefault
  3
AutoCAD 2000
 90
        0
280
     0
281
     0
  0
CLASS
  1
ACDBPLACEHOLDER
  2
AcDbPlaceHolder
  3
AutoCAD 2000
 90
        0
280
     0
281
     0
  0
CLASS
  1
LAYOUT
  2
AcDbLayout
  3
AutoCAD 2000
 90
        0
280
     0
281
     0
  0
CLASS
  1
AMGSETTINGSOBJ
  2
AmgSettingsObj
  3
"AcadM|Product Description: AutoCAD Mechanical 2000|Company: Autodesk"
 90
        0
280
     0
281
     0
  0
CLASS
  1
ACME_DOCUMENT
  2
AcMeDbDoc
  3
AcMeServices
 90
        0
280
     0
281
     0
  0
CLASS
  1
ACMESCOPE
  2
AcMeScope
  3
AcMeServices
 90
        0
280
     0
281
     0
  0
CLASS
  1
ACMECOMMANDHISTORY
  2
AcMeCommandHistory
  3
AcMeServices
 90
        0
280
     0
281
     0
  0
CLASS
  1
DICTIONARYVAR
  2
AcDbDictionaryVar
  3
AutoCAD 2000
 90
        0
280
     0
281
     0
  0
CLASS
  1
ACIMSYSVARMAN
  2
AcImSysVarManager
  3
AcMeServices
 90
        0
280
     0
281
     0
  0
CLASS
  1
ACIMREALSYSVAR
  2
AcImRealSysVar
  3
AcMeServices
 90
        0
280
     0
281
     0
  0
CLASS
  1
ACIMINTSYSVAR
  2
AcImIntSysVar
  3
AcMeServices
 90
        0
280
     0
281
     0
  0
CLASS
  1
ACMEDRAWINGMAN
  2
AcMeDrawingMan
  3
AcMeServices
 90
        0
280
     0
281
     0
  0
CLASS
  1
ACMEVIEW
  2
AcMeView
  3
AcMeServices
 90
        0
280
     0
281
     0
  0
CLASS
  1
ACDBENTITYCACHE
  2
AcMeEntityCache
  3
AcMeServices
 90
        0
280
     0
281
     0
  0
CLASS
  1
GSMANAGER
  2
AcMeGSManager
  3
AcMeServices
 90
        0
280
     0
281
     0
  0
CLASS
  1
AmdtInternalReactor
  2
AmdtInternalReactor
  3
AcMeServices
 90
        0
280
     0
281
     0
  0
CLASS
  1
ACMESTATEMGR
  2
AcMeStateMgr
  3
AcMeServices
 90
        0
280
     0
281
     0
  0
CLASS
  1
ACME_DATABASE
  2
AcMeDbDatabase
  3
AcMeServices
 90
        0
280
     0
281
     0
  0
CLASS
  1
ACRFINSADJUSTERMGR
  2
AcRfInsAdjusterMgr
  3
AcMeServices
 90
        0
280
     0
281
     0
  0
CLASS
  1
ACMDATADICTIONARY
  2
AcmDataDictionary
  3
"AcmSymBB|Product Description: AutoCAD Mechanical 2000|Company: Autodesk"
 90
        0
280
     0
281
     0
  0
CLASS
  1
ACMDATAENTRYBLOCK
  2
AcmDataEntryBlock
  3
"AcmSymBB|Product Description: AutoCAD Mechanical 2000|Company: Autodesk"
 90
        0
280
     0
281
     0
  0
CLASS
  1
AMGOBJPROPCFG
  2
AmgObjPropCfg
  3
"AmgLay|Product Description: AutoCAD Mechanical 2000|Company: Autodesk"
 90
        1
280
     0
281
     0
  0
CLASS
  1
ACAMGFILTERDAT
  2
AcAmgFilterDat
  3
"AcadM|Product Description: AutoCAD Mechanical 2000|Company: Autodesk"
 90
        0
280
     0
281
     0
  0
CLASS
  1
LAYER_INDEX
  2
AcDbLayerIndex
  3
AutoCAD 2000
 90
        0
280
     0
281
     0
  0
CLASS
  1
IDBUFFER
  2
AcDbIdBuffer
  3
AutoCAD 2000
 90
        0
280
     0
281
     0
  0
CLASS
  1
ACIMSTRSYSVAR
  2
AcImStrSysVar
  3
AcMeServices
 90
        0
280
     0
281
     0
  0
CLASS
  1
ACMSTANDARDJIS
  2
AcmStandardJIS
  3
"AcmSymBB|Product Description: AutoCAD Mechanical 2000|Company: Autodesk"
 90
        0
280
     0
281
     0
  0
CLASS
  1
ACMSURFSTANDARDJIS
  2
AcmSurfTextStdJIS
  3
"AcmSymBB|Product Description: AutoCAD Mechanical 2000|Company: Autodesk"
 90
        0
280
     0
281
     0
  0
CLASS
  1
ACMFCFSTANDARDJIS
  2
AcmFCFStdJIS
  3
"AcmSymBB|Product Description: AutoCAD Mechanical 2000|Company: Autodesk"
 90
        0
280
     0
281
     0
  0
CLASS
  1
ACMWELDSTANDARDJIS
  2
AcmWeldingStdJIS
  3
"AcmSymBB|Product Description: AutoCAD Mechanical 2000|Company: Autodesk"
 90
        0
280
     0
281
     0
  0
CLASS
  1
ACMIDSTANDARDJIS
  2
AcmIdStdJIS
  3
"AcmSymBB|Product Description: AutoCAD Mechanical 2000|Company: Autodesk"
 90
        0
280
     0
281
     0
  0
CLASS
  1
ACMDATUMSTANDARDJIS
  2
AcmDatumStdJIS
  3
"AcmSymBB|Product Description: AutoCAD Mechanical 2000|Company: Autodesk"
 90
        0
280
     0
281
     0
  0
CLASS
  1
ACMBOMSTANDARDJIS
  2
AcmBOMStdJIS
  3
"AcmSymBB|Product Description: AutoCAD Mechanical 2000|Company: Autodesk"
 90
        0
280
     0
281
     0
  0
CLASS
  1
ACMSTANDARDANSI
  2
AcmStandardANSI
  3
"AcmSymBB|Product Description: AutoCAD Mechanical 2000|Company: Autodesk"
 90
        0
280
     0
281
     0
  0
CLASS
  1
ACMSURFSTANDARDANSI
  2
AcmSurfTextStdANSI
  3
"AcmSymBB|Product Description: AutoCAD Mechanical 2000|Company: Autodesk"
 90
        0
280
     0
281
     0
  0
CLASS
  1
ACMFCFSTANDARDANSI
  2
AcmFCFStdANSI
  3
"AcmSymBB|Product Description: AutoCAD Mechanical 2000|Company: Autodesk"
 90
        0
280
     0
281
     0
  0
CLASS
  1
ACMWELDSTANDARDANSI
  2
AcmWeldingStdANSI
  3
"AcmSymBB|Product Description: AutoCAD Mechanical 2000|Company: Autodesk"
 90
        0
280
     0
281
     0
  0
CLASS
  1
ACMIDSTANDARDANSI
  2
AcmIdStdANSI
  3
"AcmSymBB|Product Description: AutoCAD Mechanical 2000|Company: Autodesk"
 90
        0
280
     0
281
     0
  0
CLASS
  1
ACMDATUMSTANDARDANSI
  2
AcmDatumStdANSI
  3
"AcmSymBB|Product Description: AutoCAD Mechanical 2000|Company: Autodesk"
 90
        0
280
     0
281
     0
  0
CLASS
  1
ACMBOMSTANDARDANSI
  2
AcmBOMStdANSI
  3
"AcmSymBB|Product Description: AutoCAD Mechanical 2000|Company: Autodesk"
 90
        0
280
     0
281
     0
  0
CLASS
  1
ACMSTANDARDBSI
  2
AcmStandardBSI
  3
"AcmSymBB|Product Description: AutoCAD Mechanical 2000|Company: Autodesk"
 90
        0
280
     0
281
     0
  0
CLASS
  1
ACMSURFSTANDARDBSI
  2
AcmSurfTextStdBSI
  3
"AcmSymBB|Product Description: AutoCAD Mechanical 2000|Company: Autodesk"
 90
        0
280
     0
281
     0
  0
CLASS
  1
ACMFCFSTANDARDBSI
  2
AcmFCFStdBSI
  3
"AcmSymBB|Product Description: AutoCAD Mechanical 2000|Company: Autodesk"
 90
        0
280
     0
281
     0
  0
CLASS
  1
ACMWELDSTANDARDBSI
  2
AcmWeldingStdBSI
  3
"AcmSymBB|Product Description: AutoCAD Mechanical 2000|Company: Autodesk"
 90
        0
280
     0
281
     0
  0
CLASS
  1
ACMIDSTANDARDBSI
  2
AcmIdStdBSI
  3
"AcmSymBB|Product Description: AutoCAD Mechanical 2000|Company: Autodesk"
 90
        0
280
     0
281
     0
  0
CLASS
  1
ACMDATUMSTANDARDBSI
  2
AcmDatumStdBSI
  3
"AcmSymBB|Product Description: AutoCAD Mechanical 2000|Company: Autodesk"
 90
        0
280
     0
281
     0
  0
CLASS
  1
ACMBOMSTANDARDBSI
  2
AcmBOMStdBSI
  3
"AcmSymBB|Product Description: AutoCAD Mechanical 2000|Company: Autodesk"
 90
        0
280
     0
281
     0
  0
CLASS
  1
LONG_TRANSACTION
  2
AcDbLongTransaction
  3
AutoCAD 2000
 90
        0
280
     0
281
     0
  0
CLASS
  1
LWPOLYLINE
  2
AcDbPolyline
  3
AutoCAD 2000
 90
        0
280
     0
281
     1
  0
CLASS
  1
HATCH
  2
AcDbHatch
  3
AutoCAD 2000
 90
        0
280
     0
281
     1
  0
CLASS
  1
XRECORD
  2
AcDbXrecord
  3
AutoCAD 2000
 90
        0
280
     0
281
     0
  0
ENDSEC
  0
SECTION
  2
TABLES
  0
TABLE
  2
VPORT
  5
8
330
0
100
AcDbSymbolTable
 70
     3
  0
VPORT
  5
2763
330
8
100
AcDbSymbolTableRecord
100
AcDbViewportTableRecord
  2
*ACTIVE
 70
     0
 10
0.0
 20
0.0
 11
1.0
 21
1.0
 12
-79.15650730624682
 22
-14.33439882863402
 13
0.0
 23
0.0
 14
2.5
 24
2.5
 15
10.0
 25
10.0
 16
0.0
 26
0.0
 36
1.0
 17
0.0
 27
0.0
 37
0.0
 40
188.8773335194284
 41
1.56570841889117
 42
50.0
 43
0.0
 44
0.0
 50
0.0
 51
0.0
 71
     0
 72
   100
 73
     1
 74
     3
 75
     0
 76
     0
 77
     0
 78
     0
  0
ENDTAB
  0
TABLE
  2
LTYPE
  5
5
330
0
100
AcDbSymbolTable
 70
    10
  0
LTYPE
  5
14
330
5
100
AcDbSymbolTableRecord
100
AcDbLinetypeTableRecord
  2
BYBLOCK
 70
     0
  3

 72
    65
 73
     0
 40
0.0
  0
LTYPE
  5
15
330
5
100
AcDbSymbolTableRecord
100
AcDbLinetypeTableRecord
  2
BYLAYER
 70
     0
  3

 72
    65
 73
     0
 40
0.0
  0
LTYPE
  5
16
330
5
100
AcDbSymbolTableRecord
100
AcDbLinetypeTableRecord
  2
CONTINUOUS
 70
     0
  3
Solid line
 72
    65
 73
     0
 40
0.0
  0
LTYPE
  5
4B
330
5
100
AcDbSymbolTableRecord
100
AcDbLinetypeTableRecord
  2
AM_ISO02W050
 70
     0
  3
__ __ __ __ __ __ __ __ __ __ __ __ __ __ __
 72
    65
 73
     2
 40
7.5
 49
6.0
 74
     0
 49
-1.5
 74
     0
  0
LTYPE
  5
4C
330
5
100
AcDbSymbolTableRecord
100
AcDbLinetypeTableRecord
  2
AM_ISO08W050
 70
     0
  3
____ . ____ . ____ . ____ . ____ . ____ . ____
 72
    65
 73
     4
 40
18.0
 49
12.0
 74
     0
 49
-1.5
 74
     0
 49
3.0
 74
     0
 49
-1.5
 74
     0
  0
LTYPE
  5
4D
330
5
100
AcDbSymbolTableRecord
100
AcDbLinetypeTableRecord
  2
AM_ISO09W050
 70
     0
  3
_____ . . _____ . . _____ . . ____ .. ____
 72
    65
 73
     6
 40
22.5
 49
12.0
 74
     0
 49
-1.5
 74
     0
 49
3.0
 74
     0
 49
-1.5
 74
     0
 49
3.0
 74
     0
 49
-1.5
 74
     0
  0
LTYPE
  5
4E
330
5
100
AcDbSymbolTableRecord
100
AcDbLinetypeTableRecord
  2
AMCONSTR
 70
     0
  3
_______________________
 72
    65
 73
     2
 40
9999.0
 49
9999.0
 74
     0
 49
0.0
 74
     0
  0
LTYPE
  5
4F
330
5
100
AcDbSymbolTableRecord
100
AcDbLinetypeTableRecord
  2
AM_ISO02W050X2
 70
     0
  3
 _ _ _ _ _ _ _ _ _ _ _ _
 72
    65
 73
     2
 40
3.75
 49
3.0
 74
     0
 49
-0.75
 74
     0
  0
LTYPE
  5
50
330
5
100
AcDbSymbolTableRecord
100
AcDbLinetypeTableRecord
  2
AM_ISO08W050X2
 70
     0
  3
__ . __ . __ . __ . __ . __
 72
    65
 73
     4
 40
9.0
 49
6.0
 74
     0
 49
-0.75
 74
     0
 49
1.5
 74
     0
 49
-0.75
 74
     0
  0
LTYPE
  5
53
330
5
100
AcDbSymbolTableRecord
100
AcDbLinetypeTableRecord
  2
AMZIGZAG
 70
     0
  3
/\/-/\/-/\/-/\/-/\/-/\/
 72
    65
 73
     2
 40
11.00009999999999
 49
0.0001
 74
     4
 75
   135
340
52
 46
0.04
 50
0.0
 44
0.0
 45
0.0
 49
-11.0
 74
     0
  0
LTYPE
  5
166
330
5
100
AcDbSymbolTableRecord
100
AcDbLinetypeTableRecord
  2
ACJISTGL
 70
     0
  3
_ _ _ _ _
 72
    65
 73
     2
 40
3.0
 49
2.0
 74
     0
 49
-1.0
 74
     0
  0
LTYPE
  5
26A
330
5
100
AcDbSymbolTableRecord
100
AcDbLinetypeTableRecord
  2
ACJISTGB
 70
     0
  3
__ . . __ . .
 72
    65
 73
     6
 40
9.0
 49
4.0
 74
     0
 49
-1.0
 74
     0
 49
1.0
 74
     0
 49
-1.0
 74
     0
 49
1.0
 74
     0
 49
-1.0
 74
     0
  0
ENDTAB
  0
TABLE
  2
LAYER
  5
2
330
0
100
AcDbSymbolTable
 70
     8
  0
LAYER
  5
10
330
2
100
AcDbSymbolTableRecord
100
AcDbLayerTableRecord
  2
0
 70
     0
 62
     7
  6
CONTINUOUS
  0
LAYER
  5
3F9
330
2
100
AcDbSymbolTableRecord
100
AcDbLayerTableRecord
  2
AM_0
 70
     0
 62
     7
  6
CONTINUOUS
  0
LAYER
  5
BD6
330
2
100
AcDbSymbolTableRecord
100
AcDbLayerTableRecord
  2
AM_11
 70
     0
 62
     3
  6
AM_ISO09W050
  0
LAYER
  5
BD7
330
2
100
AcDbSymbolTableRecord
100
AcDbLayerTableRecord
  2
AM_7
 70
     0
 62
     4
  6
AM_ISO08W050
  0
LAYER
  5
BD8
330
2
100
AcDbSymbolTableRecord
100
AcDbLayerTableRecord
  2
AM_5
 70
     0
 62
     3
  6
CONTINUOUS
  0
LAYER
  5
BD9
330
2
100
AcDbSymbolTableRecord
100
AcDbLayerTableRecord
  2
DEFPOINTS
 70
     0
 62
     7
  6
CONTINUOUS
  0
LAYER
  5
BDA
330
2
100
AcDbSymbolTableRecord
100
AcDbLayerTableRecord
  2
AM_6
 70
     0
 62
     2
  6
CONTINUOUS
  0
LAYER
  5
2398
330
2
100
AcDbSymbolTableRecord
100
AcDbLayerTableRecord
  2
AM_CL
 70
     0
 62
     1
  6
AMCONSTR
  0
ENDTAB
  0
TABLE
  2
STYLE
  5
3
330
0
100
AcDbSymbolTable
 70
     5
  0
STYLE
  5
11
330
3
100
AcDbSymbolTableRecord
100
AcDbTextStyleTableRecord
  2
STANDARD
 70
     0
 40
0.0
 41
1.0
 50
0.0
 71
     0
 42
2.5
  3
simplex.shx
  4
EXTFONT.SHX
  0
STYLE
  5
52
330
3
100
AcDbSymbolTableRecord
100
AcDbTextStyleTableRecord
  2

 70
     1
 40
0.0
 41
1.0
 50
0.0
 71
     0
 42
2.5
  3
ltypeshp.shx
  4

  0
STYLE
  5
6B
330
3
100
AcDbSymbolTableRecord
100
AcDbTextStyleTableRecord
  2
ASAMI
 70
     0
 40
0.0
 41
1.0
 50
0.0
 71
     0
 42
2.5
  3
simplex.shx
  4
EXTFONT.SHX
  0
STYLE
  5
262
330
3
100
AcDbSymbolTableRecord
100
AcDbTextStyleTableRecord
  2
ACJISTS
 70
     0
 40
1.0
 41
1.0
 50
0.0
 71
     0
 42
2.5
  3
simplex.shx
  4
bigfont.shx
  0
STYLE
  5
269
330
3
100
AcDbSymbolTableRecord
100
AcDbTextStyleTableRecord
  2
ACJISGDT
 70
     0
 40
0.0
 41
1.0
 50
0.0
 71
     0
 42
2.5
  3
amgdtans.shx
  4

  0
ENDTAB
  0
TABLE
  2
VIEW
  5
6
330
0
100
AcDbSymbolTable
 70
     0
  0
ENDTAB
  0
TABLE
  2
UCS
  5
7
330
0
100
AcDbSymbolTable
 70
     0
  0
ENDTAB
  0
TABLE
  2
APPID
  5
9
330
0
100
AcDbSymbolTable
 70
    13
  0
APPID
  5
12
330
9
100
AcDbSymbolTableRecord
100
AcDbRegAppTableRecord
  2
ACAD
 70
     0
  0
APPID
  5
30
330
9
100
AcDbSymbolTableRecord
100
AcDbRegAppTableRecord
  2
MCAD_NO_VIS
 70
     0
  0
APPID
  5
31
330
9
100
AcDbSymbolTableRecord
100
AcDbRegAppTableRecord
  2
ACAD_TEMP_GRAPHIC
 70
     0
  0
APPID
  5
2C2
330
9
100
AcDbSymbolTableRecord
100
AcDbRegAppTableRecord
  2
GENIUS_GENDTOL_13
 70
     0
  0
APPID
  5
339
330
9
100
AcDbSymbolTableRecord
100
AcDbRegAppTableRecord
  2
GENIUS_GENODEF_13
 70
     0
  0
APPID
  5
33A
330
9
100
AcDbSymbolTableRecord
100
AcDbRegAppTableRecord
  2
GENIUS_GENOBJ-N-RSBK_13
 70
     0
  0
APPID
  5
33B
330
9
100
AcDbSymbolTableRecord
100
AcDbRegAppTableRecord
  2
GENIUS_GENOBJ-N-LIB_13
 70
     0
  0
APPID
  5
33C
330
9
100
AcDbSymbolTableRecord
100
AcDbRegAppTableRecord
  2
GENIUS_GENSCALE_13
 70
     0
  0
APPID
  5
378
330
9
100
AcDbSymbolTableRecord
100
AcDbRegAppTableRecord
  2
GENIUS_GENDIMSH_14
 70
     0
  0
APPID
  5
BDB
330
9
100
AcDbSymbolTableRecord
100
AcDbRegAppTableRecord
  2
GENIUS_GENOBJ-N-CEN_13
 70
     0
  0
APPID
  5
BDC
330
9
100
AcDbSymbolTableRecord
100
AcDbRegAppTableRecord
  2
GENIUS_GENFIL_13
 70
     0
  0
APPID
  5
BDD
330
9
100
AcDbSymbolTableRecord
100
AcDbRegAppTableRecord
  2
GENIUS_GENOBJ-N-FIL_13
 70
     0
  0
APPID
  5
12AD
330
9
100
AcDbSymbolTableRecord
100
AcDbRegAppTableRecord
  2
GENIUS_GENOREF_13
 70
     0
  0
ENDTAB
  0
TABLE
  2
DIMSTYLE
  5
A
330
0
100
AcDbSymbolTable
 70
     8
  0
DIMSTYLE
105
58
102
{ACAD_REACTORS
330
C4F
330
194C
330
195B
330
1CC3
330
2468
102
}
330
A
100
AcDbSymbolTableRecord
100
AcDbDimStyleTableRecord
  2
AM_JIS
 70
     0
  3

  4
"
  5
OPEN30
  6

  7

 40
1.0
 41
2.5
 42
1.0
 43
12.0
 44
1.0
 45
0.0
 46
0.0
 47
0.1
 48
0.1
140
3.2
141
0.0
142
0.0
143
0.0393701
144
1.0
145
0.0
146
0.71
147
1.5
 71
     0
 72
     0
 73
     0
 74
     0
 75
     0
 76
     0
 77
     3
 78
     8
170
     0
171
     2
172
     1
173
     0
174
     0
175
     0
176
   256
177
   256
178
     2
270
     2
271
     3
272
     3
273
     2
274
     2
340
6B
275
     0
280
     0
281
     0
282
     0
283
     0
284
     0
285
     0
286
     0
287
     3
288
     0
  0
DIMSTYLE
105
5F
330
A
100
AcDbSymbolTableRecord
100
AcDbDimStyleTableRecord
  2
AM_JIS$3
 70
     0
  3

  4
"
  5
OPEN30
  6

  7

 40
1.0
 41
2.5
 42
1.0
 43
10.0
 44
1.0
 45
0.0
 46
0.0
 47
0.1
 48
0.1
140
3.2
141
0.0
142
0.0
143
0.0393701
144
1.0
145
0.0
146
0.71
147
1.5
 71
     0
 72
     0
 73
     0
 74
     1
 75
     0
 76
     0
 77
     3
 78
     8
170
     0
171
     2
172
     0
173
     0
174
     0
175
     0
176
   256
177
   256
178
     2
270
     2
271
     2
272
     3
273
     2
274
     2
340
6B
275
     0
280
     0
281
     0
282
     0
283
     0
284
     0
285
     0
286
     0
287
     0
288
     1
  0
DIMSTYLE
105
60
102
{ACAD_REACTORS
330
2279
102
}
330
A
100
AcDbSymbolTableRecord
100
AcDbDimStyleTableRecord
  2
AM_JIS$4
 70
     0
  3

  4
"
  5
OPEN30
  6

  7

 40
1.0
 41
2.5
 42
1.0
 43
10.0
 44
1.0
 45
0.0
 46
0.0
 47
0.1
 48
0.1
140
3.2
141
0.0
142
0.0
143
0.0393701
144
1.0
145
0.0
146
0.71
147
1.5
 71
     0
 72
     0
 73
     0
 74
     1
 75
     0
 76
     0
 77
     3
 78
     8
170
     0
171
     2
172
     0
173
     0
174
     0
175
     0
176
   256
177
   256
178
     2
270
     2
271
     2
272
     3
273
     2
274
     2
340
6B
275
     0
280
     0
281
     0
282
     0
283
     0
284
     0
285
     0
286
     0
287
     0
288
     1
  0
DIMSTYLE
105
61
330
A
100
AcDbSymbolTableRecord
100
AcDbDimStyleTableRecord
  2
AM_JIS$6
 70
     0
  3

  4
"
  5
OPEN30
  6

  7

 40
1.0
 41
2.5
 42
1.0
 43
10.0
 44
1.0
 45
0.0
 46
0.0
 47
0.1
 48
0.1
140
3.2
141
0.0
142
0.0
143
0.0393701
144
1.0
145
0.0
146
0.71
147
1.5
 71
     0
 72
     0
 73
     0
 74
     0
 75
     0
 76
     0
 77
     0
 78
     8
170
     0
171
     2
172
     1
173
     0
174
     0
175
     0
176
   256
177
   256
178
     2
270
     2
271
     2
272
     2
273
     2
274
     2
340
6B
275
     0
280
     0
281
     0
282
     0
283
     0
284
     0
285
     0
286
     0
287
     3
288
     0
  0
DIMSTYLE
105
62
330
A
100
AcDbSymbolTableRecord
100
AcDbDimStyleTableRecord
  2
AM_JIS$7
 70
     0
  3

  4
"
  5
OPEN30
  6

  7

 40
1.0
 41
2.5
 42
1.0
 43
10.0
 44
1.0
 45
0.0
 46
0.0
 47
0.1
 48
0.1
140
3.2
141
0.0
142
0.0
143
0.0393701
144
1.0
145
0.0
146
0.71
147
1.5
 71
     0
 72
     0
 73
     0
 74
     0
 75
     0
 76
     0
 77
     3
 78
     8
170
     0
171
     2
172
     1
173
     0
174
     0
175
     0
176
   256
177
   256
178
     2
270
     2
271
     2
272
     3
273
     2
274
     2
340
6B
275
     0
280
     0
281
     0
282
     0
283
     0
284
     0
285
     0
286
     0
287
     3
288
     0
  0
DIMSTYLE
105
63
330
A
100
AcDbSymbolTableRecord
100
AcDbDimStyleTableRecord
  2
AM_JIS$SF
 70
     0
  3

  4
"
  5
OPEN30
  6

  7

 40
1.0
 41
2.5
 42
1.0
 43
10.0
 44
1.0
 45
0.0
 46
0.0
 47
0.1
 48
0.1
140
3.2
141
0.0
142
0.0
143
0.0393701
144
1.0
145
0.0
146
0.71
147
1.5
 71
     0
 72
     0
 73
     0
 74
     0
 75
     1
 76
     1
 77
     3
 78
     8
170
     0
171
     2
172
     1
173
     0
174
     0
175
     0
176
   256
177
   256
178
     2
270
     2
271
     2
272
     2
273
     2
274
     2
340
6B
275
     0
280
     0
281
     0
282
     0
283
     0
284
     0
285
     0
286
     0
287
     3
288
     0
  0
DIMSTYLE
105
68
330
A
100
AcDbSymbolTableRecord
100
AcDbDimStyleTableRecord
  2
AM_JIS$SH
 70
     0
  3

  4
"
  5

  6
GENAXEH
  7
OPEN30
 40
1.0
 41
2.5
 42
1.0
 43
10.0
 44
1.0
 45
0.0
 46
0.0
 47
0.1
 48
0.1
140
3.2
141
0.0
142
0.0
143
0.0393701
144
2.0
145
0.0
146
0.71
147
1.5
 71
     0
 72
     0
 73
     0
 74
     0
 75
     1
 76
     1
 77
     3
 78
     8
170
     0
171
     2
172
     1
173
     1
174
     0
175
     0
176
   256
177
   256
178
     2
270
     2
271
     2
272
     2
273
     2
274
     2
340
6B
275
     0
280
     0
281
     0
282
     0
283
     0
284
     0
285
     0
286
     0
287
     3
288
     0
  0
DIMSTYLE
105
B34
330
A
100
AcDbSymbolTableRecord
100
AcDbDimStyleTableRecord
  2
AM_JIS$2
 70
     0
  3

  4
"
  5
OPEN30
  6

  7

 40
1.0
 41
2.5
 42
1.0
 43
12.0
 44
1.0
 45
0.0
 46
0.0
 47
0.1
 48
0.1
140
3.2
141
0.0
142
0.0
143
0.0393701
144
1.0
145
0.0
146
0.71
147
1.5
 71
     0
 72
     0
 73
     0
 74
     0
 75
     0
 76
     0
 77
     3
 78
     8
170
     0
171
     2
172
     1
173
     0
174
     0
175
     0
176
   256
177
   256
178
     2
270
     2
271
     3
272
     3
273
     2
274
     2
340
6B
275
     0
280
     0
281
     0
282
     0
283
     0
284
     0
285
     0
286
     0
287
     3
288
     0
  0
ENDTAB
  0
TABLE
  2
BLOCK_RECORD
  5
1
330
0
100
AcDbSymbolTable
 70
    11
  0
BLOCK_RECORD
  5
1F
102
{ACAD_XDICTIONARY
360
74
102
}
330
1
100
AcDbSymbolTableRecord
100
AcDbBlockTableRecord
  2
*MODEL_SPACE
  0
BLOCK_RECORD
  5
101
102
{ACAD_XDICTIONARY
360
278C
102
}
330
1
100
AcDbSymbolTableRecord
100
AcDbBlockTableRecord
  2
*PAPER_SPACE
  0
BLOCK_RECORD
  5
59
330
1
100
AcDbSymbolTableRecord
100
AcDbBlockTableRecord
  2
_OPEN30
  0
BLOCK_RECORD
  5
64
330
1
100
AcDbSymbolTableRecord
100
AcDbBlockTableRecord
  2
GENAXEH
  0
BLOCK_RECORD
  5
C75
330
1
100
AcDbSymbolTableRecord
100
AcDbBlockTableRecord
  2
*D5
  0
BLOCK_RECORD
  5
194D
330
1
100
AcDbSymbolTableRecord
100
AcDbBlockTableRecord
  2
*D6
  0
BLOCK_RECORD
  5
195C
330
1
100
AcDbSymbolTableRecord
100
AcDbBlockTableRecord
  2
*D7
  0
BLOCK_RECORD
  5
1CC4
330
1
100
AcDbSymbolTableRecord
100
AcDbBlockTableRecord
  2
*D8
  0
BLOCK_RECORD
  5
227A
330
1
100
AcDbSymbolTableRecord
100
AcDbBlockTableRecord
  2
*D9
  0
BLOCK_RECORD
  5
2469
330
1
100
AcDbSymbolTableRecord
100
AcDbBlockTableRecord
  2
*D10
  0
ENDTAB
  0
ENDSEC
  0
SECTION
  2
BLOCKS
  0
BLOCK
  5
20
330
1F
100
AcDbEntity
  8
0
100
AcDbBlockBegin
  2
*MODEL_SPACE
 70
     0
 10
0.0
 20
0.0
 30
0.0
  3
*MODEL_SPACE
  1

  0
ENDBLK
  5
21
330
1F
100
AcDbEntity
  8
0
100
AcDbBlockEnd
  0
BLOCK
  5
103
330
101
100
AcDbEntity
 67
     1
  8
0
100
AcDbBlockBegin
  2
*PAPER_SPACE
 70
     0
 10
0.0
 20
0.0
 30
0.0
  3
*PAPER_SPACE
  1

  0
ENDBLK
  5
104
330
101
100
AcDbEntity
 67
     1
  8
0
100
AcDbBlockEnd
  0
BLOCK
  5
5D
330
59
100
AcDbEntity
  8
0
100
AcDbBlockBegin
  2
_OPEN30
 70
     0
 10
0.0
 20
0.0
 30
0.0
  3
_OPEN30
  1

  0
LINE
  5
5A
330
59
100
AcDbEntity
  8
0
 62
     0
100
AcDbLine
 10
-1.0
 20
0.26794919
 30
0.0
 11
0.0
 21
0.0
 31
0.0
  0
LINE
  5
5B
330
59
100
AcDbEntity
  8
0
 62
     0
100
AcDbLine
 10
0.0
 20
0.0
 30
0.0
 11
-1.0
 21
-0.26794919
 31
0.0
  0
LINE
  5
5C
330
59
100
AcDbEntity
  8
0
 62
     0
100
AcDbLine
 10
0.0
 20
0.0
 30
0.0
 11
-1.0
 21
0.0
 31
0.0
  0
ENDBLK
  5
5E
330
59
100
AcDbEntity
  8
0
100
AcDbBlockEnd
  0
BLOCK
  5
66
330
64
100
AcDbEntity
  8
0
100
AcDbBlockBegin
  2
GENAXEH
 70
     0
 10
0.0
 20
0.0
 30
0.0
  3
GENAXEH
  1

  0
LINE
  5
65
330
64
100
AcDbEntity
  8
0
100
AcDbLine
 10
-1.0
 20
0.0
 30
0.0
 11
1.0
 21
0.0
 31
0.0
  0
ENDBLK
  5
67
330
64
100
AcDbEntity
  8
0
100
AcDbBlockEnd
  0
BLOCK
  5
C7F
330
C75
100
AcDbEntity
  8
0
100
AcDbBlockBegin
  2
*D5
 70
     1
 10
0.0
 20
0.0
 30
0.0
  3
*D5
  1

  0
LINE
  5
2715
330
C75
100
AcDbEntity
  8
AM_5
100
AcDbLine
 10
-160.0
 20
-7.000000000000011
 30
0.0
 11
-160.0
 21
-46.99999999999994
 31
0.0
  0
LINE
  5
2716
330
C75
100
AcDbEntity
  8
AM_5
100
AcDbLine
 10
0.0028136075433078
 20
-1.000000000000003
 30
0.0
 11
0.002813607543305
 21
-46.99999999999994
 31
0.0
  0
LINE
  5
2717
330
C75
100
AcDbEntity
  8
AM_5
100
AcDbLine
 10
-157.5
 20
-45.99999999999995
 30
0.0
 11
-2.497186392456694
 21
-45.99999999999995
 31
0.0
  0
INSERT
  5
2718
330
C75
100
AcDbEntity
  8
AM_5
100
AcDbBlockReference
  2
_OPEN30
 10
-160.0
 20
-45.99999999999995
 30
0.0
 41
2.5
 42
2.5
 43
2.5
 50
180.0
  0
INSERT
  5
2719
330
C75
100
AcDbEntity
  8
AM_5
100
AcDbBlockReference
  2
_OPEN30
 10
0.002813607543305
 20
-45.99999999999995
 30
0.0
 41
2.5
 42
2.5
 43
2.5
  0
MTEXT
  5
271A
330
C75
100
AcDbEntity
  8
AM_5
 62
     2
100
AcDbMText
 10
-79.99859319622839
 20
-42.89999999999994
 30
0.0
 40
3.2
 41
0.0
 71
     5
 72
     1
  1
160
  7
ASAMI
1001
ACAD
1000
MTEXTBEGIN
1070
    73
1070
     1
1070
    44
1040
1.0
1070
    74
1070
     0
1000
MTEXTEND
  0
POINT
  5
271B
330
C75
100
AcDbEntity
  8
DEFPOINTS
 62
     0
100
AcDbPoint
 10
-160.0
 20
-6.000000000000011
 30
0.0
  0
POINT
  5
271C
330
C75
100
AcDbEntity
  8
DEFPOINTS
 62
     0
100
AcDbPoint
 10
0.0028136075433078
 20
-0.0000000000000036
 30
0.0
  0
POINT
  5
271D
330
C75
100
AcDbEntity
  8
DEFPOINTS
 62
     0
100
AcDbPoint
 10
0.002813607543305
 20
-45.99999999999995
 30
0.0
  0
ENDBLK
  5
C80
330
C75
100
AcDbEntity
  8
0
100
AcDbBlockEnd
  0
BLOCK
  5
1959
330
194D
100
AcDbEntity
  8
0
100
AcDbBlockBegin
  2
*D6
 70
     1
 10
0.0
 20
0.0
 30
0.0
  3
*D6
  1

  0
LINE
  5
270C
330
194D
100
AcDbEntity
  8
AM_5
100
AcDbLine
 10
-5.997186392432117
 20
-6.999999999973218
 30
0.0
 11
15.0028136075433
 21
-6.999999999973224
 31
0.0
  0
LINE
  5
270D
330
194D
100
AcDbEntity
  8
AM_5
100
AcDbLine
 10
-5.997186392432114
 20
6.999999999977783
 30
0.0
 11
15.0028136075433
 21
6.999999999977777
 31
0.0
  0
LINE
  5
270E
330
194D
100
AcDbEntity
  8
AM_5
100
AcDbLine
 10
14.0028136075433
 20
-4.499999999973224
 30
0.0
 11
14.0028136075433
 21
4.499999999977778
 31
0.0
  0
INSERT
  5
270F
330
194D
100
AcDbEntity
  8
AM_5
100
AcDbBlockReference
  2
_OPEN30
 10
14.0028136075433
 20
-6.999999999973224
 30
0.0
 41
2.5
 42
2.5
 43
2.5
 50
270.0
  0
INSERT
  5
2710
330
194D
100
AcDbEntity
  8
AM_5
100
AcDbBlockReference
  2
_OPEN30
 10
14.0028136075433
 20
6.999999999977778
 30
0.0
 41
2.5
 42
2.5
 43
2.5
 50
90.0
  0
MTEXT
  5
2711
330
194D
100
AcDbEntity
  8
AM_5
 62
     2
100
AcDbMText
 10
10.9028136075433
 20
0.0000000000022804
 30
0.0
 40
3.2
 41
0.0
 71
     5
 72
     1
  1
%%c14
  7
ASAMI
 11
0.0000000000000001
 21
1.0
 31
0.0
1001
ACAD
1000
MTEXTBEGIN
1070
    73
1070
     1
1070
    44
1040
1.0
1070
    74
1070
     0
1000
MTEXTEND
  0
POINT
  5
2712
330
194D
100
AcDbEntity
  8
DEFPOINTS
 62
     0
100
AcDbPoint
 10
-6.997186392432117
 20
-6.999999999973217
 30
0.0
  0
POINT
  5
2713
330
194D
100
AcDbEntity
  8
DEFPOINTS
 62
     0
100
AcDbPoint
 10
-6.997186392432114
 20
6.999999999977784
 30
0.0
  0
POINT
  5
2714
330
194D
100
AcDbEntity
  8
DEFPOINTS
 62
     0
100
AcDbPoint
 10
14.0028136075433
 20
6.999999999977778
 30
0.0
  0
ENDBLK
  5
195A
330
194D
100
AcDbEntity
  8
0
100
AcDbBlockEnd
  0
BLOCK
  5
1968
330
195C
100
AcDbEntity
  8
0
100
AcDbBlockBegin
  2
*D7
 70
     1
 10
0.0
 20
0.0
 30
0.0
  3
*D7
  1

  0
LINE
  5
2727
330
195C
100
AcDbEntity
  8
AM_5
100
AcDbLine
 10
-21.00375147672465
 20
-7.933622546627152
 30
0.0
 11
-21.00375147672465
 21
-23.00000000000044
 31
0.0
  0
LINE
  5
2728
330
195C
100
AcDbEntity
  8
AM_5
100
AcDbLine
 10
-0.0037514767246472
 20
-8.000000000000824
 30
0.0
 11
-0.0037514767246481
 21
-23.00000000000044
 31
0.0
  0
LINE
  5
2729
330
195C
100
AcDbEntity
  8
AM_5
100
AcDbLine
 10
-18.50375147672465
 20
-22.00000000000044
 30
0.0
 11
-2.503751476724648
 21
-22.00000000000044
 31
0.0
  0
INSERT
  5
272A
330
195C
100
AcDbEntity
  8
AM_5
100
AcDbBlockReference
  2
_OPEN30
 10
-21.00375147672465
 20
-22.00000000000044
 30
0.0
 41
2.5
 42
2.5
 43
2.5
 50
180.0
  0
INSERT
  5
272B
330
195C
100
AcDbEntity
  8
AM_5
100
AcDbBlockReference
  2
_OPEN30
 10
-0.0037514767246481
 20
-22.00000000000044
 30
0.0
 41
2.5
 42
2.5
 43
2.5
  0
MTEXT
  5
272C
330
195C
100
AcDbEntity
  8
AM_5
 62
     2
100
AcDbMText
 10
-10.50375147672464
 20
-18.90000000000044
 30
0.0
 40
3.2
 41
0.0
 71
     5
 72
     1
  1
21
  7
ASAMI
1001
ACAD
1000
MTEXTBEGIN
1070
    73
1070
     1
1070
    44
1040
1.0
1070
    74
1070
     0
1000
MTEXTEND
  0
POINT
  5
272D
330
195C
100
AcDbEntity
  8
DEFPOINTS
 62
     0
100
AcDbPoint
 10
-21.00375147672465
 20
-6.933622546627152
 30
0.0
  0
POINT
  5
272E
330
195C
100
AcDbEntity
  8
DEFPOINTS
 62
     0
100
AcDbPoint
 10
-0.0037514767246472
 20
-7.000000000000823
 30
0.0
  0
POINT
  5
272F
330
195C
100
AcDbEntity
  8
DEFPOINTS
 62
     0
100
AcDbPoint
 10
-0.0037514767246481
 20
-22.00000000000044
 30
0.0
  0
ENDBLK
  5
1969
330
195C
100
AcDbEntity
  8
0
100
AcDbBlockEnd
  0
BLOCK
  5
1CD0
330
1CC4
100
AcDbEntity
  8
0
100
AcDbBlockBegin
  2
*D8
 70
     1
 10
0.0
 20
0.0
 30
0.0
  3
*D8
  1

  0
LINE
  5
271E
330
1CC4
100
AcDbEntity
  8
AM_5
100
AcDbLine
 10
-0.0037514767246503
 20
-7.999999999973218
 30
0.0
 11
-0.003751476724652
 21
-35.00000000000008
 31
0.0
  0
LINE
  5
271F
330
1CC4
100
AcDbEntity
  8
AM_5
100
AcDbLine
 10
-38.00375147672464
 20
-8.017081203868794
 30
0.0
 11
-38.00375147672464
 21
-35.00000000000008
 31
0.0
  0
LINE
  5
2720
330
1CC4
100
AcDbEntity
  8
AM_5
100
AcDbLine
 10
-2.503751476724652
 20
-34.00000000000008
 30
0.0
 11
-35.50375147672464
 21
-34.00000000000008
 31
0.0
  0
INSERT
  5
2721
330
1CC4
100
AcDbEntity
  8
AM_5
100
AcDbBlockReference
  2
_OPEN30
 10
-0.0037514767246519
 20
-34.00000000000008
 30
0.0
 41
2.5
 42
2.5
 43
2.5
  0
INSERT
  5
2722
330
1CC4
100
AcDbEntity
  8
AM_5
100
AcDbBlockReference
  2
_OPEN30
 10
-38.00375147672464
 20
-34.00000000000008
 30
0.0
 41
2.5
 42
2.5
 43
2.5
 50
180.0
  0
MTEXT
  5
2723
330
1CC4
100
AcDbEntity
  8
AM_5
 62
     2
100
AcDbMText
 10
-19.00375147672464
 20
-30.90000000000008
 30
0.0
 40
3.2
 41
0.0
 71
     5
 72
     1
  1
38
  7
ASAMI
1001
ACAD
1000
MTEXTBEGIN
1070
    73
1070
     1
1070
    44
1040
1.0
1070
    74
1070
     0
1000
MTEXTEND
  0
POINT
  5
2724
330
1CC4
100
AcDbEntity
  8
DEFPOINTS
 62
     0
100
AcDbPoint
 10
-0.0037514767246503
 20
-6.999999999973218
 30
0.0
  0
POINT
  5
2725
330
1CC4
100
AcDbEntity
  8
DEFPOINTS
 62
     0
100
AcDbPoint
 10
-38.00375147672464
 20
-7.017081203868795
 30
0.0
  0
POINT
  5
2726
330
1CC4
100
AcDbEntity
  8
DEFPOINTS
 62
     0
100
AcDbPoint
 10
-38.00375147672464
 20
-34.00000000000008
 30
0.0
  0
ENDBLK
  5
1CD1
330
1CC4
100
AcDbEntity
  8
0
100
AcDbBlockEnd
  0
BLOCK
  5
2280
330
227A
100
AcDbEntity
  8
0
100
AcDbBlockBegin
  2
*D9
 70
     1
 10
0.0
 20
0.0
 30
0.0
  3
*D9
  1

  0
LINE
  5
2739
330
227A
100
AcDbEntity
  8
AM_5
100
AcDbLine
 10
-0.4883924546082188
 20
-6.919942302826655
 30
0.0
 11
13.31043326814011
 21
-21.59041409227996
 31
0.0
  0
INSERT
  5
273A
330
227A
100
AcDbEntity
  8
AM_5
100
AcDbBlockReference
  2
_OPEN30
 10
-2.20123296456629
 20
-5.098904854709077
 30
0.0
 41
2.5
 42
2.5
 43
2.5
 50
133.2463197613199
  0
MTEXT
  5
273B
330
227A
100
AcDbEntity
  8
AM_5
 62
     2
100
AcDbMText
 10
11.14775991143794
 20
-14.76648092240944
 30
0.0
 40
3.2
 41
0.0
 71
     5
 72
     1
  1
R7.0
  7
ASAMI
 11
0.6851362039832299
 21
-0.7284149792470293
 31
0.0
1001
ACAD
1000
MTEXTBEGIN
1070
    73
1070
     1
1070
    44
1040
1.0
1070
    74
1070
     0
1000
MTEXTEND
  0
POINT
  5
273C
330
227A
100
AcDbEntity
  8
DEFPOINTS
 62
     0
100
AcDbPoint
 10
-2.20123296456629
 20
-5.098904854709077
 30
0.0
  0
POINT
  5
273D
330
227A
100
AcDbEntity
  8
DEFPOINTS
 62
     0
100
AcDbPoint
 10
-6.997186392432121
 20
0.0000000000022826
 30
0.0
  0
ENDBLK
  5
2281
330
227A
100
AcDbEntity
  8
0
100
AcDbBlockEnd
  0
BLOCK
  5
2473
330
2469
100
AcDbEntity
  8
0
100
AcDbBlockBegin
  2
*D10
 70
     1
 10
0.0
 20
0.0
 30
0.0
  3
*D10
  1

  0
LINE
  5
2730
330
2469
100
AcDbEntity
  8
AM_5
100
AcDbLine
 10
-160.0
 20
-8.00000000000001
 30
0.0
 11
-175.0
 21
-8.000000000000005
 31
0.0
  0
LINE
  5
2731
330
2469
100
AcDbEntity
  8
AM_5
100
AcDbLine
 10
-160.0
 20
8.0
 30
0.0
 11
-175.0
 21
8.000000000000003
 31
0.0
  0
LINE
  5
2732
330
2469
100
AcDbEntity
  8
AM_5
100
AcDbLine
 10
-174.0
 20
-5.500000000000005
 30
0.0
 11
-174.0
 21
5.500000000000004
 31
0.0
  0
INSERT
  5
2733
330
2469
100
AcDbEntity
  8
AM_5
100
AcDbBlockReference
  2
_OPEN30
 10
-174.0
 20
-8.000000000000005
 30
0.0
 41
2.5
 42
2.5
 43
2.5
 50
270.0
  0
INSERT
  5
2734
330
2469
100
AcDbEntity
  8
AM_5
100
AcDbBlockReference
  2
_OPEN30
 10
-174.0
 20
8.000000000000003
 30
0.0
 41
2.5
 42
2.5
 43
2.5
 50
90.0
  0
MTEXT
  5
2735
330
2469
100
AcDbEntity
  8
AM_5
 62
     2
100
AcDbMText
 10
-177.1
 20
-0.000000000000039
 30
0.0
 40
3.2
 41
0.0
 71
     5
 72
     1
  1
%%c16
  7
ASAMI
 11
0.0000000000000001
 21
1.0
 31
0.0
1001
ACAD
1000
MTEXTBEGIN
1070
    73
1070
     1
1070
    44
1040
1.0
1070
    74
1070
     0
1000
MTEXTEND
  0
POINT
  5
2736
330
2469
100
AcDbEntity
  8
DEFPOINTS
 62
     0
100
AcDbPoint
 10
-159.0
 20
-8.00000000000001
 30
0.0
  0
POINT
  5
2737
330
2469
100
AcDbEntity
  8
DEFPOINTS
 62
     0
100
AcDbPoint
 10
-159.0
 20
8.0
 30
0.0
  0
POINT
  5
2738
330
2469
100
AcDbEntity
  8
DEFPOINTS
 62
     0
100
AcDbPoint
 10
-174.0
 20
8.000000000000003
 30
0.0
  0
ENDBLK
  5
2474
330
2469
100
AcDbEntity
  8
0
100
AcDbBlockEnd
  0
ENDSEC
  0
SECTION
  2
ENTITIES
  0
DIMENSION
  5
C4F
330
1F
100
AcDbEntity
  8
AM_5
100
AcDbDimension
  2
*D5
 10
0.002813607543305
 20
-45.99999999999995
 30
0.0
 11
-79.99859319622839
 21
-42.89999999999994
 31
0.0
 70
    32
  1
<>
  3
AM_JIS
100
AcDbAlignedDimension
 13
-160.0
 23
-6.000000000000011
 33
0.0
 14
0.0028136075433078
 24
-0.0000000000000036
 34
0.0
 50
0.0000000000002036
100
AcDbRotatedDimension
1001
GENIUS_GENDTOL_13
1000

1000
H7
1000

1040
0.0
1001
ACAD
1000
DSTYLE
1002
{
1070
   271
1070
     2
1002
}
  0
LINE
  5
C50
330
1F
100
AcDbEntity
  8
AM_7
100
AcDbLine
 10
-164.7697464304927
 20
-0.0000000000000036
 30
0.0
 11
2.659059778149097
 21
-0.0000000000000036
 31
0.0
1001
GENIUS_GENODEF_13
1002
{
1000
HIER
1070
     0
1002
}
1002
{
1000
MANEDIT
1070
     0
1002
}
1002
{
1000
NOSEL
1070
     0
1002
}
1002
{
1000
BEHIND
1070
     0
1002
}
1002
{
1000
REACTOR
1002
}
1001
GENIUS_GENOBJ-N-CEN_13
1002
{
1000
OWNER
1000
GEN
1002
}
  0
TEXT
  5
C58
330
1F
100
AcDbEntity
  8
AM_6
100
AcDbText
 10
-100.5938312914664
 20
-68.50000000000001
 30
0.0
 40
5.0
  1
SNB2140ZX
 50
0.0000000000002036
 72
     4
 11
-79.99859319622839
 21
-65.99999999999994
 31
0.0
100
AcDbText
  0
DIMENSION
  5
194C
330
1F
100
AcDbEntity
  8
AM_5
100
AcDbDimension
  2
*D6
 10
14.0028136075433
 20
6.999999999977778
 30
0.0
 11
10.9028136075433
 21
0.0000000000022804
 31
0.0
 70
    32
  1
%%c<>
  3
AM_JIS
100
AcDbAlignedDimension
 13
-6.997186392432117
 23
-6.999999999973217
 33
0.0
 14
-6.997186392432114
 24
6.999999999977784
 34
0.0
 50
90.00000000000003
100
AcDbRotatedDimension
1001
GENIUS_GENDTOL_13
1000

1000
H7
1000

1040
0.0
1001
ACAD
1000
DSTYLE
1002
{
1070
    47
1040
0.0
1070
    48
1040
0.05
1070
   271
1070
     2
1070
   272
1070
     2
1070
   274
1070
     1
1002
}
  0
DIMENSION
  5
195B
330
1F
100
AcDbEntity
  8
AM_5
100
AcDbDimension
  2
*D7
 10
-0.0037514767246481
 20
-22.00000000000044
 30
0.0
 11
-10.50375147672464
 21
-18.90000000000044
 31
0.0
 70
    32
  1
<>
  3
AM_JIS
100
AcDbAlignedDimension
 13
-21.00375147672465
 23
-6.933622546627152
 33
0.0
 14
-0.0037514767246472
 24
-7.000000000000823
 34
0.0
 50
359.9999999999988
100
AcDbRotatedDimension
1001
GENIUS_GENDTOL_13
1000

1000
H7
1000

1040
0.0
  0
SPLINE
  5
1C94
330
1F
100
AcDbEntity
  8
AM_0
100
AcDbSpline
210
0.0
220
0.0
230
1.0
 70
     8
 71
     3
 72
     8
 73
     4
 74
     0
 42
0.0000000001
 43
0.0000000001
 40
0.7023226207663016
 40
0.7023226207663016
 40
0.7023226207663016
 40
0.7023226207663016
 40
1.443905044394444
 40
1.443905044394444
 40
1.443905044394444
 40
1.443905044394444
 10
-28.00375147672464
 20
5.715003906414687
 30
0.0
 10
-24.31936211094206
 20
4.286916645681577
 30
0.0
 10
-21.23936645908033
 20
2.406988488959578
 30
0.0
 10
-18.15937080721859
 20
0.5270603322375789
 30
0.0
  0
SPLINE
  5
1C95
330
1F
100
AcDbEntity
  8
AM_0
100
AcDbSpline
210
0.0
220
0.0
230
1.0
 70
     8
 71
     3
 72
     8
 73
     4
 74
     0
 42
0.0000000001
 43
0.0000000001
 40
0.8962992311075218
 40
0.8962992311075218
 40
0.8962992311075218
 40
0.8962992311075218
 40
1.448999654929344
 40
1.448999654929344
 40
1.448999654929344
 40
1.448999654929344
 10
-28.00375147672464
 20
4.755360270116322
 30
0.0
 10
-25.21662771028839
 20
3.507781533413474
 30
0.0
 10
-22.93545439471934
 20
2.071886000297862
 30
0.0
 10
-20.6542810791503
 20
0.63599046718225
 30
0.0
  0
LINE
  5
1C96
330
1F
100
AcDbEntity
  8
AM_0
100
AcDbLine
 10
-35.78669523055807
 20
-0.0000001759781926
 30
0.0
 11
-28.00375147672464
 21
4.755360270116322
 31
0.0
  0
LINE
  5
1C97
330
1F
100
AcDbEntity
  8
AM_11
 48
0.4
100
AcDbLine
 10
-21.00375147672465
 20
7.066377453372847
 30
0.0
 11
-21.00375147672465
 21
-6.933622546627152
 31
0.0
  0
SPLINE
  5
1C99
330
1F
100
AcDbEntity
  8
AM_0
100
AcDbSpline
210
0.0
220
0.0
230
1.0
 70
     8
 71
     3
 72
     8
 73
     4
 74
     2
 42
0.0000000001
 43
0.0000000001
 44
0.0000000001
 12
-0.9063077870366493
 22
0.4226182617407013
 32
0.0
 13
0.9900295272873
 23
-0.1408599840241551
 33
0.0
 40
0.0
 40
0.0
 40
0.0
 40
0.0
 40
5.441409469445962
 40
5.441409469445962
 40
5.441409469445962
 40
5.441409469445962
 10
-5.960891105031537
 20
1.75648176279031
 30
0.0
 10
-7.604755029902817
 20
2.523028099922524
 30
0.0
 10
-11.51602855674334
 20
5.945891626296122
 30
0.0
 10
-9.720309875139271
 20
5.690399342651107
 30
0.0
 11
-5.960891105031537
 21
1.75648176279031
 31
0.0
 11
-9.720309875139271
 21
5.690399342651107
 31
0.0
  0
ARC
  5
1C9A
330
1F
100
AcDbEntity
  8
AM_11
100
AcDbCircle
 10
-6.997186392432114
 20
0.0000000000022829
 30
0.0
 40
6.999999999975501
100
AcDbArc
 50
270.0
 51
90.0
  0
ARC
  5
1C9B
330
1F
100
AcDbEntity
  8
AM_0
100
AcDbCircle
 10
-14.63592126541281
 20
-14.23107742088926
 30
0.0
 40
20.45770291617708
100
AcDbArc
 50
44.33711907809952
 51
76.82999214053889
  0
ARC
  5
1C9C
330
1F
100
AcDbEntity
  8
AM_0
100
AcDbCircle
 10
-6.966401106730526
 20
-0.6557791289803042
 30
0.0
 40
6.999999999975505
100
AcDbArc
 50
5.375507822153808
 51
90.25198180382437
  0
ARC
  5
1C9D
330
1F
100
AcDbEntity
  8
AM_0
100
AcDbCircle
 10
-6.966401106730526
 20
0.6557791289845218
 30
0.0
 40
6.999999999975505
100
AcDbArc
 50
269.7480181961756
 51
354.6244921778462
  0
ARC
  5
1C9E
330
1F
100
AcDbEntity
  8
AM_0
100
AcDbCircle
 10
-6.891649097273335
 20
1.173926178130396
 30
0.0
 40
6.752343032772248
100
AcDbArc
 50
272.7326936991946
 51
346.7452639699606
  0
ARC
  5
1C9F
330
1F
100
AcDbEntity
  8
AM_0
100
AcDbCircle
 10
-5.991435981313045
 20
1.990272628213348
 30
0.0
 40
5.463735444944593
100
AcDbArc
 50
278.6696104128122
 51
332.9129476995508
  0
LINE
  5
1CA0
330
1F
100
AcDbEntity
  8
AM_0
100
AcDbLine
 10
-5.884055242829994
 20
1.720652611825061
 30
0.0
 11
-1.126986392452822
 21
-0.4976050234762731
 31
0.0
  0
LINE
  5
1CA1
330
1F
100
AcDbEntity
  8
AM_11
100
AcDbLine
 10
-21.00375147672465
 20
-6.99999999997322
 30
0.0
 11
-6.997186392432114
 21
-6.99999999997322
 31
0.0
1001
GENIUS_GENODEF_13
1002
{
1000
HIER
1070
     0
1002
}
1002
{
1000
MANEDIT
1070
     0
1002
}
1002
{
1000
NOSEL
1070
     0
1002
}
1002
{
1000
BEHIND
1070
     0
1002
}
1002
{
1000
REACTOR
1002
}
1001
GENIUS_GENOBJ-N-CEN_13
1002
{
1000
OWNER
1000
GEN
1002
}
  0
SPLINE
  5
1CA2
330
1F
100
AcDbEntity
  8
AM_0
100
AcDbSpline
210
0.0
220
0.0
230
1.0
 70
     8
 71
     3
 72
     8
 73
     4
 74
     0
 42
0.0000000001
 43
0.0000000001
 40
4.071346735624547
 40
4.071346735624547
 40
4.071346735624547
 40
4.071346735624547
 40
6.91280490763674
 40
6.91280490763674
 40
6.91280490763674
 40
6.91280490763674
 10
-28.00375147672465
 20
-7.018645793343543
 30
0.0
 10
-28.4641015685811
 20
-6.377163860222936
 30
0.0
 10
-33.27409368546339
 20
-5.656697865178101
 30
0.0
 10
-35.78669523075797
 20
-4.121502416793051
 30
0.0
  0
LINE
  5
1CA3
330
1F
100
AcDbEntity
  8
AM_0
100
AcDbLine
 10
-35.78669523075801
 20
-4.121502416792751
 30
0.0
 11
-30.17766491671443
 21
-2.51360618454145
 31
0.0
  0
SPLINE
  5
1CA4
330
1F
100
AcDbEntity
  8
AM_0
100
AcDbSpline
210
0.0
220
0.0
230
1.0
 70
     8
 71
     3
 72
     8
 73
     4
 74
     2
 42
0.0000000001
 43
0.0000000001
 44
0.0000000001
 12
-1.0
 22
0.0000000000000001
 32
0.0
 40
0.0
 40
0.0
 40
0.0
 40
0.0
 40
18.89711657412711
 40
18.89711657412711
 40
18.89711657412711
 40
18.89711657412711
 10
-17.70074772599136
 20
-5.477181721098557
 30
0.0
 10
-23.99978658403373
 20
-5.477181721098556
 30
0.0
 10
-29.8932409072959
 20
-2.738590948538374
 30
0.0
 10
-35.78669523055807
 20
-0.0000001759781918
 30
0.0
 11
-17.70074772599136
 21
-5.477181721098557
 31
0.0
 11
-35.78669523055807
 21
-0.0000001759781918
 31
0.0
  0
LINE
  5
1CA5
330
1F
100
AcDbEntity
  8
AM_0
100
AcDbLine
 10
-15.99891597051565
 20
-5.417752446651991
 30
0.0
 11
-25.42390566836324
 21
-5.803423212126296
 31
0.0
  0
SPLINE
  5
1CA6
330
1F
100
AcDbEntity
  8
AM_0
100
AcDbSpline
210
0.0
220
0.0
230
1.0
 70
     8
 71
     3
 72
     8
 73
     4
 74
     0
 42
0.0000000001
 43
0.0000000001
 40
0.0
 40
0.0
 40
0.0
 40
0.0
 40
2.238610194515266
 40
2.238610194515266
 40
2.238610194515266
 40
2.238610194515266
 10
-17.70074772599136
 20
-5.477181721098557
 30
0.0
 10
-15.65234624052682
 20
-5.477181721098557
 30
0.0
 10
-13.64106112687041
 20
-5.213833347087676
 30
0.0
 10
-11.30607864794717
 20
-4.768800926862494
 30
0.0
  0
SPLINE
  5
1CA7
330
1F
100
AcDbEntity
  8
AM_0
100
AcDbSpline
210
0.0
220
0.0
230
1.0
 70
     8
 71
     3
 72
     8
 73
     4
 74
     0
 42
0.0000000001
 43
0.0000000001
 40
3.7904089959839
 40
3.7904089959839
 40
3.7904089959839
 40
3.7904089959839
 40
14.48999654934396
 40
14.48999654934396
 40
14.48999654934396
 40
14.48999654934396
 10
-7.094023756975492
 20
-6.306260309578763
 30
0.0
 10
-11.82214976090055
 20
-4.923437140185906
 30
0.0
 10
-16.23821542002574
 20
-2.143723336501839
 30
0.0
 10
-20.6542810791503
 20
0.63599046718225
 30
0.0
  0
SPLINE
  5
1CA8
330
1F
100
AcDbEntity
  8
AM_0
100
AcDbSpline
210
0.0
220
0.0
230
1.0
 70
     8
 71
     3
 72
     8
 73
     4
 74
     0
 42
0.0000000001
 43
0.0000000001
 40
5.336187364352841
 40
5.336187364352841
 40
5.336187364352841
 40
5.336187364352841
 40
14.43905044399483
 40
14.43905044399483
 40
14.43905044399483
 40
14.43905044399483
 10
-6.633229873479352
 20
-5.55222732043552
 30
0.0
 10
-10.59803229341613
 20
-4.08813227883381
 30
0.0
 10
-14.37870155031735
 20
-1.78053597329814
 30
0.0
 10
-18.15937080721859
 20
0.5270603322375789
 30
0.0
  0
ARC
  5
1CAA
330
1F
100
AcDbEntity
  8
AM_0
100
AcDbCircle
 10
-5.932395636662302
 20
-6.42782398495822
 30
0.0
 40
1.068073105163756
100
AcDbArc
 50
126.6343629894024
 51
175.5069543864119
  0
SPLINE
  5
1CAB
330
1F
100
AcDbEntity
  8
AM_0
100
AcDbSpline
210
0.0
220
0.0
230
1.0
 70
     8
 71
     3
 72
     8
 73
     4
 74
     2
 42
0.0000000001
 43
0.0000000001
 44
0.0000000001
 12
0.0000000000000001
 22
1.0
 32
0.0
 40
0.0
 40
0.0
 40
0.0
 40
0.0
 40
1.516191329154181
 40
1.516191329154181
 40
1.516191329154181
 40
1.516191329154181
 10
-6.569721539638983
 20
-5.57073831166208
 30
0.0
 10
-6.569721539638983
 20
-5.065341201944019
 30
0.0
 10
-6.373511943643652
 20
-4.585775575588422
 30
0.0
 10
-6.177302347648319
 20
-4.106209949232824
 30
0.0
 11
-6.569721539638983
 21
-5.57073831166208
 31
0.0
 11
-6.177302347648319
 21
-4.106209949232824
 31
0.0
  0
SPLINE
  5
1CAC
330
1F
100
AcDbEntity
  8
AM_0
100
AcDbSpline
210
0.0
220
0.0
230
1.0
 70
     8
 71
     3
 72
     8
 73
     4
 74
     2
 42
0.0000000001
 43
0.0000000001
 44
0.0000000001
 12
-0.0000000000000001
 22
-1.0
 32
0.0
 13
-1.0
 23
0.0000000000000001
 33
0.0
 40
0.0
 40
0.0
 40
0.0
 40
0.0
 40
1.225667303797272
 40
1.225667303797272
 40
1.225667303797272
 40
1.225667303797272
 10
-5.167851604489077
 20
-3.411034045786129
 30
0.0
 10
-5.167851604489077
 20
-3.819589813718553
 30
0.0
 10
-5.768746579715895
 20
-4.106209949232824
 30
0.0
 10
-6.177302347648319
 20
-4.106209949232824
 30
0.0
 11
-5.167851604489077
 21
-3.411034045786129
 31
0.0
 11
-6.177302347648319
 21
-4.106209949232824
 31
0.0
  0
ARC
  5
1CAD
330
1F
100
AcDbEntity
  8
AM_0
100
AcDbCircle
 10
-0.8009661615324215
 20
-0.1857480631246753
 30
0.0
 40
5.42882658977599
100
AcDbArc
 50
159.4415606715376
 51
216.4487634976257
  0
SPLINE
  5
1CAE
330
1F
100
AcDbEntity
  8
AM_0
100
AcDbSpline
210
0.0
220
0.0
230
1.0
 70
     8
 71
     3
 72
     8
 73
     4
 74
     0
 42
0.0000000001
 43
0.0000000001
 40
7.981245920543044
 40
7.981245920543044
 40
7.981245920543044
 40
7.981245920543044
 40
14.43905044399483
 40
14.43905044399483
 40
14.43905044399483
 40
14.43905044399483
 10
-6.177302347648319
 20
-4.106209949232824
 30
0.0
 10
-8.948045744150583
 20
-2.818468271709653
 30
0.0
 10
-11.6583117538929
 20
-1.228458769063125
 30
0.0
 10
-14.36857776363521
 20
0.3615507335836998
 30
0.0
  0
LINE
  5
1CAF
330
1F
100
AcDbEntity
  8
AM_0
100
AcDbLine
 10
0.0028136075430525
 20
0.0000000000022829
 30
0.0
 11
-0.3191863924556997
 21
-0.3742567651954241
 31
0.0
  0
LINE
  5
1CB0
330
1F
100
AcDbEntity
  8
AM_0
100
AcDbLine
 10
-0.3191863924556997
 20
-0.3742567651954241
 30
0.0
 11
-1.126986392452822
 21
-0.4976050234762731
 31
0.0
  0
LINE
  5
1CB1
330
1F
100
AcDbEntity
  8
AM_11
100
AcDbLine
 10
-21.00375147672465
 20
7.000000000026778
 30
0.0
 11
-6.997186392432114
 21
7.000000000026778
 31
0.0
1001
GENIUS_GENODEF_13
1002
{
1000
HIER
1070
     0
1002
}
1002
{
1000
MANEDIT
1070
     0
1002
}
1002
{
1000
NOSEL
1070
     0
1002
}
1002
{
1000
BEHIND
1070
     0
1002
}
1002
{
1000
REACTOR
1002
}
1001
GENIUS_GENOBJ-N-CEN_13
1002
{
1000
OWNER
1000
GEN
1002
}
  0
LINE
  5
1CB2
330
1F
100
AcDbEntity
  8
AM_0
100
AcDbLine
 10
-25.08708341598921
 20
5.865952734206912
 30
0.0
 11
-9.720309875138635
 21
5.690399342651106
 31
0.0
  0
SPLINE
  5
1CB4
330
1F
100
AcDbEntity
  8
AM_0
100
AcDbSpline
210
0.0
220
0.0
230
1.0
 70
     8
 71
     3
 72
     8
 73
     4
 74
     0
 42
0.0000000001
 43
0.0000000001
 40
3.790408995970492
 40
3.790408995970492
 40
3.790408995970492
 40
3.790408995970492
 40
5.485524909568358
 40
5.485524909568358
 40
5.485524909568358
 40
5.485524909568358
 10
-6.997186392413651
 20
6.344153175395542
 30
0.0
 10
-7.755097777550329
 20
6.157957465441586
 30
0.0
 10
-8.506713414406387
 20
5.936392245989028
 30
0.0
 10
-9.253030726764702
 20
5.685061043164917
 30
0.0
  0
SPLINE
  5
1CB5
330
1F
100
AcDbEntity
  8
AM_0
100
AcDbSpline
210
0.0
220
0.0
230
1.0
 70
     8
 71
     3
 72
     8
 73
     4
 74
     2
 42
0.0000000001
 43
0.0000000001
 44
0.0000000001
 12
0.6039933128154177
 22
-0.7969893839156561
 32
0.0
 40
0.0
 40
0.0
 40
0.0
 40
0.0
 40
2.800499165506002
 40
2.800499165506002
 40
2.800499165506002
 40
2.800499165506002
 10
-6.997186392413004
 20
6.344153175395542
 30
0.0
 10
-6.43335880290941
 20
5.600163807204563
 30
0.0
 10
-8.076834339024022
 20
5.645281574927835
 30
0.0
 10
-9.720309875138637
 20
5.690399342651107
 30
0.0
 11
-6.997186392413004
 21
6.344153175395542
 31
0.0
 11
-9.720309875138637
 21
5.690399342651107
 31
0.0
  0
DIMENSION
  5
1CC3
330
1F
100
AcDbEntity
  8
AM_5
100
AcDbDimension
  2
*D8
 10
-38.00375147672464
 20
-34.00000000000008
 30
0.0
 11
-19.00375147672464
 21
-30.90000000000008
 31
0.0
 70
    32
  1
<>
  3
AM_JIS
100
AcDbAlignedDimension
 13
-0.0037514767246503
 23
-6.999999999973218
 33
0.0
 14
-38.00375147672464
 24
-7.017081203868795
 34
0.0
 50
0.0000000000001132
100
AcDbRotatedDimension
1001
GENIUS_GENDTOL_13
1000

1000
h7
1000

1040
0.0
  0
LINE
  5
1DC2
330
1F
100
AcDbEntity
  8
AM_0
100
AcDbLine
 10
-28.00375147672464
 20
4.755360270116322
 30
0.0
 11
-28.00375147672464
 21
5.799314346743225
 31
0.0
  0
LINE
  5
1E8C
330
1F
100
AcDbEntity
  8
AM_0
100
AcDbLine
 10
-40.7000000000001
 20
7.999999999999988
 30
0.0
 11
-37.99195756794587
 21
7.014353161602393
 31
0.0
  0
LINE
  5
1E94
330
1F
100
AcDbEntity
  8
AM_0
100
AcDbLine
 10
-28.00375147672464
 20
4.755360270116322
 30
0.0
 11
-28.00375147672464
 21
7.014353161602393
 31
0.0
  0
LINE
  5
1E97
330
1F
100
AcDbEntity
  8
AM_0
100
AcDbLine
 10
-40.70000000000009
 20
-8.00000000000001
 30
0.0
 11
-37.99945280247206
 21
-7.017081203868795
 31
0.0
  0
ARC
  5
1F4E
330
1F
100
AcDbEntity
  8
AM_0
100
AcDbCircle
 10
-25.42149846807442
 20
-9.154575031495832
 30
0.0
 40
3.351152683939808
100
AcDbArc
 50
90.04115671288683
 51
140.4039024955054
  0
LINE
  5
21F3
330
1F
100
AcDbEntity
  8
0
100
AcDbLine
 10
-38.00375147672464
 20
-7.017081203868794
 30
0.0
 11
-38.00375147672464
 21
6.996253218006931
 31
0.0
  0
DIMENSION
  5
2279
330
1F
100
AcDbEntity
  8
AM_5
100
AcDbDimension
  2
*D9
 10
-6.997186392432121
 20
0.0000000000022826
 30
0.0
 11
8.889673475772156
 21
-16.89040315475745
 31
0.0
 70
   164
  1
<>
  3
AM_JIS$4
100
AcDbRadialDimension
 15
-2.20123296456629
 25
-5.098904854709077
 35
0.0
 40
0.0
1001
GENIUS_GENDTOL_13
1000

1000
h7
1000

1040
0.0
1001
ACAD
1000
DSTYLE
1002
{
1070
    78
1070
     0
1070
   271
1070
     1
1070
   288
1070
     1
1070
   289
1070
     0
1070
    74
1070
     0
1002
}
  0
SPLINE
  5
23E7
330
1F
100
AcDbEntity
  8
AM_0
100
AcDbSpline
210
0.0
220
0.0
230
1.0
 70
     8
 71
     3
 72
     8
 73
     4
 74
     0
 42
0.0000000001
 43
0.0000000001
 40
3.009424437249747
 40
3.009424437249747
 40
3.009424437249747
 40
3.009424437249747
 40
8.147316830268916
 40
8.147316830268916
 40
8.147316830268916
 40
8.147316830268916
 10
-28.00375147672464
 20
7.014353161602393
 30
0.0
 10
-23.02652899993467
 20
5.222047982745197
 30
0.0
 10
-18.67999395027943
 20
2.781501790185431
 30
0.0
 10
-14.33345890062419
 20
0.3409555976256655
 30
0.0
  0
LINE
  5
2462
330
1F
100
AcDbEntity
  8
AM_0
100
AcDbLine
 10
-159.0
 20
7.999999999999988
 30
0.0
 11
-40.70000000000009
 21
7.999999999999988
 31
0.0
1001
GENIUS_GENODEF_13
1002
{
1000
HIER
1070
     0
1002
}
1002
{
1000
MANEDIT
1070
     0
1002
}
1002
{
1000
NOSEL
1070
     0
1002
}
1002
{
1000
BEHIND
1070
     0
1002
}
1002
{
1000
REACTOR
1002
}
1001
GENIUS_GENOBJ-N-CEN_13
1002
{
1000
OWNER
1000
GEN
1002
}
  0
LINE
  5
2463
330
1F
100
AcDbEntity
  8
AM_0
100
AcDbLine
 10
-159.0
 20
-8.00000000000001
 30
0.0
 11
-40.70000000000009
 21
-8.00000000000001
 31
0.0
1001
GENIUS_GENODEF_13
1002
{
1000
HIER
1070
     0
1002
}
1002
{
1000
MANEDIT
1070
     0
1002
}
1002
{
1000
NOSEL
1070
     0
1002
}
1002
{
1000
BEHIND
1070
     0
1002
}
1002
{
1000
REACTOR
1002
}
1001
GENIUS_GENOBJ-N-CEN_13
1002
{
1000
OWNER
1000
GEN
1002
}
  0
LINE
  5
2464
330
1F
100
AcDbEntity
  8
AM_0
100
AcDbLine
 10
-160.0
 20
5.999999999999988
 30
0.0
 11
-159.0
 21
7.999999999999988
 31
0.0
1001
GENIUS_GENFIL_13
1070
     0
1040
0.5
1040
0.5
1040
0.4999999999999716
1040
45.0
1002
{
1002
}
  0
LINE
  5
2465
330
1F
100
AcDbEntity
  8
AM_0
100
AcDbLine
 10
-160.0
 20
-6.000000000000011
 30
0.0
 11
-159.0
 21
-8.00000000000001
 31
0.0
1001
GENIUS_GENFIL_13
1070
     0
1040
0.5
1040
0.5
1040
0.4999999999999716
1040
45.00000000000036
1002
{
1002
}
  0
LINE
  5
2466
330
1F
100
AcDbEntity
  8
0
100
AcDbLine
 10
-159.0
 20
-8.00000000000001
 30
0.0
 11
-159.0
 21
7.999999999999988
 31
0.0
  0
LINE
  5
2467
330
1F
100
AcDbEntity
  8
AM_0
100
AcDbLine
 10
-160.0
 20
-6.000000000000011
 30
0.0
 11
-160.0
 21
5.999999999999988
 31
0.0
  0
DIMENSION
  5
2468
330
1F
100
AcDbEntity
  8
AM_5
100
AcDbDimension
  2
*D10
 10
-174.0
 20
8.000000000000003
 30
0.0
 11
-174.0
 21
-0.0000000000000394
 31
0.0
 70
   160
  1
%%c<>
  3
AM_JIS
100
AcDbAlignedDimension
 13
-159.0
 23
-8.00000000000001
 33
0.0
 14
-159.0
 24
8.0
 34
0.0
 50
270.0
100
AcDbRotatedDimension
1001
ACAD
1000
DSTYLE
1002
{
1070
    48
1040
0.1
1070
    47
1040
0.1
1070
   274
1070
     2
1070
   272
1070
     3
1002
}
1001
GENIUS_GENDTOL_13
1000

1000
h6
1000

1040
0.0
  0
LINE
  5
269F
330
1F
100
AcDbEntity
  8
AM_0
100
AcDbLine
 10
-40.70000000000009
 20
-8.00000000000001
 30
0.0
 11
-40.70000000000009
 21
7.999999999999988
 31
0.0
  0
LINE
  5
26A0
330
1F
100
AcDbEntity
  8
AM_0
100
AcDbLine
 10
-37.99195756794587
 20
7.014353161602393
 30
0.0
 11
-28.00375147672464
 21
7.014353161602393
 31
0.0
  0
LINE
  5
26A1
330
1F
100
AcDbEntity
  8
AM_0
100
AcDbLine
 10
-37.99945280247206
 20
-7.017081203868795
 30
0.0
 11
-27.96819893842454
 21
-7.017081203868795
 31
0.0
  0
VIEWPORT
  5
110
330
101
100
AcDbEntity
 67
     1
  8
0
100
AcDbViewport
 10
420.5
 20
297.0
 30
0.0
 40
948.9782706766916
 41
628.452
 68
     1
 69
     1
1001
ACAD
1000
MVIEW
1002
{
1070
    16
1010
0.0
1020
0.0
1030
0.0
1010
0.0
1020
0.0
1030
1.0
1040
0.0
1040
628.452
1040
420.5
1040
297.0
1040
50.0
1040
0.0
1040
0.0
1070
     0
1070
   100
1070
     1
1070
     1
1070
     0
1070
     0
1070
     0
1070
     0
1040
0.0
1040
0.0
1040
0.0
1040
10.0
1040
10.0
1040
10.0
1040
10.0
1070
     0
1002
{
1002
}
1002
}
  0
ENDSEC
  0
SECTION
  2
OBJECTS
  0
DICTIONARY
  5
C
330
0
100
AcDbDictionary
  3
ACAD_GROUP
350
D
  3
ACAD_LAYOUT
350
1A
  3
ACAD_MLINESTYLE
350
17
  3
ACAD_PLOTSETTINGS
350
19
  3
ACAD_PLOTSTYLENAME
350
E
  3
ACDBVARIABLEDICTIONARY
350
34
  3
ACMDICTIONARY
350
43
  3
AMG
350
2B
  3
AMGSNAPSETTINGS
350
6E
  3
DWGPROPS
350
2757
  3
ACDBHEADERROUNDTRIPXREC
350
2764
  0
DICTIONARY
  5
74
330
1F
100
AcDbDictionary
280
     1
  3
ACAD_INDEX
360
2759
  3
ACAD_LAYOUTSELFREF
360
2787
  0
DICTIONARY
  5
278C
330
101
100
AcDbDictionary
280
     1
  3
ACAD_LAYOUTSELFREF
360
278D
  0
DICTIONARY
  5
D
102
{ACAD_REACTORS
330
C
102
}
330
C
100
AcDbDictionary
  0
DICTIONARY
  5
1A
102
{ACAD_REACTORS
330
C
102
}
330
C
100
AcDbDictionary
  0
DICTIONARY
  5
17
102
{ACAD_REACTORS
330
C
102
}
330
C
100
AcDbDictionary
  3
STANDARD
350
18
  0
DICTIONARY
  5
19
102
{ACAD_REACTORS
330
C
102
}
330
C
100
AcDbDictionary
  0
ACDBDICTIONARYWDFLT
  5
E
102
{ACAD_REACTORS
330
C
102
}
330
C
100
AcDbDictionary
281
     1
  3
Normal
350
F
100
AcDbDictionaryWithDefault
340
F
  0
DICTIONARY
  5
34
102
{ACAD_REACTORS
330
C
102
}
330
C
100
AcDbDictionary
  3
INDEXCTL
350
35
  3
SORTENTS
350
B5E
  0
DICTIONARY
  5
43
102
{ACAD_REACTORS
330
C
102
}
330
C
100
AcDbDictionary
  3
ACMSTDDICTIONARY
350
260
  0
DICTIONARY
  5
2B
102
{ACAD_REACTORS
330
C
102
}
330
C
100
AcDbDictionary
  3
ACMGSETTINGS
350
2C
  0
DICTIONARY
  5
6E
102
{ACAD_REACTORS
330
C
102
}
330
C
100
AcDbDictionary
  0
XRECORD
  5
2757
102
{ACAD_REACTORS
330
C
102
}
330
C
100
AcDbXrecord
  1
DWGPROPS COOKIE
  2

  3

  4

  6

  7

  8

  9

300
AmdtFileType=82
301
=
302
=
303
=
304
=
305
=
306
=
307
=
308
=
309
=
 40
0.2955203472222222
 41
2452838.620506898
 42
2452850.758040809
  1

 90
        1
  0
DICTIONARY
  5
2764
102
{ACAD_REACTORS
330
C
102
}
330
C
100
AcDbDictionary
  3
TSTACKALIGN
350
2765
  3
TSTACKSIZE
350
2766
  3
HYPERLINKBASE
350
2767
  3
STYLESHEET
350
2768
  3
LAYOUTDICT
350
2769
  3
PLOTSETDICT
350
276A
  3
PLOTSTYLNAMDICT
350
276B
  3
LWETCUNION
350
276C
  3
INSUNITS
350
276D
  3
CEPSNTYPE
350
276E
  3
FINGERPRINTGUID
350
276F
  3
VERSIONGUID
350
2770
  3
PSVPSCALE
350
2771
  3
DIMSTYLEDATA
350
2772
  3
PUCSORTHOREF
350
2773
  3
PUCSORTHOVIEW
350
2774
  3
PUCSBASE
350
2775
  3
PUCSORGTOP
350
2776
  3
PUCSORGBOTTOM
350
2777
  3
PUCSORGLEFT
350
2778
  3
PUCSORGRIGHT
350
2779
  3
PUCSORGFRONT
350
277A
  3
PUCSORGBACK
350
277B
  3
UCSORTHOREF
350
277C
  3
UCSORTHOVIEW
350
277D
  3
UCSBASE
350
277E
  3
UCSORGTOP
350
277F
  3
UCSORGBOTTOM
350
2780
  3
UCSORGLEFT
350
2781
  3
UCSORGRIGHT
350
2782
  3
UCSORGFRONT
350
2783
  3
UCSORGBACK
350
2784
  0
DICTIONARY
  5
2759
102
{ACAD_REACTORS
330
74
102
}
330
74
100
AcDbDictionary
  3
*A1
350
275A
  0
XRECORD
  5
2787
102
{ACAD_REACTORS
330
74
102
}
330
74
100
AcDbXrecord
340
1F
  0
XRECORD
  5
278D
102
{ACAD_REACTORS
330
278C
102
}
330
278C
100
AcDbXrecord
340
101
  0
MLINESTYLE
  5
18
102
{ACAD_REACTORS
330
17
102
}
330
17
100
AcDbMlineStyle
  2
STANDARD
 70
     0
  3

 62
   256
 51
90.0
 52
90.0
 71
     2
 49
0.5
 62
   256
  6
BYLAYER
 49
-0.5
 62
   256
  6
BYLAYER
  0
ACDBPLACEHOLDER
  5
F
102
{ACAD_REACTORS
330
E
102
}
330
E
100
AcDbPlaceHolder
280
     0
  0
DICTIONARYVAR
  5
35
102
{ACAD_REACTORS
330
34
102
}
330
34
100
DictionaryVariables
280
     0
  1
1
  0
DICTIONARYVAR
  5
B5E
102
{ACAD_REACTORS
330
34
102
}
330
34
100
DictionaryVariables
280
     0
  1
96
  0
DICTIONARY
  5
260
102
{ACAD_REACTORS
330
43
102
}
330
43
100
AcDbDictionary
  0
DICTIONARY
  5
2C
102
{ACAD_REACTORS
330
2B
102
}
330
2B
100
AcDbDictionary
  3
DWGSETTINGS
350
2D
  0
XRECORD
  5
2765
102
{ACAD_REACTORS
330
2764
102
}
330
2764
100
AcDbXrecord
 90
        1
  0
XRECORD
  5
2766
102
{ACAD_REACTORS
330
2764
102
}
330
2764
100
AcDbXrecord
 90
       70
  0
XRECORD
  5
2767
102
{ACAD_REACTORS
330
2764
102
}
330
2764
100
AcDbXrecord
  1

  0
XRECORD
  5
2768
102
{ACAD_REACTORS
330
2764
102
}
330
2764
100
AcDbXrecord
  1
ASAMI.ctb
  0
XRECORD
  5
2769
102
{ACAD_REACTORS
330
2764
102
}
330
2764
100
AcDbXrecord
340
1A
  0
XRECORD
  5
276A
102
{ACAD_REACTORS
330
2764
102
}
330
2764
100
AcDbXrecord
340
19
  0
XRECORD
  5
276B
102
{ACAD_REACTORS
330
2764
102
}
330
2764
100
AcDbXrecord
340
E
  0
XRECORD
  5
276C
102
{ACAD_REACTORS
330
2764
102
}
330
2764
100
AcDbXrecord
 90
    10781
  0
XRECORD
  5
276D
102
{ACAD_REACTORS
330
2764
102
}
330
2764
100
AcDbXrecord
 90
        4
  0
XRECORD
  5
276E
102
{ACAD_REACTORS
330
2764
102
}
330
2764
100
AcDbXrecord
 90
        0
  0
XRECORD
  5
276F
102
{ACAD_REACTORS
330
2764
102
}
330
2764
100
AcDbXrecord
  1
{AFB28963-8C59-40AE-9337-C84526B81ACE}
  0
XRECORD
  5
2770
102
{ACAD_REACTORS
330
2764
102
}
330
2764
100
AcDbXrecord
  1
{004D0BFF-8FF5-4B6A-8920-108989335EDF}
  0
XRECORD
  5
2771
102
{ACAD_REACTORS
330
2764
102
}
330
2764
100
AcDbXrecord
 40
0.0
  0
XRECORD
  5
2772
102
{ACAD_REACTORS
330
2764
102
}
330
2764
100
AcDbXrecord
1000
DSTYLE
1002
{
1070
    79
 70
     2
1070
   341
340
59
1070
   342
340
59
1070
   371
 70
    -1
1070
   372
 70
    -1
1002
}
  0
XRECORD
  5
2773
102
{ACAD_REACTORS
330
2764
102
}
330
2764
100
AcDbXrecord
340
0
  0
XRECORD
  5
2774
102
{ACAD_REACTORS
330
2764
102
}
330
2764
100
AcDbXrecord
 70
     0
  0
XRECORD
  5
2775
102
{ACAD_REACTORS
330
2764
102
}
330
2764
100
AcDbXrecord
340
0
  0
XRECORD
  5
2776
102
{ACAD_REACTORS
330
2764
102
}
330
2764
100
AcDbXrecord
 10
0.0
 20
0.0
 30
0.0
  0
XRECORD
  5
2777
102
{ACAD_REACTORS
330
2764
102
}
330
2764
100
AcDbXrecord
 10
0.0
 20
0.0
 30
0.0
  0
XRECORD
  5
2778
102
{ACAD_REACTORS
330
2764
102
}
330
2764
100
AcDbXrecord
 10
0.0
 20
0.0
 30
0.0
  0
XRECORD
  5
2779
102
{ACAD_REACTORS
330
2764
102
}
330
2764
100
AcDbXrecord
 10
0.0
 20
0.0
 30
0.0
  0
XRECORD
  5
277A
102
{ACAD_REACTORS
330
2764
102
}
330
2764
100
AcDbXrecord
 10
0.0
 20
0.0
 30
0.0
  0
XRECORD
  5
277B
102
{ACAD_REACTORS
330
2764
102
}
330
2764
100
AcDbXrecord
 10
0.0
 20
0.0
 30
0.0
  0
XRECORD
  5
277C
102
{ACAD_REACTORS
330
2764
102
}
330
2764
100
AcDbXrecord
340
0
  0
XRECORD
  5
277D
102
{ACAD_REACTORS
330
2764
102
}
330
2764
100
AcDbXrecord
 70
     0
  0
XRECORD
  5
277E
102
{ACAD_REACTORS
330
2764
102
}
330
2764
100
AcDbXrecord
340
0
  0
XRECORD
  5
277F
102
{ACAD_REACTORS
330
2764
102
}
330
2764
100
AcDbXrecord
 10
0.0
 20
0.0
 30
0.0
  0
XRECORD
  5
2780
102
{ACAD_REACTORS
330
2764
102
}
330
2764
100
AcDbXrecord
 10
0.0
 20
0.0
 30
0.0
  0
XRECORD
  5
2781
102
{ACAD_REACTORS
330
2764
102
}
330
2764
100
AcDbXrecord
 10
0.0
 20
0.0
 30
0.0
  0
XRECORD
  5
2782
102
{ACAD_REACTORS
330
2764
102
}
330
2764
100
AcDbXrecord
 10
0.0
 20
0.0
 30
0.0
  0
XRECORD
  5
2783
102
{ACAD_REACTORS
330
2764
102
}
330
2764
100
AcDbXrecord
 10
0.0
 20
0.0
 30
0.0
  0
XRECORD
  5
2784
102
{ACAD_REACTORS
330
2764
102
}
330
2764
100
AcDbXrecord
 10
0.0
 20
0.0
 30
0.0
  0
LAYER_INDEX
  5
275A
102
{ACAD_REACTORS
330
2759
102
}
330
2759
100
AcDbIndex
 40
2453151.865011609
100
AcDbLayerIndex
  8
0
360
275B
 90
        2
  8
AM_0
360
275C
 90
       41
  8
AM_11
360
275D
 90
        4
  8
AM_7
360
275E
 90
        1
  8
AM_5
360
275F
 90
        6
  8
Defpoints
360
2760
 90
        0
  8
AM_6
360
2761
 90
        1
  8
AM_CL
360
2762
 90
        0
  0
XRECORD
  5
2D
102
{ACAD_REACTORS
330
2C
102
}
330
2C
100
AcDbXrecord
  1
VERSION
140
15.0
  1
PRODUCT
  2
AutoCAD Mechanical 2000
  0
IDBUFFER
  5
275B
330
0
100
AcDbIdBuffer
330
21F3
330
2466
  0
IDBUFFER
  5
275C
330
0
100
AcDbIdBuffer
330
1CA8
330
1CAA
330
1CAB
330
1CAC
330
1CAD
330
1CAE
330
1CAF
330
1CB0
330
1CB2
330
1CB4
330
1CB5
330
1DC2
330
1E8C
330
1E94
330
1E97
330
1F4E
330
23E7
330
2462
330
2463
330
2464
330
2465
330
2467
330
269F
330
26A0
330
26A1
330
1C94
330
1C95
330
1C96
330
1C99
330
1C9B
330
1C9C
330
1C9D
330
1C9E
330
1C9F
330
1CA0
330
1CA2
330
1CA3
330
1CA4
330
1CA5
330
1CA6
330
1CA7
  0
IDBUFFER
  5
275D
330
0
100
AcDbIdBuffer
330
1C97
330
1C9A
330
1CA1
330
1CB1
  0
IDBUFFER
  5
275E
330
0
100
AcDbIdBuffer
330
C50
  0
IDBUFFER
  5
275F
330
0
100
AcDbIdBuffer
330
C4F
330
194C
330
195B
330
1CC3
330
2279
330
2468
  0
IDBUFFER
  5
2760
330
0
100
AcDbIdBuffer
  0
IDBUFFER
  5
2761
330
0
100
AcDbIdBuffer
330
C58
  0
IDBUFFER
  5
2762
330
0
100
AcDbIdBuffer
  0
ENDSEC
  0
EOF
