  0
SECTION
  2
HEADER
  9
$ACADVER
  1
AC1014
  9
$ACADMAINTVER
 70
     9
  9
$DWGCODEPAGE
  3
ANSI_932
  9
$INSBASE
 10
0.0
 20
0.0
 30
0.0
  9
$EXTMIN
 10
-198.7004299794748
 20
-58.50000000000006
 30
-0.00000001
  9
$EXTMAX
 10
19.84554408880176
 20
11.46845408642889
 30
0.00000001
  9
$LIMMIN
 10
-261.9574260357021
 20
-131.2594146873881
  9
$LIMMAX
 10
98.83655915369695
 20
87.98182955228083
  9
$ORTHOMODE
 70
     0
  9
$REGENMODE
 70
     1
  9
$FILLMODE
 70
     1
  9
$QTEXTMODE
 70
     0
  9
$MIRRTEXT
 70
     0
  9
$DRAGMODE
 70
     2
  9
$LTSCALE
 40
0.3
  9
$OSMODE
 70
    55
  9
$ATTMODE
 70
     1
  9
$TEXTSIZE
 40
2.5
  9
$TRACEWID
 40
1.0
  9
$TEXTSTYLE
  7
STANDARD
  9
$CLAYER
  8
AM_0
  9
$CELTYPE
  6
BYLAYER
  9
$CECOLOR
 62
   256
  9
$CELTSCALE
 40
1.0
  9
$DELOBJ
 70
     1
  9
$DISPSILH
 70
     0
  9
$DIMSCALE
 40
0.5
  9
$DIMASZ
 40
2.5
  9
$DIMEXO
 40
1.0
  9
$DIMDLI
 40
12.0
  9
$DIMRND
 40
0.0
  9
$DIMDLE
 40
0.0
  9
$DIMEXE
 40
1.0
  9
$DIMTP
 40
0.1
  9
$DIMTM
 40
0.1
  9
$DIMTXT
 40
3.2
  9
$DIMCEN
 40
0.0
  9
$DIMTSZ
 40
0.0
  9
$DIMTOL
 70
     0
  9
$DIMLIM
 70
     0
  9
$DIMTIH
 70
     0
  9
$DIMTOH
 70
     0
  9
$DIMSE1
 70
     0
  9
$DIMSE2
 70
     0
  9
$DIMTAD
 70
     3
  9
$DIMZIN
 70
     8
  9
$DIMBLK
  1
OPEN30
  9
$DIMASO
 70
     1
  9
$DIMSHO
 70
     1
  9
$DIMPOST
  1

  9
$DIMAPOST
  1
"
  9
$DIMALT
 70
     0
  9
$DIMALTD
 70
     2
  9
$DIMALTF
 40
0.0393701
  9
$DIMLFAC
 40
1.0
  9
$DIMTOFL
 70
     1
  9
$DIMTVP
 40
0.0
  9
$DIMTIX
 70
     0
  9
$DIMSOXD
 70
     0
  9
$DIMSAH
 70
     0
  9
$DIMBLK1
  1

  9
$DIMBLK2
  1

  9
$DIMSTYLE
  2
AM_JIS
  9
$DIMCLRD
 70
   256
  9
$DIMCLRE
 70
   256
  9
$DIMCLRT
 70
     2
  9
$DIMTFAC
 40
0.71
  9
$DIMGAP
 40
1.5
  9
$DIMJUST
 70
     0
  9
$DIMSD1
 70
     0
  9
$DIMSD2
 70
     0
  9
$DIMTOLJ
 70
     0
  9
$DIMTZIN
 70
     0
  9
$DIMALTZ
 70
     0
  9
$DIMALTTZ
 70
     0
  9
$DIMFIT
 70
     3
  9
$DIMUPT
 70
     0
  9
$DIMUNIT
 70
     2
  9
$DIMDEC
 70
     3
  9
$DIMTDEC
 70
     3
  9
$DIMALTU
 70
     2
  9
$DIMALTTD
 70
     2
  9
$DIMTXSTY
  7
ASAMI
  9
$DIMAUNIT
 70
     0
  9
$LUNITS
 70
     2
  9
$LUPREC
 70
     2
  9
$SKETCHINC
 40
1.0
  9
$FILLETRAD
 40
0.5
  9
$AUNITS
 70
     0
  9
$AUPREC
 70
     0
  9
$MENU
  1
.
  9
$ELEVATION
 40
0.0
  9
$PELEVATION
 40
0.0
  9
$THICKNESS
 40
0.0
  9
$LIMCHECK
 70
     0
  9
$BLIPMODE
 70
     0
  9
$CHAMFERA
 40
2.5
  9
$CHAMFERB
 40
2.5
  9
$CHAMFERC
 40
20.0
  9
$CHAMFERD
 40
0.0
  9
$SKPOLY
 70
     0
  9
$TDCREATE
 40
2452838.620506898
  9
$TDUPDATE
 40
2453151.865836458
  9
$TDINDWG
 40
0.3605287037
  9
$TDUSRTIMER
 40
0.3605287037
  9
$USRTIMER
 70
     1
  9
$ANGBASE
 50
0.0
  9
$ANGDIR
 70
     0
  9
$PDMODE
 70
     0
  9
$PDSIZE
 40
0.0
  9
$PLINEWID
 40
0.0
  9
$COORDS
 70
     1
  9
$SPLFRAME
 70
     0
  9
$SPLINETYPE
 70
     6
  9
$SPLINESEGS
 70
     8
  9
$ATTDIA
 70
     1
  9
$ATTREQ
 70
     1
  9
$HANDLING
 70
 12289
  9
$HANDSEED
  5
3111
  9
$SURFTAB1
 70
     6
  9
$SURFTAB2
 70
     6
  9
$SURFTYPE
 70
     6
  9
$SURFU
 70
     6
  9
$SURFV
 70
     6
  9
$UCSNAME
  2

  9
$UCSORG
 10
-0.0000000000000586
 20
-0.0000000000000036
 30
0.0
  9
$UCSXDIR
 10
1.0
 20
0.0
 30
0.0
  9
$UCSYDIR
 10
0.0
 20
1.0
 30
0.0
  9
$PUCSNAME
  2

  9
$PUCSORG
 10
0.0
 20
0.0
 30
0.0
  9
$PUCSXDIR
 10
1.0
 20
0.0
 30
0.0
  9
$PUCSYDIR
 10
0.0
 20
1.0
 30
0.0
  9
$USERI1
 70
     0
  9
$USERI2
 70
     0
  9
$USERI3
 70
     0
  9
$USERI4
 70
     0
  9
$USERI5
 70
     0
  9
$USERR1
 40
0.0
  9
$USERR2
 40
0.0
  9
$USERR3
 40
0.0
  9
$USERR4
 40
0.0
  9
$USERR5
 40
0.0
  9
$WORLDVIEW
 70
     1
  9
$SHADEDGE
 70
     3
  9
$SHADEDIF
 70
    70
  9
$TILEMODE
 70
     1
  9
$MAXACTVP
 70
    64
  9
$PINSBASE
 10
0.0
 20
0.0
 30
0.0
  9
$PLIMCHECK
 70
     0
  9
$PEXTMIN
 10
1.000000000000000E+20
 20
1.000000000000000E+20
 30
1.000000000000000E+20
  9
$PEXTMAX
 10
-1.000000000000000E+20
 20
-1.000000000000000E+20
 30
-1.000000000000000E+20
  9
$PLIMMIN
 10
0.0
 20
0.0
  9
$PLIMMAX
 10
841.0
 20
594.0
  9
$UNITMODE
 70
     0
  9
$VISRETAIN
 70
     1
  9
$PLINEGEN
 70
     0
  9
$PSLTSCALE
 70
     0
  9
$TREEDEPTH
 70
  3020
  9
$PICKSTYLE
 70
     0
  9
$CMLSTYLE
  2
STANDARD
  9
$CMLJUST
 70
     0
  9
$CMLSCALE
 40
20.0
  9
$PROXYGRAPHICS
 70
     1
  9
$MEASUREMENT
 70
     1
  0
ENDSEC
  0
SECTION
  2
CLASSES
  0
CLASS
  1
ACDBDICTIONARYWDFLT
  2
AcDbDictionaryWithDefault
  3
AutoCAD 2000
 90
        0
280
     0
281
     0
  0
CLASS
  1
ACDBPLACEHOLDER
  2
AcDbPlaceHolder
  3
AutoCAD 2000
 90
        0
280
     0
281
     0
  0
CLASS
  1
LAYOUT
  2
AcDbLayout
  3
AutoCAD 2000
 90
        0
280
     0
281
     0
  0
CLASS
  1
AMGSETTINGSOBJ
  2
AmgSettingsObj
  3
"AcadM|Product Description: AutoCAD Mechanical 2000|Company: Autodesk"
 90
        0
280
     0
281
     0
  0
CLASS
  1
ACME_DOCUMENT
  2
AcMeDbDoc
  3
AcMeServices
 90
        0
280
     0
281
     0
  0
CLASS
  1
ACMESCOPE
  2
AcMeScope
  3
AcMeServices
 90
        0
280
     0
281
     0
  0
CLASS
  1
ACMECOMMANDHISTORY
  2
AcMeCommandHistory
  3
AcMeServices
 90
        0
280
     0
281
     0
  0
CLASS
  1
DICTIONARYVAR
  2
AcDbDictionaryVar
  3
AutoCAD 2000
 90
        0
280
     0
281
     0
  0
CLASS
  1
ACIMSYSVARMAN
  2
AcImSysVarManager
  3
AcMeServices
 90
        0
280
     0
281
     0
  0
CLASS
  1
ACIMREALSYSVAR
  2
AcImRealSysVar
  3
AcMeServices
 90
        0
280
     0
281
     0
  0
CLASS
  1
ACIMINTSYSVAR
  2
AcImIntSysVar
  3
AcMeServices
 90
        0
280
     0
281
     0
  0
CLASS
  1
ACMEDRAWINGMAN
  2
AcMeDrawingMan
  3
AcMeServices
 90
        0
280
     0
281
     0
  0
CLASS
  1
ACMEVIEW
  2
AcMeView
  3
AcMeServices
 90
        0
280
     0
281
     0
  0
CLASS
  1
ACDBENTITYCACHE
  2
AcMeEntityCache
  3
AcMeServices
 90
        0
280
     0
281
     0
  0
CLASS
  1
GSMANAGER
  2
AcMeGSManager
  3
AcMeServices
 90
        0
280
     0
281
     0
  0
CLASS
  1
AmdtInternalReactor
  2
AmdtInternalReactor
  3
AcMeServices
 90
        0
280
     0
281
     0
  0
CLASS
  1
ACMESTATEMGR
  2
AcMeStateMgr
  3
AcMeServices
 90
        0
280
     0
281
     0
  0
CLASS
  1
ACME_DATABASE
  2
AcMeDbDatabase
  3
AcMeServices
 90
        0
280
     0
281
     0
  0
CLASS
  1
ACRFINSADJUSTERMGR
  2
AcRfInsAdjusterMgr
  3
AcMeServices
 90
        0
280
     0
281
     0
  0
CLASS
  1
ACMDATADICTIONARY
  2
AcmDataDictionary
  3
"AcmSymBB|Product Description: AutoCAD Mechanical 2000|Company: Autodesk"
 90
        0
280
     0
281
     0
  0
CLASS
  1
ACMDATAENTRYBLOCK
  2
AcmDataEntryBlock
  3
"AcmSymBB|Product Description: AutoCAD Mechanical 2000|Company: Autodesk"
 90
        0
280
     0
281
     0
  0
CLASS
  1
AMGOBJPROPCFG
  2
AmgObjPropCfg
  3
"AmgLay|Product Description: AutoCAD Mechanical 2000|Company: Autodesk"
 90
        1
280
     0
281
     0
  0
CLASS
  1
ACAMGFILTERDAT
  2
AcAmgFilterDat
  3
"AcadM|Product Description: AutoCAD Mechanical 2000|Company: Autodesk"
 90
        0
280
     0
281
     0
  0
CLASS
  1
LAYER_INDEX
  2
AcDbLayerIndex
  3
AutoCAD 2000
 90
        0
280
     0
281
     0
  0
CLASS
  1
IDBUFFER
  2
AcDbIdBuffer
  3
AutoCAD 2000
 90
        0
280
     0
281
     0
  0
CLASS
  1
ACIMSTRSYSVAR
  2
AcImStrSysVar
  3
AcMeServices
 90
        0
280
     0
281
     0
  0
CLASS
  1
ACMSTANDARDJIS
  2
AcmStandardJIS
  3
"AcmSymBB|Product Description: AutoCAD Mechanical 2000|Company: Autodesk"
 90
        0
280
     0
281
     0
  0
CLASS
  1
ACMSURFSTANDARDJIS
  2
AcmSurfTextStdJIS
  3
"AcmSymBB|Product Description: AutoCAD Mechanical 2000|Company: Autodesk"
 90
        0
280
     0
281
     0
  0
CLASS
  1
ACMFCFSTANDARDJIS
  2
AcmFCFStdJIS
  3
"AcmSymBB|Product Description: AutoCAD Mechanical 2000|Company: Autodesk"
 90
        0
280
     0
281
     0
  0
CLASS
  1
ACMWELDSTANDARDJIS
  2
AcmWeldingStdJIS
  3
"AcmSymBB|Product Description: AutoCAD Mechanical 2000|Company: Autodesk"
 90
        0
280
     0
281
     0
  0
CLASS
  1
ACMIDSTANDARDJIS
  2
AcmIdStdJIS
  3
"AcmSymBB|Product Description: AutoCAD Mechanical 2000|Company: Autodesk"
 90
        0
280
     0
281
     0
  0
CLASS
  1
ACMDATUMSTANDARDJIS
  2
AcmDatumStdJIS
  3
"AcmSymBB|Product Description: AutoCAD Mechanical 2000|Company: Autodesk"
 90
        0
280
     0
281
     0
  0
CLASS
  1
ACMBOMSTANDARDJIS
  2
AcmBOMStdJIS
  3
"AcmSymBB|Product Description: AutoCAD Mechanical 2000|Company: Autodesk"
 90
        0
280
     0
281
     0
  0
CLASS
  1
ACMSTANDARDANSI
  2
AcmStandardANSI
  3
"AcmSymBB|Product Description: AutoCAD Mechanical 2000|Company: Autodesk"
 90
        0
280
     0
281
     0
  0
CLASS
  1
ACMSURFSTANDARDANSI
  2
AcmSurfTextStdANSI
  3
"AcmSymBB|Product Description: AutoCAD Mechanical 2000|Company: Autodesk"
 90
        0
280
     0
281
     0
  0
CLASS
  1
ACMFCFSTANDARDANSI
  2
AcmFCFStdANSI
  3
"AcmSymBB|Product Description: AutoCAD Mechanical 2000|Company: Autodesk"
 90
        0
280
     0
281
     0
  0
CLASS
  1
ACMWELDSTANDARDANSI
  2
AcmWeldingStdANSI
  3
"AcmSymBB|Product Description: AutoCAD Mechanical 2000|Company: Autodesk"
 90
        0
280
     0
281
     0
  0
CLASS
  1
ACMIDSTANDARDANSI
  2
AcmIdStdANSI
  3
"AcmSymBB|Product Description: AutoCAD Mechanical 2000|Company: Autodesk"
 90
        0
280
     0
281
     0
  0
CLASS
  1
ACMDATUMSTANDARDANSI
  2
AcmDatumStdANSI
  3
"AcmSymBB|Product Description: AutoCAD Mechanical 2000|Company: Autodesk"
 90
        0
280
     0
281
     0
  0
CLASS
  1
ACMBOMSTANDARDANSI
  2
AcmBOMStdANSI
  3
"AcmSymBB|Product Description: AutoCAD Mechanical 2000|Company: Autodesk"
 90
        0
280
     0
281
     0
  0
CLASS
  1
ACMSTANDARDBSI
  2
AcmStandardBSI
  3
"AcmSymBB|Product Description: AutoCAD Mechanical 2000|Company: Autodesk"
 90
        0
280
     0
281
     0
  0
CLASS
  1
ACMSURFSTANDARDBSI
  2
AcmSurfTextStdBSI
  3
"AcmSymBB|Product Description: AutoCAD Mechanical 2000|Company: Autodesk"
 90
        0
280
     0
281
     0
  0
CLASS
  1
ACMFCFSTANDARDBSI
  2
AcmFCFStdBSI
  3
"AcmSymBB|Product Description: AutoCAD Mechanical 2000|Company: Autodesk"
 90
        0
280
     0
281
     0
  0
CLASS
  1
ACMWELDSTANDARDBSI
  2
AcmWeldingStdBSI
  3
"AcmSymBB|Product Description: AutoCAD Mechanical 2000|Company: Autodesk"
 90
        0
280
     0
281
     0
  0
CLASS
  1
ACMIDSTANDARDBSI
  2
AcmIdStdBSI
  3
"AcmSymBB|Product Description: AutoCAD Mechanical 2000|Company: Autodesk"
 90
        0
280
     0
281
     0
  0
CLASS
  1
ACMDATUMSTANDARDBSI
  2
AcmDatumStdBSI
  3
"AcmSymBB|Product Description: AutoCAD Mechanical 2000|Company: Autodesk"
 90
        0
280
     0
281
     0
  0
CLASS
  1
ACMBOMSTANDARDBSI
  2
AcmBOMStdBSI
  3
"AcmSymBB|Product Description: AutoCAD Mechanical 2000|Company: Autodesk"
 90
        0
280
     0
281
     0
  0
CLASS
  1
LONG_TRANSACTION
  2
AcDbLongTransaction
  3
AutoCAD 2000
 90
        0
280
     0
281
     0
  0
CLASS
  1
LWPOLYLINE
  2
AcDbPolyline
  3
AutoCAD 2000
 90
        0
280
     0
281
     1
  0
CLASS
  1
HATCH
  2
AcDbHatch
  3
AutoCAD 2000
 90
        0
280
     0
281
     1
  0
CLASS
  1
XRECORD
  2
AcDbXrecord
  3
AutoCAD 2000
 90
        0
280
     0
281
     0
  0
ENDSEC
  0
SECTION
  2
TABLES
  0
TABLE
  2
VPORT
  5
8
330
0
100
AcDbSymbolTable
 70
     3
  0
VPORT
  5
30E6
330
8
100
AcDbSymbolTableRecord
100
AcDbViewportTableRecord
  2
*ACTIVE
 70
     0
 10
0.0
 20
0.0
 11
1.0
 21
1.0
 12
-81.56043344100257
 22
-8.528031178319295
 13
0.0
 23
0.0
 14
2.5
 24
2.5
 15
10.0
 25
10.0
 16
0.0
 26
0.0
 36
1.0
 17
0.0
 27
0.0
 37
0.0
 40
247.8853222031065
 41
1.56570841889117
 42
50.0
 43
0.0
 44
0.0
 50
0.0
 51
0.0
 71
     0
 72
   100
 73
     1
 74
     3
 75
     0
 76
     0
 77
     0
 78
     0
  0
ENDTAB
  0
TABLE
  2
LTYPE
  5
5
330
0
100
AcDbSymbolTable
 70
    10
  0
LTYPE
  5
14
330
5
100
AcDbSymbolTableRecord
100
AcDbLinetypeTableRecord
  2
BYBLOCK
 70
     0
  3

 72
    65
 73
     0
 40
0.0
  0
LTYPE
  5
15
330
5
100
AcDbSymbolTableRecord
100
AcDbLinetypeTableRecord
  2
BYLAYER
 70
     0
  3

 72
    65
 73
     0
 40
0.0
  0
LTYPE
  5
16
330
5
100
AcDbSymbolTableRecord
100
AcDbLinetypeTableRecord
  2
CONTINUOUS
 70
     0
  3
Solid line
 72
    65
 73
     0
 40
0.0
  0
LTYPE
  5
4B
330
5
100
AcDbSymbolTableRecord
100
AcDbLinetypeTableRecord
  2
AM_ISO02W050
 70
     0
  3
__ __ __ __ __ __ __ __ __ __ __ __ __ __ __
 72
    65
 73
     2
 40
7.5
 49
6.0
 74
     0
 49
-1.5
 74
     0
  0
LTYPE
  5
4C
330
5
100
AcDbSymbolTableRecord
100
AcDbLinetypeTableRecord
  2
AM_ISO08W050
 70
     0
  3
____ . ____ . ____ . ____ . ____ . ____ . ____
 72
    65
 73
     4
 40
18.0
 49
12.0
 74
     0
 49
-1.5
 74
     0
 49
3.0
 74
     0
 49
-1.5
 74
     0
  0
LTYPE
  5
4D
330
5
100
AcDbSymbolTableRecord
100
AcDbLinetypeTableRecord
  2
AM_ISO09W050
 70
     0
  3
_____ . . _____ . . _____ . . ____ .. ____
 72
    65
 73
     6
 40
22.5
 49
12.0
 74
     0
 49
-1.5
 74
     0
 49
3.0
 74
     0
 49
-1.5
 74
     0
 49
3.0
 74
     0
 49
-1.5
 74
     0
  0
LTYPE
  5
4E
330
5
100
AcDbSymbolTableRecord
100
AcDbLinetypeTableRecord
  2
AMCONSTR
 70
     0
  3
_______________________
 72
    65
 73
     2
 40
9999.0
 49
9999.0
 74
     0
 49
0.0
 74
     0
  0
LTYPE
  5
4F
330
5
100
AcDbSymbolTableRecord
100
AcDbLinetypeTableRecord
  2
AM_ISO02W050X2
 70
     0
  3
 _ _ _ _ _ _ _ _ _ _ _ _
 72
    65
 73
     2
 40
3.75
 49
3.0
 74
     0
 49
-0.75
 74
     0
  0
LTYPE
  5
50
330
5
100
AcDbSymbolTableRecord
100
AcDbLinetypeTableRecord
  2
AM_ISO08W050X2
 70
     0
  3
__ . __ . __ . __ . __ . __
 72
    65
 73
     4
 40
9.0
 49
6.0
 74
     0
 49
-0.75
 74
     0
 49
1.5
 74
     0
 49
-0.75
 74
     0
  0
LTYPE
  5
53
330
5
100
AcDbSymbolTableRecord
100
AcDbLinetypeTableRecord
  2
AMZIGZAG
 70
     0
  3
/\/-/\/-/\/-/\/-/\/-/\/
 72
    65
 73
     2
 40
11.00009999999999
 49
0.0001
 74
     4
 75
   135
340
52
 46
0.04
 50
0.0
 44
0.0
 45
0.0
 49
-11.0
 74
     0
  0
LTYPE
  5
166
330
5
100
AcDbSymbolTableRecord
100
AcDbLinetypeTableRecord
  2
ACJISTGL
 70
     0
  3
_ _ _ _ _
 72
    65
 73
     2
 40
3.0
 49
2.0
 74
     0
 49
-1.0
 74
     0
  0
LTYPE
  5
26A
330
5
100
AcDbSymbolTableRecord
100
AcDbLinetypeTableRecord
  2
ACJISTGB
 70
     0
  3
__ . . __ . .
 72
    65
 73
     6
 40
9.0
 49
4.0
 74
     0
 49
-1.0
 74
     0
 49
1.0
 74
     0
 49
-1.0
 74
     0
 49
1.0
 74
     0
 49
-1.0
 74
     0
  0
ENDTAB
  0
TABLE
  2
LAYER
  5
2
330
0
100
AcDbSymbolTable
 70
     8
  0
LAYER
  5
10
330
2
100
AcDbSymbolTableRecord
100
AcDbLayerTableRecord
  2
0
 70
     0
 62
     7
  6
CONTINUOUS
  0
LAYER
  5
3F9
330
2
100
AcDbSymbolTableRecord
100
AcDbLayerTableRecord
  2
AM_0
 70
     0
 62
     7
  6
CONTINUOUS
  0
LAYER
  5
BD6
330
2
100
AcDbSymbolTableRecord
100
AcDbLayerTableRecord
  2
AM_11
 70
     0
 62
     3
  6
AM_ISO09W050
  0
LAYER
  5
BD7
330
2
100
AcDbSymbolTableRecord
100
AcDbLayerTableRecord
  2
AM_7
 70
     0
 62
     4
  6
AM_ISO08W050
  0
LAYER
  5
BD8
330
2
100
AcDbSymbolTableRecord
100
AcDbLayerTableRecord
  2
AM_5
 70
     0
 62
     3
  6
CONTINUOUS
  0
LAYER
  5
BD9
330
2
100
AcDbSymbolTableRecord
100
AcDbLayerTableRecord
  2
DEFPOINTS
 70
     0
 62
     7
  6
CONTINUOUS
  0
LAYER
  5
BDA
330
2
100
AcDbSymbolTableRecord
100
AcDbLayerTableRecord
  2
AM_6
 70
     0
 62
     2
  6
CONTINUOUS
  0
LAYER
  5
22A6
330
2
100
AcDbSymbolTableRecord
100
AcDbLayerTableRecord
  2
AM_CL
 70
     0
 62
     1
  6
AMCONSTR
  0
ENDTAB
  0
TABLE
  2
STYLE
  5
3
330
0
100
AcDbSymbolTable
 70
     5
  0
STYLE
  5
11
330
3
100
AcDbSymbolTableRecord
100
AcDbTextStyleTableRecord
  2
STANDARD
 70
     0
 40
0.0
 41
1.0
 50
0.0
 71
     0
 42
2.5
  3
simplex.shx
  4
EXTFONT.SHX
  0
STYLE
  5
52
330
3
100
AcDbSymbolTableRecord
100
AcDbTextStyleTableRecord
  2

 70
     1
 40
0.0
 41
1.0
 50
0.0
 71
     0
 42
2.5
  3
ltypeshp.shx
  4

  0
STYLE
  5
6B
330
3
100
AcDbSymbolTableRecord
100
AcDbTextStyleTableRecord
  2
ASAMI
 70
     0
 40
0.0
 41
1.0
 50
0.0
 71
     0
 42
2.5
  3
simplex.shx
  4
EXTFONT.SHX
  0
STYLE
  5
262
330
3
100
AcDbSymbolTableRecord
100
AcDbTextStyleTableRecord
  2
ACJISTS
 70
     0
 40
1.0
 41
1.0
 50
0.0
 71
     0
 42
2.5
  3
simplex.shx
  4
bigfont.shx
  0
STYLE
  5
269
330
3
100
AcDbSymbolTableRecord
100
AcDbTextStyleTableRecord
  2
ACJISGDT
 70
     0
 40
0.0
 41
1.0
 50
0.0
 71
     0
 42
2.5
  3
amgdtans.shx
  4

  0
ENDTAB
  0
TABLE
  2
VIEW
  5
6
330
0
100
AcDbSymbolTable
 70
     0
  0
ENDTAB
  0
TABLE
  2
UCS
  5
7
330
0
100
AcDbSymbolTable
 70
     0
  0
ENDTAB
  0
TABLE
  2
APPID
  5
9
330
0
100
AcDbSymbolTable
 70
    13
  0
APPID
  5
12
330
9
100
AcDbSymbolTableRecord
100
AcDbRegAppTableRecord
  2
ACAD
 70
     0
  0
APPID
  5
30
330
9
100
AcDbSymbolTableRecord
100
AcDbRegAppTableRecord
  2
MCAD_NO_VIS
 70
     0
  0
APPID
  5
31
330
9
100
AcDbSymbolTableRecord
100
AcDbRegAppTableRecord
  2
ACAD_TEMP_GRAPHIC
 70
     0
  0
APPID
  5
2C2
330
9
100
AcDbSymbolTableRecord
100
AcDbRegAppTableRecord
  2
GENIUS_GENDTOL_13
 70
     0
  0
APPID
  5
339
330
9
100
AcDbSymbolTableRecord
100
AcDbRegAppTableRecord
  2
GENIUS_GENODEF_13
 70
     0
  0
APPID
  5
33A
330
9
100
AcDbSymbolTableRecord
100
AcDbRegAppTableRecord
  2
GENIUS_GENOBJ-N-RSBK_13
 70
     0
  0
APPID
  5
33B
330
9
100
AcDbSymbolTableRecord
100
AcDbRegAppTableRecord
  2
GENIUS_GENOBJ-N-LIB_13
 70
     0
  0
APPID
  5
33C
330
9
100
AcDbSymbolTableRecord
100
AcDbRegAppTableRecord
  2
GENIUS_GENSCALE_13
 70
     0
  0
APPID
  5
378
330
9
100
AcDbSymbolTableRecord
100
AcDbRegAppTableRecord
  2
GENIUS_GENDIMSH_14
 70
     0
  0
APPID
  5
BDB
330
9
100
AcDbSymbolTableRecord
100
AcDbRegAppTableRecord
  2
GENIUS_GENOBJ-N-CEN_13
 70
     0
  0
APPID
  5
BDC
330
9
100
AcDbSymbolTableRecord
100
AcDbRegAppTableRecord
  2
GENIUS_GENFIL_13
 70
     0
  0
APPID
  5
BDD
330
9
100
AcDbSymbolTableRecord
100
AcDbRegAppTableRecord
  2
GENIUS_GENOBJ-N-FIL_13
 70
     0
  0
APPID
  5
12AD
330
9
100
AcDbSymbolTableRecord
100
AcDbRegAppTableRecord
  2
GENIUS_GENOREF_13
 70
     0
  0
ENDTAB
  0
TABLE
  2
DIMSTYLE
  5
A
330
0
100
AcDbSymbolTable
 70
     8
  0
DIMSTYLE
105
58
102
{ACAD_REACTORS
330
C4F
330
195B
330
194C
330
2F2C
102
}
330
A
100
AcDbSymbolTableRecord
100
AcDbDimStyleTableRecord
  2
AM_JIS
 70
     0
  3

  4
"
  5
OPEN30
  6

  7

 40
1.0
 41
2.5
 42
1.0
 43
12.0
 44
1.0
 45
0.0
 46
0.0
 47
0.1
 48
0.1
140
3.2
141
0.0
142
0.0
143
0.0393701
144
1.0
145
0.0
146
0.71
147
1.5
 71
     0
 72
     0
 73
     0
 74
     0
 75
     0
 76
     0
 77
     3
 78
     8
170
     0
171
     2
172
     1
173
     0
174
     0
175
     0
176
   256
177
   256
178
     2
270
     2
271
     3
272
     3
273
     2
274
     2
340
6B
275
     0
280
     0
281
     0
282
     0
283
     0
284
     0
285
     0
286
     0
287
     3
288
     0
  0
DIMSTYLE
105
5F
330
A
100
AcDbSymbolTableRecord
100
AcDbDimStyleTableRecord
  2
AM_JIS$3
 70
     0
  3

  4
"
  5
OPEN30
  6

  7

 40
1.0
 41
2.5
 42
1.0
 43
10.0
 44
1.0
 45
0.0
 46
0.0
 47
0.1
 48
0.1
140
3.2
141
0.0
142
0.0
143
0.0393701
144
1.0
145
0.0
146
0.71
147
1.5
 71
     0
 72
     0
 73
     0
 74
     1
 75
     0
 76
     0
 77
     3
 78
     8
170
     0
171
     2
172
     0
173
     0
174
     0
175
     0
176
   256
177
   256
178
     2
270
     2
271
     2
272
     3
273
     2
274
     2
340
6B
275
     0
280
     0
281
     0
282
     0
283
     0
284
     0
285
     0
286
     0
287
     0
288
     1
  0
DIMSTYLE
105
60
102
{ACAD_REACTORS
330
2C05
102
}
330
A
100
AcDbSymbolTableRecord
100
AcDbDimStyleTableRecord
  2
AM_JIS$4
 70
     0
  3

  4
"
  5
OPEN30
  6

  7

 40
1.0
 41
2.5
 42
1.0
 43
10.0
 44
1.0
 45
0.0
 46
0.0
 47
0.1
 48
0.1
140
3.2
141
0.0
142
0.0
143
0.0393701
144
1.0
145
0.0
146
0.71
147
1.5
 71
     0
 72
     0
 73
     0
 74
     1
 75
     0
 76
     0
 77
     3
 78
     8
170
     0
171
     2
172
     0
173
     0
174
     0
175
     0
176
   256
177
   256
178
     2
270
     2
271
     2
272
     3
273
     2
274
     2
340
6B
275
     0
280
     0
281
     0
282
     0
283
     0
284
     0
285
     0
286
     0
287
     0
288
     1
  0
DIMSTYLE
105
61
330
A
100
AcDbSymbolTableRecord
100
AcDbDimStyleTableRecord
  2
AM_JIS$6
 70
     0
  3

  4
"
  5
OPEN30
  6

  7

 40
1.0
 41
2.5
 42
1.0
 43
10.0
 44
1.0
 45
0.0
 46
0.0
 47
0.1
 48
0.1
140
3.2
141
0.0
142
0.0
143
0.0393701
144
1.0
145
0.0
146
0.71
147
1.5
 71
     0
 72
     0
 73
     0
 74
     0
 75
     0
 76
     0
 77
     0
 78
     8
170
     0
171
     2
172
     1
173
     0
174
     0
175
     0
176
   256
177
   256
178
     2
270
     2
271
     2
272
     2
273
     2
274
     2
340
6B
275
     0
280
     0
281
     0
282
     0
283
     0
284
     0
285
     0
286
     0
287
     3
288
     0
  0
DIMSTYLE
105
62
330
A
100
AcDbSymbolTableRecord
100
AcDbDimStyleTableRecord
  2
AM_JIS$7
 70
     0
  3

  4
"
  5
OPEN30
  6

  7

 40
1.0
 41
2.5
 42
1.0
 43
10.0
 44
1.0
 45
0.0
 46
0.0
 47
0.1
 48
0.1
140
3.2
141
0.0
142
0.0
143
0.0393701
144
1.0
145
0.0
146
0.71
147
1.5
 71
     0
 72
     0
 73
     0
 74
     0
 75
     0
 76
     0
 77
     3
 78
     8
170
     0
171
     2
172
     1
173
     0
174
     0
175
     0
176
   256
177
   256
178
     2
270
     2
271
     2
272
     3
273
     2
274
     2
340
6B
275
     0
280
     0
281
     0
282
     0
283
     0
284
     0
285
     0
286
     0
287
     3
288
     0
  0
DIMSTYLE
105
63
330
A
100
AcDbSymbolTableRecord
100
AcDbDimStyleTableRecord
  2
AM_JIS$SF
 70
     0
  3

  4
"
  5
OPEN30
  6

  7

 40
1.0
 41
2.5
 42
1.0
 43
10.0
 44
1.0
 45
0.0
 46
0.0
 47
0.1
 48
0.1
140
3.2
141
0.0
142
0.0
143
0.0393701
144
1.0
145
0.0
146
0.71
147
1.5
 71
     0
 72
     0
 73
     0
 74
     0
 75
     1
 76
     1
 77
     3
 78
     8
170
     0
171
     2
172
     1
173
     0
174
     0
175
     0
176
   256
177
   256
178
     2
270
     2
271
     2
272
     2
273
     2
274
     2
340
6B
275
     0
280
     0
281
     0
282
     0
283
     0
284
     0
285
     0
286
     0
287
     3
288
     0
  0
DIMSTYLE
105
68
330
A
100
AcDbSymbolTableRecord
100
AcDbDimStyleTableRecord
  2
AM_JIS$SH
 70
     0
  3

  4
"
  5

  6
GENAXEH
  7
OPEN30
 40
1.0
 41
2.5
 42
1.0
 43
10.0
 44
1.0
 45
0.0
 46
0.0
 47
0.1
 48
0.1
140
3.2
141
0.0
142
0.0
143
0.0393701
144
2.0
145
0.0
146
0.71
147
1.5
 71
     0
 72
     0
 73
     0
 74
     0
 75
     1
 76
     1
 77
     3
 78
     8
170
     0
171
     2
172
     1
173
     1
174
     0
175
     0
176
   256
177
   256
178
     2
270
     2
271
     2
272
     2
273
     2
274
     2
340
6B
275
     0
280
     0
281
     0
282
     0
283
     0
284
     0
285
     0
286
     0
287
     3
288
     0
  0
DIMSTYLE
105
B34
330
A
100
AcDbSymbolTableRecord
100
AcDbDimStyleTableRecord
  2
AM_JIS$2
 70
     0
  3

  4
"
  5
OPEN30
  6

  7

 40
1.0
 41
2.5
 42
1.0
 43
12.0
 44
1.0
 45
0.0
 46
0.0
 47
0.1
 48
0.1
140
3.2
141
0.0
142
0.0
143
0.0393701
144
1.0
145
0.0
146
0.71
147
1.5
 71
     0
 72
     0
 73
     0
 74
     0
 75
     0
 76
     0
 77
     3
 78
     8
170
     0
171
     2
172
     1
173
     0
174
     0
175
     0
176
   256
177
   256
178
     2
270
     2
271
     3
272
     3
273
     2
274
     2
340
6B
275
     0
280
     0
281
     0
282
     0
283
     0
284
     0
285
     0
286
     0
287
     3
288
     0
  0
ENDTAB
  0
TABLE
  2
BLOCK_RECORD
  5
1
330
0
100
AcDbSymbolTable
 70
    10
  0
BLOCK_RECORD
  5
1F
102
{ACAD_XDICTIONARY
360
74
102
}
330
1
100
AcDbSymbolTableRecord
100
AcDbBlockTableRecord
  2
*MODEL_SPACE
  0
BLOCK_RECORD
  5
101
102
{ACAD_XDICTIONARY
360
310F
102
}
330
1
100
AcDbSymbolTableRecord
100
AcDbBlockTableRecord
  2
*PAPER_SPACE
  0
BLOCK_RECORD
  5
59
330
1
100
AcDbSymbolTableRecord
100
AcDbBlockTableRecord
  2
_OPEN30
  0
BLOCK_RECORD
  5
64
330
1
100
AcDbSymbolTableRecord
100
AcDbBlockTableRecord
  2
GENAXEH
  0
BLOCK_RECORD
  5
C75
330
1
100
AcDbSymbolTableRecord
100
AcDbBlockTableRecord
  2
*D5
  0
BLOCK_RECORD
  5
194D
330
1
100
AcDbSymbolTableRecord
100
AcDbBlockTableRecord
  2
*D6
  0
BLOCK_RECORD
  5
195C
330
1
100
AcDbSymbolTableRecord
100
AcDbBlockTableRecord
  2
*D7
  0
BLOCK_RECORD
  5
2C06
330
1
100
AcDbSymbolTableRecord
100
AcDbBlockTableRecord
  2
*D8
  0
BLOCK_RECORD
  5
2F2D
330
1
100
AcDbSymbolTableRecord
100
AcDbBlockTableRecord
  2
*D9
  0
ENDTAB
  0
ENDSEC
  0
SECTION
  2
BLOCKS
  0
BLOCK
  5
20
330
1F
100
AcDbEntity
  8
0
100
AcDbBlockBegin
  2
*MODEL_SPACE
 70
     0
 10
0.0
 20
0.0
 30
0.0
  3
*MODEL_SPACE
  1

  0
ENDBLK
  5
21
330
1F
100
AcDbEntity
  8
0
100
AcDbBlockEnd
  0
BLOCK
  5
103
330
101
100
AcDbEntity
 67
     1
  8
0
100
AcDbBlockBegin
  2
*PAPER_SPACE
 70
     0
 10
0.0
 20
0.0
 30
0.0
  3
*PAPER_SPACE
  1

  0
ENDBLK
  5
104
330
101
100
AcDbEntity
 67
     1
  8
0
100
AcDbBlockEnd
  0
BLOCK
  5
5D
330
59
100
AcDbEntity
  8
0
100
AcDbBlockBegin
  2
_OPEN30
 70
     0
 10
0.0
 20
0.0
 30
0.0
  3
_OPEN30
  1

  0
LINE
  5
5A
330
59
100
AcDbEntity
  8
0
 62
     0
100
AcDbLine
 10
-1.0
 20
0.26794919
 30
0.0
 11
0.0
 21
0.0
 31
0.0
  0
LINE
  5
5B
330
59
100
AcDbEntity
  8
0
 62
     0
100
AcDbLine
 10
0.0
 20
0.0
 30
0.0
 11
-1.0
 21
-0.26794919
 31
0.0
  0
LINE
  5
5C
330
59
100
AcDbEntity
  8
0
 62
     0
100
AcDbLine
 10
0.0
 20
0.0
 30
0.0
 11
-1.0
 21
0.0
 31
0.0
  0
ENDBLK
  5
5E
330
59
100
AcDbEntity
  8
0
100
AcDbBlockEnd
  0
BLOCK
  5
66
330
64
100
AcDbEntity
  8
0
100
AcDbBlockBegin
  2
GENAXEH
 70
     0
 10
0.0
 20
0.0
 30
0.0
  3
GENAXEH
  1

  0
LINE
  5
65
330
64
100
AcDbEntity
  8
0
100
AcDbLine
 10
-1.0
 20
0.0
 30
0.0
 11
1.0
 21
0.0
 31
0.0
  0
ENDBLK
  5
67
330
64
100
AcDbEntity
  8
0
100
AcDbBlockEnd
  0
BLOCK
  5
C7F
330
C75
100
AcDbEntity
  8
0
100
AcDbBlockBegin
  2
*D5
 70
     1
 10
0.0
 20
0.0
 30
0.0
  3
*D5
  1

  0
LINE
  5
30A6
330
C75
100
AcDbEntity
  8
AM_5
100
AcDbLine
 10
-180.0004299794749
 20
-9.12500000000001
 30
0.0
 11
-180.0004299794749
 21
-37.00000000000002
 31
0.0
  0
LINE
  5
30A7
330
C75
100
AcDbEntity
  8
AM_5
100
AcDbLine
 10
-0.0000000000000587
 20
-1.000000000000003
 30
0.0
 11
-0.0000000000000609
 21
-37.00000000000001
 31
0.0
  0
LINE
  5
30A8
330
C75
100
AcDbEntity
  8
AM_5
100
AcDbLine
 10
-177.5004299794749
 20
-36.00000000000002
 30
0.0
 11
-2.50000000000006
 21
-36.00000000000002
 31
0.0
  0
INSERT
  5
30A9
330
C75
100
AcDbEntity
  8
AM_5
100
AcDbBlockReference
  2
_OPEN30
 10
-180.0004299794749
 20
-36.00000000000002
 30
0.0
 41
2.5
 42
2.5
 43
2.5
 50
180.0
  0
INSERT
  5
30AA
330
C75
100
AcDbEntity
  8
AM_5
100
AcDbBlockReference
  2
_OPEN30
 10
-0.0000000000000608
 20
-36.00000000000002
 30
0.0
 41
2.5
 42
2.5
 43
2.5
  0
MTEXT
  5
30AB
330
C75
100
AcDbEntity
  8
AM_5
 62
     2
100
AcDbMText
 10
-90.00021498973749
 20
-32.90000000000002
 30
0.0
 40
3.2
 41
0.0
 71
     5
 72
     1
  1
180
  7
ASAMI
1001
ACAD
1000
MTEXTBEGIN
1070
    73
1070
     1
1070
    44
1040
1.0
1070
    74
1070
     0
1000
MTEXTEND
  0
POINT
  5
30AC
330
C75
100
AcDbEntity
  8
DEFPOINTS
 62
     0
100
AcDbPoint
 10
-180.0004299794749
 20
-8.12500000000001
 30
0.0
  0
POINT
  5
30AD
330
C75
100
AcDbEntity
  8
DEFPOINTS
 62
     0
100
AcDbPoint
 10
-0.0000000000000586
 20
-0.0000000000000036
 30
0.0
  0
POINT
  5
30AE
330
C75
100
AcDbEntity
  8
DEFPOINTS
 62
     0
100
AcDbPoint
 10
-0.0000000000000608
 20
-36.00000000000002
 30
0.0
  0
ENDBLK
  5
C80
330
C75
100
AcDbEntity
  8
0
100
AcDbBlockEnd
  0
BLOCK
  5
1959
330
194D
100
AcDbEntity
  8
0
100
AcDbBlockBegin
  2
*D6
 70
     1
 10
0.0
 20
0.0
 30
0.0
  3
*D6
  1

  0
LINE
  5
309D
330
194D
100
AcDbEntity
  8
AM_5
100
AcDbLine
 10
-8.999987511390601
 20
-9.984195844398144
 30
0.0
 11
14.99999999999993
 21
-9.984195844398151
 31
0.0
  0
LINE
  5
309E
330
194D
100
AcDbEntity
  8
AM_5
100
AcDbLine
 10
-8.9999875113906
 20
10.01580415553185
 30
0.0
 11
14.99999999999994
 21
10.01580415553184
 31
0.0
  0
LINE
  5
309F
330
194D
100
AcDbEntity
  8
AM_5
100
AcDbLine
 10
13.99999999999993
 20
-7.48419584439815
 30
0.0
 11
13.99999999999994
 21
7.515804155531843
 31
0.0
  0
INSERT
  5
30A0
330
194D
100
AcDbEntity
  8
AM_5
100
AcDbBlockReference
  2
_OPEN30
 10
13.99999999999993
 20
-9.984195844398151
 30
0.0
 41
2.5
 42
2.5
 43
2.5
 50
270.0
  0
INSERT
  5
30A1
330
194D
100
AcDbEntity
  8
AM_5
100
AcDbBlockReference
  2
_OPEN30
 10
13.99999999999994
 20
10.01580415553184
 30
0.0
 41
2.5
 42
2.5
 43
2.5
 50
90.0
  0
MTEXT
  5
30A2
330
194D
100
AcDbEntity
  8
AM_5
 62
     2
100
AcDbMText
 10
10.89999999999993
 20
0.0158041555668489
 30
0.0
 40
3.2
 41
0.0
 71
     5
 72
     1
  1
%%c20
  7
ASAMI
 11
0.0000000000000001
 21
1.0
 31
0.0
1001
ACAD
1000
MTEXTBEGIN
1070
    73
1070
     1
1070
    44
1040
1.0
1070
    74
1070
     0
1000
MTEXTEND
  0
POINT
  5
30A3
330
194D
100
AcDbEntity
  8
DEFPOINTS
 62
     0
100
AcDbPoint
 10
-9.999987511390601
 20
-9.984195844398144
 30
0.0
  0
POINT
  5
30A4
330
194D
100
AcDbEntity
  8
DEFPOINTS
 62
     0
100
AcDbPoint
 10
-9.9999875113906
 20
10.01580415553185
 30
0.0
  0
POINT
  5
30A5
330
194D
100
AcDbEntity
  8
DEFPOINTS
 62
     0
100
AcDbPoint
 10
13.99999999999994
 20
10.01580415553184
 30
0.0
  0
ENDBLK
  5
195A
330
194D
100
AcDbEntity
  8
0
100
AcDbBlockEnd
  0
BLOCK
  5
1968
330
195C
100
AcDbEntity
  8
0
100
AcDbBlockBegin
  2
*D7
 70
     1
 10
0.0
 20
0.0
 30
0.0
  3
*D7
  1

  0
LINE
  5
30AF
330
195C
100
AcDbEntity
  8
AM_5
100
AcDbLine
 10
-29.99959255922385
 20
-10.98419584439815
 30
0.0
 11
-29.99959255922385
 21
-25.00000000000072
 31
0.0
  0
LINE
  5
30B0
330
195C
100
AcDbEntity
  8
AM_5
100
AcDbLine
 10
-0.0000000000000587
 20
-1.000000000000003
 30
0.0
 11
-0.0000000000000602
 21
-25.00000000000072
 31
0.0
  0
LINE
  5
30B1
330
195C
100
AcDbEntity
  8
AM_5
100
AcDbLine
 10
-27.49959255922385
 20
-24.00000000000072
 30
0.0
 11
-2.500000000000059
 21
-24.00000000000072
 31
0.0
  0
INSERT
  5
30B2
330
195C
100
AcDbEntity
  8
AM_5
100
AcDbBlockReference
  2
_OPEN30
 10
-29.99959255922385
 20
-24.00000000000072
 30
0.0
 41
2.5
 42
2.5
 43
2.5
 50
180.0
  0
INSERT
  5
30B3
330
195C
100
AcDbEntity
  8
AM_5
100
AcDbBlockReference
  2
_OPEN30
 10
-0.0000000000000601
 20
-24.00000000000072
 30
0.0
 41
2.5
 42
2.5
 43
2.5
  0
MTEXT
  5
30B4
330
195C
100
AcDbEntity
  8
AM_5
 62
     2
100
AcDbMText
 10
-14.99979627961195
 20
-20.90000000000072
 30
0.0
 40
3.2
 41
0.0
 71
     5
 72
     1
  1
30
  7
ASAMI
1001
ACAD
1000
MTEXTBEGIN
1070
    73
1070
     1
1070
    44
1040
1.0
1070
    74
1070
     0
1000
MTEXTEND
  0
POINT
  5
30B5
330
195C
100
AcDbEntity
  8
DEFPOINTS
 62
     0
100
AcDbPoint
 10
-29.99959255922385
 20
-9.984195844398151
 30
0.0
  0
POINT
  5
30B6
330
195C
100
AcDbEntity
  8
DEFPOINTS
 62
     0
100
AcDbPoint
 10
-0.0000000000000586
 20
-0.0000000000000036
 30
0.0
  0
POINT
  5
30B7
330
195C
100
AcDbEntity
  8
DEFPOINTS
 62
     0
100
AcDbPoint
 10
-0.0000000000000601
 20
-24.00000000000072
 30
0.0
  0
ENDBLK
  5
1969
330
195C
100
AcDbEntity
  8
0
100
AcDbBlockEnd
  0
BLOCK
  5
2C0D
330
2C06
100
AcDbEntity
  8
0
100
AcDbBlockBegin
  2
*D8
 70
     1
 10
0.0
 20
0.0
 30
0.0
  3
*D8
  1

  0
LINE
  5
2FBB
330
2C06
100
AcDbEntity
  8
AM_5
100
AcDbLine
 10
-1.336447170190461
 20
-9.02450205762484
 30
0.0
 11
17.92280521135791
 21
-29.06447357481797
 31
0.0
  0
INSERT
  5
2FBC
330
2C06
100
AcDbEntity
  8
AM_5
100
AcDbBlockReference
  2
_OPEN30
 10
-3.068753829725022
 20
-7.221972269429315
 30
0.0
 41
2.5
 42
2.5
 43
2.5
 50
133.8619106485944
  0
MTEXT
  5
2FBD
330
2C06
100
AcDbEntity
  8
AM_5
 62
     2
100
AcDbMText
 10
14.84223542774859
 20
-21.38522190978942
 30
0.0
 40
3.2
 41
0.0
 71
     5
 72
     1
  1
R10.0
  7
ASAMI
 11
0.6929226638138245
 21
-0.7210119152782108
 31
0.0
1001
ACAD
1000
MTEXTBEGIN
1070
    73
1070
     1
1070
    44
1040
1.0
1070
    74
1070
     0
1000
MTEXTEND
  0
POINT
  5
2FBE
330
2C06
100
AcDbEntity
  8
DEFPOINTS
 62
     0
100
AcDbPoint
 10
-3.068753829725022
 20
-7.221972269429315
 30
0.0
  0
POINT
  5
2FBF
330
2C06
100
AcDbEntity
  8
DEFPOINTS
 62
     0
100
AcDbPoint
 10
-9.99798046783901
 20
-0.0118531166724454
 30
0.0
  0
ENDBLK
  5
2C0E
330
2C06
100
AcDbEntity
  8
0
100
AcDbBlockEnd
  0
BLOCK
  5
2F37
330
2F2D
100
AcDbEntity
  8
0
100
AcDbBlockBegin
  2
*D9
 70
     1
 10
0.0
 20
0.0
 30
0.0
  3
*D9
  1

  0
LINE
  5
30B8
330
2F2D
100
AcDbEntity
  8
AM_5
100
AcDbLine
 10
-179.7504299794749
 20
-10.00000000000001
 30
0.0
 11
-195.0004299794749
 21
-10.0
 31
0.0
  0
LINE
  5
30B9
330
2F2D
100
AcDbEntity
  8
AM_5
100
AcDbLine
 10
-179.7504299794749
 20
10.0
 30
0.0
 11
-195.0004299794749
 21
10.0
 31
0.0
  0
LINE
  5
30BA
330
2F2D
100
AcDbEntity
  8
AM_5
100
AcDbLine
 10
-194.0004299794749
 20
-7.500000000000004
 30
0.0
 11
-194.0004299794749
 21
7.500000000000006
 31
0.0
  0
INSERT
  5
30BB
330
2F2D
100
AcDbEntity
  8
AM_5
100
AcDbBlockReference
  2
_OPEN30
 10
-194.0004299794749
 20
-10.0
 30
0.0
 41
2.5
 42
2.5
 43
2.5
 50
270.0
  0
INSERT
  5
30BC
330
2F2D
100
AcDbEntity
  8
AM_5
100
AcDbBlockReference
  2
_OPEN30
 10
-194.0004299794749
 20
10.0
 30
0.0
 41
2.5
 42
2.5
 43
2.5
 50
90.0
  0
MTEXT
  5
30BD
330
2F2D
100
AcDbEntity
  8
AM_5
 62
     2
100
AcDbMText
 10
-197.1004299794749
 20
-0.0000000000000494
 30
0.0
 40
3.2
 41
0.0
 71
     5
 72
     1
  1
%%c20
  7
ASAMI
 11
0.0000000000000001
 21
1.0
 31
0.0
1001
ACAD
1000
MTEXTBEGIN
1070
    73
1070
     1
1070
    44
1040
1.0
1070
    74
1070
     0
1000
MTEXTEND
  0
POINT
  5
30BE
330
2F2D
100
AcDbEntity
  8
DEFPOINTS
 62
     0
100
AcDbPoint
 10
-178.7504299794749
 20
-10.00000000000001
 30
0.0
  0
POINT
  5
30BF
330
2F2D
100
AcDbEntity
  8
DEFPOINTS
 62
     0
100
AcDbPoint
 10
-178.7504299794749
 20
10.0
 30
0.0
  0
POINT
  5
30C0
330
2F2D
100
AcDbEntity
  8
DEFPOINTS
 62
     0
100
AcDbPoint
 10
-194.0004299794749
 20
10.0
 30
0.0
  0
ENDBLK
  5
2F38
330
2F2D
100
AcDbEntity
  8
0
100
AcDbBlockEnd
  0
ENDSEC
  0
SECTION
  2
ENTITIES
  0
DIMENSION
  5
C4F
330
1F
100
AcDbEntity
  8
AM_5
100
AcDbDimension
  2
*D5
 10
-0.0000000000000608
 20
-36.00000000000002
 30
0.0
 11
-90.00021498973749
 21
-32.90000000000002
 31
0.0
 70
    32
  1
<>
  3
AM_JIS
100
AcDbAlignedDimension
 13
-180.0004299794749
 23
-8.12500000000001
 33
0.0
 14
-0.0000000000000586
 24
-0.0000000000000036
 34
0.0
 50
0.0000000000002036
100
AcDbRotatedDimension
1001
GENIUS_GENDTOL_13
1000

1000
H7
1000

1040
0.0
  0
LINE
  5
C50
330
1F
100
AcDbEntity
  8
AM_7
100
AcDbLine
 10
-185.9626130175907
 20
-0.0000000000000036
 30
0.0
 11
3.322894743211486
 21
-0.0000000000000036
 31
0.0
1001
GENIUS_GENODEF_13
1002
{
1000
HIER
1070
     0
1002
}
1002
{
1000
MANEDIT
1070
     0
1002
}
1002
{
1000
NOSEL
1070
     0
1002
}
1002
{
1000
BEHIND
1070
     0
1002
}
1002
{
1000
REACTOR
1002
}
1001
GENIUS_GENOBJ-N-CEN_13
1002
{
1000
OWNER
1000
GEN
1002
}
  0
TEXT
  5
C58
330
1F
100
AcDbEntity
  8
AM_6
100
AcDbText
 10
-111.071643561166
 20
-58.50000000000009
 30
0.0
 40
5.0
  1
SNB2200ZX
 50
0.0000000000002036
 72
     4
 11
-90.00021498973749
 21
-56.00000000000001
 31
0.0
100
AcDbText
  0
DIMENSION
  5
194C
330
1F
100
AcDbEntity
  8
AM_5
100
AcDbDimension
  2
*D6
 10
13.99999999999994
 20
10.01580415553184
 30
0.0
 11
10.89999999999993
 21
0.0158041555668489
 31
0.0
 70
    32
  1
%%c<>
  3
AM_JIS
100
AcDbAlignedDimension
 13
-9.999987511390601
 23
-9.984195844398144
 33
0.0
 14
-9.9999875113906
 24
10.01580415553185
 34
0.0
 50
90.0
100
AcDbRotatedDimension
1001
GENIUS_GENDTOL_13
1000

1000
H7
1000

1040
0.0
  0
DIMENSION
  5
195B
330
1F
100
AcDbEntity
  8
AM_5
100
AcDbDimension
  2
*D7
 10
-0.0000000000000601
 20
-24.00000000000072
 30
0.0
 11
-14.99979627961195
 21
-20.90000000000072
 31
0.0
 70
    32
  1
<>
  3
AM_JIS
100
AcDbAlignedDimension
 13
-29.99959255922385
 23
-9.984195844398151
 33
0.0
 14
-0.0000000000000586
 24
-0.0000000000000036
 34
0.0
 50
359.9999999999988
100
AcDbRotatedDimension
1001
GENIUS_GENDTOL_13
1000

1000
H7
1000

1040
0.0
  0
ARC
  5
1C9A
330
1F
100
AcDbEntity
  8
AM_5
100
AcDbCircle
 10
-9.9999875113906
 20
0.0158041555668529
 30
0.0
 40
9.999999999964998
100
AcDbArc
 50
270.0
 51
90.0
  0
LINE
  5
1CA1
330
1F
100
AcDbEntity
  8
AM_11
 48
0.5
100
AcDbLine
 10
-29.99959255922384
 20
-9.984195844398152
 30
0.0
 11
-9.99998787639304
 21
-9.984195844398152
 31
0.0
1001
GENIUS_GENODEF_13
1002
{
1000
HIER
1070
     0
1002
}
1002
{
1000
MANEDIT
1070
     0
1002
}
1002
{
1000
NOSEL
1070
     0
1002
}
1002
{
1000
BEHIND
1070
     0
1002
}
1002
{
1000
REACTOR
1002
}
1001
GENIUS_GENOBJ-N-CEN_13
1002
{
1000
OWNER
1000
GEN
1002
}
  0
LINE
  5
1CB1
330
1F
100
AcDbEntity
  8
AM_11
 48
0.5
100
AcDbLine
 10
-29.99959255922384
 20
10.01580415560184
 30
0.0
 11
-9.9999875113906
 21
10.01580415560184
 31
0.0
1001
GENIUS_GENODEF_13
1002
{
1000
HIER
1070
     0
1002
}
1002
{
1000
MANEDIT
1070
     0
1002
}
1002
{
1000
NOSEL
1070
     0
1002
}
1002
{
1000
BEHIND
1070
     0
1002
}
1002
{
1000
REACTOR
1002
}
1001
GENIUS_GENOBJ-N-CEN_13
1002
{
1000
OWNER
1000
GEN
1002
}
  0
LINE
  5
1E67
330
1F
100
AcDbEntity
  8
AM_0
100
AcDbLine
 10
-180.0004299794749
 20
-8.12500000000001
 30
0.0
 11
-178.7504299794749
 21
-10.00000000000001
 31
0.0
1001
GENIUS_GENFIL_13
1070
     0
1040
0.5
1040
0.5
1040
0.4999999999999716
1040
45.00000000000036
1002
{
1002
}
  0
DIMENSION
  5
2C05
330
1F
100
AcDbEntity
  8
AM_5
100
AcDbDimension
  2
*D8
 10
-9.99798046783901
 20
-0.0118531166724454
 30
0.0
 11
12.60709849038613
 21
-23.53328216761227
 31
0.0
 70
   164
  1
<>
  3
AM_JIS$4
100
AcDbRadialDimension
 15
-3.068753829725022
 25
-7.221972269429315
 35
0.0
 40
0.0
1001
GENIUS_GENDTOL_13
1000

1000
h7
1000

1040
0.0
1001
ACAD
1000
DSTYLE
1002
{
1070
    78
1070
     0
1070
   271
1070
     1
1070
   288
1070
     1
1070
   289
1070
     0
1070
    74
1070
     0
1002
}
  0
LINE
  5
2CE5
330
1F
100
AcDbEntity
  8
AM_0
100
AcDbLine
 10
-0.3942750097922587
 20
-0.518848366144157
 30
0.0
 11
-1.383417866931592
 21
-0.6950601636882272
 31
0.0
  0
LINE
  5
2CE6
330
1F
100
AcDbEntity
  8
AM_0
100
AcDbLine
 10
0.0000107044919275
 20
0.0158041555668529
 30
0.0
 11
-0.3942750097922587
 21
-0.518848366144157
 31
0.0
  0
SPLINE
  5
2CE7
330
1F
100
AcDbEntity
  8
AM_0
100
AcDbSpline
210
0.0
220
0.0
230
1.0
 70
     8
 71
     3
 72
     8
 73
     4
 74
     0
 42
0.0000000001
 43
0.0000000001
 40
3.790408995970492
 40
3.790408995970492
 40
3.790408995970492
 40
3.790408995970492
 40
5.485524909568358
 40
5.485524909568358
 40
5.485524909568358
 40
5.485524909568358
 10
-8.571417866883628
 20
9.07888012041436
 30
0.0
 10
-9.499472624193845
 20
8.812886249051565
 30
0.0
 10
-10.41981830197677
 20
8.496364506976483
 30
0.0
 10
-11.33367623547675
 20
8.137319931513466
 30
0.0
  0
SPLINE
  5
2CE8
330
1F
100
AcDbEntity
  8
AM_0
100
AcDbSpline
210
0.0
220
0.0
230
1.0
 70
     8
 71
     3
 72
     8
 73
     4
 74
     0
 42
0.0000000001
 43
0.0000000001
 40
0.0
 40
0.0
 40
0.0
 40
0.0
 40
2.400427856148001
 40
2.400427856148001
 40
2.400427856148001
 40
2.400427856148001
 10
-8.571417866882836
 20
9.07888012041436
 30
0.0
 10
-7.881016736878436
 20
8.016038165855817
 30
0.0
 10
-9.893435760692247
 20
8.080492119746207
 30
0.0
 10
-11.90585478450605
 20
8.144946073636596
 30
0.0
  0
ELLIPSE
  5
2CE9
330
1F
100
AcDbEntity
  8
AM_0
100
AcDbEllipse
 10
-8.533721598700211
 20
-0.9210231715511286
 30
0.0
 11
0.0000000000000018
 21
9.999999999965007
 31
0.0
210
0.0
220
0.0
230
1.0
 40
0.8571428571428571
 41
-1.476976016331602
 42
0.0043979121318491
  0
SPLINE
  5
2CEA
330
1F
100
AcDbEntity
  8
AM_0
100
AcDbSpline
210
0.0
220
0.0
230
1.0
 70
     8
 71
     3
 72
     8
 73
     4
 74
     0
 42
0.0000000001
 43
0.0000000001
 40
0.0
 40
0.0
 40
0.0
 40
0.0
 40
1.293721832890842
 40
1.293721832890842
 40
1.293721832890842
 40
1.293721832890842
 10
-47.25461257330715
 20
-10.00000000000001
 30
0.0
 10
-42.28394576163781
 20
-10.00000025279997
 30
0.0
 10
-40.50120384423829
 20
-9.846828644407199
 30
0.0
 10
-38.74255530968193
 20
-9.567294538253463
 30
0.0
  0
SPLINE
  5
2CEB
330
1F
100
AcDbEntity
  8
AM_0
100
AcDbSpline
210
0.0
220
0.0
230
1.0
 70
     8
 71
     3
 72
     8
 73
     4
 74
     0
 42
0.0000000001
 43
0.0000000001
 40
0.3950956770951979
 40
0.3950956770951979
 40
0.3950956770951979
 40
0.3950956770951979
 40
1.389839699216864
 40
1.389839699216864
 40
1.389839699216864
 40
1.389839699216864
 10
-38.7425553096819
 20
-9.567294538253559
 30
0.0
 10
-37.36181250411379
 20
-9.49941353713676
 30
0.0
 10
-35.99632856211736
 20
-9.348437179377185
 30
0.0
 10
-34.64392345504902
 20
-9.126237270288584
 30
0.0
  0
SPLINE
  5
2CEC
330
1F
100
AcDbEntity
  8
AM_0
100
AcDbSpline
210
0.0
220
0.0
230
1.0
 70
     8
 71
     3
 72
     8
 73
     4
 74
     0
 42
0.0000000001
 43
0.0000000001
 40
0.3443266156513821
 40
0.3443266156513821
 40
0.3443266156513821
 40
0.3443266156513821
 40
1.748655602797241
 40
1.748655602797241
 40
1.748655602797241
 40
1.748655602797241
 10
-34.64392345593267
 20
-9.126237270324597
 30
0.0
 10
-32.69121958643989
 20
-9.045554787494062
 30
0.0
 10
-30.76668803152303
 20
-8.804304220419883
 30
0.0
 10
-25.17159881251994
 20
-7.884130765988514
 30
0.0
  0
SPLINE
  5
2CED
330
1F
100
AcDbEntity
  8
AM_0
100
AcDbSpline
210
0.0
220
0.0
230
1.0
 70
     8
 71
     3
 72
     8
 73
     4
 74
     0
 42
0.0000000001
 43
0.0000000001
 40
0.0
 40
0.0
 40
0.0
 40
0.0
 40
2.238610194515266
 40
2.238610194515266
 40
2.238610194515266
 40
2.238610194515266
 10
-24.95559643687152
 20
-7.808741160291495
 30
0.0
 10
-21.82026793369735
 20
-7.808741160291495
 30
0.0
 10
-18.74175056803222
 20
-7.432529197418807
 30
0.0
 10
-15.09681268832491
 20
-6.401178523674616
 30
0.0
  0
LINE
  5
2CEE
330
1F
100
AcDbEntity
  8
AM_0
100
AcDbLine
 10
-22.35073520804857
 20
-7.723842196796399
 30
0.0
 11
-27.99246241699131
 21
-8.044419335180629
 31
0.0
  0
LINE
  5
2CEF
330
1F
100
AcDbEntity
  8
AM_0
100
AcDbLine
 10
-36.92802292092808
 20
8.478447933794564
 30
0.0
 11
-11.90585478450606
 21
8.144946073636601
 31
0.0
  0
ELLIPSE
  5
2CF0
330
1F
100
AcDbEntity
  8
AM_0
100
AcDbEllipse
 10
-17.92497077259688
 20
-20.31430644570679
 30
0.0
 11
0.0000000000000159
 21
29.22528988025295
 31
0.0
210
0.0
220
0.0
230
1.0
 40
0.8571428571428571
 41
-0.7969676180332665
 42
-0.2298599996611264
  0
SPLINE
  5
2CF1
330
1F
100
AcDbEntity
  8
AM_0
100
AcDbSpline
210
0.0
220
0.0
230
1.0
 70
     8
 71
     3
 72
     8
 73
     4
 74
     0
 42
0.0000000001
 43
0.0000000001
 40
0.0
 40
0.0
 40
0.0
 40
0.0
 40
4.664065259525107
 40
4.664065259525107
 40
4.664065259525107
 40
4.664065259525107
 10
-7.302484861925938
 20
2.525063816692602
 30
0.0
 10
-9.315379463809135
 20
3.620130012595764
 30
0.0
 10
-14.104693986471
 20
8.509935050272328
 30
0.0
 10
-11.90585478450683
 20
8.144946073636596
 30
0.0
  0
LINE
  5
2CF2
330
1F
100
AcDbEntity
  8
AM_0
100
AcDbLine
 10
-7.208400132699559
 20
2.473879315313679
 30
0.0
 11
-1.383417866931592
 21
-0.6950601636882272
 31
0.0
  0
ELLIPSE
  5
2CF3
330
1F
100
AcDbEntity
  8
AM_0
100
AcDbEllipse
 10
-7.339886751250233
 20
2.859050767296947
 30
0.0
 11
0.0000000000000163
 21
7.805336349920849
 31
0.0
210
0.0
220
0.0
230
1.0
 40
0.8571428571428569
 41
3.292905900158553
 42
4.239630733081948
  0
ELLIPSE
  5
2CF4
330
1F
100
AcDbEntity
  8
AM_0
100
AcDbEllipse
 10
-7.267592451677897
 20
-9.166801537233869
 30
0.0
 11
0.0000000000000133
 21
1.525818721662511
 31
0.0
210
0.0
220
0.0
230
1.0
 40
0.8571428571428556
 41
0.6393902535358365
 42
1.492377887395503
  0
ELLIPSE
  5
2CF5
330
1F
100
AcDbEntity
  8
AM_0
100
AcDbEllipse
 10
-8.442188525895486
 20
1.692841552892728
 30
0.0
 11
0.0000000000000108
 21
9.64620433253178
 31
0.0
210
0.0
220
0.0
230
1.0
 40
0.8571428571428571
 41
3.189287156089243
 42
4.481050195177781
  0
ELLIPSE
  5
2CF6
330
1F
100
AcDbEntity
  8
AM_0
100
AcDbEllipse
 10
-8.533721598700211
 20
0.9526314826843371
 30
0.0
 11
0.0000000000000018
 21
9.999999999965007
 31
0.0
210
0.0
220
0.0
230
1.0
 40
0.8571428571428571
 41
3.137194741457943
 42
4.618568669921396
  0
SPLINE
  5
2CF7
330
1F
100
AcDbEntity
  8
AM_0
100
AcDbSpline
210
0.0
220
0.0
230
1.0
 70
     8
 71
     3
 72
     8
 73
     4
 74
     0
 42
0.0000000001
 43
0.0000000001
 40
0.0
 40
0.0
 40
0.0
 40
0.0
 40
1.299592567846441
 40
1.299592567846441
 40
1.299592567846441
 40
1.299592567846441
 10
-8.0479915165473
 20
-7.942393432525096
 30
0.0
 10
-8.0479915165473
 20
-7.220397561499297
 30
0.0
 10
-7.807734868389751
 20
-6.535303809562726
 30
0.0
 10
-7.567478220232201
 20
-5.850210057626159
 30
0.0
  0
SPLINE
  5
2CF8
330
1F
100
AcDbEntity
  8
AM_0
100
AcDbSpline
210
0.0
220
0.0
230
1.0
 70
     8
 71
     3
 72
     8
 73
     4
 74
     0
 42
0.0000000001
 43
0.0000000001
 40
0.0
 40
0.0
 40
0.0
 40
0.0
 40
1.050571974683377
 40
1.050571974683377
 40
1.050571974683377
 40
1.050571974683377
 10
-6.331416085751497
 20
-4.85710162413088
 30
0.0
 10
-6.331416085751497
 20
-5.440752721177201
 30
0.0
 10
-7.067205851335355
 20
-5.850210057626159
 30
0.0
 10
-7.567478220232201
 20
-5.850210057626159
 30
0.0
  0
ELLIPSE
  5
2CF9
330
1F
100
AcDbEntity
  8
AM_0
100
AcDbEllipse
 10
-0.984209420906612
 20
-0.2495502203288015
 30
0.0
 11
0.0000000000000037
 21
7.755466556822834
 31
0.0
210
0.0
220
0.0
230
1.0
 40
0.857142857142858
 41
1.211983871441737
 42
2.20694725810919
  0
SPLINE
  5
2CFA
330
1F
100
AcDbEntity
  8
AM_0
100
AcDbSpline
210
0.0
220
0.0
230
1.0
 70
     8
 71
     3
 72
     8
 73
     4
 74
     0
 42
0.0000000001
 43
0.0000000001
 40
7.981245920543044
 40
7.981245920543044
 40
7.981245920543044
 40
7.981245920543044
 40
14.43905044399483
 40
14.43905044399483
 40
14.43905044399483
 40
14.43905044399483
 10
-7.317556723530865
 20
-5.850210057626159
 30
0.0
 10
-11.46850542495887
 20
-3.839675540071385
 30
0.0
 10
-15.50679335841616
 20
-1.40150938455807
 30
0.0
 10
-19.58446286055015
 20
0.8343692912848187
 30
0.0
  0
SPLINE
  5
2CFB
330
1F
100
AcDbEntity
  8
AM_0
100
AcDbSpline
210
0.0
220
0.0
230
1.0
 70
     8
 71
     3
 72
     8
 73
     4
 74
     0
 42
0.0000000001
 43
0.0000000001
 40
3.7904089959839
 40
3.7904089959839
 40
3.7904089959839
 40
3.7904089959839
 40
14.48999654934396
 40
14.48999654934396
 40
14.48999654934396
 40
14.48999654934396
 10
-8.563827139542258
 20
-8.969779651311071
 30
0.0
 10
-16.00402322433254
 20
-6.664816608787803
 30
0.0
 10
-21.8106353847412
 20
-2.979510202720035
 30
0.0
 10
-28.12151306465835
 20
1.648094699716493
 30
0.0
  0
LINE
  5
2CFC
330
1F
100
AcDbEntity
  8
AM_11
 48
0.5
100
AcDbLine
 10
-29.99959255922385
 20
10.01580415560184
 30
0.0
 11
-29.99959255922385
 21
-9.984195844398152
 31
0.0
  0
SPLINE
  5
2CFD
330
1F
100
AcDbEntity
  8
AM_0
100
AcDbSpline
210
0.0
220
0.0
230
1.0
 70
     8
 71
     3
 72
     8
 73
     4
 74
     0
 42
0.0000000001
 43
0.0000000001
 40
4.071346735624547
 40
4.071346735624547
 40
4.071346735624547
 40
4.071346735624547
 40
6.91280490763674
 40
6.91280490763674
 40
6.91280490763674
 40
6.91280490763674
 10
-47.25461257330719
 20
-10.00000000000001
 30
0.0
 10
-53.08940336393302
 20
-10.00000000000001
 30
0.0
 10
-56.7013877510586
 20
-9.198299798361887
 30
0.0
 10
-57.3429230453171
 20
-5.872056188451082
 30
0.0
  0
ELLIPSE
  5
2CFE
330
1F
100
AcDbEntity
  8
AM_0
100
AcDbEllipse
 10
-46.7567771958934
 20
-16.01673011911826
 30
0.0
 11
-15.17265765727494
 21
0.0000000000000515
 31
0.0
210
0.0
220
0.0
230
1.0
 40
0.9333273478091303
 41
-1.5379790867995
 42
-0.798597612771535
  0
SPLINE
  5
2CFF
330
1F
100
AcDbEntity
  8
AM_0
100
AcDbSpline
210
0.0
220
0.0
230
1.0
 70
     8
 71
     3
 72
     8
 73
     4
 74
     0
 42
0.0000000001
 43
0.0000000001
 40
0.0
 40
0.0
 40
0.0
 40
0.0
 40
17.64836150091755
 40
17.64836150091755
 40
17.64836150091755
 40
17.64836150091755
 10
-27.99246241699131
 20
-8.044419335180624
 30
0.0
 10
-38.49110748112427
 20
-7.702242149621836
 30
0.0
 10
-47.63300740719064
 20
-1.883024975784378
 30
0.0
 10
-56.77490733325697
 20
3.936192198053079
 30
0.0
  0
ELLIPSE
  5
2D00
330
1F
100
AcDbEntity
  8
AM_0
100
AcDbEllipse
 10
-47.11888155426751
 20
0.2722791426065072
 30
0.0
 11
10.42350865909665
 21
0.0000000000000377
 31
0.0
210
0.0
220
0.0
230
1.0
 40
0.9333273478091308
 41
1.55777433395239
 42
2.755453484347745
  0
SPLINE
  5
2D01
330
1F
100
AcDbEntity
  8
AM_0
100
AcDbSpline
210
0.0
220
0.0
230
1.0
 70
     8
 71
     3
 72
     8
 73
     4
 74
     0
 42
0.0000000001
 43
0.0000000001
 40
0.0
 40
0.0
 40
0.0
 40
0.0
 40
11.51199025993078
 40
11.51199025993078
 40
11.51199025993078
 40
11.51199025993078
 10
-43.28345699953871
 20
9.379142998199611
 30
0.0
 10
-36.45711342330817
 20
8.821734075084012
 30
0.0
 10
-30.47144890774176
 20
5.21706957705283
 30
0.0
 10
-24.47906892759304
 20
1.347234196694275
 30
0.0
  0
SPLINE
  5
2D02
330
1F
100
AcDbEntity
  8
AM_0
100
AcDbSpline
210
0.0
220
0.0
230
1.0
 70
     8
 71
     3
 72
     8
 73
     4
 74
     0
 42
0.0000000001
 43
0.0000000001
 40
0.0
 40
0.0
 40
0.0
 40
0.0
 40
11.69088918922736
 40
11.69088918922736
 40
11.69088918922736
 40
11.69088918922736
 10
-46.98315053522764
 20
9.999999999999985
 30
0.0
 10
-40.05072403769296
 20
9.433928816295711
 30
0.0
 10
-34.08611855117566
 20
5.541011758006102
 30
0.0
 10
-28.12151306465835
 20
1.648094699716493
 30
0.0
  0
SPLINE
  5
2D03
330
1F
100
AcDbEntity
  8
AM_0
100
AcDbSpline
210
0.0
220
0.0
230
1.0
 70
     8
 71
     3
 72
     8
 73
     4
 74
     0
 42
0.0000000001
 43
0.0000000001
 40
5.336187364352841
 40
5.336187364352841
 40
5.336187364352841
 40
5.336187364352841
 40
14.43905044399483
 40
14.43905044399483
 40
14.43905044399483
 40
14.43905044399483
 10
-7.917657887547314
 20
-7.889001713245791
 30
0.0
 10
-14.07637637464345
 20
-5.548938634191205
 30
0.0
 10
-19.70357821789249
 20
-2.019923688489397
 30
0.0
 10
-24.47906892759304
 20
1.347234196694275
 30
0.0
  0
SPLINE
  5
2D04
330
1F
100
AcDbEntity
  8
AM_0
100
AcDbSpline
210
0.0
220
0.0
230
1.0
 70
     8
 71
     3
 72
     8
 73
     4
 74
     0
 42
0.0000000001
 43
0.0000000001
 40
0.0
 40
0.0
 40
0.0
 40
0.0
 40
12.33082961416466
 40
12.33082961416466
 40
12.33082961416466
 40
12.33082961416466
 10
-39.78132710827619
 20
8.824959730807105
 30
0.0
 10
-32.45937995398136
 20
8.347095735127233
 30
0.0
 10
-25.92893904867331
 20
4.698470754953211
 30
0.0
 10
-19.58446286055015
 20
0.834369291284818
 30
0.0
  0
LINE
  5
2F28
330
1F
100
AcDbEntity
  8
AM_0
100
AcDbLine
 10
-178.7504299794749
 20
-10.00000000000001
 30
0.0
 11
-47.254600267675
 21
-10.00000000000001
 31
0.0
1001
GENIUS_GENODEF_13
1002
{
1000
HIER
1070
     0
1002
}
1002
{
1000
MANEDIT
1070
     0
1002
}
1002
{
1000
NOSEL
1070
     0
1002
}
1002
{
1000
BEHIND
1070
     0
1002
}
1002
{
1000
REACTOR
1002
}
1001
GENIUS_GENOBJ-N-CEN_13
1002
{
1000
OWNER
1000
GEN
1002
}
  0
LINE
  5
2F29
330
1F
100
AcDbEntity
  8
0
100
AcDbLine
 10
-178.7504299794749
 20
-10.00000000000001
 30
0.0
 11
-178.7504299794749
 21
9.99999999999998
 31
0.0
  0
LINE
  5
2F2A
330
1F
100
AcDbEntity
  8
AM_0
100
AcDbLine
 10
-180.0004299794749
 20
-8.12500000000001
 30
0.0
 11
-180.0004299794749
 21
7.499999999999985
 31
0.0
  0
LINE
  5
2F2B
330
1F
100
AcDbEntity
  8
AM_0
100
AcDbLine
 10
-180.0004299794749
 20
7.499999999999985
 30
0.0
 11
-178.7504299794749
 21
9.99999999999998
 31
0.0
1001
GENIUS_GENFIL_13
1070
     0
1040
0.5
1040
0.5
1040
0.4999999999999716
1040
45.0
1002
{
1002
}
  0
DIMENSION
  5
2F2C
330
1F
100
AcDbEntity
  8
AM_5
100
AcDbDimension
  2
*D9
 10
-194.0004299794749
 20
10.0
 30
0.0
 11
-194.0004299794749
 21
-0.0000000000000498
 31
0.0
 70
   160
  1
%%c<>
  3
AM_JIS
100
AcDbAlignedDimension
 13
-178.7504299794749
 23
-10.00000000000001
 33
0.0
 14
-178.7504299794749
 24
10.0
 34
0.0
 50
270.0
100
AcDbRotatedDimension
1001
ACAD
1000
DSTYLE
1002
{
1070
    48
1040
0.1
1070
    47
1040
0.1
1070
   274
1070
     2
1070
   272
1070
     3
1002
}
1001
GENIUS_GENDTOL_13
1000

1000
h6
1000

1040
0.0
  0
LINE
  5
2F39
330
1F
100
AcDbEntity
  8
AM_0
100
AcDbLine
 10
-178.7504299794749
 20
9.99999999999998
 30
0.0
 11
-47.11888155426755
 21
9.99999999999998
 31
0.0
1001
GENIUS_GENODEF_13
1002
{
1000
HIER
1070
     0
1002
}
1002
{
1000
MANEDIT
1070
     0
1002
}
1002
{
1000
NOSEL
1070
     0
1002
}
1002
{
1000
BEHIND
1070
     0
1002
}
1002
{
1000
REACTOR
1002
}
1001
GENIUS_GENOBJ-N-CEN_13
1002
{
1000
OWNER
1000
GEN
1002
}
  0
VIEWPORT
  5
110
330
101
100
AcDbEntity
 67
     1
  8
0
100
AcDbViewport
 10
420.5
 20
297.0
 30
0.0
 40
948.9782706766916
 41
628.452
 68
     1
 69
     1
1001
ACAD
1000
MVIEW
1002
{
1070
    16
1010
0.0
1020
0.0
1030
0.0
1010
0.0
1020
0.0
1030
1.0
1040
0.0
1040
628.452
1040
420.5
1040
297.0
1040
50.0
1040
0.0
1040
0.0
1070
     0
1070
   100
1070
     1
1070
     1
1070
     0
1070
     0
1070
     0
1070
     0
1040
0.0
1040
0.0
1040
0.0
1040
10.0
1040
10.0
1040
10.0
1040
10.0
1070
     0
1002
{
1002
}
1002
}
  0
ENDSEC
  0
SECTION
  2
OBJECTS
  0
DICTIONARY
  5
C
330
0
100
AcDbDictionary
  3
ACAD_GROUP
350
D
  3
ACAD_LAYOUT
350
1A
  3
ACAD_MLINESTYLE
350
17
  3
ACAD_PLOTSETTINGS
350
19
  3
ACAD_PLOTSTYLENAME
350
E
  3
ACDBVARIABLEDICTIONARY
350
34
  3
ACMDICTIONARY
350
43
  3
AMG
350
2B
  3
AMGSNAPSETTINGS
350
6E
  3
DWGPROPS
350
30DA
  3
ACDBHEADERROUNDTRIPXREC
350
30E7
  0
DICTIONARY
  5
74
330
1F
100
AcDbDictionary
280
     1
  3
ACAD_INDEX
360
30DC
  3
ACAD_LAYOUTSELFREF
360
310A
  0
DICTIONARY
  5
310F
330
101
100
AcDbDictionary
280
     1
  3
ACAD_LAYOUTSELFREF
360
3110
  0
DICTIONARY
  5
D
102
{ACAD_REACTORS
330
C
102
}
330
C
100
AcDbDictionary
  0
DICTIONARY
  5
1A
102
{ACAD_REACTORS
330
C
102
}
330
C
100
AcDbDictionary
  0
DICTIONARY
  5
17
102
{ACAD_REACTORS
330
C
102
}
330
C
100
AcDbDictionary
  3
STANDARD
350
18
  0
DICTIONARY
  5
19
102
{ACAD_REACTORS
330
C
102
}
330
C
100
AcDbDictionary
  0
ACDBDICTIONARYWDFLT
  5
E
102
{ACAD_REACTORS
330
C
102
}
330
C
100
AcDbDictionary
281
     1
  3
Normal
350
F
100
AcDbDictionaryWithDefault
340
F
  0
DICTIONARY
  5
34
102
{ACAD_REACTORS
330
C
102
}
330
C
100
AcDbDictionary
  3
INDEXCTL
350
35
  3
SORTENTS
350
B5E
  0
DICTIONARY
  5
43
102
{ACAD_REACTORS
330
C
102
}
330
C
100
AcDbDictionary
  3
ACMSTDDICTIONARY
350
260
  0
DICTIONARY
  5
2B
102
{ACAD_REACTORS
330
C
102
}
330
C
100
AcDbDictionary
  3
ACMGSETTINGS
350
2C
  0
DICTIONARY
  5
6E
102
{ACAD_REACTORS
330
C
102
}
330
C
100
AcDbDictionary
  0
XRECORD
  5
30DA
102
{ACAD_REACTORS
330
C
102
}
330
C
100
AcDbXrecord
  1
DWGPROPS COOKIE
  2

  3

  4

  6

  7

  8

  9

300
AmdtFileType=82
301
=
302
=
303
=
304
=
305
=
306
=
307
=
308
=
309
=
 40
0.3602923263888889
 41
2452838.620506898
 42
2452850.762335763
  1

 90
        1
  0
DICTIONARY
  5
30E7
102
{ACAD_REACTORS
330
C
102
}
330
C
100
AcDbDictionary
  3
TSTACKALIGN
350
30E8
  3
TSTACKSIZE
350
30E9
  3
HYPERLINKBASE
350
30EA
  3
STYLESHEET
350
30EB
  3
LAYOUTDICT
350
30EC
  3
PLOTSETDICT
350
30ED
  3
PLOTSTYLNAMDICT
350
30EE
  3
LWETCUNION
350
30EF
  3
INSUNITS
350
30F0
  3
CEPSNTYPE
350
30F1
  3
FINGERPRINTGUID
350
30F2
  3
VERSIONGUID
350
30F3
  3
PSVPSCALE
350
30F4
  3
DIMSTYLEDATA
350
30F5
  3
PUCSORTHOREF
350
30F6
  3
PUCSORTHOVIEW
350
30F7
  3
PUCSBASE
350
30F8
  3
PUCSORGTOP
350
30F9
  3
PUCSORGBOTTOM
350
30FA
  3
PUCSORGLEFT
350
30FB
  3
PUCSORGRIGHT
350
30FC
  3
PUCSORGFRONT
350
30FD
  3
PUCSORGBACK
350
30FE
  3
UCSORTHOREF
350
30FF
  3
UCSORTHOVIEW
350
3100
  3
UCSBASE
350
3101
  3
UCSORGTOP
350
3102
  3
UCSORGBOTTOM
350
3103
  3
UCSORGLEFT
350
3104
  3
UCSORGRIGHT
350
3105
  3
UCSORGFRONT
350
3106
  3
UCSORGBACK
350
3107
  0
DICTIONARY
  5
30DC
102
{ACAD_REACTORS
330
74
102
}
330
74
100
AcDbDictionary
  3
*A1
350
30DD
  0
XRECORD
  5
310A
102
{ACAD_REACTORS
330
74
102
}
330
74
100
AcDbXrecord
340
1F
  0
XRECORD
  5
3110
102
{ACAD_REACTORS
330
310F
102
}
330
310F
100
AcDbXrecord
340
101
  0
MLINESTYLE
  5
18
102
{ACAD_REACTORS
330
17
102
}
330
17
100
AcDbMlineStyle
  2
STANDARD
 70
     0
  3

 62
   256
 51
90.0
 52
90.0
 71
     2
 49
0.5
 62
   256
  6
BYLAYER
 49
-0.5
 62
   256
  6
BYLAYER
  0
ACDBPLACEHOLDER
  5
F
102
{ACAD_REACTORS
330
E
102
}
330
E
100
AcDbPlaceHolder
280
     0
  0
DICTIONARYVAR
  5
35
102
{ACAD_REACTORS
330
34
102
}
330
34
100
DictionaryVariables
280
     0
  1
1
  0
DICTIONARYVAR
  5
B5E
102
{ACAD_REACTORS
330
34
102
}
330
34
100
DictionaryVariables
280
     0
  1
96
  0
DICTIONARY
  5
260
102
{ACAD_REACTORS
330
43
102
}
330
43
100
AcDbDictionary
  0
DICTIONARY
  5
2C
102
{ACAD_REACTORS
330
2B
102
}
330
2B
100
AcDbDictionary
  3
DWGSETTINGS
350
2D
  0
XRECORD
  5
30E8
102
{ACAD_REACTORS
330
30E7
102
}
330
30E7
100
AcDbXrecord
 90
        1
  0
XRECORD
  5
30E9
102
{ACAD_REACTORS
330
30E7
102
}
330
30E7
100
AcDbXrecord
 90
       70
  0
XRECORD
  5
30EA
102
{ACAD_REACTORS
330
30E7
102
}
330
30E7
100
AcDbXrecord
  1

  0
XRECORD
  5
30EB
102
{ACAD_REACTORS
330
30E7
102
}
330
30E7
100
AcDbXrecord
  1
ASAMI.ctb
  0
XRECORD
  5
30EC
102
{ACAD_REACTORS
330
30E7
102
}
330
30E7
100
AcDbXrecord
340
1A
  0
XRECORD
  5
30ED
102
{ACAD_REACTORS
330
30E7
102
}
330
30E7
100
AcDbXrecord
340
19
  0
XRECORD
  5
30EE
102
{ACAD_REACTORS
330
30E7
102
}
330
30E7
100
AcDbXrecord
340
E
  0
XRECORD
  5
30EF
102
{ACAD_REACTORS
330
30E7
102
}
330
30E7
100
AcDbXrecord
 90
    10781
  0
XRECORD
  5
30F0
102
{ACAD_REACTORS
330
30E7
102
}
330
30E7
100
AcDbXrecord
 90
        4
  0
XRECORD
  5
30F1
102
{ACAD_REACTORS
330
30E7
102
}
330
30E7
100
AcDbXrecord
 90
        0
  0
XRECORD
  5
30F2
102
{ACAD_REACTORS
330
30E7
102
}
330
30E7
100
AcDbXrecord
  1
{AFB28963-8C59-40AE-9337-C84526B81ACE}
  0
XRECORD
  5
30F3
102
{ACAD_REACTORS
330
30E7
102
}
330
30E7
100
AcDbXrecord
  1
{05D49F15-7485-49A8-80C8-C74DBB4BEC73}
  0
XRECORD
  5
30F4
102
{ACAD_REACTORS
330
30E7
102
}
330
30E7
100
AcDbXrecord
 40
0.0
  0
XRECORD
  5
30F5
102
{ACAD_REACTORS
330
30E7
102
}
330
30E7
100
AcDbXrecord
1000
DSTYLE
1002
{
1070
    79
 70
     2
1070
   341
340
59
1070
   342
340
59
1070
   371
 70
    -1
1070
   372
 70
    -1
1002
}
  0
XRECORD
  5
30F6
102
{ACAD_REACTORS
330
30E7
102
}
330
30E7
100
AcDbXrecord
340
0
  0
XRECORD
  5
30F7
102
{ACAD_REACTORS
330
30E7
102
}
330
30E7
100
AcDbXrecord
 70
     0
  0
XRECORD
  5
30F8
102
{ACAD_REACTORS
330
30E7
102
}
330
30E7
100
AcDbXrecord
340
0
  0
XRECORD
  5
30F9
102
{ACAD_REACTORS
330
30E7
102
}
330
30E7
100
AcDbXrecord
 10
0.0
 20
0.0
 30
0.0
  0
XRECORD
  5
30FA
102
{ACAD_REACTORS
330
30E7
102
}
330
30E7
100
AcDbXrecord
 10
0.0
 20
0.0
 30
0.0
  0
XRECORD
  5
30FB
102
{ACAD_REACTORS
330
30E7
102
}
330
30E7
100
AcDbXrecord
 10
0.0
 20
0.0
 30
0.0
  0
XRECORD
  5
30FC
102
{ACAD_REACTORS
330
30E7
102
}
330
30E7
100
AcDbXrecord
 10
0.0
 20
0.0
 30
0.0
  0
XRECORD
  5
30FD
102
{ACAD_REACTORS
330
30E7
102
}
330
30E7
100
AcDbXrecord
 10
0.0
 20
0.0
 30
0.0
  0
XRECORD
  5
30FE
102
{ACAD_REACTORS
330
30E7
102
}
330
30E7
100
AcDbXrecord
 10
0.0
 20
0.0
 30
0.0
  0
XRECORD
  5
30FF
102
{ACAD_REACTORS
330
30E7
102
}
330
30E7
100
AcDbXrecord
340
0
  0
XRECORD
  5
3100
102
{ACAD_REACTORS
330
30E7
102
}
330
30E7
100
AcDbXrecord
 70
     0
  0
XRECORD
  5
3101
102
{ACAD_REACTORS
330
30E7
102
}
330
30E7
100
AcDbXrecord
340
0
  0
XRECORD
  5
3102
102
{ACAD_REACTORS
330
30E7
102
}
330
30E7
100
AcDbXrecord
 10
0.0
 20
0.0
 30
0.0
  0
XRECORD
  5
3103
102
{ACAD_REACTORS
330
30E7
102
}
330
30E7
100
AcDbXrecord
 10
0.0
 20
0.0
 30
0.0
  0
XRECORD
  5
3104
102
{ACAD_REACTORS
330
30E7
102
}
330
30E7
100
AcDbXrecord
 10
0.0
 20
0.0
 30
0.0
  0
XRECORD
  5
3105
102
{ACAD_REACTORS
330
30E7
102
}
330
30E7
100
AcDbXrecord
 10
0.0
 20
0.0
 30
0.0
  0
XRECORD
  5
3106
102
{ACAD_REACTORS
330
30E7
102
}
330
30E7
100
AcDbXrecord
 10
0.0
 20
0.0
 30
0.0
  0
XRECORD
  5
3107
102
{ACAD_REACTORS
330
30E7
102
}
330
30E7
100
AcDbXrecord
 10
0.0
 20
0.0
 30
0.0
  0
LAYER_INDEX
  5
30DD
102
{ACAD_REACTORS
330
30DC
102
}
330
30DC
100
AcDbIndex
 40
2453151.865836458
100
AcDbLayerIndex
  8
0
360
30DE
 90
        1
  8
AM_0
360
30DF
 90
       36
  8
AM_11
360
30E0
 90
        3
  8
AM_7
360
30E1
 90
        1
  8
AM_5
360
30E2
 90
        6
  8
Defpoints
360
30E3
 90
        0
  8
AM_6
360
30E4
 90
        1
  8
AM_CL
360
30E5
 90
        0
  0
XRECORD
  5
2D
102
{ACAD_REACTORS
330
2C
102
}
330
2C
100
AcDbXrecord
  1
VERSION
140
15.0
  1
PRODUCT
  2
AutoCAD Mechanical 2000
  0
IDBUFFER
  5
30DE
330
0
100
AcDbIdBuffer
330
2F29
  0
IDBUFFER
  5
30DF
330
0
100
AcDbIdBuffer
330
2CF4
330
2CF5
330
2CF6
330
2CF7
330
2CF8
330
2CF9
330
2CFA
330
2CFB
330
2CFD
330
2CFE
330
2CFF
330
2D00
330
2D01
330
2D02
330
2D03
330
2D04
330
2F28
330
2F2A
330
2F2B
330
2F39
330
1E67
330
2CE5
330
2CE6
330
2CE7
330
2CE8
330
2CE9
330
2CEA
330
2CEB
330
2CEC
330
2CED
330
2CEE
330
2CEF
330
2CF0
330
2CF1
330
2CF2
330
2CF3
  0
IDBUFFER
  5
30E0
330
0
100
AcDbIdBuffer
330
1CA1
330
1CB1
330
2CFC
  0
IDBUFFER
  5
30E1
330
0
100
AcDbIdBuffer
330
C50
  0
IDBUFFER
  5
30E2
330
0
100
AcDbIdBuffer
330
C4F
330
194C
330
195B
330
1C9A
330
2C05
330
2F2C
  0
IDBUFFER
  5
30E3
330
0
100
AcDbIdBuffer
  0
IDBUFFER
  5
30E4
330
0
100
AcDbIdBuffer
330
C58
  0
IDBUFFER
  5
30E5
330
0
100
AcDbIdBuffer
  0
ENDSEC
  0
EOF
