  0
SECTION
  2
HEADER
  9
$ACADVER
  1
AC1014
  9
$ACADMAINTVER
 70
     9
  9
$DWGCODEPAGE
  3
ANSI_932
  9
$INSBASE
 10
0.0
 20
0.0
 30
0.0
  9
$EXTMIN
 10
-69.34999999999998
 20
-27.25000099999997
 30
-0.00000001
  9
$EXTMAX
 10
7.5
 20
3.999999999999997
 30
0.00000001
  9
$LIMMIN
 10
-74.0164312745836
 20
-35.01764399619279
  9
$LIMMAX
 10
17.3799489395754
 20
18.13967670639573
  9
$ORTHOMODE
 70
     0
  9
$REGENMODE
 70
     1
  9
$FILLMODE
 70
     1
  9
$QTEXTMODE
 70
     0
  9
$MIRRTEXT
 70
     0
  9
$DRAGMODE
 70
     2
  9
$LTSCALE
 40
1.0
  9
$OSMODE
 70
    55
  9
$ATTMODE
 70
     1
  9
$TEXTSIZE
 40
2.5
  9
$TRACEWID
 40
1.0
  9
$TEXTSTYLE
  7
STANDARD
  9
$CLAYER
  8
AM_0
  9
$CELTYPE
  6
BYLAYER
  9
$CECOLOR
 62
   256
  9
$CELTSCALE
 40
1.0
  9
$DELOBJ
 70
     1
  9
$DISPSILH
 70
     0
  9
$DIMSCALE
 40
0.5
  9
$DIMASZ
 40
2.5
  9
$DIMEXO
 40
1.0
  9
$DIMDLI
 40
12.0
  9
$DIMRND
 40
0.0
  9
$DIMDLE
 40
0.0
  9
$DIMEXE
 40
1.0
  9
$DIMTP
 40
0.1
  9
$DIMTM
 40
0.1
  9
$DIMTXT
 40
3.2
  9
$DIMCEN
 40
0.0
  9
$DIMTSZ
 40
0.0
  9
$DIMTOL
 70
     0
  9
$DIMLIM
 70
     0
  9
$DIMTIH
 70
     0
  9
$DIMTOH
 70
     0
  9
$DIMSE1
 70
     0
  9
$DIMSE2
 70
     0
  9
$DIMTAD
 70
     3
  9
$DIMZIN
 70
     8
  9
$DIMBLK
  1
OPEN30
  9
$DIMASO
 70
     1
  9
$DIMSHO
 70
     1
  9
$DIMPOST
  1

  9
$DIMAPOST
  1
"
  9
$DIMALT
 70
     0
  9
$DIMALTD
 70
     2
  9
$DIMALTF
 40
0.0393701
  9
$DIMLFAC
 40
1.0
  9
$DIMTOFL
 70
     1
  9
$DIMTVP
 40
0.0
  9
$DIMTIX
 70
     0
  9
$DIMSOXD
 70
     0
  9
$DIMSAH
 70
     0
  9
$DIMBLK1
  1

  9
$DIMBLK2
  1

  9
$DIMSTYLE
  2
AM_JIS
  9
$DIMCLRD
 70
   256
  9
$DIMCLRE
 70
   256
  9
$DIMCLRT
 70
     2
  9
$DIMTFAC
 40
0.71
  9
$DIMGAP
 40
1.5
  9
$DIMJUST
 70
     0
  9
$DIMSD1
 70
     0
  9
$DIMSD2
 70
     0
  9
$DIMTOLJ
 70
     0
  9
$DIMTZIN
 70
     0
  9
$DIMALTZ
 70
     0
  9
$DIMALTTZ
 70
     0
  9
$DIMFIT
 70
     3
  9
$DIMUPT
 70
     0
  9
$DIMUNIT
 70
     2
  9
$DIMDEC
 70
     3
  9
$DIMTDEC
 70
     3
  9
$DIMALTU
 70
     2
  9
$DIMALTTD
 70
     2
  9
$DIMTXSTY
  7
ASAMI
  9
$DIMAUNIT
 70
     0
  9
$LUNITS
 70
     2
  9
$LUPREC
 70
     2
  9
$SKETCHINC
 40
1.0
  9
$FILLETRAD
 40
2.5
  9
$AUNITS
 70
     0
  9
$AUPREC
 70
     0
  9
$MENU
  1
.
  9
$ELEVATION
 40
0.0
  9
$PELEVATION
 40
0.0
  9
$THICKNESS
 40
0.0
  9
$LIMCHECK
 70
     0
  9
$BLIPMODE
 70
     0
  9
$CHAMFERA
 40
0.5
  9
$CHAMFERB
 40
0.5
  9
$CHAMFERC
 40
20.0
  9
$CHAMFERD
 40
0.0
  9
$SKPOLY
 70
     0
  9
$TDCREATE
 40
2452838.430434386
  9
$TDUPDATE
 40
2453151.853820092
  9
$TDINDWG
 40
0.2055761921
  9
$TDUSRTIMER
 40
0.2055761921
  9
$USRTIMER
 70
     1
  9
$ANGBASE
 50
0.0
  9
$ANGDIR
 70
     0
  9
$PDMODE
 70
     0
  9
$PDSIZE
 40
0.0
  9
$PLINEWID
 40
0.0
  9
$COORDS
 70
     1
  9
$SPLFRAME
 70
     0
  9
$SPLINETYPE
 70
     6
  9
$SPLINESEGS
 70
     8
  9
$ATTDIA
 70
     1
  9
$ATTREQ
 70
     1
  9
$HANDLING
 70
 12289
  9
$HANDSEED
  5
51E2
  9
$SURFTAB1
 70
     6
  9
$SURFTAB2
 70
     6
  9
$SURFTYPE
 70
     6
  9
$SURFU
 70
     6
  9
$SURFV
 70
     6
  9
$UCSNAME
  2

  9
$UCSORG
 10
0.0
 20
0.0
 30
0.0
  9
$UCSXDIR
 10
1.0
 20
0.0
 30
0.0
  9
$UCSYDIR
 10
0.0
 20
1.0
 30
0.0
  9
$PUCSNAME
  2

  9
$PUCSORG
 10
0.0
 20
0.0
 30
0.0
  9
$PUCSXDIR
 10
1.0
 20
0.0
 30
0.0
  9
$PUCSYDIR
 10
0.0
 20
1.0
 30
0.0
  9
$USERI1
 70
     0
  9
$USERI2
 70
     0
  9
$USERI3
 70
     0
  9
$USERI4
 70
     0
  9
$USERI5
 70
     0
  9
$USERR1
 40
0.0
  9
$USERR2
 40
0.0
  9
$USERR3
 40
0.0
  9
$USERR4
 40
0.0
  9
$USERR5
 40
0.0
  9
$WORLDVIEW
 70
     1
  9
$SHADEDGE
 70
     3
  9
$SHADEDIF
 70
    70
  9
$TILEMODE
 70
     1
  9
$MAXACTVP
 70
    64
  9
$PINSBASE
 10
0.0
 20
0.0
 30
0.0
  9
$PLIMCHECK
 70
     0
  9
$PEXTMIN
 10
1.000000000000000E+20
 20
1.000000000000000E+20
 30
1.000000000000000E+20
  9
$PEXTMAX
 10
-1.000000000000000E+20
 20
-1.000000000000000E+20
 30
-1.000000000000000E+20
  9
$PLIMMIN
 10
0.0
 20
0.0
  9
$PLIMMAX
 10
841.0
 20
594.0
  9
$UNITMODE
 70
     0
  9
$VISRETAIN
 70
     1
  9
$PLINEGEN
 70
     0
  9
$PSLTSCALE
 70
     0
  9
$TREEDEPTH
 70
  3020
  9
$PICKSTYLE
 70
     0
  9
$CMLSTYLE
  2
STANDARD
  9
$CMLJUST
 70
     0
  9
$CMLSCALE
 40
20.0
  9
$PROXYGRAPHICS
 70
     1
  9
$MEASUREMENT
 70
     1
  0
ENDSEC
  0
SECTION
  2
CLASSES
  0
CLASS
  1
ACDBDICTIONARYWDFLT
  2
AcDbDictionaryWithDefault
  3
AutoCAD 2000
 90
        0
280
     0
281
     0
  0
CLASS
  1
ACDBPLACEHOLDER
  2
AcDbPlaceHolder
  3
AutoCAD 2000
 90
        0
280
     0
281
     0
  0
CLASS
  1
LAYOUT
  2
AcDbLayout
  3
AutoCAD 2000
 90
        0
280
     0
281
     0
  0
CLASS
  1
AMGSETTINGSOBJ
  2
AmgSettingsObj
  3
"AcadM|Product Description: AutoCAD Mechanical 2000|Company: Autodesk"
 90
        0
280
     0
281
     0
  0
CLASS
  1
ACME_DOCUMENT
  2
AcMeDbDoc
  3
AcMeServices
 90
        0
280
     0
281
     0
  0
CLASS
  1
ACMESCOPE
  2
AcMeScope
  3
AcMeServices
 90
        0
280
     0
281
     0
  0
CLASS
  1
ACMECOMMANDHISTORY
  2
AcMeCommandHistory
  3
AcMeServices
 90
        0
280
     0
281
     0
  0
CLASS
  1
DICTIONARYVAR
  2
AcDbDictionaryVar
  3
AutoCAD 2000
 90
        0
280
     0
281
     0
  0
CLASS
  1
ACIMSYSVARMAN
  2
AcImSysVarManager
  3
AcMeServices
 90
        0
280
     0
281
     0
  0
CLASS
  1
ACIMREALSYSVAR
  2
AcImRealSysVar
  3
AcMeServices
 90
        0
280
     0
281
     0
  0
CLASS
  1
ACIMINTSYSVAR
  2
AcImIntSysVar
  3
AcMeServices
 90
        0
280
     0
281
     0
  0
CLASS
  1
ACMEDRAWINGMAN
  2
AcMeDrawingMan
  3
AcMeServices
 90
        0
280
     0
281
     0
  0
CLASS
  1
ACMEVIEW
  2
AcMeView
  3
AcMeServices
 90
        0
280
     0
281
     0
  0
CLASS
  1
ACDBENTITYCACHE
  2
AcMeEntityCache
  3
AcMeServices
 90
        0
280
     0
281
     0
  0
CLASS
  1
GSMANAGER
  2
AcMeGSManager
  3
AcMeServices
 90
        0
280
     0
281
     0
  0
CLASS
  1
AmdtInternalReactor
  2
AmdtInternalReactor
  3
AcMeServices
 90
        0
280
     0
281
     0
  0
CLASS
  1
ACMESTATEMGR
  2
AcMeStateMgr
  3
AcMeServices
 90
        0
280
     0
281
     0
  0
CLASS
  1
ACME_DATABASE
  2
AcMeDbDatabase
  3
AcMeServices
 90
        0
280
     0
281
     0
  0
CLASS
  1
ACRFINSADJUSTERMGR
  2
AcRfInsAdjusterMgr
  3
AcMeServices
 90
        0
280
     0
281
     0
  0
CLASS
  1
ACMDATADICTIONARY
  2
AcmDataDictionary
  3
"AcmSymBB|Product Description: AutoCAD Mechanical 2000|Company: Autodesk"
 90
        0
280
     0
281
     0
  0
CLASS
  1
ACMDATAENTRYBLOCK
  2
AcmDataEntryBlock
  3
"AcmSymBB|Product Description: AutoCAD Mechanical 2000|Company: Autodesk"
 90
        0
280
     0
281
     0
  0
CLASS
  1
AMGOBJPROPCFG
  2
AmgObjPropCfg
  3
"AmgLay|Product Description: AutoCAD Mechanical 2000|Company: Autodesk"
 90
        1
280
     0
281
     0
  0
CLASS
  1
ACAMGFILTERDAT
  2
AcAmgFilterDat
  3
"AcadM|Product Description: AutoCAD Mechanical 2000|Company: Autodesk"
 90
        0
280
     0
281
     0
  0
CLASS
  1
LAYER_INDEX
  2
AcDbLayerIndex
  3
AutoCAD 2000
 90
        0
280
     0
281
     0
  0
CLASS
  1
IDBUFFER
  2
AcDbIdBuffer
  3
AutoCAD 2000
 90
        0
280
     0
281
     0
  0
CLASS
  1
ACIMSTRSYSVAR
  2
AcImStrSysVar
  3
AcMeServices
 90
        0
280
     0
281
     0
  0
CLASS
  1
ACMSTANDARDJIS
  2
AcmStandardJIS
  3
"AcmSymBB|Product Description: AutoCAD Mechanical 2000|Company: Autodesk"
 90
        0
280
     0
281
     0
  0
CLASS
  1
ACMSURFSTANDARDJIS
  2
AcmSurfTextStdJIS
  3
"AcmSymBB|Product Description: AutoCAD Mechanical 2000|Company: Autodesk"
 90
        0
280
     0
281
     0
  0
CLASS
  1
ACMFCFSTANDARDJIS
  2
AcmFCFStdJIS
  3
"AcmSymBB|Product Description: AutoCAD Mechanical 2000|Company: Autodesk"
 90
        0
280
     0
281
     0
  0
CLASS
  1
ACMWELDSTANDARDJIS
  2
AcmWeldingStdJIS
  3
"AcmSymBB|Product Description: AutoCAD Mechanical 2000|Company: Autodesk"
 90
        0
280
     0
281
     0
  0
CLASS
  1
ACMIDSTANDARDJIS
  2
AcmIdStdJIS
  3
"AcmSymBB|Product Description: AutoCAD Mechanical 2000|Company: Autodesk"
 90
        0
280
     0
281
     0
  0
CLASS
  1
ACMDATUMSTANDARDJIS
  2
AcmDatumStdJIS
  3
"AcmSymBB|Product Description: AutoCAD Mechanical 2000|Company: Autodesk"
 90
        0
280
     0
281
     0
  0
CLASS
  1
ACMBOMSTANDARDJIS
  2
AcmBOMStdJIS
  3
"AcmSymBB|Product Description: AutoCAD Mechanical 2000|Company: Autodesk"
 90
        0
280
     0
281
     0
  0
CLASS
  1
ACMSTANDARDANSI
  2
AcmStandardANSI
  3
"AcmSymBB|Product Description: AutoCAD Mechanical 2000|Company: Autodesk"
 90
        0
280
     0
281
     0
  0
CLASS
  1
ACMSURFSTANDARDANSI
  2
AcmSurfTextStdANSI
  3
"AcmSymBB|Product Description: AutoCAD Mechanical 2000|Company: Autodesk"
 90
        0
280
     0
281
     0
  0
CLASS
  1
ACMFCFSTANDARDANSI
  2
AcmFCFStdANSI
  3
"AcmSymBB|Product Description: AutoCAD Mechanical 2000|Company: Autodesk"
 90
        0
280
     0
281
     0
  0
CLASS
  1
ACMWELDSTANDARDANSI
  2
AcmWeldingStdANSI
  3
"AcmSymBB|Product Description: AutoCAD Mechanical 2000|Company: Autodesk"
 90
        0
280
     0
281
     0
  0
CLASS
  1
ACMIDSTANDARDANSI
  2
AcmIdStdANSI
  3
"AcmSymBB|Product Description: AutoCAD Mechanical 2000|Company: Autodesk"
 90
        0
280
     0
281
     0
  0
CLASS
  1
ACMDATUMSTANDARDANSI
  2
AcmDatumStdANSI
  3
"AcmSymBB|Product Description: AutoCAD Mechanical 2000|Company: Autodesk"
 90
        0
280
     0
281
     0
  0
CLASS
  1
ACMBOMSTANDARDANSI
  2
AcmBOMStdANSI
  3
"AcmSymBB|Product Description: AutoCAD Mechanical 2000|Company: Autodesk"
 90
        0
280
     0
281
     0
  0
CLASS
  1
ACMSTANDARDBSI
  2
AcmStandardBSI
  3
"AcmSymBB|Product Description: AutoCAD Mechanical 2000|Company: Autodesk"
 90
        0
280
     0
281
     0
  0
CLASS
  1
ACMSURFSTANDARDBSI
  2
AcmSurfTextStdBSI
  3
"AcmSymBB|Product Description: AutoCAD Mechanical 2000|Company: Autodesk"
 90
        0
280
     0
281
     0
  0
CLASS
  1
ACMFCFSTANDARDBSI
  2
AcmFCFStdBSI
  3
"AcmSymBB|Product Description: AutoCAD Mechanical 2000|Company: Autodesk"
 90
        0
280
     0
281
     0
  0
CLASS
  1
ACMWELDSTANDARDBSI
  2
AcmWeldingStdBSI
  3
"AcmSymBB|Product Description: AutoCAD Mechanical 2000|Company: Autodesk"
 90
        0
280
     0
281
     0
  0
CLASS
  1
ACMIDSTANDARDBSI
  2
AcmIdStdBSI
  3
"AcmSymBB|Product Description: AutoCAD Mechanical 2000|Company: Autodesk"
 90
        0
280
     0
281
     0
  0
CLASS
  1
ACMDATUMSTANDARDBSI
  2
AcmDatumStdBSI
  3
"AcmSymBB|Product Description: AutoCAD Mechanical 2000|Company: Autodesk"
 90
        0
280
     0
281
     0
  0
CLASS
  1
ACMBOMSTANDARDBSI
  2
AcmBOMStdBSI
  3
"AcmSymBB|Product Description: AutoCAD Mechanical 2000|Company: Autodesk"
 90
        0
280
     0
281
     0
  0
CLASS
  1
LONG_TRANSACTION
  2
AcDbLongTransaction
  3
AutoCAD 2000
 90
        0
280
     0
281
     0
  0
CLASS
  1
LWPOLYLINE
  2
AcDbPolyline
  3
AutoCAD 2000
 90
        0
280
     0
281
     1
  0
CLASS
  1
HATCH
  2
AcDbHatch
  3
AutoCAD 2000
 90
        0
280
     0
281
     1
  0
CLASS
  1
XRECORD
  2
AcDbXrecord
  3
AutoCAD 2000
 90
        0
280
     0
281
     0
  0
ENDSEC
  0
SECTION
  2
TABLES
  0
TABLE
  2
VPORT
  5
8
330
0
100
AcDbSymbolTable
 70
     3
  0
VPORT
  5
51B1
330
8
100
AcDbSymbolTableRecord
100
AcDbViewportTableRecord
  2
*ACTIVE
 70
     0
 10
0.0
 20
0.0
 11
1.0
 21
1.0
 12
-24.72726105734207
 22
-11.62464296483411
 13
0.0
 23
0.0
 14
2.5
 24
2.5
 15
10.0
 25
10.0
 16
0.0
 26
0.0
 36
1.0
 17
0.0
 27
0.0
 37
0.0
 40
57.24325244513455
 41
1.56570841889117
 42
50.0
 43
0.0
 44
0.0
 50
0.0
 51
0.0
 71
     0
 72
   100
 73
     1
 74
     3
 75
     0
 76
     0
 77
     0
 78
     0
  0
ENDTAB
  0
TABLE
  2
LTYPE
  5
5
330
0
100
AcDbSymbolTable
 70
    10
  0
LTYPE
  5
14
330
5
100
AcDbSymbolTableRecord
100
AcDbLinetypeTableRecord
  2
BYBLOCK
 70
     0
  3

 72
    65
 73
     0
 40
0.0
  0
LTYPE
  5
15
330
5
100
AcDbSymbolTableRecord
100
AcDbLinetypeTableRecord
  2
BYLAYER
 70
     0
  3

 72
    65
 73
     0
 40
0.0
  0
LTYPE
  5
16
330
5
100
AcDbSymbolTableRecord
100
AcDbLinetypeTableRecord
  2
CONTINUOUS
 70
     0
  3
Solid line
 72
    65
 73
     0
 40
0.0
  0
LTYPE
  5
4B
330
5
100
AcDbSymbolTableRecord
100
AcDbLinetypeTableRecord
  2
AM_ISO02W050
 70
     0
  3
__ __ __ __ __ __ __ __ __ __ __ __ __ __ __
 72
    65
 73
     2
 40
7.5
 49
6.0
 74
     0
 49
-1.5
 74
     0
  0
LTYPE
  5
4C
330
5
100
AcDbSymbolTableRecord
100
AcDbLinetypeTableRecord
  2
AM_ISO08W050
 70
     0
  3
____ . ____ . ____ . ____ . ____ . ____ . ____
 72
    65
 73
     4
 40
18.0
 49
12.0
 74
     0
 49
-1.5
 74
     0
 49
3.0
 74
     0
 49
-1.5
 74
     0
  0
LTYPE
  5
4D
330
5
100
AcDbSymbolTableRecord
100
AcDbLinetypeTableRecord
  2
AM_ISO09W050
 70
     0
  3
_____ . . _____ . . _____ . . ____ .. ____
 72
    65
 73
     6
 40
22.5
 49
12.0
 74
     0
 49
-1.5
 74
     0
 49
3.0
 74
     0
 49
-1.5
 74
     0
 49
3.0
 74
     0
 49
-1.5
 74
     0
  0
LTYPE
  5
4E
330
5
100
AcDbSymbolTableRecord
100
AcDbLinetypeTableRecord
  2
AMCONSTR
 70
     0
  3
_______________________
 72
    65
 73
     2
 40
9999.0
 49
9999.0
 74
     0
 49
0.0
 74
     0
  0
LTYPE
  5
4F
330
5
100
AcDbSymbolTableRecord
100
AcDbLinetypeTableRecord
  2
AM_ISO02W050X2
 70
     0
  3
 _ _ _ _ _ _ _ _ _ _ _ _
 72
    65
 73
     2
 40
3.75
 49
3.0
 74
     0
 49
-0.75
 74
     0
  0
LTYPE
  5
50
330
5
100
AcDbSymbolTableRecord
100
AcDbLinetypeTableRecord
  2
AM_ISO08W050X2
 70
     0
  3
__ . __ . __ . __ . __ . __
 72
    65
 73
     4
 40
9.0
 49
6.0
 74
     0
 49
-0.75
 74
     0
 49
1.5
 74
     0
 49
-0.75
 74
     0
  0
LTYPE
  5
53
330
5
100
AcDbSymbolTableRecord
100
AcDbLinetypeTableRecord
  2
AMZIGZAG
 70
     0
  3
/\/-/\/-/\/-/\/-/\/-/\/
 72
    65
 73
     2
 40
11.00009999999999
 49
0.0001
 74
     4
 75
   135
340
52
 46
0.04
 50
0.0
 44
0.0
 45
0.0
 49
-11.0
 74
     0
  0
LTYPE
  5
166
330
5
100
AcDbSymbolTableRecord
100
AcDbLinetypeTableRecord
  2
ACJISTGL
 70
     0
  3
_ _ _ _ _
 72
    65
 73
     2
 40
3.0
 49
2.0
 74
     0
 49
-1.0
 74
     0
  0
LTYPE
  5
26A
330
5
100
AcDbSymbolTableRecord
100
AcDbLinetypeTableRecord
  2
ACJISTGB
 70
     0
  3
__ . . __ . .
 72
    65
 73
     6
 40
9.0
 49
4.0
 74
     0
 49
-1.0
 74
     0
 49
1.0
 74
     0
 49
-1.0
 74
     0
 49
1.0
 74
     0
 49
-1.0
 74
     0
  0
ENDTAB
  0
TABLE
  2
LAYER
  5
2
330
0
100
AcDbSymbolTable
 70
     7
  0
LAYER
  5
10
330
2
100
AcDbSymbolTableRecord
100
AcDbLayerTableRecord
  2
0
 70
     0
 62
     7
  6
CONTINUOUS
  0
LAYER
  5
3F9
330
2
100
AcDbSymbolTableRecord
100
AcDbLayerTableRecord
  2
AM_0
 70
     0
 62
     7
  6
CONTINUOUS
  0
LAYER
  5
BDD
330
2
100
AcDbSymbolTableRecord
100
AcDbLayerTableRecord
  2
AM_11
 70
     0
 62
     3
  6
AM_ISO09W050
  0
LAYER
  5
BDE
330
2
100
AcDbSymbolTableRecord
100
AcDbLayerTableRecord
  2
AM_7
 70
     0
 62
     4
  6
AM_ISO08W050
  0
LAYER
  5
BDF
330
2
100
AcDbSymbolTableRecord
100
AcDbLayerTableRecord
  2
AM_5
 70
     0
 62
     3
  6
CONTINUOUS
  0
LAYER
  5
BE0
330
2
100
AcDbSymbolTableRecord
100
AcDbLayerTableRecord
  2
DEFPOINTS
 70
     0
 62
     7
  6
CONTINUOUS
  0
LAYER
  5
14FF
330
2
100
AcDbSymbolTableRecord
100
AcDbLayerTableRecord
  2
AM_6
 70
     0
 62
     2
  6
CONTINUOUS
  0
ENDTAB
  0
TABLE
  2
STYLE
  5
3
330
0
100
AcDbSymbolTable
 70
     5
  0
STYLE
  5
11
330
3
100
AcDbSymbolTableRecord
100
AcDbTextStyleTableRecord
  2
STANDARD
 70
     0
 40
0.0
 41
1.0
 50
0.0
 71
     0
 42
2.5
  3
simplex.shx
  4
EXTFONT.SHX
  0
STYLE
  5
52
330
3
100
AcDbSymbolTableRecord
100
AcDbTextStyleTableRecord
  2

 70
     1
 40
0.0
 41
1.0
 50
0.0
 71
     0
 42
2.5
  3
ltypeshp.shx
  4

  0
STYLE
  5
6B
330
3
100
AcDbSymbolTableRecord
100
AcDbTextStyleTableRecord
  2
ASAMI
 70
     0
 40
0.0
 41
1.0
 50
0.0
 71
     0
 42
2.5
  3
simplex.shx
  4
EXTFONT.SHX
  0
STYLE
  5
262
330
3
100
AcDbSymbolTableRecord
100
AcDbTextStyleTableRecord
  2
ACJISTS
 70
     0
 40
1.0
 41
1.0
 50
0.0
 71
     0
 42
2.5
  3
simplex.shx
  4
bigfont.shx
  0
STYLE
  5
269
330
3
100
AcDbSymbolTableRecord
100
AcDbTextStyleTableRecord
  2
ACJISGDT
 70
     0
 40
0.0
 41
1.0
 50
0.0
 71
     0
 42
2.5
  3
amgdtans.shx
  4

  0
ENDTAB
  0
TABLE
  2
VIEW
  5
6
330
0
100
AcDbSymbolTable
 70
     0
  0
ENDTAB
  0
TABLE
  2
UCS
  5
7
330
0
100
AcDbSymbolTable
 70
     0
  0
ENDTAB
  0
TABLE
  2
APPID
  5
9
330
0
100
AcDbSymbolTable
 70
    14
  0
APPID
  5
12
330
9
100
AcDbSymbolTableRecord
100
AcDbRegAppTableRecord
  2
ACAD
 70
     0
  0
APPID
  5
30
330
9
100
AcDbSymbolTableRecord
100
AcDbRegAppTableRecord
  2
MCAD_NO_VIS
 70
     0
  0
APPID
  5
31
330
9
100
AcDbSymbolTableRecord
100
AcDbRegAppTableRecord
  2
ACAD_TEMP_GRAPHIC
 70
     0
  0
APPID
  5
2C2
330
9
100
AcDbSymbolTableRecord
100
AcDbRegAppTableRecord
  2
GENIUS_GENDTOL_13
 70
     0
  0
APPID
  5
339
330
9
100
AcDbSymbolTableRecord
100
AcDbRegAppTableRecord
  2
GENIUS_GENODEF_13
 70
     0
  0
APPID
  5
33A
330
9
100
AcDbSymbolTableRecord
100
AcDbRegAppTableRecord
  2
GENIUS_GENOBJ-N-RSBK_13
 70
     0
  0
APPID
  5
33B
330
9
100
AcDbSymbolTableRecord
100
AcDbRegAppTableRecord
  2
GENIUS_GENOBJ-N-LIB_13
 70
     0
  0
APPID
  5
33C
330
9
100
AcDbSymbolTableRecord
100
AcDbRegAppTableRecord
  2
GENIUS_GENSCALE_13
 70
     0
  0
APPID
  5
378
330
9
100
AcDbSymbolTableRecord
100
AcDbRegAppTableRecord
  2
GENIUS_GENDIMSH_14
 70
     0
  0
APPID
  5
BE1
330
9
100
AcDbSymbolTableRecord
100
AcDbRegAppTableRecord
  2
GENIUS_GENFIL_13
 70
     0
  0
APPID
  5
BE2
330
9
100
AcDbSymbolTableRecord
100
AcDbRegAppTableRecord
  2
GENIUS_GENOBJ-N-CHA_13
 70
     0
  0
APPID
  5
151B
330
9
100
AcDbSymbolTableRecord
100
AcDbRegAppTableRecord
  2
DCO15
 70
     0
  0
APPID
  5
1860
330
9
100
AcDbSymbolTableRecord
100
AcDbRegAppTableRecord
  2
GENIUS_GENOBJ-N-CEN_13
 70
     0
  0
APPID
  5
359C
330
9
100
AcDbSymbolTableRecord
100
AcDbRegAppTableRecord
  2
GENIUS_GENOBJ-N-FIL_13
 70
     0
  0
ENDTAB
  0
TABLE
  2
DIMSTYLE
  5
A
330
0
100
AcDbSymbolTable
 70
     8
  0
DIMSTYLE
105
58
102
{ACAD_REACTORS
330
4047
330
412A
330
45F8
330
4759
102
}
330
A
100
AcDbSymbolTableRecord
100
AcDbDimStyleTableRecord
  2
AM_JIS
 70
     0
  3

  4
"
  5
OPEN30
  6

  7

 40
0.5
 41
2.5
 42
1.0
 43
12.0
 44
1.0
 45
0.0
 46
0.0
 47
0.1
 48
0.1
140
3.2
141
0.0
142
0.0
143
0.0393701
144
1.0
145
0.0
146
0.71
147
1.5
 71
     0
 72
     0
 73
     0
 74
     0
 75
     0
 76
     0
 77
     3
 78
     8
170
     0
171
     2
172
     1
173
     0
174
     0
175
     0
176
   256
177
   256
178
     2
270
     2
271
     3
272
     3
273
     2
274
     2
340
6B
275
     0
280
     0
281
     0
282
     0
283
     0
284
     0
285
     0
286
     0
287
     3
288
     0
  0
DIMSTYLE
105
5F
330
A
100
AcDbSymbolTableRecord
100
AcDbDimStyleTableRecord
  2
AM_JIS$3
 70
     0
  3

  4
"
  5
OPEN30
  6

  7

 40
0.5
 41
2.5
 42
1.0
 43
10.0
 44
1.0
 45
0.0
 46
0.0
 47
0.1
 48
0.1
140
3.2
141
0.0
142
0.0
143
0.0393701
144
1.0
145
0.0
146
0.71
147
1.5
 71
     0
 72
     0
 73
     0
 74
     1
 75
     0
 76
     0
 77
     3
 78
     8
170
     0
171
     2
172
     0
173
     0
174
     0
175
     0
176
   256
177
   256
178
     2
270
     2
271
     2
272
     3
273
     2
274
     2
340
6B
275
     0
280
     0
281
     0
282
     0
283
     0
284
     0
285
     0
286
     0
287
     0
288
     1
  0
DIMSTYLE
105
60
102
{ACAD_REACTORS
330
4E50
102
}
330
A
100
AcDbSymbolTableRecord
100
AcDbDimStyleTableRecord
  2
AM_JIS$4
 70
     0
  3

  4
"
  5
OPEN30
  6

  7

 40
0.5
 41
2.5
 42
1.0
 43
10.0
 44
1.0
 45
0.0
 46
0.0
 47
0.1
 48
0.1
140
3.2
141
0.0
142
0.0
143
0.0393701
144
1.0
145
0.0
146
0.71
147
1.5
 71
     0
 72
     0
 73
     0
 74
     1
 75
     0
 76
     0
 77
     3
 78
     8
170
     0
171
     2
172
     0
173
     0
174
     0
175
     0
176
   256
177
   256
178
     2
270
     2
271
     2
272
     3
273
     2
274
     2
340
6B
275
     0
280
     0
281
     0
282
     0
283
     0
284
     0
285
     0
286
     0
287
     0
288
     1
  0
DIMSTYLE
105
61
330
A
100
AcDbSymbolTableRecord
100
AcDbDimStyleTableRecord
  2
AM_JIS$6
 70
     0
  3

  4
"
  5
OPEN30
  6

  7

 40
0.5
 41
2.5
 42
1.0
 43
10.0
 44
1.0
 45
0.0
 46
0.0
 47
0.1
 48
0.1
140
3.2
141
0.0
142
0.0
143
0.0393701
144
1.0
145
0.0
146
0.71
147
1.5
 71
     0
 72
     0
 73
     0
 74
     0
 75
     0
 76
     0
 77
     0
 78
     8
170
     0
171
     2
172
     1
173
     0
174
     0
175
     0
176
   256
177
   256
178
     2
270
     2
271
     2
272
     2
273
     2
274
     2
340
6B
275
     0
280
     0
281
     0
282
     0
283
     0
284
     0
285
     0
286
     0
287
     3
288
     0
  0
DIMSTYLE
105
62
330
A
100
AcDbSymbolTableRecord
100
AcDbDimStyleTableRecord
  2
AM_JIS$7
 70
     0
  3

  4
"
  5
OPEN30
  6

  7

 40
0.5
 41
2.5
 42
1.0
 43
10.0
 44
1.0
 45
0.0
 46
0.0
 47
0.1
 48
0.1
140
3.2
141
0.0
142
0.0
143
0.0393701
144
1.0
145
0.0
146
0.71
147
1.5
 71
     0
 72
     0
 73
     0
 74
     0
 75
     0
 76
     0
 77
     3
 78
     8
170
     0
171
     2
172
     1
173
     0
174
     0
175
     0
176
   256
177
   256
178
     2
270
     2
271
     2
272
     3
273
     2
274
     2
340
6B
275
     0
280
     0
281
     0
282
     0
283
     0
284
     0
285
     0
286
     0
287
     3
288
     0
  0
DIMSTYLE
105
63
330
A
100
AcDbSymbolTableRecord
100
AcDbDimStyleTableRecord
  2
AM_JIS$SF
 70
     0
  3

  4
"
  5
OPEN30
  6

  7

 40
0.5
 41
2.5
 42
1.0
 43
10.0
 44
1.0
 45
0.0
 46
0.0
 47
0.1
 48
0.1
140
3.2
141
0.0
142
0.0
143
0.0393701
144
1.0
145
0.0
146
0.71
147
1.5
 71
     0
 72
     0
 73
     0
 74
     0
 75
     1
 76
     1
 77
     3
 78
     8
170
     0
171
     2
172
     1
173
     0
174
     0
175
     0
176
   256
177
   256
178
     2
270
     2
271
     2
272
     2
273
     2
274
     2
340
6B
275
     0
280
     0
281
     0
282
     0
283
     0
284
     0
285
     0
286
     0
287
     3
288
     0
  0
DIMSTYLE
105
68
330
A
100
AcDbSymbolTableRecord
100
AcDbDimStyleTableRecord
  2
AM_JIS$SH
 70
     0
  3

  4
"
  5

  6
GENAXEH
  7
OPEN30
 40
0.5
 41
2.5
 42
1.0
 43
10.0
 44
1.0
 45
0.0
 46
0.0
 47
0.1
 48
0.1
140
3.2
141
0.0
142
0.0
143
0.0393701
144
2.0
145
0.0
146
0.71
147
1.5
 71
     0
 72
     0
 73
     0
 74
     0
 75
     1
 76
     1
 77
     3
 78
     8
170
     0
171
     2
172
     1
173
     1
174
     0
175
     0
176
   256
177
   256
178
     2
270
     2
271
     2
272
     2
273
     2
274
     2
340
6B
275
     0
280
     0
281
     0
282
     0
283
     0
284
     0
285
     0
286
     0
287
     3
288
     0
  0
DIMSTYLE
105
B34
330
A
100
AcDbSymbolTableRecord
100
AcDbDimStyleTableRecord
  2
AM_JIS$2
 70
     0
  3

  4
"
  5
OPEN30
  6

  7

 40
0.5
 41
2.5
 42
1.0
 43
12.0
 44
1.0
 45
0.0
 46
0.0
 47
0.1
 48
0.1
140
3.2
141
0.0
142
0.0
143
0.0393701
144
1.0
145
0.0
146
0.71
147
1.5
 71
     0
 72
     0
 73
     0
 74
     0
 75
     0
 76
     0
 77
     3
 78
     8
170
     0
171
     2
172
     1
173
     0
174
     0
175
     0
176
   256
177
   256
178
     2
270
     2
271
     3
272
     3
273
     2
274
     2
340
6B
275
     0
280
     0
281
     0
282
     0
283
     0
284
     0
285
     0
286
     0
287
     3
288
     0
  0
ENDTAB
  0
TABLE
  2
BLOCK_RECORD
  5
1
330
0
100
AcDbSymbolTable
 70
    10
  0
BLOCK_RECORD
  5
1F
102
{ACAD_XDICTIONARY
360
74
102
}
330
1
100
AcDbSymbolTableRecord
100
AcDbBlockTableRecord
  2
*MODEL_SPACE
  0
BLOCK_RECORD
  5
101
102
{ACAD_XDICTIONARY
360
51DA
102
}
330
1
100
AcDbSymbolTableRecord
100
AcDbBlockTableRecord
  2
*PAPER_SPACE
  0
BLOCK_RECORD
  5
59
330
1
100
AcDbSymbolTableRecord
100
AcDbBlockTableRecord
  2
_OPEN30
  0
BLOCK_RECORD
  5
64
330
1
100
AcDbSymbolTableRecord
100
AcDbBlockTableRecord
  2
GENAXEH
  0
BLOCK_RECORD
  5
4048
330
1
100
AcDbSymbolTableRecord
100
AcDbBlockTableRecord
  2
*D5
  0
BLOCK_RECORD
  5
412B
330
1
100
AcDbSymbolTableRecord
100
AcDbBlockTableRecord
  2
*D6
  0
BLOCK_RECORD
  5
45F9
330
1
100
AcDbSymbolTableRecord
100
AcDbBlockTableRecord
  2
*D7
  0
BLOCK_RECORD
  5
4768
330
1
100
AcDbSymbolTableRecord
100
AcDbBlockTableRecord
  2
*D8
  0
BLOCK_RECORD
  5
4E51
330
1
100
AcDbSymbolTableRecord
100
AcDbBlockTableRecord
  2
*D9
  0
ENDTAB
  0
ENDSEC
  0
SECTION
  2
BLOCKS
  0
BLOCK
  5
20
330
1F
100
AcDbEntity
  8
0
100
AcDbBlockBegin
  2
*MODEL_SPACE
 70
     0
 10
0.0
 20
0.0
 30
0.0
  3
*MODEL_SPACE
  1

  0
ENDBLK
  5
21
330
1F
100
AcDbEntity
  8
0
100
AcDbBlockEnd
  0
BLOCK
  5
103
330
101
100
AcDbEntity
 67
     1
  8
0
100
AcDbBlockBegin
  2
*PAPER_SPACE
 70
     0
 10
0.0
 20
0.0
 30
0.0
  3
*PAPER_SPACE
  1

  0
ENDBLK
  5
104
330
101
100
AcDbEntity
 67
     1
  8
0
100
AcDbBlockEnd
  0
BLOCK
  5
5D
330
59
100
AcDbEntity
  8
0
100
AcDbBlockBegin
  2
_OPEN30
 70
     0
 10
0.0
 20
0.0
 30
0.0
  3
_OPEN30
  1

  0
LINE
  5
5A
330
59
100
AcDbEntity
  8
0
 62
     0
100
AcDbLine
 10
-1.0
 20
0.26794919
 30
0.0
 11
0.0
 21
0.0
 31
0.0
  0
LINE
  5
5B
330
59
100
AcDbEntity
  8
0
 62
     0
100
AcDbLine
 10
0.0
 20
0.0
 30
0.0
 11
-1.0
 21
-0.26794919
 31
0.0
  0
LINE
  5
5C
330
59
100
AcDbEntity
  8
0
 62
     0
100
AcDbLine
 10
0.0
 20
0.0
 30
0.0
 11
-1.0
 21
0.0
 31
0.0
  0
ENDBLK
  5
5E
330
59
100
AcDbEntity
  8
0
100
AcDbBlockEnd
  0
BLOCK
  5
66
330
64
100
AcDbEntity
  8
0
100
AcDbBlockBegin
  2
GENAXEH
 70
     0
 10
0.0
 20
0.0
 30
0.0
  3
GENAXEH
  1

  0
LINE
  5
65
330
64
100
AcDbEntity
  8
0
100
AcDbLine
 10
-1.0
 20
0.0
 30
0.0
 11
1.0
 21
0.0
 31
0.0
  0
ENDBLK
  5
67
330
64
100
AcDbEntity
  8
0
100
AcDbBlockEnd
  0
BLOCK
  5
4052
330
4048
100
AcDbEntity
  8
0
100
AcDbBlockBegin
  2
*D5
 70
     1
 10
0.0
 20
0.0
 30
0.0
  3
*D5
  1

  0
LINE
  5
4E02
330
4048
100
AcDbEntity
  8
AM_5
100
AcDbLine
 10
-59.99999999999997
 20
-3.000000000000015
 30
0.0
 11
-59.99999999999997
 21
-16.50000099999995
 31
0.0
  0
LINE
  5
4E03
330
4048
100
AcDbEntity
  8
AM_5
100
AcDbLine
 10
0.0000000000000006
 20
-0.5000000000000005
 30
0.0
 11
-0.0000000000000003
 21
-16.50000099999995
 31
0.0
  0
LINE
  5
4E04
330
4048
100
AcDbEntity
  8
AM_5
100
AcDbLine
 10
-58.74999999999997
 20
-16.00000099999995
 30
0.0
 11
-1.25
 21
-16.00000099999995
 31
0.0
  0
INSERT
  5
4E05
330
4048
100
AcDbEntity
  8
AM_5
100
AcDbBlockReference
  2
_OPEN30
 10
-59.99999999999997
 20
-16.00000099999995
 30
0.0
 41
1.25
 42
1.25
 43
1.25
 50
180.0
  0
INSERT
  5
4E06
330
4048
100
AcDbEntity
  8
AM_5
100
AcDbBlockReference
  2
_OPEN30
 10
-0.0000000000000003
 20
-16.00000099999995
 30
0.0
 41
1.25
 42
1.25
 43
1.25
  0
MTEXT
  5
4E07
330
4048
100
AcDbEntity
  8
AM_5
 62
     2
100
AcDbMText
 10
-29.99999999999998
 20
-14.45000099999995
 30
0.0
 40
1.6
 41
0.0
 71
     5
 72
     1
  1
60
  7
ASAMI
1001
ACAD
1000
MTEXTBEGIN
1070
    73
1070
     1
1070
    44
1040
1.0
1070
    74
1070
     0
1000
MTEXTEND
  0
POINT
  5
4E08
330
4048
100
AcDbEntity
  8
DEFPOINTS
 62
     0
100
AcDbPoint
 10
-59.99999999999997
 20
-2.500000000000015
 30
0.0
  0
POINT
  5
4E09
330
4048
100
AcDbEntity
  8
DEFPOINTS
 62
     0
100
AcDbPoint
 10
0.0000000000000007
 20
-0.0000000000000005
 30
0.0
  0
POINT
  5
4E0A
330
4048
100
AcDbEntity
  8
DEFPOINTS
 62
     0
100
AcDbPoint
 10
-0.0000000000000003
 20
-16.00000099999995
 30
0.0
  0
ENDBLK
  5
4053
330
4048
100
AcDbEntity
  8
0
100
AcDbBlockEnd
  0
BLOCK
  5
4135
330
412B
100
AcDbEntity
  8
0
100
AcDbBlockBegin
  2
*D6
 70
     1
 10
0.0
 20
0.0
 30
0.0
  3
*D6
  1

  0
LINE
  5
4E25
330
412B
100
AcDbEntity
  8
AM_5
100
AcDbLine
 10
-0.0000000000000142
 20
-0.5000000000000111
 30
0.0
 11
-0.0000000000000149
 21
-10.50000099999998
 31
0.0
  0
LINE
  5
4E26
330
412B
100
AcDbEntity
  8
AM_5
100
AcDbLine
 10
-8.999999999999998
 20
-2.0
 30
0.0
 11
-8.999999999999998
 21
-10.50000099999998
 31
0.0
  0
LINE
  5
4E27
330
412B
100
AcDbEntity
  8
AM_5
100
AcDbLine
 10
-1.250000000000014
 20
-10.00000099999998
 30
0.0
 11
-7.749999999999998
 21
-10.00000099999998
 31
0.0
  0
INSERT
  5
4E28
330
412B
100
AcDbEntity
  8
AM_5
100
AcDbBlockReference
  2
_OPEN30
 10
-0.0000000000000148
 20
-10.00000099999998
 30
0.0
 41
1.25
 42
1.25
 43
1.25
  0
INSERT
  5
4E29
330
412B
100
AcDbEntity
  8
AM_5
100
AcDbBlockReference
  2
_OPEN30
 10
-8.999999999999998
 20
-10.00000099999998
 30
0.0
 41
1.25
 42
1.25
 43
1.25
 50
180.0
  0
MTEXT
  5
4E2A
330
412B
100
AcDbEntity
  8
AM_5
 62
     2
100
AcDbMText
 10
-4.500000000000006
 20
-8.450000999999986
 30
0.0
 40
1.6
 41
0.0
 71
     5
 72
     1
  1
9
  7
ASAMI
1001
ACAD
1000
MTEXTBEGIN
1070
    73
1070
     1
1070
    44
1040
1.0
1070
    74
1070
     0
1000
MTEXTEND
  0
POINT
  5
4E2B
330
412B
100
AcDbEntity
  8
DEFPOINTS
 62
     0
100
AcDbPoint
 10
-0.0000000000000142
 20
-0.0000000000000111
 30
0.0
  0
POINT
  5
4E2C
330
412B
100
AcDbEntity
  8
DEFPOINTS
 62
     0
100
AcDbPoint
 10
-8.999999999999998
 20
-1.5
 30
0.0
  0
POINT
  5
4E2D
330
412B
100
AcDbEntity
  8
DEFPOINTS
 62
     0
100
AcDbPoint
 10
-8.999999999999998
 20
-10.00000099999998
 30
0.0
  0
ENDBLK
  5
4136
330
412B
100
AcDbEntity
  8
0
100
AcDbBlockEnd
  0
BLOCK
  5
4605
330
45F9
100
AcDbEntity
  8
0
100
AcDbBlockBegin
  2
*D7
 70
     1
 10
0.0
 20
0.0
 30
0.0
  3
*D7
  1

  0
LINE
  5
5173
330
45F9
100
AcDbEntity
  8
AM_5
100
AcDbLine
 10
-59.99999999999999
 20
2.999999999999916
 30
0.0
 11
-67.49999999999999
 21
2.999999999999918
 31
0.0
  0
LINE
  5
5174
330
45F9
100
AcDbEntity
  8
AM_5
100
AcDbLine
 10
-59.99999999999997
 20
-3.000000000000027
 30
0.0
 11
-67.49999999999999
 21
-3.000000000000025
 31
0.0
  0
LINE
  5
5175
330
45F9
100
AcDbEntity
  8
AM_5
100
AcDbLine
 10
-66.99999999999999
 20
1.749999999999918
 30
0.0
 11
-66.99999999999999
 21
-1.750000000000025
 31
0.0
  0
INSERT
  5
5176
330
45F9
100
AcDbEntity
  8
AM_5
100
AcDbBlockReference
  2
_OPEN30
 10
-66.99999999999999
 20
2.999999999999918
 30
0.0
 41
1.25
 42
1.25
 43
1.25
 50
90.0
  0
INSERT
  5
5177
330
45F9
100
AcDbEntity
  8
AM_5
100
AcDbBlockReference
  2
_OPEN30
 10
-66.99999999999999
 20
-3.000000000000025
 30
0.0
 41
1.25
 42
1.25
 43
1.25
 50
270.0
  0
MTEXT
  5
5178
330
45F9
100
AcDbEntity
  8
AM_5
 62
     2
100
AcDbMText
 10
-68.54999999999998
 20
-0.0000000000000641
 30
0.0
 40
1.6
 41
0.0
 71
     5
 72
     1
  1
%%c6
  7
ASAMI
 11
0.0000000000000001
 21
1.0
 31
0.0
1001
ACAD
1000
MTEXTBEGIN
1070
    73
1070
     1
1070
    44
1040
1.0
1070
    74
1070
     0
1000
MTEXTEND
  0
POINT
  5
5179
330
45F9
100
AcDbEntity
  8
DEFPOINTS
 62
     0
100
AcDbPoint
 10
-59.49999999999999
 20
2.999999999999916
 30
0.0
  0
POINT
  5
517A
330
45F9
100
AcDbEntity
  8
DEFPOINTS
 62
     0
100
AcDbPoint
 10
-59.49999999999997
 20
-3.000000000000027
 30
0.0
  0
POINT
  5
517B
330
45F9
100
AcDbEntity
  8
DEFPOINTS
 62
     0
100
AcDbPoint
 10
-66.99999999999999
 20
-3.000000000000025
 30
0.0
  0
ENDBLK
  5
4606
330
45F9
100
AcDbEntity
  8
0
100
AcDbBlockEnd
  0
BLOCK
  5
4772
330
4768
100
AcDbEntity
  8
0
100
AcDbBlockBegin
  2
*D8
 70
     1
 10
0.0
 20
0.0
 30
0.0
  3
*D8
  1

  0
LINE
  5
5167
330
4768
100
AcDbEntity
  8
AM_5
100
AcDbLine
 10
-1.0
 20
1.499999999999999
 30
0.0
 11
7.5
 21
1.499999999999997
 31
0.0
  0
LINE
  5
5168
330
4768
100
AcDbEntity
  8
AM_5
100
AcDbLine
 10
-1.3
 20
-1.5
 30
0.0
 11
7.5
 21
-1.500000000000003
 31
0.0
  0
LINE
  5
5169
330
4768
100
AcDbEntity
  8
AM_5
100
AcDbLine
 10
7.000000000000001
 20
2.749999999999997
 30
0.0
 11
7.000000000000001
 21
3.999999999999997
 31
0.0
  0
LINE
  5
516A
330
4768
100
AcDbEntity
  8
AM_5
100
AcDbLine
 10
7.0
 20
-2.750000000000002
 30
0.0
 11
7.0
 21
-4.000000000000002
 31
0.0
  0
LINE
  5
516B
330
4768
100
AcDbEntity
  8
AM_5
100
AcDbLine
 10
7.0
 20
1.499999999999997
 30
0.0
 11
7.0
 21
-1.500000000000002
 31
0.0
  0
INSERT
  5
516C
330
4768
100
AcDbEntity
  8
AM_5
100
AcDbBlockReference
  2
_OPEN30
 10
7.0
 20
1.499999999999997
 30
0.0
 41
1.25
 42
1.25
 43
1.25
 50
270.0
  0
INSERT
  5
516D
330
4768
100
AcDbEntity
  8
AM_5
100
AcDbBlockReference
  2
_OPEN30
 10
7.0
 20
-1.500000000000002
 30
0.0
 41
1.25
 42
1.25
 43
1.25
 50
90.0
  0
MTEXT
  5
516E
330
4768
100
AcDbEntity
  8
AM_5
 62
     2
100
AcDbMText
 10
5.450000000000001
 20
-0.0000000000000012
 30
0.0
 40
1.6
 41
0.0
 71
     5
 72
     1
  1
%%c3
  7
ASAMI
 11
0.0000000000000001
 21
1.0
 31
0.0
1001
ACAD
1000
MTEXTBEGIN
1070
    73
1070
     1
1070
    44
1040
1.0
1070
    74
1070
     0
1000
MTEXTEND
  0
POINT
  5
516F
330
4768
100
AcDbEntity
  8
DEFPOINTS
 62
     0
100
AcDbPoint
 10
-1.5
 20
1.5
 30
0.0
  0
POINT
  5
5170
330
4768
100
AcDbEntity
  8
DEFPOINTS
 62
     0
100
AcDbPoint
 10
-1.8
 20
-1.5
 30
0.0
  0
POINT
  5
5171
330
4768
100
AcDbEntity
  8
DEFPOINTS
 62
     0
100
AcDbPoint
 10
7.0
 20
-1.500000000000002
 30
0.0
  0
ENDBLK
  5
4773
330
4768
100
AcDbEntity
  8
0
100
AcDbBlockEnd
  0
BLOCK
  5
4E57
330
4E51
100
AcDbEntity
  8
0
100
AcDbBlockBegin
  2
*D9
 70
     1
 10
0.0
 20
0.0
 30
0.0
  3
*D9
  1

  0
LINE
  5
51DC
330
4E51
100
AcDbEntity
  8
AM_5
100
AcDbLine
 10
3.532787063151605
 20
-8.788864522852248
 30
0.0
 11
-0.1361170675880648
 21
-2.36516542862799
 31
0.0
  0
MTEXT
  5
51DD
330
4E51
100
AcDbEntity
  8
AM_5
 62
     2
100
AcDbMText
 10
3.354245987372743
 20
-5.350997731814255
 30
0.0
 40
1.6
 41
0.0
 71
     5
 72
     1
  1
R1.5
  7
ASAMI
 11
0.4959574299680276
 21
-0.8683468360393266
 31
0.0
  0
LINE
  5
51DE
330
4E51
100
AcDbEntity
  8
AM_5
100
AcDbLine
 10
-1.500000000000141
 20
0.022788370480157
 30
0.0
 11
-0.7560638550480993
 21
-1.279731883578832
 31
0.0
  0
INSERT
  5
51DF
330
4E51
100
AcDbEntity
  8
AM_5
100
AcDbBlockReference
  2
_OPEN30
 10
-0.7560638550480993
 20
-1.279731883578832
 30
0.0
 41
1.25
 42
1.25
 43
1.25
 50
119.7329041869534
  0
POINT
  5
51E0
330
4E51
100
AcDbEntity
  8
DEFPOINTS
 62
     0
100
AcDbPoint
 10
-0.7560638550480993
 20
-1.279731883578832
 30
0.0
  0
POINT
  5
51E1
330
4E51
100
AcDbEntity
  8
DEFPOINTS
 62
     0
100
AcDbPoint
 10
-1.500000000000141
 20
0.022788370480157
 30
0.0
  0
ENDBLK
  5
4E58
330
4E51
100
AcDbEntity
  8
0
100
AcDbBlockEnd
  0
ENDSEC
  0
SECTION
  2
ENTITIES
  0
TEXT
  5
1500
330
1F
100
AcDbEntity
  8
AM_6
100
AcDbText
 10
-40.41666666666664
 20
-27.25000099999995
 30
0.0
 40
2.5
  1
SSB2030ZX
 72
     4
 11
-29.99999999999997
 21
-26.00000099999995
 31
0.0
100
AcDbText
  0
LINE
  5
3EE8
330
1F
100
AcDbEntity
  8
AM_7
  6
AM_ISO08W050X2
100
AcDbLine
 10
1.341626940564765
 20
0.0
 30
0.0
 11
-62.05619412995955
 21
-0.0000000000000355
 31
0.0
1001
GENIUS_GENODEF_13
1002
{
1000
HIER
1070
     0
1002
}
1002
{
1000
MANEDIT
1070
     0
1002
}
1002
{
1000
NOSEL
1070
     0
1002
}
1002
{
1000
BEHIND
1070
     0
1002
}
1002
{
1000
REACTOR
1002
}
1001
GENIUS_GENOBJ-N-CEN_13
1002
{
1000
OWNER
1000
GEN
1002
}
  0
DIMENSION
  5
4047
330
1F
100
AcDbEntity
  8
AM_5
100
AcDbDimension
  2
*D5
 10
-0.0000000000000003
 20
-16.00000099999995
 30
0.0
 11
-29.99999999999998
 21
-14.45000099999995
 31
0.0
 70
    32
  1
<>
  3
AM_JIS
100
AcDbAlignedDimension
 13
-59.99999999999997
 23
-2.500000000000015
 33
0.0
 14
0.0000000000000007
 24
-0.0000000000000005
 34
0.0
 50
0.0000000000001132
100
AcDbRotatedDimension
1001
GENIUS_GENDTOL_13
1000

1000
h7
1000

1040
0.0
  0
DIMENSION
  5
412A
330
1F
100
AcDbEntity
  8
AM_5
100
AcDbDimension
  2
*D6
 10
-8.999999999999998
 20
-10.00000099999998
 30
0.0
 11
-4.500000000000006
 21
-8.450000999999986
 31
0.0
 70
    32
  1
<>
  3
AM_JIS
100
AcDbAlignedDimension
 13
-0.0000000000000142
 23
-0.0000000000000111
 33
0.0
 14
-8.999999999999998
 24
-1.5
 34
0.0
 50
0.0000000000001132
100
AcDbRotatedDimension
1001
GENIUS_GENDTOL_13
1000

1000
h7
1000

1040
0.0
  0
LINE
  5
45F3
330
1F
100
AcDbEntity
  8
AM_0
100
AcDbLine
 10
-17.49999999999998
 20
-2.999999999999994
 30
0.0
 11
-59.49999999999997
 21
-3.000000000000015
 31
0.0
  0
LINE
  5
45F6
330
1F
100
AcDbEntity
  8
AM_0
100
AcDbLine
 10
-59.49999999999999
 20
2.999999999999916
 30
0.0
 11
-59.49999999999997
 21
-3.000000000000024
 31
0.0
  0
LINE
  5
45F7
330
1F
100
AcDbEntity
  8
AM_0
100
AcDbLine
 10
-60.0
 20
2.499999999999916
 30
0.0
 11
-59.99999999999997
 21
-2.500000000000015
 31
0.0
  0
DIMENSION
  5
45F8
330
1F
100
AcDbEntity
  8
AM_5
100
AcDbDimension
  2
*D7
 10
-66.99999999999999
 20
-3.000000000000025
 30
0.0
 11
-68.54999999999998
 21
-0.0000000000000641
 31
0.0
 70
    32
  1
%%c<>
  3
AM_JIS
100
AcDbAlignedDimension
 13
-59.49999999999999
 23
2.999999999999916
 33
0.0
 14
-59.49999999999997
 24
-3.000000000000027
 34
0.0
 50
270.0
100
AcDbRotatedDimension
1001
GENIUS_GENDTOL_13
1000

1000
h7
1000

1040
0.0
  0
LINE
  5
4607
330
1F
100
AcDbEntity
  8
AM_0
100
AcDbLine
 10
-17.49999999999999
 20
2.999999999999916
 30
0.0
 11
-59.5
 21
2.999999999999916
 31
0.0
  0
LINE
  5
4615
330
1F
100
AcDbEntity
  8
AM_0
100
AcDbLine
 10
-59.5
 20
2.999999999999916
 30
0.0
 11
-60.0
 21
2.499999999999916
 31
0.0
1001
GENIUS_GENFIL_13
1070
     0
1040
0.5
1040
0.5
1040
20.0
1040
0.0
1002
{
1002
}
1001
GENIUS_GENODEF_13
1002
{
1000
HIER
1070
     0
1002
}
1002
{
1000
MANEDIT
1070
     0
1002
}
1002
{
1000
NOSEL
1070
     0
1002
}
1002
{
1000
BEHIND
1070
     0
1002
}
1002
{
1000
REACTOR
1002
}
1001
GENIUS_GENOBJ-N-CHA_13
1002
{
1000
OWNER
1000
GEN
1002
}
  0
LINE
  5
4618
330
1F
100
AcDbEntity
  8
AM_0
100
AcDbLine
 10
-59.99999999999997
 20
-2.500000000000015
 30
0.0
 11
-59.49999999999997
 21
-3.000000000000015
 31
0.0
1001
GENIUS_GENFIL_13
1070
     0
1040
0.5
1040
0.5
1040
20.0
1040
0.0
1002
{
1002
}
1001
GENIUS_GENODEF_13
1002
{
1000
HIER
1070
     0
1002
}
1002
{
1000
MANEDIT
1070
     0
1002
}
1002
{
1000
NOSEL
1070
     0
1002
}
1002
{
1000
BEHIND
1070
     0
1002
}
1002
{
1000
REACTOR
1002
}
1001
GENIUS_GENOBJ-N-CHA_13
1002
{
1000
OWNER
1000
GEN
1002
}
  0
SPLINE
  5
4737
330
1F
100
AcDbEntity
  8
AM_0
100
AcDbSpline
210
0.0
220
0.0
230
1.0
 70
     8
 71
     3
 72
     8
 73
     4
 74
     0
 42
0.0000000001
 43
0.0000000001
 40
1.794922859428793
 40
1.794922859428793
 40
1.794922859428793
 40
1.794922859428793
 40
17.5282628916844
 40
17.5282628916844
 40
17.5282628916844
 40
17.5282628916844
 10
-1.499999999999045
 20
-1.477211629518411
 30
0.0
 10
-3.054280593891049
 20
-1.346397540601675
 30
0.0
 10
-4.529561460489047
 20
-0.6731987703008393
 30
0.0
 10
-6.004842327087183
 20
0.0
 30
0.0
  0
SPLINE
  5
4738
330
1F
100
AcDbEntity
  8
AM_0
100
AcDbSpline
210
0.0
220
0.0
230
1.0
 70
     8
 71
     3
 72
     8
 73
     4
 74
     0
 42
0.0000000001
 43
0.0000000001
 40
3.732786119440464
 40
3.732786119440464
 40
3.732786119440464
 40
3.732786119440464
 40
17.48613721147548
 40
17.48613721147548
 40
17.48613721147548
 40
17.48613721147548
 10
-1.435425893361162
 20
-1.362692883285628
 30
0.0
 10
-2.779888905268263
 20
-1.14446013239592
 30
0.0
 10
-4.074274009454027
 20
-0.5722300661979958
 30
0.0
 10
-5.368659113639794
 20
0.0
 30
0.0
  0
SPLINE
  5
4739
330
1F
100
AcDbEntity
  8
AM_0
100
AcDbSpline
210
0.0
220
0.0
230
1.0
 70
     8
 71
     3
 72
     8
 73
     4
 74
     0
 42
0.0000000001
 43
0.0000000001
 40
6.513172597598655
 40
6.513172597598655
 40
6.513172597598655
 40
6.513172597598655
 40
17.4246383984571
 40
17.4246383984571
 40
17.4246383984571
 40
17.4246383984571
 10
-1.499999999999996
 20
-1.132606378307968
 30
0.0
 10
-2.555481398612164
 20
-0.868609049108546
 30
0.0
 10
-3.58795484844286
 20
-0.4343045245542747
 30
0.0
 10
-4.620428298273552
 20
0.0
 30
0.0
  0
SPLINE
  5
473A
330
1F
100
AcDbEntity
  8
AM_0
100
AcDbSpline
210
0.0
220
0.0
230
1.0
 70
     8
 71
     3
 72
     8
 73
     4
 74
     0
 42
0.0000000001
 43
0.0000000001
 40
1.794922859432252
 40
1.794922859432252
 40
1.794922859432252
 40
1.794922859432252
 40
8.217791785374707
 40
8.217791785374707
 40
8.217791785374707
 40
8.217791785374707
 10
-1.499999999999996
 20
1.47721162951824
 30
0.0
 10
-2.134508661748851
 20
1.42380899885892
 30
0.0
 10
-2.755851687213726
 20
1.28001568350238
 30
0.0
 10
-3.369403723863567
 20
1.082732145699278
 30
0.0
  0
SPLINE
  5
473B
330
1F
100
AcDbEntity
  8
AM_0
100
AcDbSpline
210
0.0
220
0.0
230
1.0
 70
     8
 71
     3
 72
     8
 73
     4
 74
     2
 42
0.0000000001
 43
0.0000000001
 44
0.0000000001
 12
-0.8789112757303589
 22
0.4769852926391262
 32
0.0
 13
0.9988106394578339
 23
0.0487576302319218
 33
0.0
 40
0.0
 40
0.0
 40
0.0
 40
0.0
 40
0.6472349580988209
 40
0.6472349580988209
 40
0.6472349580988209
 40
0.6472349580988209
 10
-1.568334408203778
 20
0.4166554946547408
 30
0.0
 10
-1.757955109110418
 20
0.5195626799530869
 30
0.0
 10
-1.996157165665174
 20
1.017550384181298
 30
0.0
 10
-1.780668778205791
 20
1.028069598434683
 30
0.0
 11
-1.568334408203778
 21
0.4166554946547408
 31
0.0
 11
-1.780668778205791
 21
1.028069598434683
 31
0.0
  0
SPLINE
  5
473C
330
1F
100
AcDbEntity
  8
AM_0
100
AcDbSpline
210
0.0
220
0.0
230
1.0
 70
     8
 71
     3
 72
     8
 73
     4
 74
     2
 42
0.0000000001
 43
0.0000000001
 44
0.0000000001
 12
0.4216926876958761
 22
-0.9067388141818064
 32
0.0
 13
-0.9928045895078733
 23
-0.119745760058982
 33
0.0
 40
0.0
 40
0.0
 40
0.0
 40
0.0
 40
0.5296258369398891
 40
0.5296258369398891
 40
0.5296258369398891
 40
0.5296258369398891
 10
-1.499999999999996
 20
1.47721162951824
 30
0.0
 10
-1.425553552449209
 20
1.317134195069266
 30
0.0
 10
-1.605397124341897
 20
1.049209747897748
 30
0.0
 10
-1.780668778220521
 20
1.028069598434001
 30
0.0
 11
-1.499999999999996
 21
1.47721162951824
 31
0.0
 11
-1.780668778220521
 21
1.028069598434001
 31
0.0
  0
SPLINE
  5
473D
330
1F
100
AcDbEntity
  8
AM_0
100
AcDbSpline
210
0.0
220
0.0
230
1.0
 70
     8
 71
     3
 72
     9
 73
     5
 74
     3
 42
0.0000000001
 43
0.0000000001
 44
0.0000000001
 12
0.5867325161912577
 22
-0.8097808064185493
 32
0.0
 13
-0.8994987856269101
 23
0.4369232594583561
 33
0.0
 40
0.0
 40
0.0
 40
0.0
 40
0.0
 40
0.1344039549296836
 40
0.4003987145404905
 40
0.4003987145404905
 40
0.4003987145404905
 40
0.4003987145404905
 10
-1.31592417224505
 20
-0.9127797508135486
 30
0.0
 10
-1.2896377820244
 20
-0.9490589984831492
 30
0.0
 10
-1.176248190363074
 20
-1.078768945262401
 30
0.0
 10
-1.420246012248981
 20
-1.1713461440973
 30
0.0
 10
-1.499999999999996
 20
-1.132606378307968
 30
0.0
 11
-1.31592417224505
 21
-0.9127797508135486
 31
0.0
 11
-1.253783277264889
 21
-1.03195580659576
 31
0.0
 11
-1.499999999999996
 21
-1.132606378307968
 31
0.0
  0
SPLINE
  5
473E
330
1F
100
AcDbEntity
  8
AM_0
100
AcDbSpline
210
0.0
220
0.0
230
1.0
 70
     8
 71
     3
 72
     8
 73
     4
 74
     0
 42
0.0000000001
 43
0.0000000001
 40
15.41323093265439
 40
15.41323093265439
 40
15.41323093265439
 40
15.41323093265439
 40
17.52826289168434
 40
17.52826289168434
 40
17.52826289168434
 40
17.52826289168434
 10
-9.0
 20
0.8386887955724091
 30
0.0
 10
-7.877084826271538
 20
0.6346864648777001
 30
0.0
 10
-6.825155515002074
 20
0.341509363401417
 30
0.0
 10
-6.004842327087183
 20
0.0
 30
0.0
  0
SPLINE
  5
473F
330
1F
100
AcDbEntity
  8
AM_0
100
AcDbSpline
210
0.0
220
0.0
230
1.0
 70
     8
 71
     3
 72
     8
 73
     4
 74
     0
 42
0.0000000001
 43
0.0000000001
 40
13.13081676297142
 40
13.13081676297142
 40
13.13081676297142
 40
13.13081676297142
 40
17.48613721147548
 40
17.48613721147548
 40
17.48613721147548
 40
17.48613721147548
 10
-9.0
 20
1.093983222049018
 30
0.0
 10
-7.519118818468741
 20
0.7963271580136811
 30
0.0
 10
-6.534604503861623
 20
0.5467836022264237
 30
0.0
 10
-5.368659113639794
 20
0.0
 30
0.0
  0
SPLINE
  5
4740
330
1F
100
AcDbEntity
  8
AM_0
100
AcDbSpline
210
0.0
220
0.0
230
1.0
 70
     8
 71
     3
 72
     8
 73
     4
 74
     0
 42
0.0000000001
 43
0.0000000001
 40
0.7484745895110383
 40
0.7484745895110383
 40
0.7484745895110383
 40
0.7484745895110383
 40
17.4246383984571
 40
17.4246383984571
 40
17.4246383984571
 40
17.4246383984571
 10
-10.03768906956935
 20
1.499999999999968
 30
0.0
 10
-8.260918030497961
 20
1.327508792423408
 30
0.0
 10
-6.80194568878643
 20
0.8698216366305295
 30
0.0
 10
-4.620428298273552
 20
0.0
 30
0.0
  0
SPLINE
  5
4741
330
1F
100
AcDbEntity
  8
AM_0
100
AcDbSpline
210
0.0
220
0.0
230
1.0
 70
     8
 71
     3
 72
     8
 73
     4
 74
     0
 42
0.0000000001
 43
0.0000000001
 40
0.0
 40
0.0
 40
0.0
 40
0.0
 40
2.890953265908282
 40
2.890953265908282
 40
2.890953265908282
 40
2.890953265908282
 10
-10.10549545727591
 20
-1.499999999999996
 30
0.0
 10
-9.636580164443236
 20
-1.453284375654692
 30
0.0
 10
-9.323788338529778
 20
-1.384773123553102
 30
0.0
 10
-9.0
 20
-1.292975483051759
 30
0.0
  0
LINE
  5
4742
330
1F
100
AcDbEntity
  8
AM_0
100
AcDbLine
 10
-9.0
 20
-1.292975483051759
 30
0.0
 11
-3.36940372386357
 21
-1.082732145699377
 31
0.0
  0
LINE
  5
4743
330
1F
100
AcDbEntity
  8
AM_11
100
AcDbLine
 10
-8.999999999999998
 20
-1.5
 30
0.0
 11
-1.5
 21
-1.5
 31
0.0
  0
LINE
  5
4744
330
1F
100
AcDbEntity
  8
AM_11
100
AcDbLine
 10
-1.5
 20
1.499999999999964
 30
0.0
 11
-8.999999999999998
 21
1.499999999999964
 31
0.0
  0
LINE
  5
4745
330
1F
100
AcDbEntity
  8
AM_0
100
AcDbLine
 10
-8.39705115362668
 20
1.242970605785215
 30
0.0
 11
-1.780668778205927
 21
1.028069598434683
 31
0.0
  0
LINE
  5
4747
330
1F
100
AcDbEntity
  8
AM_11
100
AcDbLine
 10
-8.999999999999998
 20
1.499999999999964
 30
0.0
 11
-8.999999999999998
 21
-1.5
 31
0.0
  0
POLYLINE
  5
4748
330
1F
100
AcDbEntity
  8
AM_0
100
AcDb2dPolyline
 66
     1
 10
0.0
 20
0.0
 30
0.0
 70
     2
  0
VERTEX
  5
4C1A
330
4748
100
AcDbEntity
  8
AM_0
100
AcDbVertex
100
AcDb2dVertex
 10
-9.0
 20
0.8386887955724091
 30
0.0
 42
0.0133190182982484
  0
VERTEX
  5
4C28
330
4748
100
AcDbEntity
  8
AM_0
100
AcDbVertex
100
AcDb2dVertex
 10
-9.341167260163206
 20
0.7798016189075661
 30
0.0
 42
0.0206055082738524
 70
     1
  0
VERTEX
  5
4C1B
330
4748
100
AcDbEntity
  8
AM_0
100
AcDbVertex
100
AcDb2dVertex
 10
-9.558657585995938
 20
0.726863269333638
 30
0.0
 42
0.0010255928715063
  0
VERTEX
  5
4C29
330
4748
100
AcDbEntity
  8
AM_0
100
AcDbVertex
100
AcDb2dVertex
 10
-9.846998772284996
 20
0.6433188751868329
 30
0.0
 42
0.0055579029936777
 70
     1
  0
VERTEX
  5
4C1C
330
4748
100
AcDbEntity
  8
AM_0
100
AcDbVertex
100
AcDb2dVertex
 10
-9.9
 20
0.6272028354447574
 30
0.0
 42
0.0144265122349397
  0
VERTEX
  5
4C2A
330
4748
100
AcDbEntity
  8
AM_0
100
AcDbVertex
100
AcDb2dVertex
 10
-10.16521116509038
 20
0.5348318785934496
 30
0.0
 42
0.0064805851230883
 70
     1
  0
VERTEX
  5
4C1D
330
4748
100
AcDbEntity
  8
AM_0
100
AcDbVertex
100
AcDb2dVertex
 10
-10.74639331780218
 20
0.3047434690236184
 30
0.0
 42
0.0155505912919587
  0
VERTEX
  5
4C2B
330
4748
100
AcDbEntity
  8
AM_0
100
AcDbVertex
100
AcDb2dVertex
 10
-10.96999351391155
 20
0.2046149565413884
 30
0.0
 42
0.0256792573039515
 70
     1
  0
VERTEX
  5
4C1E
330
4748
100
AcDbEntity
  8
AM_0
100
AcDbVertex
100
AcDb2dVertex
 10
-11.1
 20
0.1330052011607332
 30
0.0
 42
0.0887915185079863
  0
VERTEX
  5
4C2C
330
4748
100
AcDbEntity
  8
AM_0
100
AcDbVertex
100
AcDb2dVertex
 10
-11.2162820136925
 20
0.0285362955267843
 30
0.0
 42
0.0497717146308219
 70
     1
  0
VERTEX
  5
4C1F
330
4748
100
AcDbEntity
  8
AM_0
100
AcDbVertex
100
AcDb2dVertex
 10
-11.36415331709486
 20
-0.2061312421010655
 30
0.0
 42
0.019220562583607
  0
VERTEX
  5
4C2D
330
4748
100
AcDbEntity
  8
AM_0
100
AcDbVertex
100
AcDb2dVertex
 10
-11.39800607967814
 20
-0.2810532967985523
 30
0.0
 42
0.1191256070877622
 70
     1
  0
VERTEX
  5
4C20
330
4748
100
AcDbEntity
  8
AM_0
100
AcDbVertex
100
AcDb2dVertex
 10
-11.4
 20
-0.294353101657162
 30
0.0
 42
0.1030806632905034
  0
VERTEX
  5
4C2E
330
4748
100
AcDbEntity
  8
AM_0
100
AcDbVertex
100
AcDb2dVertex
 10
-11.39389446091937
 20
-0.3145361218090187
 30
0.0
 42
0.0306967340520419
 70
     1
  0
VERTEX
  5
4C21
330
4748
100
AcDbEntity
  8
AM_0
100
AcDbVertex
100
AcDb2dVertex
 10
-11.35660868584895
 20
-0.3739330353451412
 30
0.0
 42
0.0325479444974181
  0
VERTEX
  5
4C2F
330
4748
100
AcDbEntity
  8
AM_0
100
AcDbVertex
100
AcDb2dVertex
 10
-11.27037366588988
 20
-0.4790556296390236
 30
0.0
 42
0.0250903602213412
 70
     1
  0
VERTEX
  5
4C22
330
4748
100
AcDbEntity
  8
AM_0
100
AcDbVertex
100
AcDb2dVertex
 10
-11.14362284782774
 20
-0.601603187504678
 30
0.0
 42
0.0351390755216263
  0
VERTEX
  5
4C30
330
4748
100
AcDbEntity
  8
AM_0
100
AcDbVertex
100
AcDb2dVertex
 10
-10.97224646319838
 20
-0.731376599891317
 30
0.0
 42
0.029402247913624
 70
     1
  0
VERTEX
  5
4C23
330
4748
100
AcDbEntity
  8
AM_0
100
AcDbVertex
100
AcDb2dVertex
 10
-10.74925982073573
 20
-0.8587789154762504
 30
0.0
 42
0.0290499554422328
  0
VERTEX
  5
4C31
330
4748
100
AcDbEntity
  8
AM_0
100
AcDbVertex
100
AcDb2dVertex
 10
-10.38814977348071
 20
-1.012396245430771
 30
0.0
 42
0.028925086886514
 70
     1
  0
VERTEX
  5
4C24
330
4748
100
AcDbEntity
  8
AM_0
100
AcDbVertex
100
AcDb2dVertex
 10
-10.01007360291846
 20
-1.123694927001878
 30
0.0
 42
0.0065284305324324
  0
VERTEX
  5
4C33
330
4748
100
AcDbEntity
  8
AM_0
100
AcDbVertex
100
AcDb2dVertex
 10
-9.860847409975757
 20
-1.156345345194222
 30
0.0
 42
0.0025850798106436
 70
     1
  0
VERTEX
  5
4C25
330
4748
100
AcDbEntity
  8
AM_0
100
AcDbVertex
100
AcDb2dVertex
 10
-9.482560903015208
 20
-1.23191660497049
 30
0.0
 42
0.0165376614770678
  0
VERTEX
  5
4C32
330
4748
100
AcDbEntity
  8
AM_0
100
AcDbVertex
100
AcDb2dVertex
 10
-9.312321693545323
 20
-1.259203615849274
 30
0.0
 42
0.0090747089660156
 70
     1
  0
VERTEX
  5
4C26
330
4748
100
AcDbEntity
  8
AM_0
100
AcDbVertex
100
AcDb2dVertex
 10
-9.0
 20
-1.292975483051759
 30
0.0
  0
SEQEND
  5
4C27
330
4748
100
AcDbEntity
  8
AM_0
  0
DIMENSION
  5
4759
330
1F
100
AcDbEntity
  8
AM_5
100
AcDbDimension
  2
*D8
 10
7.0
 20
-1.500000000000002
 30
0.0
 11
7.0
 21
-0.0000000000000014
 31
0.0
 70
   160
  1
%%c<>
  3
AM_JIS
100
AcDbAlignedDimension
 13
-1.5
 23
1.5
 33
0.0
 14
-1.8
 24
-1.5
 34
0.0
 50
90.0
100
AcDbRotatedDimension
1001
GENIUS_GENDTOL_13
1000

1000
h7
1000

1040
0.0
  0
ARC
  5
475A
330
1F
100
AcDbEntity
  8
AM_0
100
AcDbCircle
 10
-1.500000000000141
 20
0.022788370480157
 30
0.0
 40
1.5
100
AcDbArc
 50
270.0000000000781
 51
359.1295148788724
  0
ARC
  5
475C
330
1F
100
AcDbEntity
  8
AM_0
100
AcDbCircle
 10
-1.451719664672378
 20
0.4029770774434152
 30
0.0
 40
1.322745798280388
100
AcDbArc
 50
275.8924707062755
 51
339.8416840647174
  0
LINE
  5
475D
330
1F
100
AcDbEntity
  8
AM_0
100
AcDbLine
 10
-0.0000000000000005
 20
0.0
 30
0.0
 11
-1.780668778205791
 21
1.028069598434683
 31
0.0
  0
ARC
  5
475E
330
1F
100
AcDbEntity
  8
AM_0
100
AcDbCircle
 10
-1.500000000000004
 20
-0.0227883704817256
 30
0.0
 40
1.5
100
AcDbArc
 50
0.8704851212057906
 51
90.0
  0
LINE
  5
475F
330
1F
100
AcDbEntity
  8
AM_0
100
AcDbLine
 10
-0.2100000000000824
 20
-0.0528614040765199
 30
0.0
 11
-1.568334408203782
 21
0.4166554946547426
 31
0.0
  0
ARC
  5
4760
330
1F
100
AcDbEntity
  8
AM_11
100
AcDbCircle
 10
-1.500000000000004
 20
0.0
 30
0.0
 40
1.5
100
AcDbArc
 50
270.0
 51
90.0
  0
ARC
  5
4761
330
1F
100
AcDbEntity
  8
AM_0
100
AcDbCircle
 10
-1.541056343038285
 20
0.1151501257421152
 30
0.0
 40
1.481613225923371
100
AcDbArc
 50
274.0883259404363
 51
353.4887846299623
  0
ARC
  5
4762
330
1F
100
AcDbEntity
  8
AM_0
100
AcDbCircle
 10
-0.0615422738522332
 20
0.0140599239361787
 30
0.0
 40
1.559649232906561
100
AcDbArc
 50
165.040742132377
 51
216.4600123166023
  0
LINE
  5
4763
330
1F
100
AcDbEntity
  8
AM_0
100
AcDbLine
 10
-1.435425893361162
 20
-1.362692883285557
 30
0.0
 11
-1.500000000000136
 21
-1.132606378307968
 31
0.0
  0
LINE
  5
4764
330
1F
100
AcDbEntity
  8
AM_0
100
AcDbLine
 10
-1.499999999981856
 20
-1.477211629519842
 30
0.0
 11
-1.435425893361162
 21
-1.362692883285557
 31
0.0
  0
LINE
  5
4765
330
1F
100
AcDbEntity
  8
AM_0
100
AcDbLine
 10
-0.069000000000006
 20
-0.0528614040765199
 30
0.0
 11
-0.2100000000000824
 21
-0.0528614040765199
 31
0.0
  0
LINE
  5
4766
330
1F
100
AcDbEntity
  8
AM_0
100
AcDbLine
 10
-0.0000000000000005
 20
0.0
 30
0.0
 11
-0.069000000000006
 21
-0.0528614040765199
 31
0.0
  0
LINE
  5
4ADA
330
1F
100
AcDbEntity
  8
AM_0
100
AcDbLine
 10
-17.49999999999999
 20
2.999999999999916
 30
0.0
 11
-17.49999999999997
 21
-2.999999999999995
 31
0.0
  0
LINE
  5
4AF6
330
1F
100
AcDbEntity
  8
AM_0
100
AcDbLine
 10
-11.90192378864684
 20
1.499999999999962
 30
0.0
 11
-17.49999999999999
 21
2.999999999999916
 31
0.0
  0
LINE
  5
4AF8
330
1F
100
AcDbEntity
  8
AM_0
100
AcDbLine
 10
-11.90192378864668
 20
-1.500000000000001
 30
0.0
 11
-17.49999999999997
 21
-2.999999999999995
 31
0.0
  0
LINE
  5
4C18
330
1F
100
AcDbEntity
  8
AM_0
100
AcDbLine
 10
-9.0
 20
0.8386887955724091
 30
0.0
 11
-9.0
 21
1.361017935041406
 31
0.0
  0
LINE
  5
4E37
330
1F
100
AcDbEntity
  8
AM_0
100
AcDbLine
 10
-11.90192378864684
 20
1.499999999999962
 30
0.0
 11
-11.90192378864682
 21
-1.500000000000002
 31
0.0
  0
LINE
  5
4E38
330
1F
100
AcDbEntity
  8
AM_0
100
AcDbLine
 10
-10.03768906945514
 20
1.499999999999964
 30
0.0
 11
-11.90192378864683
 21
1.499999999999962
 31
0.0
  0
LINE
  5
4E39
330
1F
100
AcDbEntity
  8
AM_0
100
AcDbLine
 10
-10.10549545725989
 20
-1.5
 30
0.0
 11
-11.90192378864682
 21
-1.500000000000002
 31
0.0
  0
DIMENSION
  5
4E50
330
1F
100
AcDbEntity
  8
AM_5
100
AcDbDimension
  2
*D9
 10
-1.500000000000141
 20
0.022788370480157
 30
0.0
 11
3.354245987372743
 21
-5.350997731814255
 31
0.0
 70
    36
  1
<>
  3
AM_JIS$4
100
AcDbRadialDimension
 15
-0.7560638550480993
 25
-1.279731883578832
 35
0.0
 40
0.0
1001
GENIUS_GENDTOL_13
1000

1000
h7
1000

1040
0.0
1001
ACAD
1000
DSTYLE
1002
{
1070
   287
1070
     3
1070
   271
1070
     3
1070
   288
1070
     1
1070
   289
1070
     3
1070
   172
1070
     1
1070
    74
1070
     0
1002
}
  0
VIEWPORT
  5
110
330
101
100
AcDbEntity
 67
     1
  8
0
100
AcDbViewport
 10
420.5
 20
297.0
 30
0.0
 40
948.9782706766916
 41
628.452
 68
     1
 69
     1
1001
ACAD
1000
MVIEW
1002
{
1070
    16
1010
0.0
1020
0.0
1030
0.0
1010
0.0
1020
0.0
1030
1.0
1040
0.0
1040
628.452
1040
420.5
1040
297.0
1040
50.0
1040
0.0
1040
0.0
1070
     0
1070
   100
1070
     1
1070
     1
1070
     0
1070
     0
1070
     0
1070
     0
1040
0.0
1040
0.0
1040
0.0
1040
10.0
1040
10.0
1040
10.0
1040
10.0
1070
     0
1002
{
1002
}
1002
}
  0
ENDSEC
  0
SECTION
  2
OBJECTS
  0
DICTIONARY
  5
C
330
0
100
AcDbDictionary
  3
ACAD_GROUP
350
D
  3
ACAD_LAYOUT
350
1A
  3
ACAD_MLINESTYLE
350
17
  3
ACAD_PLOTSETTINGS
350
19
  3
ACAD_PLOTSTYLENAME
350
E
  3
ACDBVARIABLEDICTIONARY
350
34
  3
ACMDICTIONARY
350
43
  3
AMG
350
2B
  3
AMGSNAPSETTINGS
350
6E
  3
ASE_INDEX_DICTIONARY
350
151A
  3
DWGPROPS
350
51A6
  3
ACDBHEADERROUNDTRIPXREC
350
51B2
  0
DICTIONARY
  5
74
330
1F
100
AcDbDictionary
280
     1
  3
ACAD_INDEX
360
51A8
  3
ACAD_LAYOUTSELFREF
360
51D5
  0
DICTIONARY
  5
51DA
330
101
100
AcDbDictionary
280
     1
  3
ACAD_LAYOUTSELFREF
360
51DB
  0
DICTIONARY
  5
D
102
{ACAD_REACTORS
330
C
102
}
330
C
100
AcDbDictionary
  0
DICTIONARY
  5
1A
102
{ACAD_REACTORS
330
C
102
}
330
C
100
AcDbDictionary
  0
DICTIONARY
  5
17
102
{ACAD_REACTORS
330
C
102
}
330
C
100
AcDbDictionary
  3
STANDARD
350
18
  0
DICTIONARY
  5
19
102
{ACAD_REACTORS
330
C
102
}
330
C
100
AcDbDictionary
  0
ACDBDICTIONARYWDFLT
  5
E
102
{ACAD_REACTORS
330
C
102
}
330
C
100
AcDbDictionary
281
     1
  3
Normal
350
F
100
AcDbDictionaryWithDefault
340
F
  0
DICTIONARY
  5
34
102
{ACAD_REACTORS
330
C
102
}
330
C
100
AcDbDictionary
  3
INDEXCTL
350
35
  3
SORTENTS
350
B5E
  0
DICTIONARY
  5
43
102
{ACAD_REACTORS
330
C
102
}
330
C
100
AcDbDictionary
  3
ACMSTDDICTIONARY
350
260
  0
DICTIONARY
  5
2B
102
{ACAD_REACTORS
330
C
102
}
330
C
100
AcDbDictionary
  3
ACMGSETTINGS
350
2C
  0
DICTIONARY
  5
6E
102
{ACAD_REACTORS
330
C
102
}
330
C
100
AcDbDictionary
  0
DICTIONARY
  5
151A
102
{ACAD_REACTORS
330
C
102
}
330
C
100
AcDbDictionary
  3
ASEBLOCKHIERARCHYINDEXRECORD
350
151C
1001
DCO15
1040
1471862535.906
  0
XRECORD
  5
51A6
102
{ACAD_REACTORS
330
C
102
}
330
C
100
AcDbXrecord
  1
DWGPROPS COOKIE
  2

  3

  4

  6

  7

  8

  9

300
AmdtFileType=82
301
=
302
=
303
=
304
=
305
=
306
=
307
=
308
=
309
=
 40
0.2053437962962963
 41
2452838.430434386
 42
2452901.593595914
  1

 90
        1
  0
DICTIONARY
  5
51B2
102
{ACAD_REACTORS
330
C
102
}
330
C
100
AcDbDictionary
  3
TSTACKALIGN
350
51B3
  3
TSTACKSIZE
350
51B4
  3
HYPERLINKBASE
350
51B5
  3
STYLESHEET
350
51B6
  3
LAYOUTDICT
350
51B7
  3
PLOTSETDICT
350
51B8
  3
PLOTSTYLNAMDICT
350
51B9
  3
LWETCUNION
350
51BA
  3
INSUNITS
350
51BB
  3
CEPSNTYPE
350
51BC
  3
FINGERPRINTGUID
350
51BD
  3
VERSIONGUID
350
51BE
  3
PSVPSCALE
350
51BF
  3
DIMSTYLEDATA
350
51C0
  3
PUCSORTHOREF
350
51C1
  3
PUCSORTHOVIEW
350
51C2
  3
PUCSBASE
350
51C3
  3
PUCSORGTOP
350
51C4
  3
PUCSORGBOTTOM
350
51C5
  3
PUCSORGLEFT
350
51C6
  3
PUCSORGRIGHT
350
51C7
  3
PUCSORGFRONT
350
51C8
  3
PUCSORGBACK
350
51C9
  3
UCSORTHOREF
350
51CA
  3
UCSORTHOVIEW
350
51CB
  3
UCSBASE
350
51CC
  3
UCSORGTOP
350
51CD
  3
UCSORGBOTTOM
350
51CE
  3
UCSORGLEFT
350
51CF
  3
UCSORGRIGHT
350
51D0
  3
UCSORGFRONT
350
51D1
  3
UCSORGBACK
350
51D2
  0
DICTIONARY
  5
51A8
102
{ACAD_REACTORS
330
74
102
}
330
74
100
AcDbDictionary
  3
*A1
350
51A9
  0
XRECORD
  5
51D5
102
{ACAD_REACTORS
330
74
102
}
330
74
100
AcDbXrecord
340
1F
  0
XRECORD
  5
51DB
102
{ACAD_REACTORS
330
51DA
102
}
330
51DA
100
AcDbXrecord
340
101
  0
MLINESTYLE
  5
18
102
{ACAD_REACTORS
330
17
102
}
330
17
100
AcDbMlineStyle
  2
STANDARD
 70
     0
  3

 62
   256
 51
90.0
 52
90.0
 71
     2
 49
0.5
 62
   256
  6
BYLAYER
 49
-0.5
 62
   256
  6
BYLAYER
  0
ACDBPLACEHOLDER
  5
F
102
{ACAD_REACTORS
330
E
102
}
330
E
100
AcDbPlaceHolder
280
     0
  0
DICTIONARYVAR
  5
35
102
{ACAD_REACTORS
330
34
102
}
330
34
100
DictionaryVariables
280
     0
  1
1
  0
DICTIONARYVAR
  5
B5E
102
{ACAD_REACTORS
330
34
102
}
330
34
100
DictionaryVariables
280
     0
  1
96
  0
DICTIONARY
  5
260
102
{ACAD_REACTORS
330
43
102
}
330
43
100
AcDbDictionary
  0
DICTIONARY
  5
2C
102
{ACAD_REACTORS
330
2B
102
}
330
2B
100
AcDbDictionary
  3
DWGSETTINGS
350
2D
  0
XRECORD
  5
151C
102
{ACAD_REACTORS
330
151A
102
}
330
151A
100
AcDbXrecord
330
0
330
0
330
0
330
0
330
0
330
0
330
0
330
0
  0
XRECORD
  5
51B3
102
{ACAD_REACTORS
330
51B2
102
}
330
51B2
100
AcDbXrecord
 90
        1
  0
XRECORD
  5
51B4
102
{ACAD_REACTORS
330
51B2
102
}
330
51B2
100
AcDbXrecord
 90
       70
  0
XRECORD
  5
51B5
102
{ACAD_REACTORS
330
51B2
102
}
330
51B2
100
AcDbXrecord
  1

  0
XRECORD
  5
51B6
102
{ACAD_REACTORS
330
51B2
102
}
330
51B2
100
AcDbXrecord
  1
ASAMI.ctb
  0
XRECORD
  5
51B7
102
{ACAD_REACTORS
330
51B2
102
}
330
51B2
100
AcDbXrecord
340
1A
  0
XRECORD
  5
51B8
102
{ACAD_REACTORS
330
51B2
102
}
330
51B2
100
AcDbXrecord
340
19
  0
XRECORD
  5
51B9
102
{ACAD_REACTORS
330
51B2
102
}
330
51B2
100
AcDbXrecord
340
E
  0
XRECORD
  5
51BA
102
{ACAD_REACTORS
330
51B2
102
}
330
51B2
100
AcDbXrecord
 90
    10781
  0
XRECORD
  5
51BB
102
{ACAD_REACTORS
330
51B2
102
}
330
51B2
100
AcDbXrecord
 90
        4
  0
XRECORD
  5
51BC
102
{ACAD_REACTORS
330
51B2
102
}
330
51B2
100
AcDbXrecord
 90
        0
  0
XRECORD
  5
51BD
102
{ACAD_REACTORS
330
51B2
102
}
330
51B2
100
AcDbXrecord
  1
{AFB28963-8C59-40AE-9337-C84526B81ACE}
  0
XRECORD
  5
51BE
102
{ACAD_REACTORS
330
51B2
102
}
330
51B2
100
AcDbXrecord
  1
{059FDD31-B729-445A-A1B6-0B9CBE5DD55C}
  0
XRECORD
  5
51BF
102
{ACAD_REACTORS
330
51B2
102
}
330
51B2
100
AcDbXrecord
 40
0.0
  0
XRECORD
  5
51C0
102
{ACAD_REACTORS
330
51B2
102
}
330
51B2
100
AcDbXrecord
1000
DSTYLE
1002
{
1070
    79
 70
     2
1070
   341
340
59
1070
   342
340
59
1070
   371
 70
    -1
1070
   372
 70
    -1
1002
}
  0
XRECORD
  5
51C1
102
{ACAD_REACTORS
330
51B2
102
}
330
51B2
100
AcDbXrecord
340
0
  0
XRECORD
  5
51C2
102
{ACAD_REACTORS
330
51B2
102
}
330
51B2
100
AcDbXrecord
 70
     0
  0
XRECORD
  5
51C3
102
{ACAD_REACTORS
330
51B2
102
}
330
51B2
100
AcDbXrecord
340
0
  0
XRECORD
  5
51C4
102
{ACAD_REACTORS
330
51B2
102
}
330
51B2
100
AcDbXrecord
 10
0.0
 20
0.0
 30
0.0
  0
XRECORD
  5
51C5
102
{ACAD_REACTORS
330
51B2
102
}
330
51B2
100
AcDbXrecord
 10
0.0
 20
0.0
 30
0.0
  0
XRECORD
  5
51C6
102
{ACAD_REACTORS
330
51B2
102
}
330
51B2
100
AcDbXrecord
 10
0.0
 20
0.0
 30
0.0
  0
XRECORD
  5
51C7
102
{ACAD_REACTORS
330
51B2
102
}
330
51B2
100
AcDbXrecord
 10
0.0
 20
0.0
 30
0.0
  0
XRECORD
  5
51C8
102
{ACAD_REACTORS
330
51B2
102
}
330
51B2
100
AcDbXrecord
 10
0.0
 20
0.0
 30
0.0
  0
XRECORD
  5
51C9
102
{ACAD_REACTORS
330
51B2
102
}
330
51B2
100
AcDbXrecord
 10
0.0
 20
0.0
 30
0.0
  0
XRECORD
  5
51CA
102
{ACAD_REACTORS
330
51B2
102
}
330
51B2
100
AcDbXrecord
340
0
  0
XRECORD
  5
51CB
102
{ACAD_REACTORS
330
51B2
102
}
330
51B2
100
AcDbXrecord
 70
     0
  0
XRECORD
  5
51CC
102
{ACAD_REACTORS
330
51B2
102
}
330
51B2
100
AcDbXrecord
340
0
  0
XRECORD
  5
51CD
102
{ACAD_REACTORS
330
51B2
102
}
330
51B2
100
AcDbXrecord
 10
0.0
 20
0.0
 30
0.0
  0
XRECORD
  5
51CE
102
{ACAD_REACTORS
330
51B2
102
}
330
51B2
100
AcDbXrecord
 10
0.0
 20
0.0
 30
0.0
  0
XRECORD
  5
51CF
102
{ACAD_REACTORS
330
51B2
102
}
330
51B2
100
AcDbXrecord
 10
0.0
 20
0.0
 30
0.0
  0
XRECORD
  5
51D0
102
{ACAD_REACTORS
330
51B2
102
}
330
51B2
100
AcDbXrecord
 10
0.0
 20
0.0
 30
0.0
  0
XRECORD
  5
51D1
102
{ACAD_REACTORS
330
51B2
102
}
330
51B2
100
AcDbXrecord
 10
0.0
 20
0.0
 30
0.0
  0
XRECORD
  5
51D2
102
{ACAD_REACTORS
330
51B2
102
}
330
51B2
100
AcDbXrecord
 10
0.0
 20
0.0
 30
0.0
  0
LAYER_INDEX
  5
51A9
102
{ACAD_REACTORS
330
51A8
102
}
330
51A8
100
AcDbIndex
 40
2453151.853820092
100
AcDbLayerIndex
  8
0
360
51AA
 90
        0
  8
AM_0
360
51AB
 90
       38
  8
AM_11
360
51AC
 90
        4
  8
AM_7
360
51AD
 90
        1
  8
AM_5
360
51AE
 90
        5
  8
Defpoints
360
51AF
 90
        0
  8
AM_6
360
51B0
 90
        1
  0
XRECORD
  5
2D
102
{ACAD_REACTORS
330
2C
102
}
330
2C
100
AcDbXrecord
  1
VERSION
140
15.0
  1
PRODUCT
  2
AutoCAD Mechanical 2000
  0
IDBUFFER
  5
51AA
330
0
100
AcDbIdBuffer
  0
IDBUFFER
  5
51AB
330
0
100
AcDbIdBuffer
330
4741
330
4742
330
4745
330
4748
330
475A
330
475C
330
475D
330
475E
330
475F
330
4761
330
4762
330
4763
330
4764
330
4765
330
4766
330
4ADA
330
4AF6
330
4AF8
330
4C18
330
4E37
330
4E38
330
4E39
330
45F3
330
45F6
330
45F7
330
4607
330
4615
330
4618
330
4737
330
4738
330
4739
330
473A
330
473B
330
473C
330
473D
330
473E
330
473F
330
4740
  0
IDBUFFER
  5
51AC
330
0
100
AcDbIdBuffer
330
4743
330
4744
330
4747
330
4760
  0
IDBUFFER
  5
51AD
330
0
100
AcDbIdBuffer
330
3EE8
  0
IDBUFFER
  5
51AE
330
0
100
AcDbIdBuffer
330
4047
330
412A
330
45F8
330
4759
330
4E50
  0
IDBUFFER
  5
51AF
330
0
100
AcDbIdBuffer
  0
IDBUFFER
  5
51B0
330
0
100
AcDbIdBuffer
330
1500
  0
ENDSEC
  0
EOF
