  0
SECTION
  2
HEADER
  9
$ACADVER
  1
AC1014
  9
$ACADMAINTVER
 70
     9
  9
$DWGCODEPAGE
  3
ANSI_932
  9
$INSBASE
 10
0.0
 20
0.0
 30
0.0
  9
$EXTMIN
 10
-81.40619512995952
 20
-27.25000099999997
 30
-0.00000001
  9
$EXTMAX
 10
8.841627940564759
 20
2.999999999999919
 30
0.00000001
  9
$LIMMIN
 10
-82.71164951259942
 20
-37.31102547327202
  9
$LIMMAX
 10
13.70645573272054
 20
14.39465398042591
  9
$ORTHOMODE
 70
     0
  9
$REGENMODE
 70
     1
  9
$FILLMODE
 70
     1
  9
$QTEXTMODE
 70
     0
  9
$MIRRTEXT
 70
     0
  9
$DRAGMODE
 70
     2
  9
$LTSCALE
 40
1.0
  9
$OSMODE
 70
    55
  9
$ATTMODE
 70
     1
  9
$TEXTSIZE
 40
2.5
  9
$TRACEWID
 40
1.0
  9
$TEXTSTYLE
  7
STANDARD
  9
$CLAYER
  8
AM_0
  9
$CELTYPE
  6
BYLAYER
  9
$CECOLOR
 62
   256
  9
$CELTSCALE
 40
1.0
  9
$DELOBJ
 70
     1
  9
$DISPSILH
 70
     0
  9
$DIMSCALE
 40
0.5
  9
$DIMASZ
 40
2.5
  9
$DIMEXO
 40
1.0
  9
$DIMDLI
 40
12.0
  9
$DIMRND
 40
0.0
  9
$DIMDLE
 40
0.0
  9
$DIMEXE
 40
1.0
  9
$DIMTP
 40
0.1
  9
$DIMTM
 40
0.1
  9
$DIMTXT
 40
3.2
  9
$DIMCEN
 40
0.0
  9
$DIMTSZ
 40
0.0
  9
$DIMTOL
 70
     0
  9
$DIMLIM
 70
     0
  9
$DIMTIH
 70
     0
  9
$DIMTOH
 70
     0
  9
$DIMSE1
 70
     0
  9
$DIMSE2
 70
     0
  9
$DIMTAD
 70
     3
  9
$DIMZIN
 70
     8
  9
$DIMBLK
  1
OPEN30
  9
$DIMASO
 70
     1
  9
$DIMSHO
 70
     1
  9
$DIMPOST
  1

  9
$DIMAPOST
  1
"
  9
$DIMALT
 70
     0
  9
$DIMALTD
 70
     2
  9
$DIMALTF
 40
0.0393701
  9
$DIMLFAC
 40
1.0
  9
$DIMTOFL
 70
     1
  9
$DIMTVP
 40
0.0
  9
$DIMTIX
 70
     0
  9
$DIMSOXD
 70
     0
  9
$DIMSAH
 70
     0
  9
$DIMBLK1
  1

  9
$DIMBLK2
  1

  9
$DIMSTYLE
  2
AM_JIS
  9
$DIMCLRD
 70
   256
  9
$DIMCLRE
 70
   256
  9
$DIMCLRT
 70
     2
  9
$DIMTFAC
 40
0.71
  9
$DIMGAP
 40
1.5
  9
$DIMJUST
 70
     0
  9
$DIMSD1
 70
     0
  9
$DIMSD2
 70
     0
  9
$DIMTOLJ
 70
     0
  9
$DIMTZIN
 70
     0
  9
$DIMALTZ
 70
     0
  9
$DIMALTTZ
 70
     0
  9
$DIMFIT
 70
     3
  9
$DIMUPT
 70
     0
  9
$DIMUNIT
 70
     2
  9
$DIMDEC
 70
     3
  9
$DIMTDEC
 70
     3
  9
$DIMALTU
 70
     2
  9
$DIMALTTD
 70
     2
  9
$DIMTXSTY
  7
ASAMI
  9
$DIMAUNIT
 70
     0
  9
$LUNITS
 70
     2
  9
$LUPREC
 70
     2
  9
$SKETCHINC
 40
1.0
  9
$FILLETRAD
 40
2.5
  9
$AUNITS
 70
     0
  9
$AUPREC
 70
     0
  9
$MENU
  1
.
  9
$ELEVATION
 40
0.0
  9
$PELEVATION
 40
0.0
  9
$THICKNESS
 40
0.0
  9
$LIMCHECK
 70
     0
  9
$BLIPMODE
 70
     0
  9
$CHAMFERA
 40
0.5
  9
$CHAMFERB
 40
0.5
  9
$CHAMFERC
 40
20.0
  9
$CHAMFERD
 40
0.0
  9
$SKPOLY
 70
     0
  9
$TDCREATE
 40
2452838.430434386
  9
$TDUPDATE
 40
2453151.859218090
  9
$TDINDWG
 40
0.1805251736
  9
$TDUSRTIMER
 40
0.1805251736
  9
$USRTIMER
 70
     1
  9
$ANGBASE
 50
0.0
  9
$ANGDIR
 70
     0
  9
$PDMODE
 70
     0
  9
$PDSIZE
 40
0.0
  9
$PLINEWID
 40
0.0
  9
$COORDS
 70
     1
  9
$SPLFRAME
 70
     0
  9
$SPLINETYPE
 70
     6
  9
$SPLINESEGS
 70
     8
  9
$ATTDIA
 70
     1
  9
$ATTREQ
 70
     1
  9
$HANDLING
 70
 12289
  9
$HANDSEED
  5
5084
  9
$SURFTAB1
 70
     6
  9
$SURFTAB2
 70
     6
  9
$SURFTYPE
 70
     6
  9
$SURFU
 70
     6
  9
$SURFV
 70
     6
  9
$UCSNAME
  2

  9
$UCSORG
 10
0.0
 20
0.0
 30
0.0
  9
$UCSXDIR
 10
1.0
 20
0.0
 30
0.0
  9
$UCSYDIR
 10
0.0
 20
1.0
 30
0.0
  9
$PUCSNAME
  2

  9
$PUCSORG
 10
0.0
 20
0.0
 30
0.0
  9
$PUCSXDIR
 10
1.0
 20
0.0
 30
0.0
  9
$PUCSYDIR
 10
0.0
 20
1.0
 30
0.0
  9
$USERI1
 70
     0
  9
$USERI2
 70
     0
  9
$USERI3
 70
     0
  9
$USERI4
 70
     0
  9
$USERI5
 70
     0
  9
$USERR1
 40
0.0
  9
$USERR2
 40
0.0
  9
$USERR3
 40
0.0
  9
$USERR4
 40
0.0
  9
$USERR5
 40
0.0
  9
$WORLDVIEW
 70
     1
  9
$SHADEDGE
 70
     3
  9
$SHADEDIF
 70
    70
  9
$TILEMODE
 70
     1
  9
$MAXACTVP
 70
    64
  9
$PINSBASE
 10
0.0
 20
0.0
 30
0.0
  9
$PLIMCHECK
 70
     0
  9
$PEXTMIN
 10
1.000000000000000E+20
 20
1.000000000000000E+20
 30
1.000000000000000E+20
  9
$PEXTMAX
 10
-1.000000000000000E+20
 20
-1.000000000000000E+20
 30
-1.000000000000000E+20
  9
$PLIMMIN
 10
0.0
 20
0.0
  9
$PLIMMAX
 10
841.0
 20
594.0
  9
$UNITMODE
 70
     0
  9
$VISRETAIN
 70
     1
  9
$PLINEGEN
 70
     0
  9
$PSLTSCALE
 70
     0
  9
$TREEDEPTH
 70
  3020
  9
$PICKSTYLE
 70
     0
  9
$CMLSTYLE
  2
STANDARD
  9
$CMLJUST
 70
     0
  9
$CMLSCALE
 40
20.0
  9
$PROXYGRAPHICS
 70
     1
  9
$MEASUREMENT
 70
     1
  0
ENDSEC
  0
SECTION
  2
CLASSES
  0
CLASS
  1
ACDBDICTIONARYWDFLT
  2
AcDbDictionaryWithDefault
  3
AutoCAD 2000
 90
        0
280
     0
281
     0
  0
CLASS
  1
ACDBPLACEHOLDER
  2
AcDbPlaceHolder
  3
AutoCAD 2000
 90
        0
280
     0
281
     0
  0
CLASS
  1
LAYOUT
  2
AcDbLayout
  3
AutoCAD 2000
 90
        0
280
     0
281
     0
  0
CLASS
  1
AMGSETTINGSOBJ
  2
AmgSettingsObj
  3
"AcadM|Product Description: AutoCAD Mechanical 2000|Company: Autodesk"
 90
        0
280
     0
281
     0
  0
CLASS
  1
ACME_DOCUMENT
  2
AcMeDbDoc
  3
AcMeServices
 90
        0
280
     0
281
     0
  0
CLASS
  1
ACMESCOPE
  2
AcMeScope
  3
AcMeServices
 90
        0
280
     0
281
     0
  0
CLASS
  1
ACMECOMMANDHISTORY
  2
AcMeCommandHistory
  3
AcMeServices
 90
        0
280
     0
281
     0
  0
CLASS
  1
DICTIONARYVAR
  2
AcDbDictionaryVar
  3
AutoCAD 2000
 90
        0
280
     0
281
     0
  0
CLASS
  1
ACIMSYSVARMAN
  2
AcImSysVarManager
  3
AcMeServices
 90
        0
280
     0
281
     0
  0
CLASS
  1
ACIMREALSYSVAR
  2
AcImRealSysVar
  3
AcMeServices
 90
        0
280
     0
281
     0
  0
CLASS
  1
ACIMINTSYSVAR
  2
AcImIntSysVar
  3
AcMeServices
 90
        0
280
     0
281
     0
  0
CLASS
  1
ACMEDRAWINGMAN
  2
AcMeDrawingMan
  3
AcMeServices
 90
        0
280
     0
281
     0
  0
CLASS
  1
ACMEVIEW
  2
AcMeView
  3
AcMeServices
 90
        0
280
     0
281
     0
  0
CLASS
  1
ACDBENTITYCACHE
  2
AcMeEntityCache
  3
AcMeServices
 90
        0
280
     0
281
     0
  0
CLASS
  1
GSMANAGER
  2
AcMeGSManager
  3
AcMeServices
 90
        0
280
     0
281
     0
  0
CLASS
  1
AmdtInternalReactor
  2
AmdtInternalReactor
  3
AcMeServices
 90
        0
280
     0
281
     0
  0
CLASS
  1
ACMESTATEMGR
  2
AcMeStateMgr
  3
AcMeServices
 90
        0
280
     0
281
     0
  0
CLASS
  1
ACME_DATABASE
  2
AcMeDbDatabase
  3
AcMeServices
 90
        0
280
     0
281
     0
  0
CLASS
  1
ACRFINSADJUSTERMGR
  2
AcRfInsAdjusterMgr
  3
AcMeServices
 90
        0
280
     0
281
     0
  0
CLASS
  1
ACMDATADICTIONARY
  2
AcmDataDictionary
  3
"AcmSymBB|Product Description: AutoCAD Mechanical 2000|Company: Autodesk"
 90
        0
280
     0
281
     0
  0
CLASS
  1
ACMDATAENTRYBLOCK
  2
AcmDataEntryBlock
  3
"AcmSymBB|Product Description: AutoCAD Mechanical 2000|Company: Autodesk"
 90
        0
280
     0
281
     0
  0
CLASS
  1
AMGOBJPROPCFG
  2
AmgObjPropCfg
  3
"AmgLay|Product Description: AutoCAD Mechanical 2000|Company: Autodesk"
 90
        1
280
     0
281
     0
  0
CLASS
  1
ACAMGFILTERDAT
  2
AcAmgFilterDat
  3
"AcadM|Product Description: AutoCAD Mechanical 2000|Company: Autodesk"
 90
        0
280
     0
281
     0
  0
CLASS
  1
LAYER_INDEX
  2
AcDbLayerIndex
  3
AutoCAD 2000
 90
        0
280
     0
281
     0
  0
CLASS
  1
IDBUFFER
  2
AcDbIdBuffer
  3
AutoCAD 2000
 90
        0
280
     0
281
     0
  0
CLASS
  1
ACIMSTRSYSVAR
  2
AcImStrSysVar
  3
AcMeServices
 90
        0
280
     0
281
     0
  0
CLASS
  1
ACMSTANDARDJIS
  2
AcmStandardJIS
  3
"AcmSymBB|Product Description: AutoCAD Mechanical 2000|Company: Autodesk"
 90
        0
280
     0
281
     0
  0
CLASS
  1
ACMSURFSTANDARDJIS
  2
AcmSurfTextStdJIS
  3
"AcmSymBB|Product Description: AutoCAD Mechanical 2000|Company: Autodesk"
 90
        0
280
     0
281
     0
  0
CLASS
  1
ACMFCFSTANDARDJIS
  2
AcmFCFStdJIS
  3
"AcmSymBB|Product Description: AutoCAD Mechanical 2000|Company: Autodesk"
 90
        0
280
     0
281
     0
  0
CLASS
  1
ACMWELDSTANDARDJIS
  2
AcmWeldingStdJIS
  3
"AcmSymBB|Product Description: AutoCAD Mechanical 2000|Company: Autodesk"
 90
        0
280
     0
281
     0
  0
CLASS
  1
ACMIDSTANDARDJIS
  2
AcmIdStdJIS
  3
"AcmSymBB|Product Description: AutoCAD Mechanical 2000|Company: Autodesk"
 90
        0
280
     0
281
     0
  0
CLASS
  1
ACMDATUMSTANDARDJIS
  2
AcmDatumStdJIS
  3
"AcmSymBB|Product Description: AutoCAD Mechanical 2000|Company: Autodesk"
 90
        0
280
     0
281
     0
  0
CLASS
  1
ACMBOMSTANDARDJIS
  2
AcmBOMStdJIS
  3
"AcmSymBB|Product Description: AutoCAD Mechanical 2000|Company: Autodesk"
 90
        0
280
     0
281
     0
  0
CLASS
  1
ACMSTANDARDANSI
  2
AcmStandardANSI
  3
"AcmSymBB|Product Description: AutoCAD Mechanical 2000|Company: Autodesk"
 90
        0
280
     0
281
     0
  0
CLASS
  1
ACMSURFSTANDARDANSI
  2
AcmSurfTextStdANSI
  3
"AcmSymBB|Product Description: AutoCAD Mechanical 2000|Company: Autodesk"
 90
        0
280
     0
281
     0
  0
CLASS
  1
ACMFCFSTANDARDANSI
  2
AcmFCFStdANSI
  3
"AcmSymBB|Product Description: AutoCAD Mechanical 2000|Company: Autodesk"
 90
        0
280
     0
281
     0
  0
CLASS
  1
ACMWELDSTANDARDANSI
  2
AcmWeldingStdANSI
  3
"AcmSymBB|Product Description: AutoCAD Mechanical 2000|Company: Autodesk"
 90
        0
280
     0
281
     0
  0
CLASS
  1
ACMIDSTANDARDANSI
  2
AcmIdStdANSI
  3
"AcmSymBB|Product Description: AutoCAD Mechanical 2000|Company: Autodesk"
 90
        0
280
     0
281
     0
  0
CLASS
  1
ACMDATUMSTANDARDANSI
  2
AcmDatumStdANSI
  3
"AcmSymBB|Product Description: AutoCAD Mechanical 2000|Company: Autodesk"
 90
        0
280
     0
281
     0
  0
CLASS
  1
ACMBOMSTANDARDANSI
  2
AcmBOMStdANSI
  3
"AcmSymBB|Product Description: AutoCAD Mechanical 2000|Company: Autodesk"
 90
        0
280
     0
281
     0
  0
CLASS
  1
ACMSTANDARDBSI
  2
AcmStandardBSI
  3
"AcmSymBB|Product Description: AutoCAD Mechanical 2000|Company: Autodesk"
 90
        0
280
     0
281
     0
  0
CLASS
  1
ACMSURFSTANDARDBSI
  2
AcmSurfTextStdBSI
  3
"AcmSymBB|Product Description: AutoCAD Mechanical 2000|Company: Autodesk"
 90
        0
280
     0
281
     0
  0
CLASS
  1
ACMFCFSTANDARDBSI
  2
AcmFCFStdBSI
  3
"AcmSymBB|Product Description: AutoCAD Mechanical 2000|Company: Autodesk"
 90
        0
280
     0
281
     0
  0
CLASS
  1
ACMWELDSTANDARDBSI
  2
AcmWeldingStdBSI
  3
"AcmSymBB|Product Description: AutoCAD Mechanical 2000|Company: Autodesk"
 90
        0
280
     0
281
     0
  0
CLASS
  1
ACMIDSTANDARDBSI
  2
AcmIdStdBSI
  3
"AcmSymBB|Product Description: AutoCAD Mechanical 2000|Company: Autodesk"
 90
        0
280
     0
281
     0
  0
CLASS
  1
ACMDATUMSTANDARDBSI
  2
AcmDatumStdBSI
  3
"AcmSymBB|Product Description: AutoCAD Mechanical 2000|Company: Autodesk"
 90
        0
280
     0
281
     0
  0
CLASS
  1
ACMBOMSTANDARDBSI
  2
AcmBOMStdBSI
  3
"AcmSymBB|Product Description: AutoCAD Mechanical 2000|Company: Autodesk"
 90
        0
280
     0
281
     0
  0
CLASS
  1
LONG_TRANSACTION
  2
AcDbLongTransaction
  3
AutoCAD 2000
 90
        0
280
     0
281
     0
  0
CLASS
  1
LWPOLYLINE
  2
AcDbPolyline
  3
AutoCAD 2000
 90
        0
280
     0
281
     1
  0
CLASS
  1
HATCH
  2
AcDbHatch
  3
AutoCAD 2000
 90
        0
280
     0
281
     1
  0
CLASS
  1
XRECORD
  2
AcDbXrecord
  3
AutoCAD 2000
 90
        0
280
     0
281
     0
  0
ENDSEC
  0
SECTION
  2
TABLES
  0
TABLE
  2
VPORT
  5
8
330
0
100
AcDbSymbolTable
 70
     3
  0
VPORT
  5
5053
330
8
100
AcDbSymbolTableRecord
100
AcDbViewportTableRecord
  2
*ACTIVE
 70
     0
 10
0.0
 20
0.0
 11
1.0
 21
1.0
 12
-36.2827771385115
 22
-12.12486194423155
 13
0.0
 23
0.0
 14
2.5
 24
2.5
 15
10.0
 25
10.0
 16
0.0
 26
0.0
 36
1.0
 17
0.0
 27
0.0
 37
0.0
 40
57.87432565244491
 41
1.56570841889117
 42
50.0
 43
0.0
 44
0.0
 50
0.0
 51
0.0
 71
     0
 72
   100
 73
     1
 74
     3
 75
     0
 76
     0
 77
     0
 78
     0
  0
ENDTAB
  0
TABLE
  2
LTYPE
  5
5
330
0
100
AcDbSymbolTable
 70
    10
  0
LTYPE
  5
14
330
5
100
AcDbSymbolTableRecord
100
AcDbLinetypeTableRecord
  2
BYBLOCK
 70
     0
  3

 72
    65
 73
     0
 40
0.0
  0
LTYPE
  5
15
330
5
100
AcDbSymbolTableRecord
100
AcDbLinetypeTableRecord
  2
BYLAYER
 70
     0
  3

 72
    65
 73
     0
 40
0.0
  0
LTYPE
  5
16
330
5
100
AcDbSymbolTableRecord
100
AcDbLinetypeTableRecord
  2
CONTINUOUS
 70
     0
  3
Solid line
 72
    65
 73
     0
 40
0.0
  0
LTYPE
  5
4B
330
5
100
AcDbSymbolTableRecord
100
AcDbLinetypeTableRecord
  2
AM_ISO02W050
 70
     0
  3
__ __ __ __ __ __ __ __ __ __ __ __ __ __ __
 72
    65
 73
     2
 40
7.5
 49
6.0
 74
     0
 49
-1.5
 74
     0
  0
LTYPE
  5
4C
330
5
100
AcDbSymbolTableRecord
100
AcDbLinetypeTableRecord
  2
AM_ISO08W050
 70
     0
  3
____ . ____ . ____ . ____ . ____ . ____ . ____
 72
    65
 73
     4
 40
18.0
 49
12.0
 74
     0
 49
-1.5
 74
     0
 49
3.0
 74
     0
 49
-1.5
 74
     0
  0
LTYPE
  5
4D
330
5
100
AcDbSymbolTableRecord
100
AcDbLinetypeTableRecord
  2
AM_ISO09W050
 70
     0
  3
_____ . . _____ . . _____ . . ____ .. ____
 72
    65
 73
     6
 40
22.5
 49
12.0
 74
     0
 49
-1.5
 74
     0
 49
3.0
 74
     0
 49
-1.5
 74
     0
 49
3.0
 74
     0
 49
-1.5
 74
     0
  0
LTYPE
  5
4E
330
5
100
AcDbSymbolTableRecord
100
AcDbLinetypeTableRecord
  2
AMCONSTR
 70
     0
  3
_______________________
 72
    65
 73
     2
 40
9999.0
 49
9999.0
 74
     0
 49
0.0
 74
     0
  0
LTYPE
  5
4F
330
5
100
AcDbSymbolTableRecord
100
AcDbLinetypeTableRecord
  2
AM_ISO02W050X2
 70
     0
  3
 _ _ _ _ _ _ _ _ _ _ _ _
 72
    65
 73
     2
 40
3.75
 49
3.0
 74
     0
 49
-0.75
 74
     0
  0
LTYPE
  5
50
330
5
100
AcDbSymbolTableRecord
100
AcDbLinetypeTableRecord
  2
AM_ISO08W050X2
 70
     0
  3
__ . __ . __ . __ . __ . __
 72
    65
 73
     4
 40
9.0
 49
6.0
 74
     0
 49
-0.75
 74
     0
 49
1.5
 74
     0
 49
-0.75
 74
     0
  0
LTYPE
  5
53
330
5
100
AcDbSymbolTableRecord
100
AcDbLinetypeTableRecord
  2
AMZIGZAG
 70
     0
  3
/\/-/\/-/\/-/\/-/\/-/\/
 72
    65
 73
     2
 40
11.00009999999999
 49
0.0001
 74
     4
 75
   135
340
52
 46
0.04
 50
0.0
 44
0.0
 45
0.0
 49
-11.0
 74
     0
  0
LTYPE
  5
166
330
5
100
AcDbSymbolTableRecord
100
AcDbLinetypeTableRecord
  2
ACJISTGL
 70
     0
  3
_ _ _ _ _
 72
    65
 73
     2
 40
3.0
 49
2.0
 74
     0
 49
-1.0
 74
     0
  0
LTYPE
  5
26A
330
5
100
AcDbSymbolTableRecord
100
AcDbLinetypeTableRecord
  2
ACJISTGB
 70
     0
  3
__ . . __ . .
 72
    65
 73
     6
 40
9.0
 49
4.0
 74
     0
 49
-1.0
 74
     0
 49
1.0
 74
     0
 49
-1.0
 74
     0
 49
1.0
 74
     0
 49
-1.0
 74
     0
  0
ENDTAB
  0
TABLE
  2
LAYER
  5
2
330
0
100
AcDbSymbolTable
 70
     7
  0
LAYER
  5
10
330
2
100
AcDbSymbolTableRecord
100
AcDbLayerTableRecord
  2
0
 70
     0
 62
     7
  6
CONTINUOUS
  0
LAYER
  5
3F9
330
2
100
AcDbSymbolTableRecord
100
AcDbLayerTableRecord
  2
AM_0
 70
     0
 62
     7
  6
CONTINUOUS
  0
LAYER
  5
BDD
330
2
100
AcDbSymbolTableRecord
100
AcDbLayerTableRecord
  2
AM_11
 70
     0
 62
     3
  6
AM_ISO09W050
  0
LAYER
  5
BDE
330
2
100
AcDbSymbolTableRecord
100
AcDbLayerTableRecord
  2
AM_7
 70
     0
 62
     4
  6
AM_ISO08W050
  0
LAYER
  5
BDF
330
2
100
AcDbSymbolTableRecord
100
AcDbLayerTableRecord
  2
AM_5
 70
     0
 62
     3
  6
CONTINUOUS
  0
LAYER
  5
BE0
330
2
100
AcDbSymbolTableRecord
100
AcDbLayerTableRecord
  2
DEFPOINTS
 70
     0
 62
     7
  6
CONTINUOUS
  0
LAYER
  5
14FF
330
2
100
AcDbSymbolTableRecord
100
AcDbLayerTableRecord
  2
AM_6
 70
     0
 62
     2
  6
CONTINUOUS
  0
ENDTAB
  0
TABLE
  2
STYLE
  5
3
330
0
100
AcDbSymbolTable
 70
     5
  0
STYLE
  5
11
330
3
100
AcDbSymbolTableRecord
100
AcDbTextStyleTableRecord
  2
STANDARD
 70
     0
 40
0.0
 41
1.0
 50
0.0
 71
     0
 42
2.5
  3
simplex.shx
  4
EXTFONT.SHX
  0
STYLE
  5
52
330
3
100
AcDbSymbolTableRecord
100
AcDbTextStyleTableRecord
  2

 70
     1
 40
0.0
 41
1.0
 50
0.0
 71
     0
 42
2.5
  3
ltypeshp.shx
  4

  0
STYLE
  5
6B
330
3
100
AcDbSymbolTableRecord
100
AcDbTextStyleTableRecord
  2
ASAMI
 70
     0
 40
0.0
 41
1.0
 50
0.0
 71
     0
 42
2.5
  3
simplex.shx
  4
EXTFONT.SHX
  0
STYLE
  5
262
330
3
100
AcDbSymbolTableRecord
100
AcDbTextStyleTableRecord
  2
ACJISTS
 70
     0
 40
1.0
 41
1.0
 50
0.0
 71
     0
 42
2.5
  3
simplex.shx
  4
bigfont.shx
  0
STYLE
  5
269
330
3
100
AcDbSymbolTableRecord
100
AcDbTextStyleTableRecord
  2
ACJISGDT
 70
     0
 40
0.0
 41
1.0
 50
0.0
 71
     0
 42
2.5
  3
amgdtans.shx
  4

  0
ENDTAB
  0
TABLE
  2
VIEW
  5
6
330
0
100
AcDbSymbolTable
 70
     0
  0
ENDTAB
  0
TABLE
  2
UCS
  5
7
330
0
100
AcDbSymbolTable
 70
     0
  0
ENDTAB
  0
TABLE
  2
APPID
  5
9
330
0
100
AcDbSymbolTable
 70
    14
  0
APPID
  5
12
330
9
100
AcDbSymbolTableRecord
100
AcDbRegAppTableRecord
  2
ACAD
 70
     0
  0
APPID
  5
30
330
9
100
AcDbSymbolTableRecord
100
AcDbRegAppTableRecord
  2
MCAD_NO_VIS
 70
     0
  0
APPID
  5
31
330
9
100
AcDbSymbolTableRecord
100
AcDbRegAppTableRecord
  2
ACAD_TEMP_GRAPHIC
 70
     0
  0
APPID
  5
2C2
330
9
100
AcDbSymbolTableRecord
100
AcDbRegAppTableRecord
  2
GENIUS_GENDTOL_13
 70
     0
  0
APPID
  5
339
330
9
100
AcDbSymbolTableRecord
100
AcDbRegAppTableRecord
  2
GENIUS_GENODEF_13
 70
     0
  0
APPID
  5
33A
330
9
100
AcDbSymbolTableRecord
100
AcDbRegAppTableRecord
  2
GENIUS_GENOBJ-N-RSBK_13
 70
     0
  0
APPID
  5
33B
330
9
100
AcDbSymbolTableRecord
100
AcDbRegAppTableRecord
  2
GENIUS_GENOBJ-N-LIB_13
 70
     0
  0
APPID
  5
33C
330
9
100
AcDbSymbolTableRecord
100
AcDbRegAppTableRecord
  2
GENIUS_GENSCALE_13
 70
     0
  0
APPID
  5
378
330
9
100
AcDbSymbolTableRecord
100
AcDbRegAppTableRecord
  2
GENIUS_GENDIMSH_14
 70
     0
  0
APPID
  5
BE1
330
9
100
AcDbSymbolTableRecord
100
AcDbRegAppTableRecord
  2
GENIUS_GENFIL_13
 70
     0
  0
APPID
  5
BE2
330
9
100
AcDbSymbolTableRecord
100
AcDbRegAppTableRecord
  2
GENIUS_GENOBJ-N-CHA_13
 70
     0
  0
APPID
  5
151B
330
9
100
AcDbSymbolTableRecord
100
AcDbRegAppTableRecord
  2
DCO15
 70
     0
  0
APPID
  5
1860
330
9
100
AcDbSymbolTableRecord
100
AcDbRegAppTableRecord
  2
GENIUS_GENOBJ-N-CEN_13
 70
     0
  0
APPID
  5
359C
330
9
100
AcDbSymbolTableRecord
100
AcDbRegAppTableRecord
  2
GENIUS_GENOBJ-N-FIL_13
 70
     0
  0
ENDTAB
  0
TABLE
  2
DIMSTYLE
  5
A
330
0
100
AcDbSymbolTable
 70
     8
  0
DIMSTYLE
105
58
102
{ACAD_REACTORS
330
4047
330
412A
330
45F8
330
4759
102
}
330
A
100
AcDbSymbolTableRecord
100
AcDbDimStyleTableRecord
  2
AM_JIS
 70
     0
  3

  4
"
  5
OPEN30
  6

  7

 40
0.5
 41
2.5
 42
1.0
 43
12.0
 44
1.0
 45
0.0
 46
0.0
 47
0.1
 48
0.1
140
3.2
141
0.0
142
0.0
143
0.0393701
144
1.0
145
0.0
146
0.71
147
1.5
 71
     0
 72
     0
 73
     0
 74
     0
 75
     0
 76
     0
 77
     3
 78
     8
170
     0
171
     2
172
     1
173
     0
174
     0
175
     0
176
   256
177
   256
178
     2
270
     2
271
     3
272
     3
273
     2
274
     2
340
6B
275
     0
280
     0
281
     0
282
     0
283
     0
284
     0
285
     0
286
     0
287
     3
288
     0
  0
DIMSTYLE
105
5F
330
A
100
AcDbSymbolTableRecord
100
AcDbDimStyleTableRecord
  2
AM_JIS$3
 70
     0
  3

  4
"
  5
OPEN30
  6

  7

 40
0.5
 41
2.5
 42
1.0
 43
10.0
 44
1.0
 45
0.0
 46
0.0
 47
0.1
 48
0.1
140
3.2
141
0.0
142
0.0
143
0.0393701
144
1.0
145
0.0
146
0.71
147
1.5
 71
     0
 72
     0
 73
     0
 74
     1
 75
     0
 76
     0
 77
     3
 78
     8
170
     0
171
     2
172
     0
173
     0
174
     0
175
     0
176
   256
177
   256
178
     2
270
     2
271
     2
272
     3
273
     2
274
     2
340
6B
275
     0
280
     0
281
     0
282
     0
283
     0
284
     0
285
     0
286
     0
287
     0
288
     1
  0
DIMSTYLE
105
60
102
{ACAD_REACTORS
330
4FAE
102
}
330
A
100
AcDbSymbolTableRecord
100
AcDbDimStyleTableRecord
  2
AM_JIS$4
 70
     0
  3

  4
"
  5
OPEN30
  6

  7

 40
0.5
 41
2.5
 42
1.0
 43
10.0
 44
1.0
 45
0.0
 46
0.0
 47
0.1
 48
0.1
140
3.2
141
0.0
142
0.0
143
0.0393701
144
1.0
145
0.0
146
0.71
147
1.5
 71
     0
 72
     0
 73
     0
 74
     1
 75
     0
 76
     0
 77
     3
 78
     8
170
     0
171
     2
172
     0
173
     0
174
     0
175
     0
176
   256
177
   256
178
     2
270
     2
271
     2
272
     3
273
     2
274
     2
340
6B
275
     0
280
     0
281
     0
282
     0
283
     0
284
     0
285
     0
286
     0
287
     0
288
     1
  0
DIMSTYLE
105
61
330
A
100
AcDbSymbolTableRecord
100
AcDbDimStyleTableRecord
  2
AM_JIS$6
 70
     0
  3

  4
"
  5
OPEN30
  6

  7

 40
0.5
 41
2.5
 42
1.0
 43
10.0
 44
1.0
 45
0.0
 46
0.0
 47
0.1
 48
0.1
140
3.2
141
0.0
142
0.0
143
0.0393701
144
1.0
145
0.0
146
0.71
147
1.5
 71
     0
 72
     0
 73
     0
 74
     0
 75
     0
 76
     0
 77
     0
 78
     8
170
     0
171
     2
172
     1
173
     0
174
     0
175
     0
176
   256
177
   256
178
     2
270
     2
271
     2
272
     2
273
     2
274
     2
340
6B
275
     0
280
     0
281
     0
282
     0
283
     0
284
     0
285
     0
286
     0
287
     3
288
     0
  0
DIMSTYLE
105
62
330
A
100
AcDbSymbolTableRecord
100
AcDbDimStyleTableRecord
  2
AM_JIS$7
 70
     0
  3

  4
"
  5
OPEN30
  6

  7

 40
0.5
 41
2.5
 42
1.0
 43
10.0
 44
1.0
 45
0.0
 46
0.0
 47
0.1
 48
0.1
140
3.2
141
0.0
142
0.0
143
0.0393701
144
1.0
145
0.0
146
0.71
147
1.5
 71
     0
 72
     0
 73
     0
 74
     0
 75
     0
 76
     0
 77
     3
 78
     8
170
     0
171
     2
172
     1
173
     0
174
     0
175
     0
176
   256
177
   256
178
     2
270
     2
271
     2
272
     3
273
     2
274
     2
340
6B
275
     0
280
     0
281
     0
282
     0
283
     0
284
     0
285
     0
286
     0
287
     3
288
     0
  0
DIMSTYLE
105
63
330
A
100
AcDbSymbolTableRecord
100
AcDbDimStyleTableRecord
  2
AM_JIS$SF
 70
     0
  3

  4
"
  5
OPEN30
  6

  7

 40
0.5
 41
2.5
 42
1.0
 43
10.0
 44
1.0
 45
0.0
 46
0.0
 47
0.1
 48
0.1
140
3.2
141
0.0
142
0.0
143
0.0393701
144
1.0
145
0.0
146
0.71
147
1.5
 71
     0
 72
     0
 73
     0
 74
     0
 75
     1
 76
     1
 77
     3
 78
     8
170
     0
171
     2
172
     1
173
     0
174
     0
175
     0
176
   256
177
   256
178
     2
270
     2
271
     2
272
     2
273
     2
274
     2
340
6B
275
     0
280
     0
281
     0
282
     0
283
     0
284
     0
285
     0
286
     0
287
     3
288
     0
  0
DIMSTYLE
105
68
330
A
100
AcDbSymbolTableRecord
100
AcDbDimStyleTableRecord
  2
AM_JIS$SH
 70
     0
  3

  4
"
  5

  6
GENAXEH
  7
OPEN30
 40
0.5
 41
2.5
 42
1.0
 43
10.0
 44
1.0
 45
0.0
 46
0.0
 47
0.1
 48
0.1
140
3.2
141
0.0
142
0.0
143
0.0393701
144
2.0
145
0.0
146
0.71
147
1.5
 71
     0
 72
     0
 73
     0
 74
     0
 75
     1
 76
     1
 77
     3
 78
     8
170
     0
171
     2
172
     1
173
     1
174
     0
175
     0
176
   256
177
   256
178
     2
270
     2
271
     2
272
     2
273
     2
274
     2
340
6B
275
     0
280
     0
281
     0
282
     0
283
     0
284
     0
285
     0
286
     0
287
     3
288
     0
  0
DIMSTYLE
105
B34
330
A
100
AcDbSymbolTableRecord
100
AcDbDimStyleTableRecord
  2
AM_JIS$2
 70
     0
  3

  4
"
  5
OPEN30
  6

  7

 40
0.5
 41
2.5
 42
1.0
 43
12.0
 44
1.0
 45
0.0
 46
0.0
 47
0.1
 48
0.1
140
3.2
141
0.0
142
0.0
143
0.0393701
144
1.0
145
0.0
146
0.71
147
1.5
 71
     0
 72
     0
 73
     0
 74
     0
 75
     0
 76
     0
 77
     3
 78
     8
170
     0
171
     2
172
     1
173
     0
174
     0
175
     0
176
   256
177
   256
178
     2
270
     2
271
     3
272
     3
273
     2
274
     2
340
6B
275
     0
280
     0
281
     0
282
     0
283
     0
284
     0
285
     0
286
     0
287
     3
288
     0
  0
ENDTAB
  0
TABLE
  2
BLOCK_RECORD
  5
1
330
0
100
AcDbSymbolTable
 70
    10
  0
BLOCK_RECORD
  5
1F
102
{ACAD_XDICTIONARY
360
74
102
}
330
1
100
AcDbSymbolTableRecord
100
AcDbBlockTableRecord
  2
*MODEL_SPACE
  0
BLOCK_RECORD
  5
101
102
{ACAD_XDICTIONARY
360
507C
102
}
330
1
100
AcDbSymbolTableRecord
100
AcDbBlockTableRecord
  2
*PAPER_SPACE
  0
BLOCK_RECORD
  5
59
330
1
100
AcDbSymbolTableRecord
100
AcDbBlockTableRecord
  2
_OPEN30
  0
BLOCK_RECORD
  5
64
330
1
100
AcDbSymbolTableRecord
100
AcDbBlockTableRecord
  2
GENAXEH
  0
BLOCK_RECORD
  5
4048
330
1
100
AcDbSymbolTableRecord
100
AcDbBlockTableRecord
  2
*D5
  0
BLOCK_RECORD
  5
412B
330
1
100
AcDbSymbolTableRecord
100
AcDbBlockTableRecord
  2
*D6
  0
BLOCK_RECORD
  5
45F9
330
1
100
AcDbSymbolTableRecord
100
AcDbBlockTableRecord
  2
*D7
  0
BLOCK_RECORD
  5
4768
330
1
100
AcDbSymbolTableRecord
100
AcDbBlockTableRecord
  2
*D8
  0
BLOCK_RECORD
  5
4FAF
330
1
100
AcDbSymbolTableRecord
100
AcDbBlockTableRecord
  2
*D9
  0
ENDTAB
  0
ENDSEC
  0
SECTION
  2
BLOCKS
  0
BLOCK
  5
20
330
1F
100
AcDbEntity
  8
0
100
AcDbBlockBegin
  2
*MODEL_SPACE
 70
     0
 10
0.0
 20
0.0
 30
0.0
  3
*MODEL_SPACE
  1

  0
ENDBLK
  5
21
330
1F
100
AcDbEntity
  8
0
100
AcDbBlockEnd
  0
BLOCK
  5
103
330
101
100
AcDbEntity
 67
     1
  8
0
100
AcDbBlockBegin
  2
*PAPER_SPACE
 70
     0
 10
0.0
 20
0.0
 30
0.0
  3
*PAPER_SPACE
  1

  0
ENDBLK
  5
104
330
101
100
AcDbEntity
 67
     1
  8
0
100
AcDbBlockEnd
  0
BLOCK
  5
5D
330
59
100
AcDbEntity
  8
0
100
AcDbBlockBegin
  2
_OPEN30
 70
     0
 10
0.0
 20
0.0
 30
0.0
  3
_OPEN30
  1

  0
LINE
  5
5A
330
59
100
AcDbEntity
  8
0
 62
     0
100
AcDbLine
 10
-1.0
 20
0.26794919
 30
0.0
 11
0.0
 21
0.0
 31
0.0
  0
LINE
  5
5B
330
59
100
AcDbEntity
  8
0
 62
     0
100
AcDbLine
 10
0.0
 20
0.0
 30
0.0
 11
-1.0
 21
-0.26794919
 31
0.0
  0
LINE
  5
5C
330
59
100
AcDbEntity
  8
0
 62
     0
100
AcDbLine
 10
0.0
 20
0.0
 30
0.0
 11
-1.0
 21
0.0
 31
0.0
  0
ENDBLK
  5
5E
330
59
100
AcDbEntity
  8
0
100
AcDbBlockEnd
  0
BLOCK
  5
66
330
64
100
AcDbEntity
  8
0
100
AcDbBlockBegin
  2
GENAXEH
 70
     0
 10
0.0
 20
0.0
 30
0.0
  3
GENAXEH
  1

  0
LINE
  5
65
330
64
100
AcDbEntity
  8
0
100
AcDbLine
 10
-1.0
 20
0.0
 30
0.0
 11
1.0
 21
0.0
 31
0.0
  0
ENDBLK
  5
67
330
64
100
AcDbEntity
  8
0
100
AcDbBlockEnd
  0
BLOCK
  5
4052
330
4048
100
AcDbEntity
  8
0
100
AcDbBlockBegin
  2
*D5
 70
     1
 10
0.0
 20
0.0
 30
0.0
  3
*D5
  1

  0
LINE
  5
4E40
330
4048
100
AcDbEntity
  8
AM_5
100
AcDbLine
 10
-69.99999999999997
 20
-3.000000000000015
 30
0.0
 11
-69.99999999999997
 21
-16.50000099999996
 31
0.0
  0
LINE
  5
4E41
330
4048
100
AcDbEntity
  8
AM_5
100
AcDbLine
 10
0.0000000000000006
 20
-0.5000000000000005
 30
0.0
 11
-0.0000000000000003
 21
-16.50000099999996
 31
0.0
  0
LINE
  5
4E42
330
4048
100
AcDbEntity
  8
AM_5
100
AcDbLine
 10
-68.74999999999997
 20
-16.00000099999995
 30
0.0
 11
-1.25
 21
-16.00000099999995
 31
0.0
  0
INSERT
  5
4E43
330
4048
100
AcDbEntity
  8
AM_5
100
AcDbBlockReference
  2
_OPEN30
 10
-69.99999999999997
 20
-16.00000099999995
 30
0.0
 41
1.25
 42
1.25
 43
1.25
 50
180.0
  0
INSERT
  5
4E44
330
4048
100
AcDbEntity
  8
AM_5
100
AcDbBlockReference
  2
_OPEN30
 10
-0.0000000000000003
 20
-16.00000099999995
 30
0.0
 41
1.25
 42
1.25
 43
1.25
  0
MTEXT
  5
4E45
330
4048
100
AcDbEntity
  8
AM_5
 62
     2
100
AcDbMText
 10
-34.99999999999998
 20
-14.45000099999995
 30
0.0
 40
1.6
 41
0.0
 71
     5
 72
     1
  1
70
  7
ASAMI
1001
ACAD
1000
MTEXTBEGIN
1070
    73
1070
     1
1070
    44
1040
1.0
1070
    74
1070
     0
1000
MTEXTEND
  0
POINT
  5
4E46
330
4048
100
AcDbEntity
  8
DEFPOINTS
 62
     0
100
AcDbPoint
 10
-69.99999999999997
 20
-2.500000000000015
 30
0.0
  0
POINT
  5
4E47
330
4048
100
AcDbEntity
  8
DEFPOINTS
 62
     0
100
AcDbPoint
 10
0.0000000000000007
 20
-0.0000000000000005
 30
0.0
  0
POINT
  5
4E48
330
4048
100
AcDbEntity
  8
DEFPOINTS
 62
     0
100
AcDbPoint
 10
-0.0000000000000003
 20
-16.00000099999995
 30
0.0
  0
ENDBLK
  5
4053
330
4048
100
AcDbEntity
  8
0
100
AcDbBlockEnd
  0
BLOCK
  5
4135
330
412B
100
AcDbEntity
  8
0
100
AcDbBlockBegin
  2
*D6
 70
     1
 10
0.0
 20
0.0
 30
0.0
  3
*D6
  1

  0
LINE
  5
4E49
330
412B
100
AcDbEntity
  8
AM_5
100
AcDbLine
 10
-0.0000000000000142
 20
-0.5000000000000111
 30
0.0
 11
-0.0000000000000149
 21
-10.50000099999998
 31
0.0
  0
LINE
  5
4E4A
330
412B
100
AcDbEntity
  8
AM_5
100
AcDbLine
 10
-12.0
 20
-2.5
 30
0.0
 11
-12.0
 21
-10.50000099999998
 31
0.0
  0
LINE
  5
4E4B
330
412B
100
AcDbEntity
  8
AM_5
100
AcDbLine
 10
-1.250000000000014
 20
-10.00000099999998
 30
0.0
 11
-10.74999999999999
 21
-10.00000099999998
 31
0.0
  0
INSERT
  5
4E4C
330
412B
100
AcDbEntity
  8
AM_5
100
AcDbBlockReference
  2
_OPEN30
 10
-0.0000000000000148
 20
-10.00000099999998
 30
0.0
 41
1.25
 42
1.25
 43
1.25
  0
INSERT
  5
4E4D
330
412B
100
AcDbEntity
  8
AM_5
100
AcDbBlockReference
  2
_OPEN30
 10
-12.0
 20
-10.00000099999998
 30
0.0
 41
1.25
 42
1.25
 43
1.25
 50
180.0
  0
MTEXT
  5
4E4E
330
412B
100
AcDbEntity
  8
AM_5
 62
     2
100
AcDbMText
 10
-6.000000000000007
 20
-8.45000099999998
 30
0.0
 40
1.6
 41
0.0
 71
     5
 72
     1
  1
12
  7
ASAMI
1001
ACAD
1000
MTEXTBEGIN
1070
    73
1070
     1
1070
    44
1040
1.0
1070
    74
1070
     0
1000
MTEXTEND
  0
POINT
  5
4E4F
330
412B
100
AcDbEntity
  8
DEFPOINTS
 62
     0
100
AcDbPoint
 10
-0.0000000000000142
 20
-0.0000000000000111
 30
0.0
  0
POINT
  5
4E50
330
412B
100
AcDbEntity
  8
DEFPOINTS
 62
     0
100
AcDbPoint
 10
-12.0
 20
-2.0
 30
0.0
  0
POINT
  5
4E51
330
412B
100
AcDbEntity
  8
DEFPOINTS
 62
     0
100
AcDbPoint
 10
-12.0
 20
-10.00000099999998
 30
0.0
  0
ENDBLK
  5
4136
330
412B
100
AcDbEntity
  8
0
100
AcDbBlockEnd
  0
BLOCK
  5
4605
330
45F9
100
AcDbEntity
  8
0
100
AcDbBlockBegin
  2
*D7
 70
     1
 10
0.0
 20
0.0
 30
0.0
  3
*D7
  1

  0
LINE
  5
4D4E
330
45F9
100
AcDbEntity
  8
AM_5
100
AcDbLine
 10
-69.99999999999999
 20
2.999999999999916
 30
0.0
 11
-79.55619512995953
 21
2.999999999999919
 31
0.0
  0
LINE
  5
4D4F
330
45F9
100
AcDbEntity
  8
AM_5
100
AcDbLine
 10
-69.99999999999997
 20
-3.000000000000027
 30
0.0
 11
-79.55619512995953
 21
-3.000000000000024
 31
0.0
  0
LINE
  5
4D50
330
45F9
100
AcDbEntity
  8
AM_5
100
AcDbLine
 10
-79.05619512995953
 20
1.749999999999918
 30
0.0
 11
-79.05619512995953
 21
-1.750000000000025
 31
0.0
  0
INSERT
  5
4D51
330
45F9
100
AcDbEntity
  8
AM_5
100
AcDbBlockReference
  2
_OPEN30
 10
-79.05619512995953
 20
2.999999999999919
 30
0.0
 41
1.25
 42
1.25
 43
1.25
 50
90.0
  0
INSERT
  5
4D52
330
45F9
100
AcDbEntity
  8
AM_5
100
AcDbBlockReference
  2
_OPEN30
 10
-79.05619512995953
 20
-3.000000000000024
 30
0.0
 41
1.25
 42
1.25
 43
1.25
 50
270.0
  0
MTEXT
  5
4D53
330
45F9
100
AcDbEntity
  8
AM_5
 62
     2
100
AcDbMText
 10
-80.60619512995954
 20
-0.0000000000000656
 30
0.0
 40
1.6
 41
0.0
 71
     5
 72
     1
  1
%%c6
  7
ASAMI
 11
0.0000000000000001
 21
1.0
 31
0.0
1001
ACAD
1000
MTEXTBEGIN
1070
    73
1070
     1
1070
    44
1040
1.0
1070
    74
1070
     0
1000
MTEXTEND
  0
POINT
  5
4D54
330
45F9
100
AcDbEntity
  8
DEFPOINTS
 62
     0
100
AcDbPoint
 10
-69.49999999999999
 20
2.999999999999916
 30
0.0
  0
POINT
  5
4D55
330
45F9
100
AcDbEntity
  8
DEFPOINTS
 62
     0
100
AcDbPoint
 10
-69.49999999999997
 20
-3.000000000000027
 30
0.0
  0
POINT
  5
4D56
330
45F9
100
AcDbEntity
  8
DEFPOINTS
 62
     0
100
AcDbPoint
 10
-79.05619512995953
 20
-3.000000000000024
 30
0.0
  0
ENDBLK
  5
4606
330
45F9
100
AcDbEntity
  8
0
100
AcDbBlockEnd
  0
BLOCK
  5
4772
330
4768
100
AcDbEntity
  8
0
100
AcDbBlockBegin
  2
*D8
 70
     1
 10
0.0
 20
0.0
 30
0.0
  3
*D8
  1

  0
LINE
  5
4E52
330
4768
100
AcDbEntity
  8
AM_5
100
AcDbLine
 10
-1.5
 20
2.0
 30
0.0
 11
8.841627940564759
 21
1.999999999999996
 31
0.0
  0
LINE
  5
4E53
330
4768
100
AcDbEntity
  8
AM_5
100
AcDbLine
 10
-1.9
 20
-2.0
 30
0.0
 11
8.841627940564759
 21
-2.000000000000003
 31
0.0
  0
LINE
  5
4E54
330
4768
100
AcDbEntity
  8
AM_5
100
AcDbLine
 10
8.341627940564759
 20
0.749999999999997
 30
0.0
 11
8.341627940564759
 21
-0.7500000000000032
 31
0.0
  0
LINE
  5
4E55
330
4768
100
AcDbEntity
  8
AM_5
100
AcDbLine
 10
8.341627940564759
 20
-2.000000000000003
 30
0.0
 11
8.341627940564757
 21
-7.340476190476192
 31
0.0
  0
INSERT
  5
4E56
330
4768
100
AcDbEntity
  8
AM_5
100
AcDbBlockReference
  2
_OPEN30
 10
8.341627940564759
 20
1.999999999999997
 30
0.0
 41
1.25
 42
1.25
 43
1.25
 50
90.0
  0
INSERT
  5
4E57
330
4768
100
AcDbEntity
  8
AM_5
100
AcDbBlockReference
  2
_OPEN30
 10
8.341627940564759
 20
-2.000000000000003
 30
0.0
 41
1.25
 42
1.25
 43
1.25
 50
270.0
  0
MTEXT
  5
4E58
330
4768
100
AcDbEntity
  8
AM_5
 62
     2
100
AcDbMText
 10
6.791627940564758
 20
-5.295238095238095
 30
0.0
 40
1.6
 41
0.0
 71
     5
 72
     1
  1
%%c4
  7
ASAMI
 11
0.0000000000000001
 21
1.0
 31
0.0
1001
ACAD
1000
MTEXTBEGIN
1070
    73
1070
     1
1070
    44
1040
1.0
1070
    74
1070
     0
1000
MTEXTEND
  0
POINT
  5
4E59
330
4768
100
AcDbEntity
  8
DEFPOINTS
 62
     0
100
AcDbPoint
 10
-2.0
 20
2.0
 30
0.0
  0
POINT
  5
4E5A
330
4768
100
AcDbEntity
  8
DEFPOINTS
 62
     0
100
AcDbPoint
 10
-2.4
 20
-2.0
 30
0.0
  0
POINT
  5
4E5B
330
4768
100
AcDbEntity
  8
DEFPOINTS
 62
     0
100
AcDbPoint
 10
8.341627940564759
 20
-2.000000000000003
 30
0.0
  0
ENDBLK
  5
4773
330
4768
100
AcDbEntity
  8
0
100
AcDbBlockEnd
  0
BLOCK
  5
4FB5
330
4FAF
100
AcDbEntity
  8
0
100
AcDbBlockBegin
  2
*D9
 70
     1
 10
0.0
 20
0.0
 30
0.0
  3
*D9
  1

  0
LINE
  5
507E
330
4FAF
100
AcDbEntity
  8
AM_5
100
AcDbLine
 10
2.546737508483717
 20
-7.347846265501026
 30
0.0
 11
-0.2949734343187236
 21
-2.736452040829421
 31
0.0
  0
MTEXT
  5
507F
330
4FAF
100
AcDbEntity
  8
AM_5
 62
     2
100
AcDbMText
 10
2.773339954773422
 20
-4.761066586225402
 30
0.0
 40
1.6
 41
0.0
 71
     5
 72
     1
  1
R2
  7
ASAMI
 11
0.52462355867122
 21
-0.8513343184009118
 31
0.0
  0
LINE
  5
5080
330
4FAF
100
AcDbEntity
  8
AM_5
100
AcDbLine
 10
-2.000000000000188
 20
0.0303844939735427
 30
0.0
 11
-0.9507528826577484
 21
-1.672284142828281
 31
0.0
  0
INSERT
  5
5081
330
4FAF
100
AcDbEntity
  8
AM_5
100
AcDbBlockReference
  2
_OPEN30
 10
-0.9507528826577484
 20
-1.672284142828281
 30
0.0
 41
1.25
 42
1.25
 43
1.25
 50
121.6429048653519
  0
POINT
  5
5082
330
4FAF
100
AcDbEntity
  8
DEFPOINTS
 62
     0
100
AcDbPoint
 10
-0.9507528826577484
 20
-1.672284142828281
 30
0.0
  0
POINT
  5
5083
330
4FAF
100
AcDbEntity
  8
DEFPOINTS
 62
     0
100
AcDbPoint
 10
-2.000000000000188
 20
0.0303844939735427
 30
0.0
  0
ENDBLK
  5
4FB6
330
4FAF
100
AcDbEntity
  8
0
100
AcDbBlockEnd
  0
ENDSEC
  0
SECTION
  2
ENTITIES
  0
TEXT
  5
1500
330
1F
100
AcDbEntity
  8
AM_6
100
AcDbText
 10
-43.03571428571426
 20
-27.25000099999996
 30
0.0
 40
2.5
  1
SSB2040
 72
     4
 11
-34.99999999999998
 21
-26.00000099999996
 31
0.0
100
AcDbText
  0
LINE
  5
3EE8
330
1F
100
AcDbEntity
  8
AM_7
  6
AM_ISO08W050X2
100
AcDbLine
 10
1.341626940564765
 20
0.0
 30
0.0
 11
-72.05619412995955
 21
-0.0000000000000355
 31
0.0
1001
GENIUS_GENODEF_13
1002
{
1000
HIER
1070
     0
1002
}
1002
{
1000
MANEDIT
1070
     0
1002
}
1002
{
1000
NOSEL
1070
     0
1002
}
1002
{
1000
BEHIND
1070
     0
1002
}
1002
{
1000
REACTOR
1002
}
1001
GENIUS_GENOBJ-N-CEN_13
1002
{
1000
OWNER
1000
GEN
1002
}
  0
DIMENSION
  5
4047
330
1F
100
AcDbEntity
  8
AM_5
100
AcDbDimension
  2
*D5
 10
-0.0000000000000003
 20
-16.00000099999995
 30
0.0
 11
-34.99999999999998
 21
-14.45000099999995
 31
0.0
 70
    32
  1
<>
  3
AM_JIS
100
AcDbAlignedDimension
 13
-69.99999999999997
 23
-2.500000000000015
 33
0.0
 14
0.0000000000000007
 24
-0.0000000000000005
 34
0.0
 50
0.0000000000001132
100
AcDbRotatedDimension
1001
GENIUS_GENDTOL_13
1000

1000
h7
1000

1040
0.0
  0
DIMENSION
  5
412A
330
1F
100
AcDbEntity
  8
AM_5
100
AcDbDimension
  2
*D6
 10
-12.0
 20
-10.00000099999998
 30
0.0
 11
-6.000000000000007
 21
-8.45000099999998
 31
0.0
 70
    32
  1
<>
  3
AM_JIS
100
AcDbAlignedDimension
 13
-0.0000000000000142
 23
-0.0000000000000111
 33
0.0
 14
-12.0
 24
-2.0
 34
0.0
 50
0.0000000000001132
100
AcDbRotatedDimension
1001
GENIUS_GENDTOL_13
1000

1000
h7
1000

1040
0.0
  0
LINE
  5
45F3
330
1F
100
AcDbEntity
  8
AM_0
100
AcDbLine
 10
-18.49999999999997
 20
-2.999999999999995
 30
0.0
 11
-69.49999999999997
 21
-3.000000000000015
 31
0.0
  0
LINE
  5
45F6
330
1F
100
AcDbEntity
  8
AM_0
100
AcDbLine
 10
-69.49999999999999
 20
2.999999999999916
 30
0.0
 11
-69.49999999999997
 21
-3.000000000000024
 31
0.0
  0
LINE
  5
45F7
330
1F
100
AcDbEntity
  8
AM_0
100
AcDbLine
 10
-70.0
 20
2.499999999999916
 30
0.0
 11
-69.99999999999997
 21
-2.500000000000015
 31
0.0
  0
DIMENSION
  5
45F8
330
1F
100
AcDbEntity
  8
AM_5
100
AcDbDimension
  2
*D7
 10
-79.05619512995953
 20
-3.000000000000024
 30
0.0
 11
-80.60619512995954
 21
-0.0000000000000656
 31
0.0
 70
    32
  1
%%c<>
  3
AM_JIS
100
AcDbAlignedDimension
 13
-69.49999999999999
 23
2.999999999999916
 33
0.0
 14
-69.49999999999997
 24
-3.000000000000027
 34
0.0
 50
270.0
100
AcDbRotatedDimension
1001
GENIUS_GENDTOL_13
1000

1000
h7
1000

1040
0.0
  0
LINE
  5
4607
330
1F
100
AcDbEntity
  8
AM_0
100
AcDbLine
 10
-18.49999999999998
 20
2.999999999999916
 30
0.0
 11
-69.5
 21
2.999999999999916
 31
0.0
  0
LINE
  5
4615
330
1F
100
AcDbEntity
  8
AM_0
100
AcDbLine
 10
-69.5
 20
2.999999999999916
 30
0.0
 11
-70.0
 21
2.499999999999916
 31
0.0
1001
GENIUS_GENFIL_13
1070
     0
1040
0.5
1040
0.5
1040
20.0
1040
0.0
1002
{
1002
}
1001
GENIUS_GENODEF_13
1002
{
1000
HIER
1070
     0
1002
}
1002
{
1000
MANEDIT
1070
     0
1002
}
1002
{
1000
NOSEL
1070
     0
1002
}
1002
{
1000
BEHIND
1070
     0
1002
}
1002
{
1000
REACTOR
1002
}
1001
GENIUS_GENOBJ-N-CHA_13
1002
{
1000
OWNER
1000
GEN
1002
}
  0
LINE
  5
4618
330
1F
100
AcDbEntity
  8
AM_0
100
AcDbLine
 10
-69.99999999999997
 20
-2.500000000000015
 30
0.0
 11
-69.49999999999997
 21
-3.000000000000015
 31
0.0
1001
GENIUS_GENFIL_13
1070
     0
1040
0.5
1040
0.5
1040
20.0
1040
0.0
1002
{
1002
}
1001
GENIUS_GENODEF_13
1002
{
1000
HIER
1070
     0
1002
}
1002
{
1000
MANEDIT
1070
     0
1002
}
1002
{
1000
NOSEL
1070
     0
1002
}
1002
{
1000
BEHIND
1070
     0
1002
}
1002
{
1000
REACTOR
1002
}
1001
GENIUS_GENOBJ-N-CHA_13
1002
{
1000
OWNER
1000
GEN
1002
}
  0
SPLINE
  5
4737
330
1F
100
AcDbEntity
  8
AM_0
100
AcDbSpline
210
0.0
220
0.0
230
1.0
 70
     8
 71
     3
 72
     8
 73
     4
 74
     0
 42
0.0000000001
 43
0.0000000001
 40
1.794922859428793
 40
1.794922859428793
 40
1.794922859428793
 40
1.794922859428793
 40
17.5282628916844
 40
17.5282628916844
 40
17.5282628916844
 40
17.5282628916844
 10
-1.999999999998727
 20
-1.969615506024548
 30
0.0
 10
-4.072374125188066
 20
-1.795196720802233
 30
0.0
 10
-6.039415280652063
 20
-0.897598360401119
 30
0.0
 10
-8.006456436116243
 20
0.0
 30
0.0
  0
SPLINE
  5
4738
330
1F
100
AcDbEntity
  8
AM_0
100
AcDbSpline
210
0.0
220
0.0
230
1.0
 70
     8
 71
     3
 72
     8
 73
     4
 74
     0
 42
0.0000000001
 43
0.0000000001
 40
3.732786119440464
 40
3.732786119440464
 40
3.732786119440464
 40
3.732786119440464
 40
17.48613721147548
 40
17.48613721147548
 40
17.48613721147548
 40
17.48613721147548
 10
-1.913901191148216
 20
-1.816923844380838
 30
0.0
 10
-3.706518540357684
 20
-1.52594684319456
 30
0.0
 10
-5.432365345938704
 20
-0.7629734215973279
 30
0.0
 10
-7.158212151519726
 20
0.0
 30
0.0
  0
SPLINE
  5
4739
330
1F
100
AcDbEntity
  8
AM_0
100
AcDbSpline
210
0.0
220
0.0
230
1.0
 70
     8
 71
     3
 72
     8
 73
     4
 74
     0
 42
0.0000000001
 43
0.0000000001
 40
6.513172597598655
 40
6.513172597598655
 40
6.513172597598655
 40
6.513172597598655
 40
17.4246383984571
 40
17.4246383984571
 40
17.4246383984571
 40
17.4246383984571
 10
-1.999999999999995
 20
-1.510141837743958
 30
0.0
 10
-3.407308531482886
 20
-1.158145398811394
 30
0.0
 10
-4.783939797923814
 20
-0.5790726994056996
 30
0.0
 10
-6.160571064364736
 20
0.0
 30
0.0
  0
SPLINE
  5
473A
330
1F
100
AcDbEntity
  8
AM_0
100
AcDbSpline
210
0.0
220
0.0
230
1.0
 70
     8
 71
     3
 72
     8
 73
     4
 74
     0
 42
0.0000000001
 43
0.0000000001
 40
1.794922859432252
 40
1.794922859432252
 40
1.794922859432252
 40
1.794922859432252
 40
8.217791785374707
 40
8.217791785374707
 40
8.217791785374707
 40
8.217791785374707
 10
-1.999999999999995
 20
1.969615506024321
 30
0.0
 10
-2.846011548998468
 20
1.89841199847856
 30
0.0
 10
-3.674468916284968
 20
1.706687578003174
 30
0.0
 10
-4.492538298484755
 20
1.443642860932371
 30
0.0
  0
SPLINE
  5
473B
330
1F
100
AcDbEntity
  8
AM_0
100
AcDbSpline
210
0.0
220
0.0
230
1.0
 70
     8
 71
     3
 72
     8
 73
     4
 74
     2
 42
0.0000000001
 43
0.0000000001
 44
0.0000000001
 12
-0.8789112757303589
 22
0.4769852926391262
 32
0.0
 13
0.9988106394578339
 23
0.0487576302319218
 33
0.0
 40
0.0
 40
0.0
 40
0.0
 40
0.0
 40
0.862979944131761
 40
0.862979944131761
 40
0.862979944131761
 40
0.862979944131761
 10
-2.091112544271704
 20
0.5555406595396545
 30
0.0
 10
-2.343940145480557
 20
0.6927502399374493
 30
0.0
 10
-2.661542887553565
 20
1.356733845575064
 30
0.0
 10
-2.374225037607721
 20
1.370759464579577
 30
0.0
 11
-2.091112544271704
 21
0.5555406595396545
 31
0.0
 11
-2.374225037607721
 21
1.370759464579577
 31
0.0
  0
SPLINE
  5
473C
330
1F
100
AcDbEntity
  8
AM_0
100
AcDbSpline
210
0.0
220
0.0
230
1.0
 70
     8
 71
     3
 72
     8
 73
     4
 74
     2
 42
0.0000000001
 43
0.0000000001
 44
0.0000000001
 12
0.4216926876958761
 22
-0.9067388141818064
 32
0.0
 13
-0.9928045895078733
 23
-0.119745760058982
 33
0.0
 40
0.0
 40
0.0
 40
0.0
 40
0.0
 40
0.7061677825865189
 40
0.7061677825865189
 40
0.7061677825865189
 40
0.7061677825865189
 10
-1.999999999999995
 20
1.969615506024321
 30
0.0
 10
-1.900738069932279
 20
1.756178926759022
 30
0.0
 10
-2.140529499122529
 20
1.398946330530331
 30
0.0
 10
-2.374225037627361
 20
1.370759464578668
 30
0.0
 11
-1.999999999999995
 21
1.969615506024321
 31
0.0
 11
-2.374225037627361
 21
1.370759464578668
 31
0.0
  0
SPLINE
  5
473D
330
1F
100
AcDbEntity
  8
AM_0
100
AcDbSpline
210
0.0
220
0.0
230
1.0
 70
     8
 71
     3
 72
     9
 73
     5
 74
     3
 42
0.0000000001
 43
0.0000000001
 44
0.0000000001
 12
0.5867325161912577
 22
-0.8097808064185491
 32
0.0
 13
-0.8994987856269101
 23
0.4369232594583561
 33
0.0
 40
0.0
 40
0.0
 40
0.0
 40
0.0
 40
0.179205273239578
 40
0.533864952720654
 40
0.533864952720654
 40
0.533864952720654
 40
0.533864952720654
 10
-1.754565562993401
 20
-1.217039667751398
 30
0.0
 10
-1.719517042699201
 20
-1.265411997977532
 30
0.0
 10
-1.5683309204841
 20
-1.438358593683202
 30
0.0
 10
-1.893661349665309
 20
-1.561794858796401
 30
0.0
 10
-1.999999999999995
 20
-1.510141837743958
 30
0.0
 11
-1.754565562993401
 21
-1.217039667751398
 31
0.0
 11
-1.671711036353185
 21
-1.375941075461014
 31
0.0
 11
-1.999999999999995
 21
-1.510141837743958
 31
0.0
  0
SPLINE
  5
473E
330
1F
100
AcDbEntity
  8
AM_0
100
AcDbSpline
210
0.0
220
0.0
230
1.0
 70
     8
 71
     3
 72
     8
 73
     4
 74
     0
 42
0.0000000001
 43
0.0000000001
 40
15.41323093265439
 40
15.41323093265439
 40
15.41323093265439
 40
15.41323093265439
 40
17.52826289168434
 40
17.52826289168434
 40
17.52826289168434
 40
17.52826289168434
 10
-12.0
 20
1.118251727429878
 30
0.0
 10
-10.50277976836205
 20
0.8462486198369333
 30
0.0
 10
-9.1002073533361
 20
0.455345817868556
 30
0.0
 10
-8.006456436116243
 20
0.0
 30
0.0
  0
SPLINE
  5
473F
330
1F
100
AcDbEntity
  8
AM_0
100
AcDbSpline
210
0.0
220
0.0
230
1.0
 70
     8
 71
     3
 72
     8
 73
     4
 74
     0
 42
0.0000000001
 43
0.0000000001
 40
13.13081676297142
 40
13.13081676297142
 40
13.13081676297142
 40
13.13081676297142
 40
17.48613721147548
 40
17.48613721147548
 40
17.48613721147548
 40
17.48613721147548
 10
-12.0
 20
1.458644296065358
 30
0.0
 10
-10.02549175795832
 20
1.061769544018241
 30
0.0
 10
-8.712806005148832
 20
0.729044802968565
 30
0.0
 10
-7.158212151519726
 20
0.0
 30
0.0
  0
SPLINE
  5
4740
330
1F
100
AcDbEntity
  8
AM_0
100
AcDbSpline
210
0.0
220
0.0
230
1.0
 70
     8
 71
     3
 72
     8
 73
     4
 74
     0
 42
0.0000000001
 43
0.0000000001
 40
0.7484745895110383
 40
0.7484745895110383
 40
0.7484745895110383
 40
0.7484745895110383
 40
17.4246383984571
 40
17.4246383984571
 40
17.4246383984571
 40
17.4246383984571
 10
-13.38358542609248
 20
1.999999999999957
 30
0.0
 10
-11.01455737399728
 20
1.770011723231211
 30
0.0
 10
-9.069260918381907
 20
1.159762182174039
 30
0.0
 10
-6.160571064364736
 20
0.0
 30
0.0
  0
SPLINE
  5
4741
330
1F
100
AcDbEntity
  8
AM_0
100
AcDbSpline
210
0.0
220
0.0
230
1.0
 70
     8
 71
     3
 72
     8
 73
     4
 74
     0
 42
0.0000000001
 43
0.0000000001
 40
0.0
 40
0.0
 40
0.0
 40
0.0
 40
2.890953265908282
 40
2.890953265908282
 40
2.890953265908282
 40
2.890953265908282
 10
-13.47399394303455
 20
-1.999999999999995
 30
0.0
 10
-12.84877355259098
 20
-1.937712500872924
 30
0.0
 10
-12.43171778470637
 20
-1.84636416473747
 30
0.0
 10
-12.0
 20
-1.723967310735679
 30
0.0
  0
LINE
  5
4742
330
1F
100
AcDbEntity
  8
AM_0
100
AcDbLine
 10
-12.0
 20
-1.723967310735679
 30
0.0
 11
-4.492538298484761
 21
-1.443642860932504
 31
0.0
  0
LINE
  5
4743
330
1F
100
AcDbEntity
  8
AM_11
100
AcDbLine
 10
-12.0
 20
-2.0
 30
0.0
 11
-2.0
 21
-2.0
 31
0.0
  0
LINE
  5
4744
330
1F
100
AcDbEntity
  8
AM_11
100
AcDbLine
 10
-2.0
 20
1.999999999999952
 30
0.0
 11
-12.0
 21
1.999999999999953
 31
0.0
  0
LINE
  5
4745
330
1F
100
AcDbEntity
  8
AM_0
100
AcDbLine
 10
-11.19606820483557
 20
1.657294141046954
 30
0.0
 11
-2.374225037607903
 21
1.370759464579577
 31
0.0
  0
LINE
  5
4747
330
1F
100
AcDbEntity
  8
AM_11
100
AcDbLine
 10
-12.0
 20
1.999999999999953
 30
0.0
 11
-12.0
 21
-2.0
 31
0.0
  0
POLYLINE
  5
4748
330
1F
100
AcDbEntity
  8
AM_0
100
AcDb2dPolyline
 66
     1
 10
0.0
 20
0.0
 30
0.0
 70
     2
  0
VERTEX
  5
4C1A
330
4748
100
AcDbEntity
  8
AM_0
100
AcDbVertex
100
AcDb2dVertex
 10
-12.0
 20
1.118251727429878
 30
0.0
 42
0.0133190182982484
  0
VERTEX
  5
4C28
330
4748
100
AcDbEntity
  8
AM_0
100
AcDbVertex
100
AcDb2dVertex
 10
-12.45488968021761
 20
1.039735491876754
 30
0.0
 42
0.0206055082738524
 70
     1
  0
VERTEX
  5
4C1B
330
4748
100
AcDbEntity
  8
AM_0
100
AcDbVertex
100
AcDb2dVertex
 10
-12.74487678132791
 20
0.9691510257781839
 30
0.0
 42
0.0010255928715063
  0
VERTEX
  5
4C29
330
4748
100
AcDbEntity
  8
AM_0
100
AcDbVertex
100
AcDb2dVertex
 10
-13.12933169637999
 20
0.8577585002491105
 30
0.0
 42
0.0055579029936777
 70
     1
  0
VERTEX
  5
4C1C
330
4748
100
AcDbEntity
  8
AM_0
100
AcDbVertex
100
AcDb2dVertex
 10
-13.2
 20
0.8362704472596764
 30
0.0
 42
0.0144265122349397
  0
VERTEX
  5
4C2A
330
4748
100
AcDbEntity
  8
AM_0
100
AcDbVertex
100
AcDb2dVertex
 10
-13.55361488678718
 20
0.7131091714579327
 30
0.0
 42
0.0064805851230883
 70
     1
  0
VERTEX
  5
4C1D
330
4748
100
AcDbEntity
  8
AM_0
100
AcDbVertex
100
AcDb2dVertex
 10
-14.32852442373624
 20
0.4063246253648245
 30
0.0
 42
0.0155505912919587
  0
VERTEX
  5
4C2B
330
4748
100
AcDbEntity
  8
AM_0
100
AcDbVertex
100
AcDb2dVertex
 10
-14.62665801854874
 20
0.2728199420551846
 30
0.0
 42
0.0256792573039515
 70
     1
  0
VERTEX
  5
4C1E
330
4748
100
AcDbEntity
  8
AM_0
100
AcDbVertex
100
AcDb2dVertex
 10
-14.8
 20
0.1773402682143109
 30
0.0
 42
0.0887915185079863
  0
VERTEX
  5
4C2C
330
4748
100
AcDbEntity
  8
AM_0
100
AcDbVertex
100
AcDb2dVertex
 10
-14.95504268492334
 20
0.0380483940357124
 30
0.0
 42
0.0497717146308219
 70
     1
  0
VERTEX
  5
4C1F
330
4748
100
AcDbEntity
  8
AM_0
100
AcDbVertex
100
AcDb2dVertex
 10
-15.15220442279315
 20
-0.2748416561347541
 30
0.0
 42
0.019220562583607
  0
VERTEX
  5
4C2D
330
4748
100
AcDbEntity
  8
AM_0
100
AcDbVertex
100
AcDb2dVertex
 10
-15.19734143957086
 20
-0.3747377290647365
 30
0.0
 42
0.1191256070877622
 70
     1
  0
VERTEX
  5
4C20
330
4748
100
AcDbEntity
  8
AM_0
100
AcDbVertex
100
AcDb2dVertex
 10
-15.2
 20
-0.3924708022095493
 30
0.0
 42
0.1030806632905034
  0
VERTEX
  5
4C2E
330
4748
100
AcDbEntity
  8
AM_0
100
AcDbVertex
100
AcDb2dVertex
 10
-15.19185928122583
 20
-0.4193814957453583
 30
0.0
 42
0.0306967340520419
 70
     1
  0
VERTEX
  5
4C21
330
4748
100
AcDbEntity
  8
AM_0
100
AcDbVertex
100
AcDb2dVertex
 10
-15.14214491446528
 20
-0.4985773804601883
 30
0.0
 42
0.0325479444974181
  0
VERTEX
  5
4C2F
330
4748
100
AcDbEntity
  8
AM_0
100
AcDbVertex
100
AcDb2dVertex
 10
-15.02716488785317
 20
-0.6387408395186981
 30
0.0
 42
0.0250903602213412
 70
     1
  0
VERTEX
  5
4C22
330
4748
100
AcDbEntity
  8
AM_0
100
AcDbVertex
100
AcDb2dVertex
 10
-14.85816379710365
 20
-0.8021375833395707
 30
0.0
 42
0.0351390755216263
  0
VERTEX
  5
4C30
330
4748
100
AcDbEntity
  8
AM_0
100
AcDbVertex
100
AcDb2dVertex
 10
-14.62966195093118
 20
-0.9751687998550892
 30
0.0
 42
0.029402247913624
 70
     1
  0
VERTEX
  5
4C23
330
4748
100
AcDbEntity
  8
AM_0
100
AcDbVertex
100
AcDb2dVertex
 10
-14.33234642764765
 20
-1.145038553968333
 30
0.0
 42
0.0290499554422328
  0
VERTEX
  5
4C31
330
4748
100
AcDbEntity
  8
AM_0
100
AcDbVertex
100
AcDb2dVertex
 10
-13.85086636464095
 20
-1.349861660574362
 30
0.0
 42
0.028925086886514
 70
     1
  0
VERTEX
  5
4C24
330
4748
100
AcDbEntity
  8
AM_0
100
AcDbVertex
100
AcDb2dVertex
 10
-13.34676480389128
 20
-1.498259902669171
 30
0.0
 42
0.0065284305324324
  0
VERTEX
  5
4C33
330
4748
100
AcDbEntity
  8
AM_0
100
AcDbVertex
100
AcDb2dVertex
 10
-13.14779654663434
 20
-1.541793793592296
 30
0.0
 42
0.0025850798106436
 70
     1
  0
VERTEX
  5
4C25
330
4748
100
AcDbEntity
  8
AM_0
100
AcDbVertex
100
AcDb2dVertex
 10
-12.64341453735361
 20
-1.642555473293987
 30
0.0
 42
0.0165376614770678
  0
VERTEX
  5
4C32
330
4748
100
AcDbEntity
  8
AM_0
100
AcDbVertex
100
AcDb2dVertex
 10
-12.41642892472709
 20
-1.678938154465699
 30
0.0
 42
0.0090747089660156
 70
     1
  0
VERTEX
  5
4C26
330
4748
100
AcDbEntity
  8
AM_0
100
AcDbVertex
100
AcDb2dVertex
 10
-12.0
 20
-1.723967310735679
 30
0.0
  0
SEQEND
  5
4C27
330
4748
100
AcDbEntity
  8
AM_0
  0
DIMENSION
  5
4759
330
1F
100
AcDbEntity
  8
AM_5
100
AcDbDimension
  2
*D8
 10
8.341627940564759
 20
-2.000000000000003
 30
0.0
 11
6.791627940564758
 21
-5.295238095238095
 31
0.0
 70
    32
  1
%%c<>
  3
AM_JIS
100
AcDbAlignedDimension
 13
-2.0
 23
2.0
 33
0.0
 14
-2.4
 24
-2.0
 34
0.0
 50
90.0
100
AcDbRotatedDimension
1001
GENIUS_GENDTOL_13
1000

1000
h7
1000

1040
0.0
  0
ARC
  5
475A
330
1F
100
AcDbEntity
  8
AM_0
100
AcDbCircle
 10
-2.000000000000188
 20
0.0303844939735427
 30
0.0
 40
2.0
100
AcDbArc
 50
270.0000000000781
 51
359.1295148788724
  0
ARC
  5
475C
330
1F
100
AcDbEntity
  8
AM_0
100
AcDbCircle
 10
-1.93562621956317
 20
0.5373027699245537
 30
0.0
 40
1.763661064373852
100
AcDbArc
 50
275.8924707062755
 51
339.8416840647174
  0
LINE
  5
475D
330
1F
100
AcDbEntity
  8
AM_0
100
AcDbLine
 10
-0.0000000000000007
 20
0.0
 30
0.0
 11
-2.374225037607721
 21
1.370759464579577
 31
0.0
  0
ARC
  5
475E
330
1F
100
AcDbEntity
  8
AM_0
100
AcDbCircle
 10
-2.000000000000006
 20
-0.0303844939756341
 30
0.0
 40
2.0
100
AcDbArc
 50
0.8704851212057906
 51
90.0
  0
LINE
  5
475F
330
1F
100
AcDbEntity
  8
AM_0
100
AcDbLine
 10
-0.2800000000001099
 20
-0.0704818721020265
 30
0.0
 11
-2.09111254427171
 21
0.5555406595396568
 31
0.0
  0
ARC
  5
4760
330
1F
100
AcDbEntity
  8
AM_11
100
AcDbCircle
 10
-2.000000000000006
 20
0.0
 30
0.0
 40
2.0
100
AcDbArc
 50
270.0
 51
90.0
  0
ARC
  5
4761
330
1F
100
AcDbEntity
  8
AM_0
100
AcDbCircle
 10
-2.054741790717714
 20
0.153533500989487
 30
0.0
 40
1.975484301231162
100
AcDbArc
 50
274.0883259404363
 51
353.4887846299623
  0
ARC
  5
4762
330
1F
100
AcDbEntity
  8
AM_0
100
AcDbCircle
 10
-0.082056365136311
 20
0.0187465652482383
 30
0.0
 40
2.079532310542082
100
AcDbArc
 50
165.040742132377
 51
216.4600123166023
  0
LINE
  5
4763
330
1F
100
AcDbEntity
  8
AM_0
100
AcDbLine
 10
-1.913901191148216
 20
-1.816923844380743
 30
0.0
 11
-2.000000000000182
 21
-1.510141837743958
 31
0.0
  0
LINE
  5
4764
330
1F
100
AcDbEntity
  8
AM_0
100
AcDbLine
 10
-1.999999999975808
 20
-1.969615506026457
 30
0.0
 11
-1.913901191148216
 21
-1.816923844380743
 31
0.0
  0
LINE
  5
4765
330
1F
100
AcDbEntity
  8
AM_0
100
AcDbLine
 10
-0.092000000000008
 20
-0.0704818721020265
 30
0.0
 11
-0.2800000000001099
 21
-0.0704818721020265
 31
0.0
  0
LINE
  5
4766
330
1F
100
AcDbEntity
  8
AM_0
100
AcDbLine
 10
-0.0000000000000007
 20
0.0
 30
0.0
 11
-0.092000000000008
 21
-0.0704818721020265
 31
0.0
  0
LINE
  5
4ADA
330
1F
100
AcDbEntity
  8
AM_0
100
AcDbLine
 10
-18.49999999999999
 20
2.999999999999916
 30
0.0
 11
-18.49999999999997
 21
-2.999999999999995
 31
0.0
  0
LINE
  5
4AF6
330
1F
100
AcDbEntity
  8
AM_0
100
AcDbLine
 10
-14.76794919243124
 20
1.999999999999949
 30
0.0
 11
-18.49999999999999
 21
2.999999999999916
 31
0.0
  0
LINE
  5
4AF8
330
1F
100
AcDbEntity
  8
AM_0
100
AcDbLine
 10
-14.76794919243111
 20
-2.000000000000002
 30
0.0
 11
-18.49999999999997
 21
-2.999999999999995
 31
0.0
  0
LINE
  5
4C18
330
1F
100
AcDbEntity
  8
AM_0
100
AcDbLine
 10
-12.0
 20
1.118251727429878
 30
0.0
 11
-12.0
 21
1.814690580055209
 31
0.0
  0
LINE
  5
4D73
330
1F
100
AcDbEntity
  8
AM_0
100
AcDbLine
 10
-13.38358542594019
 20
1.999999999999952
 30
0.0
 11
-14.76794919243124
 21
1.99999999999995
 31
0.0
  0
LINE
  5
4D74
330
1F
100
AcDbEntity
  8
AM_0
100
AcDbLine
 10
-13.47399394301318
 20
-2.0
 30
0.0
 11
-14.76794919243124
 21
-2.000000000000001
 31
0.0
  0
LINE
  5
4D75
330
1F
100
AcDbEntity
  8
AM_0
100
AcDbLine
 10
-14.76794919243124
 20
1.999999999999949
 30
0.0
 11
-14.76794919243124
 21
0.1967751733736025
 31
0.0
  0
LINE
  5
4D84
330
1F
100
AcDbEntity
  8
AM_0
100
AcDbLine
 10
-14.76794919243124
 20
-0.8765534411329401
 30
0.0
 11
-14.76794919243124
 21
-2.000000000000003
 31
0.0
  0
DIMENSION
  5
4FAE
330
1F
100
AcDbEntity
  8
AM_5
100
AcDbDimension
  2
*D9
 10
-2.000000000000188
 20
0.0303844939735427
 30
0.0
 11
2.773339954773422
 21
-4.761066586225402
 31
0.0
 70
    36
  1
<>
  3
AM_JIS$4
100
AcDbRadialDimension
 15
-0.9507528826577484
 25
-1.672284142828281
 35
0.0
 40
0.0
1001
GENIUS_GENDTOL_13
1000

1000
h7
1000

1040
0.0
1001
ACAD
1000
DSTYLE
1002
{
1070
   287
1070
     3
1070
   271
1070
     3
1070
   288
1070
     1
1070
   289
1070
     3
1070
   172
1070
     1
1070
    74
1070
     0
1002
}
  0
VIEWPORT
  5
110
330
101
100
AcDbEntity
 67
     1
  8
0
100
AcDbViewport
 10
420.5
 20
297.0
 30
0.0
 40
948.9782706766916
 41
628.452
 68
     1
 69
     1
1001
ACAD
1000
MVIEW
1002
{
1070
    16
1010
0.0
1020
0.0
1030
0.0
1010
0.0
1020
0.0
1030
1.0
1040
0.0
1040
628.452
1040
420.5
1040
297.0
1040
50.0
1040
0.0
1040
0.0
1070
     0
1070
   100
1070
     1
1070
     1
1070
     0
1070
     0
1070
     0
1070
     0
1040
0.0
1040
0.0
1040
0.0
1040
10.0
1040
10.0
1040
10.0
1040
10.0
1070
     0
1002
{
1002
}
1002
}
  0
ENDSEC
  0
SECTION
  2
OBJECTS
  0
DICTIONARY
  5
C
330
0
100
AcDbDictionary
  3
ACAD_GROUP
350
D
  3
ACAD_LAYOUT
350
1A
  3
ACAD_MLINESTYLE
350
17
  3
ACAD_PLOTSETTINGS
350
19
  3
ACAD_PLOTSTYLENAME
350
E
  3
ACDBVARIABLEDICTIONARY
350
34
  3
ACMDICTIONARY
350
43
  3
AMG
350
2B
  3
AMGSNAPSETTINGS
350
6E
  3
ASE_INDEX_DICTIONARY
350
151A
  3
DWGPROPS
350
5048
  3
ACDBHEADERROUNDTRIPXREC
350
5054
  0
DICTIONARY
  5
74
330
1F
100
AcDbDictionary
280
     1
  3
ACAD_INDEX
360
504A
  3
ACAD_LAYOUTSELFREF
360
5077
  0
DICTIONARY
  5
507C
330
101
100
AcDbDictionary
280
     1
  3
ACAD_LAYOUTSELFREF
360
507D
  0
DICTIONARY
  5
D
102
{ACAD_REACTORS
330
C
102
}
330
C
100
AcDbDictionary
  0
DICTIONARY
  5
1A
102
{ACAD_REACTORS
330
C
102
}
330
C
100
AcDbDictionary
  0
DICTIONARY
  5
17
102
{ACAD_REACTORS
330
C
102
}
330
C
100
AcDbDictionary
  3
STANDARD
350
18
  0
DICTIONARY
  5
19
102
{ACAD_REACTORS
330
C
102
}
330
C
100
AcDbDictionary
  0
ACDBDICTIONARYWDFLT
  5
E
102
{ACAD_REACTORS
330
C
102
}
330
C
100
AcDbDictionary
281
     1
  3
Normal
350
F
100
AcDbDictionaryWithDefault
340
F
  0
DICTIONARY
  5
34
102
{ACAD_REACTORS
330
C
102
}
330
C
100
AcDbDictionary
  3
INDEXCTL
350
35
  3
SORTENTS
350
B5E
  0
DICTIONARY
  5
43
102
{ACAD_REACTORS
330
C
102
}
330
C
100
AcDbDictionary
  3
ACMSTDDICTIONARY
350
260
  0
DICTIONARY
  5
2B
102
{ACAD_REACTORS
330
C
102
}
330
C
100
AcDbDictionary
  3
ACMGSETTINGS
350
2C
  0
DICTIONARY
  5
6E
102
{ACAD_REACTORS
330
C
102
}
330
C
100
AcDbDictionary
  0
DICTIONARY
  5
151A
102
{ACAD_REACTORS
330
C
102
}
330
C
100
AcDbDictionary
  3
ASEBLOCKHIERARCHYINDEXRECORD
350
151C
1001
DCO15
1040
1471862535.906
  0
XRECORD
  5
5048
102
{ACAD_REACTORS
330
C
102
}
330
C
100
AcDbXrecord
  1
DWGPROPS COOKIE
  2

  3

  4

  6

  7

  8

  9

300
AmdtFileType=82
301
=
302
=
303
=
304
=
305
=
306
=
307
=
308
=
309
=
 40
0.1802855555555556
 41
2452838.430434386
 42
2452871.598550069
  1

 90
        1
  0
DICTIONARY
  5
5054
102
{ACAD_REACTORS
330
C
102
}
330
C
100
AcDbDictionary
  3
TSTACKALIGN
350
5055
  3
TSTACKSIZE
350
5056
  3
HYPERLINKBASE
350
5057
  3
STYLESHEET
350
5058
  3
LAYOUTDICT
350
5059
  3
PLOTSETDICT
350
505A
  3
PLOTSTYLNAMDICT
350
505B
  3
LWETCUNION
350
505C
  3
INSUNITS
350
505D
  3
CEPSNTYPE
350
505E
  3
FINGERPRINTGUID
350
505F
  3
VERSIONGUID
350
5060
  3
PSVPSCALE
350
5061
  3
DIMSTYLEDATA
350
5062
  3
PUCSORTHOREF
350
5063
  3
PUCSORTHOVIEW
350
5064
  3
PUCSBASE
350
5065
  3
PUCSORGTOP
350
5066
  3
PUCSORGBOTTOM
350
5067
  3
PUCSORGLEFT
350
5068
  3
PUCSORGRIGHT
350
5069
  3
PUCSORGFRONT
350
506A
  3
PUCSORGBACK
350
506B
  3
UCSORTHOREF
350
506C
  3
UCSORTHOVIEW
350
506D
  3
UCSBASE
350
506E
  3
UCSORGTOP
350
506F
  3
UCSORGBOTTOM
350
5070
  3
UCSORGLEFT
350
5071
  3
UCSORGRIGHT
350
5072
  3
UCSORGFRONT
350
5073
  3
UCSORGBACK
350
5074
  0
DICTIONARY
  5
504A
102
{ACAD_REACTORS
330
74
102
}
330
74
100
AcDbDictionary
  3
*A1
350
504B
  0
XRECORD
  5
5077
102
{ACAD_REACTORS
330
74
102
}
330
74
100
AcDbXrecord
340
1F
  0
XRECORD
  5
507D
102
{ACAD_REACTORS
330
507C
102
}
330
507C
100
AcDbXrecord
340
101
  0
MLINESTYLE
  5
18
102
{ACAD_REACTORS
330
17
102
}
330
17
100
AcDbMlineStyle
  2
STANDARD
 70
     0
  3

 62
   256
 51
90.0
 52
90.0
 71
     2
 49
0.5
 62
   256
  6
BYLAYER
 49
-0.5
 62
   256
  6
BYLAYER
  0
ACDBPLACEHOLDER
  5
F
102
{ACAD_REACTORS
330
E
102
}
330
E
100
AcDbPlaceHolder
280
     0
  0
DICTIONARYVAR
  5
35
102
{ACAD_REACTORS
330
34
102
}
330
34
100
DictionaryVariables
280
     0
  1
1
  0
DICTIONARYVAR
  5
B5E
102
{ACAD_REACTORS
330
34
102
}
330
34
100
DictionaryVariables
280
     0
  1
96
  0
DICTIONARY
  5
260
102
{ACAD_REACTORS
330
43
102
}
330
43
100
AcDbDictionary
  0
DICTIONARY
  5
2C
102
{ACAD_REACTORS
330
2B
102
}
330
2B
100
AcDbDictionary
  3
DWGSETTINGS
350
2D
  0
XRECORD
  5
151C
102
{ACAD_REACTORS
330
151A
102
}
330
151A
100
AcDbXrecord
330
0
330
0
330
0
330
0
330
0
330
0
330
0
330
0
  0
XRECORD
  5
5055
102
{ACAD_REACTORS
330
5054
102
}
330
5054
100
AcDbXrecord
 90
        1
  0
XRECORD
  5
5056
102
{ACAD_REACTORS
330
5054
102
}
330
5054
100
AcDbXrecord
 90
       70
  0
XRECORD
  5
5057
102
{ACAD_REACTORS
330
5054
102
}
330
5054
100
AcDbXrecord
  1

  0
XRECORD
  5
5058
102
{ACAD_REACTORS
330
5054
102
}
330
5054
100
AcDbXrecord
  1
ASAMI.ctb
  0
XRECORD
  5
5059
102
{ACAD_REACTORS
330
5054
102
}
330
5054
100
AcDbXrecord
340
1A
  0
XRECORD
  5
505A
102
{ACAD_REACTORS
330
5054
102
}
330
5054
100
AcDbXrecord
340
19
  0
XRECORD
  5
505B
102
{ACAD_REACTORS
330
5054
102
}
330
5054
100
AcDbXrecord
340
E
  0
XRECORD
  5
505C
102
{ACAD_REACTORS
330
5054
102
}
330
5054
100
AcDbXrecord
 90
    10781
  0
XRECORD
  5
505D
102
{ACAD_REACTORS
330
5054
102
}
330
5054
100
AcDbXrecord
 90
        4
  0
XRECORD
  5
505E
102
{ACAD_REACTORS
330
5054
102
}
330
5054
100
AcDbXrecord
 90
        0
  0
XRECORD
  5
505F
102
{ACAD_REACTORS
330
5054
102
}
330
5054
100
AcDbXrecord
  1
{AFB28963-8C59-40AE-9337-C84526B81ACE}
  0
XRECORD
  5
5060
102
{ACAD_REACTORS
330
5054
102
}
330
5054
100
AcDbXrecord
  1
{9404820E-6CE1-4E8F-8A7D-29720C1B05EE}
  0
XRECORD
  5
5061
102
{ACAD_REACTORS
330
5054
102
}
330
5054
100
AcDbXrecord
 40
0.0
  0
XRECORD
  5
5062
102
{ACAD_REACTORS
330
5054
102
}
330
5054
100
AcDbXrecord
1000
DSTYLE
1002
{
1070
    79
 70
     2
1070
   341
340
59
1070
   342
340
59
1070
   371
 70
    -1
1070
   372
 70
    -1
1002
}
  0
XRECORD
  5
5063
102
{ACAD_REACTORS
330
5054
102
}
330
5054
100
AcDbXrecord
340
0
  0
XRECORD
  5
5064
102
{ACAD_REACTORS
330
5054
102
}
330
5054
100
AcDbXrecord
 70
     0
  0
XRECORD
  5
5065
102
{ACAD_REACTORS
330
5054
102
}
330
5054
100
AcDbXrecord
340
0
  0
XRECORD
  5
5066
102
{ACAD_REACTORS
330
5054
102
}
330
5054
100
AcDbXrecord
 10
0.0
 20
0.0
 30
0.0
  0
XRECORD
  5
5067
102
{ACAD_REACTORS
330
5054
102
}
330
5054
100
AcDbXrecord
 10
0.0
 20
0.0
 30
0.0
  0
XRECORD
  5
5068
102
{ACAD_REACTORS
330
5054
102
}
330
5054
100
AcDbXrecord
 10
0.0
 20
0.0
 30
0.0
  0
XRECORD
  5
5069
102
{ACAD_REACTORS
330
5054
102
}
330
5054
100
AcDbXrecord
 10
0.0
 20
0.0
 30
0.0
  0
XRECORD
  5
506A
102
{ACAD_REACTORS
330
5054
102
}
330
5054
100
AcDbXrecord
 10
0.0
 20
0.0
 30
0.0
  0
XRECORD
  5
506B
102
{ACAD_REACTORS
330
5054
102
}
330
5054
100
AcDbXrecord
 10
0.0
 20
0.0
 30
0.0
  0
XRECORD
  5
506C
102
{ACAD_REACTORS
330
5054
102
}
330
5054
100
AcDbXrecord
340
0
  0
XRECORD
  5
506D
102
{ACAD_REACTORS
330
5054
102
}
330
5054
100
AcDbXrecord
 70
     0
  0
XRECORD
  5
506E
102
{ACAD_REACTORS
330
5054
102
}
330
5054
100
AcDbXrecord
340
0
  0
XRECORD
  5
506F
102
{ACAD_REACTORS
330
5054
102
}
330
5054
100
AcDbXrecord
 10
0.0
 20
0.0
 30
0.0
  0
XRECORD
  5
5070
102
{ACAD_REACTORS
330
5054
102
}
330
5054
100
AcDbXrecord
 10
0.0
 20
0.0
 30
0.0
  0
XRECORD
  5
5071
102
{ACAD_REACTORS
330
5054
102
}
330
5054
100
AcDbXrecord
 10
0.0
 20
0.0
 30
0.0
  0
XRECORD
  5
5072
102
{ACAD_REACTORS
330
5054
102
}
330
5054
100
AcDbXrecord
 10
0.0
 20
0.0
 30
0.0
  0
XRECORD
  5
5073
102
{ACAD_REACTORS
330
5054
102
}
330
5054
100
AcDbXrecord
 10
0.0
 20
0.0
 30
0.0
  0
XRECORD
  5
5074
102
{ACAD_REACTORS
330
5054
102
}
330
5054
100
AcDbXrecord
 10
0.0
 20
0.0
 30
0.0
  0
LAYER_INDEX
  5
504B
102
{ACAD_REACTORS
330
504A
102
}
330
504A
100
AcDbIndex
 40
2453151.85921809
100
AcDbLayerIndex
  8
0
360
504C
 90
        0
  8
AM_0
360
504D
 90
       39
  8
AM_11
360
504E
 90
        4
  8
AM_7
360
504F
 90
        1
  8
AM_5
360
5050
 90
        5
  8
Defpoints
360
5051
 90
        0
  8
AM_6
360
5052
 90
        1
  0
XRECORD
  5
2D
102
{ACAD_REACTORS
330
2C
102
}
330
2C
100
AcDbXrecord
  1
VERSION
140
15.0
  1
PRODUCT
  2
AutoCAD Mechanical 2000
  0
IDBUFFER
  5
504C
330
0
100
AcDbIdBuffer
  0
IDBUFFER
  5
504D
330
0
100
AcDbIdBuffer
330
4741
330
4742
330
4745
330
4748
330
475A
330
475C
330
475D
330
475E
330
475F
330
4761
330
4762
330
4763
330
4764
330
4765
330
4766
330
4ADA
330
4AF6
330
4AF8
330
4C18
330
4D73
330
4D74
330
4D75
330
4D84
330
45F3
330
45F6
330
45F7
330
4607
330
4615
330
4618
330
4737
330
4738
330
4739
330
473A
330
473B
330
473C
330
473D
330
473E
330
473F
330
4740
  0
IDBUFFER
  5
504E
330
0
100
AcDbIdBuffer
330
4743
330
4744
330
4747
330
4760
  0
IDBUFFER
  5
504F
330
0
100
AcDbIdBuffer
330
3EE8
  0
IDBUFFER
  5
5050
330
0
100
AcDbIdBuffer
330
4047
330
412A
330
45F8
330
4759
330
4FAE
  0
IDBUFFER
  5
5051
330
0
100
AcDbIdBuffer
  0
IDBUFFER
  5
5052
330
0
100
AcDbIdBuffer
330
1500
  0
ENDSEC
  0
EOF
