  0
SECTION
  2
HEADER
  9
$ACADVER
  1
AC1014
  9
$ACADMAINTVER
 70
     9
  9
$DWGCODEPAGE
  3
ANSI_932
  9
$INSBASE
 10
0.0
 20
0.0
 30
0.0
  9
$EXTMIN
 10
-91.40619512995952
 20
-29.00442425903669
 30
-0.00000001
  9
$EXTMAX
 10
8.841627940564752
 20
3.469647586039847
 30
0.00000001
  9
$LIMMIN
 10
-95.54876169398488
 20
-44.5369468842743
  9
$LIMMAX
 10
16.21652387696826
 20
15.26415281330349
  9
$ORTHOMODE
 70
     0
  9
$REGENMODE
 70
     1
  9
$FILLMODE
 70
     1
  9
$QTEXTMODE
 70
     0
  9
$MIRRTEXT
 70
     0
  9
$DRAGMODE
 70
     2
  9
$LTSCALE
 40
1.0
  9
$OSMODE
 70
    55
  9
$ATTMODE
 70
     1
  9
$TEXTSIZE
 40
2.5
  9
$TRACEWID
 40
1.0
  9
$TEXTSTYLE
  7
STANDARD
  9
$CLAYER
  8
AM_0
  9
$CELTYPE
  6
BYLAYER
  9
$CECOLOR
 62
   256
  9
$CELTSCALE
 40
1.0
  9
$DELOBJ
 70
     1
  9
$DISPSILH
 70
     0
  9
$DIMSCALE
 40
0.5
  9
$DIMASZ
 40
2.5
  9
$DIMEXO
 40
1.0
  9
$DIMDLI
 40
12.0
  9
$DIMRND
 40
0.0
  9
$DIMDLE
 40
0.0
  9
$DIMEXE
 40
1.0
  9
$DIMTP
 40
0.1
  9
$DIMTM
 40
0.1
  9
$DIMTXT
 40
3.2
  9
$DIMCEN
 40
0.0
  9
$DIMTSZ
 40
0.0
  9
$DIMTOL
 70
     0
  9
$DIMLIM
 70
     0
  9
$DIMTIH
 70
     0
  9
$DIMTOH
 70
     0
  9
$DIMSE1
 70
     0
  9
$DIMSE2
 70
     0
  9
$DIMTAD
 70
     3
  9
$DIMZIN
 70
     8
  9
$DIMBLK
  1
OPEN30
  9
$DIMASO
 70
     1
  9
$DIMSHO
 70
     1
  9
$DIMPOST
  1

  9
$DIMAPOST
  1
"
  9
$DIMALT
 70
     0
  9
$DIMALTD
 70
     2
  9
$DIMALTF
 40
0.0393701
  9
$DIMLFAC
 40
1.0
  9
$DIMTOFL
 70
     1
  9
$DIMTVP
 40
0.0
  9
$DIMTIX
 70
     0
  9
$DIMSOXD
 70
     0
  9
$DIMSAH
 70
     0
  9
$DIMBLK1
  1

  9
$DIMBLK2
  1

  9
$DIMSTYLE
  2
AM_JIS
  9
$DIMCLRD
 70
   256
  9
$DIMCLRE
 70
   256
  9
$DIMCLRT
 70
     2
  9
$DIMTFAC
 40
0.71
  9
$DIMGAP
 40
1.5
  9
$DIMJUST
 70
     0
  9
$DIMSD1
 70
     0
  9
$DIMSD2
 70
     0
  9
$DIMTOLJ
 70
     0
  9
$DIMTZIN
 70
     0
  9
$DIMALTZ
 70
     0
  9
$DIMALTTZ
 70
     0
  9
$DIMFIT
 70
     3
  9
$DIMUPT
 70
     0
  9
$DIMUNIT
 70
     2
  9
$DIMDEC
 70
     3
  9
$DIMTDEC
 70
     3
  9
$DIMALTU
 70
     2
  9
$DIMALTTD
 70
     2
  9
$DIMTXSTY
  7
ASAMI
  9
$DIMAUNIT
 70
     0
  9
$LUNITS
 70
     2
  9
$LUPREC
 70
     2
  9
$SKETCHINC
 40
1.0
  9
$FILLETRAD
 40
2.5
  9
$AUNITS
 70
     0
  9
$AUPREC
 70
     0
  9
$MENU
  1
.
  9
$ELEVATION
 40
0.0
  9
$PELEVATION
 40
0.0
  9
$THICKNESS
 40
0.0
  9
$LIMCHECK
 70
     0
  9
$BLIPMODE
 70
     0
  9
$CHAMFERA
 40
0.5
  9
$CHAMFERB
 40
0.5
  9
$CHAMFERC
 40
20.0
  9
$CHAMFERD
 40
0.0
  9
$SKPOLY
 70
     0
  9
$TDCREATE
 40
2452838.430434386
  9
$TDUPDATE
 40
2453151.859779630
  9
$TDINDWG
 40
0.1625815509
  9
$TDUSRTIMER
 40
0.1625815509
  9
$USRTIMER
 70
     1
  9
$ANGBASE
 50
0.0
  9
$ANGDIR
 70
     0
  9
$PDMODE
 70
     0
  9
$PDSIZE
 40
0.0
  9
$PLINEWID
 40
0.0
  9
$COORDS
 70
     1
  9
$SPLFRAME
 70
     0
  9
$SPLINETYPE
 70
     6
  9
$SPLINESEGS
 70
     8
  9
$ATTDIA
 70
     1
  9
$ATTREQ
 70
     1
  9
$HANDLING
 70
 12289
  9
$HANDSEED
  5
4B4C
  9
$SURFTAB1
 70
     6
  9
$SURFTAB2
 70
     6
  9
$SURFTYPE
 70
     6
  9
$SURFU
 70
     6
  9
$SURFV
 70
     6
  9
$UCSNAME
  2

  9
$UCSORG
 10
0.0
 20
0.0
 30
0.0
  9
$UCSXDIR
 10
1.0
 20
0.0
 30
0.0
  9
$UCSYDIR
 10
0.0
 20
1.0
 30
0.0
  9
$PUCSNAME
  2

  9
$PUCSORG
 10
0.0
 20
0.0
 30
0.0
  9
$PUCSXDIR
 10
1.0
 20
0.0
 30
0.0
  9
$PUCSYDIR
 10
0.0
 20
1.0
 30
0.0
  9
$USERI1
 70
     0
  9
$USERI2
 70
     0
  9
$USERI3
 70
     0
  9
$USERI4
 70
     0
  9
$USERI5
 70
     0
  9
$USERR1
 40
0.0
  9
$USERR2
 40
0.0
  9
$USERR3
 40
0.0
  9
$USERR4
 40
0.0
  9
$USERR5
 40
0.0
  9
$WORLDVIEW
 70
     1
  9
$SHADEDGE
 70
     3
  9
$SHADEDIF
 70
    70
  9
$TILEMODE
 70
     1
  9
$MAXACTVP
 70
    64
  9
$PINSBASE
 10
0.0
 20
0.0
 30
0.0
  9
$PLIMCHECK
 70
     0
  9
$PEXTMIN
 10
1.000000000000000E+20
 20
1.000000000000000E+20
 30
1.000000000000000E+20
  9
$PEXTMAX
 10
-1.000000000000000E+20
 20
-1.000000000000000E+20
 30
-1.000000000000000E+20
  9
$PLIMMIN
 10
0.0
 20
0.0
  9
$PLIMMAX
 10
841.0
 20
594.0
  9
$UNITMODE
 70
     0
  9
$VISRETAIN
 70
     1
  9
$PLINEGEN
 70
     0
  9
$PSLTSCALE
 70
     0
  9
$TREEDEPTH
 70
  3020
  9
$PICKSTYLE
 70
     0
  9
$CMLSTYLE
  2
STANDARD
  9
$CMLJUST
 70
     0
  9
$CMLSCALE
 40
20.0
  9
$PROXYGRAPHICS
 70
     1
  9
$MEASUREMENT
 70
     1
  0
ENDSEC
  0
SECTION
  2
CLASSES
  0
CLASS
  1
ACDBDICTIONARYWDFLT
  2
AcDbDictionaryWithDefault
  3
AutoCAD 2000
 90
        0
280
     0
281
     0
  0
CLASS
  1
ACDBPLACEHOLDER
  2
AcDbPlaceHolder
  3
AutoCAD 2000
 90
        0
280
     0
281
     0
  0
CLASS
  1
LAYOUT
  2
AcDbLayout
  3
AutoCAD 2000
 90
        0
280
     0
281
     0
  0
CLASS
  1
AMGSETTINGSOBJ
  2
AmgSettingsObj
  3
"AcadM|Product Description: AutoCAD Mechanical 2000|Company: Autodesk"
 90
        0
280
     0
281
     0
  0
CLASS
  1
ACME_DOCUMENT
  2
AcMeDbDoc
  3
AcMeServices
 90
        0
280
     0
281
     0
  0
CLASS
  1
ACMESCOPE
  2
AcMeScope
  3
AcMeServices
 90
        0
280
     0
281
     0
  0
CLASS
  1
ACMECOMMANDHISTORY
  2
AcMeCommandHistory
  3
AcMeServices
 90
        0
280
     0
281
     0
  0
CLASS
  1
DICTIONARYVAR
  2
AcDbDictionaryVar
  3
AutoCAD 2000
 90
        0
280
     0
281
     0
  0
CLASS
  1
ACIMSYSVARMAN
  2
AcImSysVarManager
  3
AcMeServices
 90
        0
280
     0
281
     0
  0
CLASS
  1
ACIMREALSYSVAR
  2
AcImRealSysVar
  3
AcMeServices
 90
        0
280
     0
281
     0
  0
CLASS
  1
ACIMINTSYSVAR
  2
AcImIntSysVar
  3
AcMeServices
 90
        0
280
     0
281
     0
  0
CLASS
  1
ACMEDRAWINGMAN
  2
AcMeDrawingMan
  3
AcMeServices
 90
        0
280
     0
281
     0
  0
CLASS
  1
ACMEVIEW
  2
AcMeView
  3
AcMeServices
 90
        0
280
     0
281
     0
  0
CLASS
  1
ACDBENTITYCACHE
  2
AcMeEntityCache
  3
AcMeServices
 90
        0
280
     0
281
     0
  0
CLASS
  1
GSMANAGER
  2
AcMeGSManager
  3
AcMeServices
 90
        0
280
     0
281
     0
  0
CLASS
  1
AmdtInternalReactor
  2
AmdtInternalReactor
  3
AcMeServices
 90
        0
280
     0
281
     0
  0
CLASS
  1
ACMESTATEMGR
  2
AcMeStateMgr
  3
AcMeServices
 90
        0
280
     0
281
     0
  0
CLASS
  1
ACME_DATABASE
  2
AcMeDbDatabase
  3
AcMeServices
 90
        0
280
     0
281
     0
  0
CLASS
  1
ACRFINSADJUSTERMGR
  2
AcRfInsAdjusterMgr
  3
AcMeServices
 90
        0
280
     0
281
     0
  0
CLASS
  1
ACMDATADICTIONARY
  2
AcmDataDictionary
  3
"AcmSymBB|Product Description: AutoCAD Mechanical 2000|Company: Autodesk"
 90
        0
280
     0
281
     0
  0
CLASS
  1
ACMDATAENTRYBLOCK
  2
AcmDataEntryBlock
  3
"AcmSymBB|Product Description: AutoCAD Mechanical 2000|Company: Autodesk"
 90
        0
280
     0
281
     0
  0
CLASS
  1
AMGOBJPROPCFG
  2
AmgObjPropCfg
  3
"AmgLay|Product Description: AutoCAD Mechanical 2000|Company: Autodesk"
 90
        1
280
     0
281
     0
  0
CLASS
  1
ACAMGFILTERDAT
  2
AcAmgFilterDat
  3
"AcadM|Product Description: AutoCAD Mechanical 2000|Company: Autodesk"
 90
        0
280
     0
281
     0
  0
CLASS
  1
LAYER_INDEX
  2
AcDbLayerIndex
  3
AutoCAD 2000
 90
        0
280
     0
281
     0
  0
CLASS
  1
IDBUFFER
  2
AcDbIdBuffer
  3
AutoCAD 2000
 90
        0
280
     0
281
     0
  0
CLASS
  1
ACIMSTRSYSVAR
  2
AcImStrSysVar
  3
AcMeServices
 90
        0
280
     0
281
     0
  0
CLASS
  1
ACMSTANDARDJIS
  2
AcmStandardJIS
  3
"AcmSymBB|Product Description: AutoCAD Mechanical 2000|Company: Autodesk"
 90
        0
280
     0
281
     0
  0
CLASS
  1
ACMSURFSTANDARDJIS
  2
AcmSurfTextStdJIS
  3
"AcmSymBB|Product Description: AutoCAD Mechanical 2000|Company: Autodesk"
 90
        0
280
     0
281
     0
  0
CLASS
  1
ACMFCFSTANDARDJIS
  2
AcmFCFStdJIS
  3
"AcmSymBB|Product Description: AutoCAD Mechanical 2000|Company: Autodesk"
 90
        0
280
     0
281
     0
  0
CLASS
  1
ACMWELDSTANDARDJIS
  2
AcmWeldingStdJIS
  3
"AcmSymBB|Product Description: AutoCAD Mechanical 2000|Company: Autodesk"
 90
        0
280
     0
281
     0
  0
CLASS
  1
ACMIDSTANDARDJIS
  2
AcmIdStdJIS
  3
"AcmSymBB|Product Description: AutoCAD Mechanical 2000|Company: Autodesk"
 90
        0
280
     0
281
     0
  0
CLASS
  1
ACMDATUMSTANDARDJIS
  2
AcmDatumStdJIS
  3
"AcmSymBB|Product Description: AutoCAD Mechanical 2000|Company: Autodesk"
 90
        0
280
     0
281
     0
  0
CLASS
  1
ACMBOMSTANDARDJIS
  2
AcmBOMStdJIS
  3
"AcmSymBB|Product Description: AutoCAD Mechanical 2000|Company: Autodesk"
 90
        0
280
     0
281
     0
  0
CLASS
  1
ACMSTANDARDANSI
  2
AcmStandardANSI
  3
"AcmSymBB|Product Description: AutoCAD Mechanical 2000|Company: Autodesk"
 90
        0
280
     0
281
     0
  0
CLASS
  1
ACMSURFSTANDARDANSI
  2
AcmSurfTextStdANSI
  3
"AcmSymBB|Product Description: AutoCAD Mechanical 2000|Company: Autodesk"
 90
        0
280
     0
281
     0
  0
CLASS
  1
ACMFCFSTANDARDANSI
  2
AcmFCFStdANSI
  3
"AcmSymBB|Product Description: AutoCAD Mechanical 2000|Company: Autodesk"
 90
        0
280
     0
281
     0
  0
CLASS
  1
ACMWELDSTANDARDANSI
  2
AcmWeldingStdANSI
  3
"AcmSymBB|Product Description: AutoCAD Mechanical 2000|Company: Autodesk"
 90
        0
280
     0
281
     0
  0
CLASS
  1
ACMIDSTANDARDANSI
  2
AcmIdStdANSI
  3
"AcmSymBB|Product Description: AutoCAD Mechanical 2000|Company: Autodesk"
 90
        0
280
     0
281
     0
  0
CLASS
  1
ACMDATUMSTANDARDANSI
  2
AcmDatumStdANSI
  3
"AcmSymBB|Product Description: AutoCAD Mechanical 2000|Company: Autodesk"
 90
        0
280
     0
281
     0
  0
CLASS
  1
ACMBOMSTANDARDANSI
  2
AcmBOMStdANSI
  3
"AcmSymBB|Product Description: AutoCAD Mechanical 2000|Company: Autodesk"
 90
        0
280
     0
281
     0
  0
CLASS
  1
ACMSTANDARDBSI
  2
AcmStandardBSI
  3
"AcmSymBB|Product Description: AutoCAD Mechanical 2000|Company: Autodesk"
 90
        0
280
     0
281
     0
  0
CLASS
  1
ACMSURFSTANDARDBSI
  2
AcmSurfTextStdBSI
  3
"AcmSymBB|Product Description: AutoCAD Mechanical 2000|Company: Autodesk"
 90
        0
280
     0
281
     0
  0
CLASS
  1
ACMFCFSTANDARDBSI
  2
AcmFCFStdBSI
  3
"AcmSymBB|Product Description: AutoCAD Mechanical 2000|Company: Autodesk"
 90
        0
280
     0
281
     0
  0
CLASS
  1
ACMWELDSTANDARDBSI
  2
AcmWeldingStdBSI
  3
"AcmSymBB|Product Description: AutoCAD Mechanical 2000|Company: Autodesk"
 90
        0
280
     0
281
     0
  0
CLASS
  1
ACMIDSTANDARDBSI
  2
AcmIdStdBSI
  3
"AcmSymBB|Product Description: AutoCAD Mechanical 2000|Company: Autodesk"
 90
        0
280
     0
281
     0
  0
CLASS
  1
ACMDATUMSTANDARDBSI
  2
AcmDatumStdBSI
  3
"AcmSymBB|Product Description: AutoCAD Mechanical 2000|Company: Autodesk"
 90
        0
280
     0
281
     0
  0
CLASS
  1
ACMBOMSTANDARDBSI
  2
AcmBOMStdBSI
  3
"AcmSymBB|Product Description: AutoCAD Mechanical 2000|Company: Autodesk"
 90
        0
280
     0
281
     0
  0
CLASS
  1
LONG_TRANSACTION
  2
AcDbLongTransaction
  3
AutoCAD 2000
 90
        0
280
     0
281
     0
  0
CLASS
  1
LWPOLYLINE
  2
AcDbPolyline
  3
AutoCAD 2000
 90
        0
280
     0
281
     1
  0
CLASS
  1
HATCH
  2
AcDbHatch
  3
AutoCAD 2000
 90
        0
280
     0
281
     1
  0
CLASS
  1
XRECORD
  2
AcDbXrecord
  3
AutoCAD 2000
 90
        0
280
     0
281
     0
  0
ENDSEC
  0
SECTION
  2
TABLES
  0
TABLE
  2
VPORT
  5
8
330
0
100
AcDbSymbolTable
 70
     3
  0
VPORT
  5
4B1B
330
8
100
AcDbSymbolTableRecord
100
AcDbViewportTableRecord
  2
*ACTIVE
 70
     0
 10
0.0
 20
0.0
 11
1.0
 21
1.0
 12
-41.28198791405835
 22
-12.71788169452085
 13
0.0
 23
0.0
 14
2.5
 24
2.5
 15
10.0
 25
10.0
 16
0.0
 26
0.0
 36
1.0
 17
0.0
 27
0.0
 37
0.0
 40
64.28153494930142
 41
1.56570841889117
 42
50.0
 43
0.0
 44
0.0
 50
0.0
 51
0.0
 71
     0
 72
   100
 73
     1
 74
     3
 75
     0
 76
     0
 77
     0
 78
     0
  0
ENDTAB
  0
TABLE
  2
LTYPE
  5
5
330
0
100
AcDbSymbolTable
 70
    10
  0
LTYPE
  5
14
330
5
100
AcDbSymbolTableRecord
100
AcDbLinetypeTableRecord
  2
BYBLOCK
 70
     0
  3

 72
    65
 73
     0
 40
0.0
  0
LTYPE
  5
15
330
5
100
AcDbSymbolTableRecord
100
AcDbLinetypeTableRecord
  2
BYLAYER
 70
     0
  3

 72
    65
 73
     0
 40
0.0
  0
LTYPE
  5
16
330
5
100
AcDbSymbolTableRecord
100
AcDbLinetypeTableRecord
  2
CONTINUOUS
 70
     0
  3
Solid line
 72
    65
 73
     0
 40
0.0
  0
LTYPE
  5
4B
330
5
100
AcDbSymbolTableRecord
100
AcDbLinetypeTableRecord
  2
AM_ISO02W050
 70
     0
  3
__ __ __ __ __ __ __ __ __ __ __ __ __ __ __
 72
    65
 73
     2
 40
7.5
 49
6.0
 74
     0
 49
-1.5
 74
     0
  0
LTYPE
  5
4C
330
5
100
AcDbSymbolTableRecord
100
AcDbLinetypeTableRecord
  2
AM_ISO08W050
 70
     0
  3
____ . ____ . ____ . ____ . ____ . ____ . ____
 72
    65
 73
     4
 40
18.0
 49
12.0
 74
     0
 49
-1.5
 74
     0
 49
3.0
 74
     0
 49
-1.5
 74
     0
  0
LTYPE
  5
4D
330
5
100
AcDbSymbolTableRecord
100
AcDbLinetypeTableRecord
  2
AM_ISO09W050
 70
     0
  3
_____ . . _____ . . _____ . . ____ .. ____
 72
    65
 73
     6
 40
22.5
 49
12.0
 74
     0
 49
-1.5
 74
     0
 49
3.0
 74
     0
 49
-1.5
 74
     0
 49
3.0
 74
     0
 49
-1.5
 74
     0
  0
LTYPE
  5
4E
330
5
100
AcDbSymbolTableRecord
100
AcDbLinetypeTableRecord
  2
AMCONSTR
 70
     0
  3
_______________________
 72
    65
 73
     2
 40
9999.0
 49
9999.0
 74
     0
 49
0.0
 74
     0
  0
LTYPE
  5
4F
330
5
100
AcDbSymbolTableRecord
100
AcDbLinetypeTableRecord
  2
AM_ISO02W050X2
 70
     0
  3
 _ _ _ _ _ _ _ _ _ _ _ _
 72
    65
 73
     2
 40
3.75
 49
3.0
 74
     0
 49
-0.75
 74
     0
  0
LTYPE
  5
50
330
5
100
AcDbSymbolTableRecord
100
AcDbLinetypeTableRecord
  2
AM_ISO08W050X2
 70
     0
  3
__ . __ . __ . __ . __ . __
 72
    65
 73
     4
 40
9.0
 49
6.0
 74
     0
 49
-0.75
 74
     0
 49
1.5
 74
     0
 49
-0.75
 74
     0
  0
LTYPE
  5
53
330
5
100
AcDbSymbolTableRecord
100
AcDbLinetypeTableRecord
  2
AMZIGZAG
 70
     0
  3
/\/-/\/-/\/-/\/-/\/-/\/
 72
    65
 73
     2
 40
11.00009999999999
 49
0.0001
 74
     4
 75
   135
340
52
 46
0.04
 50
0.0
 44
0.0
 45
0.0
 49
-11.0
 74
     0
  0
LTYPE
  5
166
330
5
100
AcDbSymbolTableRecord
100
AcDbLinetypeTableRecord
  2
ACJISTGL
 70
     0
  3
_ _ _ _ _
 72
    65
 73
     2
 40
3.0
 49
2.0
 74
     0
 49
-1.0
 74
     0
  0
LTYPE
  5
26A
330
5
100
AcDbSymbolTableRecord
100
AcDbLinetypeTableRecord
  2
ACJISTGB
 70
     0
  3
__ . . __ . .
 72
    65
 73
     6
 40
9.0
 49
4.0
 74
     0
 49
-1.0
 74
     0
 49
1.0
 74
     0
 49
-1.0
 74
     0
 49
1.0
 74
     0
 49
-1.0
 74
     0
  0
ENDTAB
  0
TABLE
  2
LAYER
  5
2
330
0
100
AcDbSymbolTable
 70
     7
  0
LAYER
  5
10
330
2
100
AcDbSymbolTableRecord
100
AcDbLayerTableRecord
  2
0
 70
     0
 62
     7
  6
CONTINUOUS
  0
LAYER
  5
3F9
330
2
100
AcDbSymbolTableRecord
100
AcDbLayerTableRecord
  2
AM_0
 70
     0
 62
     7
  6
CONTINUOUS
  0
LAYER
  5
BDD
330
2
100
AcDbSymbolTableRecord
100
AcDbLayerTableRecord
  2
AM_11
 70
     0
 62
     3
  6
AM_ISO09W050
  0
LAYER
  5
BDE
330
2
100
AcDbSymbolTableRecord
100
AcDbLayerTableRecord
  2
AM_7
 70
     0
 62
     4
  6
AM_ISO08W050
  0
LAYER
  5
BDF
330
2
100
AcDbSymbolTableRecord
100
AcDbLayerTableRecord
  2
AM_5
 70
     0
 62
     3
  6
CONTINUOUS
  0
LAYER
  5
BE0
330
2
100
AcDbSymbolTableRecord
100
AcDbLayerTableRecord
  2
DEFPOINTS
 70
     0
 62
     7
  6
CONTINUOUS
  0
LAYER
  5
14FF
330
2
100
AcDbSymbolTableRecord
100
AcDbLayerTableRecord
  2
AM_6
 70
     0
 62
     2
  6
CONTINUOUS
  0
ENDTAB
  0
TABLE
  2
STYLE
  5
3
330
0
100
AcDbSymbolTable
 70
     5
  0
STYLE
  5
11
330
3
100
AcDbSymbolTableRecord
100
AcDbTextStyleTableRecord
  2
STANDARD
 70
     0
 40
0.0
 41
1.0
 50
0.0
 71
     0
 42
2.5
  3
simplex.shx
  4
EXTFONT.SHX
  0
STYLE
  5
52
330
3
100
AcDbSymbolTableRecord
100
AcDbTextStyleTableRecord
  2

 70
     1
 40
0.0
 41
1.0
 50
0.0
 71
     0
 42
2.5
  3
ltypeshp.shx
  4

  0
STYLE
  5
6B
330
3
100
AcDbSymbolTableRecord
100
AcDbTextStyleTableRecord
  2
ASAMI
 70
     0
 40
0.0
 41
1.0
 50
0.0
 71
     0
 42
2.5
  3
simplex.shx
  4
EXTFONT.SHX
  0
STYLE
  5
262
330
3
100
AcDbSymbolTableRecord
100
AcDbTextStyleTableRecord
  2
ACJISTS
 70
     0
 40
1.0
 41
1.0
 50
0.0
 71
     0
 42
2.5
  3
simplex.shx
  4
bigfont.shx
  0
STYLE
  5
269
330
3
100
AcDbSymbolTableRecord
100
AcDbTextStyleTableRecord
  2
ACJISGDT
 70
     0
 40
0.0
 41
1.0
 50
0.0
 71
     0
 42
2.5
  3
amgdtans.shx
  4

  0
ENDTAB
  0
TABLE
  2
VIEW
  5
6
330
0
100
AcDbSymbolTable
 70
     0
  0
ENDTAB
  0
TABLE
  2
UCS
  5
7
330
0
100
AcDbSymbolTable
 70
     0
  0
ENDTAB
  0
TABLE
  2
APPID
  5
9
330
0
100
AcDbSymbolTable
 70
    14
  0
APPID
  5
12
330
9
100
AcDbSymbolTableRecord
100
AcDbRegAppTableRecord
  2
ACAD
 70
     0
  0
APPID
  5
30
330
9
100
AcDbSymbolTableRecord
100
AcDbRegAppTableRecord
  2
MCAD_NO_VIS
 70
     0
  0
APPID
  5
31
330
9
100
AcDbSymbolTableRecord
100
AcDbRegAppTableRecord
  2
ACAD_TEMP_GRAPHIC
 70
     0
  0
APPID
  5
2C2
330
9
100
AcDbSymbolTableRecord
100
AcDbRegAppTableRecord
  2
GENIUS_GENDTOL_13
 70
     0
  0
APPID
  5
339
330
9
100
AcDbSymbolTableRecord
100
AcDbRegAppTableRecord
  2
GENIUS_GENODEF_13
 70
     0
  0
APPID
  5
33A
330
9
100
AcDbSymbolTableRecord
100
AcDbRegAppTableRecord
  2
GENIUS_GENOBJ-N-RSBK_13
 70
     0
  0
APPID
  5
33B
330
9
100
AcDbSymbolTableRecord
100
AcDbRegAppTableRecord
  2
GENIUS_GENOBJ-N-LIB_13
 70
     0
  0
APPID
  5
33C
330
9
100
AcDbSymbolTableRecord
100
AcDbRegAppTableRecord
  2
GENIUS_GENSCALE_13
 70
     0
  0
APPID
  5
378
330
9
100
AcDbSymbolTableRecord
100
AcDbRegAppTableRecord
  2
GENIUS_GENDIMSH_14
 70
     0
  0
APPID
  5
BE1
330
9
100
AcDbSymbolTableRecord
100
AcDbRegAppTableRecord
  2
GENIUS_GENFIL_13
 70
     0
  0
APPID
  5
BE2
330
9
100
AcDbSymbolTableRecord
100
AcDbRegAppTableRecord
  2
GENIUS_GENOBJ-N-CHA_13
 70
     0
  0
APPID
  5
151B
330
9
100
AcDbSymbolTableRecord
100
AcDbRegAppTableRecord
  2
DCO15
 70
     0
  0
APPID
  5
1860
330
9
100
AcDbSymbolTableRecord
100
AcDbRegAppTableRecord
  2
GENIUS_GENOBJ-N-CEN_13
 70
     0
  0
APPID
  5
359C
330
9
100
AcDbSymbolTableRecord
100
AcDbRegAppTableRecord
  2
GENIUS_GENOBJ-N-FIL_13
 70
     0
  0
ENDTAB
  0
TABLE
  2
DIMSTYLE
  5
A
330
0
100
AcDbSymbolTable
 70
     8
  0
DIMSTYLE
105
58
102
{ACAD_REACTORS
330
4047
330
412A
330
45F8
330
4759
102
}
330
A
100
AcDbSymbolTableRecord
100
AcDbDimStyleTableRecord
  2
AM_JIS
 70
     0
  3

  4
"
  5
OPEN30
  6

  7

 40
0.5
 41
2.5
 42
1.0
 43
12.0
 44
1.0
 45
0.0
 46
0.0
 47
0.1
 48
0.1
140
3.2
141
0.0
142
0.0
143
0.0393701
144
1.0
145
0.0
146
0.71
147
1.5
 71
     0
 72
     0
 73
     0
 74
     0
 75
     0
 76
     0
 77
     3
 78
     8
170
     0
171
     2
172
     1
173
     0
174
     0
175
     0
176
   256
177
   256
178
     2
270
     2
271
     3
272
     3
273
     2
274
     2
340
6B
275
     0
280
     0
281
     0
282
     0
283
     0
284
     0
285
     0
286
     0
287
     3
288
     0
  0
DIMSTYLE
105
5F
330
A
100
AcDbSymbolTableRecord
100
AcDbDimStyleTableRecord
  2
AM_JIS$3
 70
     0
  3

  4
"
  5
OPEN30
  6

  7

 40
0.5
 41
2.5
 42
1.0
 43
10.0
 44
1.0
 45
0.0
 46
0.0
 47
0.1
 48
0.1
140
3.2
141
0.0
142
0.0
143
0.0393701
144
1.0
145
0.0
146
0.71
147
1.5
 71
     0
 72
     0
 73
     0
 74
     1
 75
     0
 76
     0
 77
     3
 78
     8
170
     0
171
     2
172
     0
173
     0
174
     0
175
     0
176
   256
177
   256
178
     2
270
     2
271
     2
272
     3
273
     2
274
     2
340
6B
275
     0
280
     0
281
     0
282
     0
283
     0
284
     0
285
     0
286
     0
287
     0
288
     1
  0
DIMSTYLE
105
60
102
{ACAD_REACTORS
330
4758
102
}
330
A
100
AcDbSymbolTableRecord
100
AcDbDimStyleTableRecord
  2
AM_JIS$4
 70
     0
  3

  4
"
  5
OPEN30
  6

  7

 40
0.5
 41
2.5
 42
1.0
 43
10.0
 44
1.0
 45
0.0
 46
0.0
 47
0.1
 48
0.1
140
3.2
141
0.0
142
0.0
143
0.0393701
144
1.0
145
0.0
146
0.71
147
1.5
 71
     0
 72
     0
 73
     0
 74
     1
 75
     0
 76
     0
 77
     3
 78
     8
170
     0
171
     2
172
     0
173
     0
174
     0
175
     0
176
   256
177
   256
178
     2
270
     2
271
     2
272
     3
273
     2
274
     2
340
6B
275
     0
280
     0
281
     0
282
     0
283
     0
284
     0
285
     0
286
     0
287
     0
288
     1
  0
DIMSTYLE
105
61
330
A
100
AcDbSymbolTableRecord
100
AcDbDimStyleTableRecord
  2
AM_JIS$6
 70
     0
  3

  4
"
  5
OPEN30
  6

  7

 40
0.5
 41
2.5
 42
1.0
 43
10.0
 44
1.0
 45
0.0
 46
0.0
 47
0.1
 48
0.1
140
3.2
141
0.0
142
0.0
143
0.0393701
144
1.0
145
0.0
146
0.71
147
1.5
 71
     0
 72
     0
 73
     0
 74
     0
 75
     0
 76
     0
 77
     0
 78
     8
170
     0
171
     2
172
     1
173
     0
174
     0
175
     0
176
   256
177
   256
178
     2
270
     2
271
     2
272
     2
273
     2
274
     2
340
6B
275
     0
280
     0
281
     0
282
     0
283
     0
284
     0
285
     0
286
     0
287
     3
288
     0
  0
DIMSTYLE
105
62
330
A
100
AcDbSymbolTableRecord
100
AcDbDimStyleTableRecord
  2
AM_JIS$7
 70
     0
  3

  4
"
  5
OPEN30
  6

  7

 40
0.5
 41
2.5
 42
1.0
 43
10.0
 44
1.0
 45
0.0
 46
0.0
 47
0.1
 48
0.1
140
3.2
141
0.0
142
0.0
143
0.0393701
144
1.0
145
0.0
146
0.71
147
1.5
 71
     0
 72
     0
 73
     0
 74
     0
 75
     0
 76
     0
 77
     3
 78
     8
170
     0
171
     2
172
     1
173
     0
174
     0
175
     0
176
   256
177
   256
178
     2
270
     2
271
     2
272
     3
273
     2
274
     2
340
6B
275
     0
280
     0
281
     0
282
     0
283
     0
284
     0
285
     0
286
     0
287
     3
288
     0
  0
DIMSTYLE
105
63
330
A
100
AcDbSymbolTableRecord
100
AcDbDimStyleTableRecord
  2
AM_JIS$SF
 70
     0
  3

  4
"
  5
OPEN30
  6

  7

 40
0.5
 41
2.5
 42
1.0
 43
10.0
 44
1.0
 45
0.0
 46
0.0
 47
0.1
 48
0.1
140
3.2
141
0.0
142
0.0
143
0.0393701
144
1.0
145
0.0
146
0.71
147
1.5
 71
     0
 72
     0
 73
     0
 74
     0
 75
     1
 76
     1
 77
     3
 78
     8
170
     0
171
     2
172
     1
173
     0
174
     0
175
     0
176
   256
177
   256
178
     2
270
     2
271
     2
272
     2
273
     2
274
     2
340
6B
275
     0
280
     0
281
     0
282
     0
283
     0
284
     0
285
     0
286
     0
287
     3
288
     0
  0
DIMSTYLE
105
68
330
A
100
AcDbSymbolTableRecord
100
AcDbDimStyleTableRecord
  2
AM_JIS$SH
 70
     0
  3

  4
"
  5

  6
GENAXEH
  7
OPEN30
 40
0.5
 41
2.5
 42
1.0
 43
10.0
 44
1.0
 45
0.0
 46
0.0
 47
0.1
 48
0.1
140
3.2
141
0.0
142
0.0
143
0.0393701
144
2.0
145
0.0
146
0.71
147
1.5
 71
     0
 72
     0
 73
     0
 74
     0
 75
     1
 76
     1
 77
     3
 78
     8
170
     0
171
     2
172
     1
173
     1
174
     0
175
     0
176
   256
177
   256
178
     2
270
     2
271
     2
272
     2
273
     2
274
     2
340
6B
275
     0
280
     0
281
     0
282
     0
283
     0
284
     0
285
     0
286
     0
287
     3
288
     0
  0
DIMSTYLE
105
B34
330
A
100
AcDbSymbolTableRecord
100
AcDbDimStyleTableRecord
  2
AM_JIS$2
 70
     0
  3

  4
"
  5
OPEN30
  6

  7

 40
0.5
 41
2.5
 42
1.0
 43
12.0
 44
1.0
 45
0.0
 46
0.0
 47
0.1
 48
0.1
140
3.2
141
0.0
142
0.0
143
0.0393701
144
1.0
145
0.0
146
0.71
147
1.5
 71
     0
 72
     0
 73
     0
 74
     0
 75
     0
 76
     0
 77
     3
 78
     8
170
     0
171
     2
172
     1
173
     0
174
     0
175
     0
176
   256
177
   256
178
     2
270
     2
271
     3
272
     3
273
     2
274
     2
340
6B
275
     0
280
     0
281
     0
282
     0
283
     0
284
     0
285
     0
286
     0
287
     3
288
     0
  0
ENDTAB
  0
TABLE
  2
BLOCK_RECORD
  5
1
330
0
100
AcDbSymbolTable
 70
    10
  0
BLOCK_RECORD
  5
1F
102
{ACAD_XDICTIONARY
360
74
102
}
330
1
100
AcDbSymbolTableRecord
100
AcDbBlockTableRecord
  2
*MODEL_SPACE
  0
BLOCK_RECORD
  5
101
102
{ACAD_XDICTIONARY
360
4B44
102
}
330
1
100
AcDbSymbolTableRecord
100
AcDbBlockTableRecord
  2
*PAPER_SPACE
  0
BLOCK_RECORD
  5
59
330
1
100
AcDbSymbolTableRecord
100
AcDbBlockTableRecord
  2
_OPEN30
  0
BLOCK_RECORD
  5
64
330
1
100
AcDbSymbolTableRecord
100
AcDbBlockTableRecord
  2
GENAXEH
  0
BLOCK_RECORD
  5
4048
330
1
100
AcDbSymbolTableRecord
100
AcDbBlockTableRecord
  2
*D5
  0
BLOCK_RECORD
  5
412B
330
1
100
AcDbSymbolTableRecord
100
AcDbBlockTableRecord
  2
*D6
  0
BLOCK_RECORD
  5
45F9
330
1
100
AcDbSymbolTableRecord
100
AcDbBlockTableRecord
  2
*D7
  0
BLOCK_RECORD
  5
4768
330
1
100
AcDbSymbolTableRecord
100
AcDbBlockTableRecord
  2
*D8
  0
BLOCK_RECORD
  5
4774
330
1
100
AcDbSymbolTableRecord
100
AcDbBlockTableRecord
  2
*D9
  0
ENDTAB
  0
ENDSEC
  0
SECTION
  2
BLOCKS
  0
BLOCK
  5
20
330
1F
100
AcDbEntity
  8
0
100
AcDbBlockBegin
  2
*MODEL_SPACE
 70
     0
 10
0.0
 20
0.0
 30
0.0
  3
*MODEL_SPACE
  1

  0
ENDBLK
  5
21
330
1F
100
AcDbEntity
  8
0
100
AcDbBlockEnd
  0
BLOCK
  5
103
330
101
100
AcDbEntity
 67
     1
  8
0
100
AcDbBlockBegin
  2
*PAPER_SPACE
 70
     0
 10
0.0
 20
0.0
 30
0.0
  3
*PAPER_SPACE
  1

  0
ENDBLK
  5
104
330
101
100
AcDbEntity
 67
     1
  8
0
100
AcDbBlockEnd
  0
BLOCK
  5
5D
330
59
100
AcDbEntity
  8
0
100
AcDbBlockBegin
  2
_OPEN30
 70
     0
 10
0.0
 20
0.0
 30
0.0
  3
_OPEN30
  1

  0
LINE
  5
5A
330
59
100
AcDbEntity
  8
0
 62
     0
100
AcDbLine
 10
-1.0
 20
0.26794919
 30
0.0
 11
0.0
 21
0.0
 31
0.0
  0
LINE
  5
5B
330
59
100
AcDbEntity
  8
0
 62
     0
100
AcDbLine
 10
0.0
 20
0.0
 30
0.0
 11
-1.0
 21
-0.26794919
 31
0.0
  0
LINE
  5
5C
330
59
100
AcDbEntity
  8
0
 62
     0
100
AcDbLine
 10
0.0
 20
0.0
 30
0.0
 11
-1.0
 21
0.0
 31
0.0
  0
ENDBLK
  5
5E
330
59
100
AcDbEntity
  8
0
100
AcDbBlockEnd
  0
BLOCK
  5
66
330
64
100
AcDbEntity
  8
0
100
AcDbBlockBegin
  2
GENAXEH
 70
     0
 10
0.0
 20
0.0
 30
0.0
  3
GENAXEH
  1

  0
LINE
  5
65
330
64
100
AcDbEntity
  8
0
100
AcDbLine
 10
-1.0
 20
0.0
 30
0.0
 11
1.0
 21
0.0
 31
0.0
  0
ENDBLK
  5
67
330
64
100
AcDbEntity
  8
0
100
AcDbBlockEnd
  0
BLOCK
  5
4052
330
4048
100
AcDbEntity
  8
0
100
AcDbBlockBegin
  2
*D5
 70
     1
 10
0.0
 20
0.0
 30
0.0
  3
*D5
  1

  0
LINE
  5
466A
330
4048
100
AcDbEntity
  8
AM_5
100
AcDbLine
 10
-79.99999999999997
 20
-3.000000000000015
 30
0.0
 11
-79.99999999999997
 21
-18.25442425903667
 31
0.0
  0
LINE
  5
466B
330
4048
100
AcDbEntity
  8
AM_5
100
AcDbLine
 10
0.0000000000000006
 20
-0.5000000000000005
 30
0.0
 11
-0.0000000000000005
 21
-18.25442425903667
 31
0.0
  0
LINE
  5
466C
330
4048
100
AcDbEntity
  8
AM_5
100
AcDbLine
 10
-78.74999999999997
 20
-17.75442425903667
 30
0.0
 11
-1.25
 21
-17.75442425903667
 31
0.0
  0
INSERT
  5
466D
330
4048
100
AcDbEntity
  8
AM_5
100
AcDbBlockReference
  2
_OPEN30
 10
-79.99999999999997
 20
-17.75442425903667
 30
0.0
 41
1.25
 42
1.25
 43
1.25
 50
180.0
  0
INSERT
  5
466E
330
4048
100
AcDbEntity
  8
AM_5
100
AcDbBlockReference
  2
_OPEN30
 10
-0.0000000000000004
 20
-17.75442425903667
 30
0.0
 41
1.25
 42
1.25
 43
1.25
  0
MTEXT
  5
466F
330
4048
100
AcDbEntity
  8
AM_5
 62
     2
100
AcDbMText
 10
-39.99999999999998
 20
-16.20442425903667
 30
0.0
 40
1.6
 41
0.0
 71
     5
 72
     1
  1
80
  7
ASAMI
1001
ACAD
1000
MTEXTBEGIN
1070
    73
1070
     1
1070
    44
1040
1.0
1070
    74
1070
     0
1000
MTEXTEND
  0
POINT
  5
4670
330
4048
100
AcDbEntity
  8
DEFPOINTS
 62
     0
100
AcDbPoint
 10
-79.99999999999997
 20
-2.500000000000015
 30
0.0
  0
POINT
  5
4671
330
4048
100
AcDbEntity
  8
DEFPOINTS
 62
     0
100
AcDbPoint
 10
0.0000000000000007
 20
-0.0000000000000005
 30
0.0
  0
POINT
  5
4672
330
4048
100
AcDbEntity
  8
DEFPOINTS
 62
     0
100
AcDbPoint
 10
-0.0000000000000004
 20
-17.75442425903667
 30
0.0
  0
ENDBLK
  5
4053
330
4048
100
AcDbEntity
  8
0
100
AcDbBlockEnd
  0
BLOCK
  5
4135
330
412B
100
AcDbEntity
  8
0
100
AcDbBlockBegin
  2
*D6
 70
     1
 10
0.0
 20
0.0
 30
0.0
  3
*D6
  1

  0
LINE
  5
4A72
330
412B
100
AcDbEntity
  8
AM_5
100
AcDbLine
 10
-0.0000000000000142
 20
-0.5000000000000111
 30
0.0
 11
-0.000000000000015
 21
-12.2544242590367
 31
0.0
  0
LINE
  5
4A73
330
412B
100
AcDbEntity
  8
AM_5
100
AcDbLine
 10
-15.0
 20
-3.5
 30
0.0
 11
-15.0
 21
-12.2544242590367
 31
0.0
  0
LINE
  5
4A74
330
412B
100
AcDbEntity
  8
AM_5
100
AcDbLine
 10
-1.250000000000014
 20
-11.7544242590367
 30
0.0
 11
-13.75
 21
-11.7544242590367
 31
0.0
  0
INSERT
  5
4A75
330
412B
100
AcDbEntity
  8
AM_5
100
AcDbBlockReference
  2
_OPEN30
 10
-0.0000000000000149
 20
-11.7544242590367
 30
0.0
 41
1.25
 42
1.25
 43
1.25
  0
INSERT
  5
4A76
330
412B
100
AcDbEntity
  8
AM_5
100
AcDbBlockReference
  2
_OPEN30
 10
-15.0
 20
-11.7544242590367
 30
0.0
 41
1.25
 42
1.25
 43
1.25
 50
180.0
  0
MTEXT
  5
4A77
330
412B
100
AcDbEntity
  8
AM_5
 62
     2
100
AcDbMText
 10
-7.500000000000007
 20
-10.2044242590367
 30
0.0
 40
1.6
 41
0.0
 71
     5
 72
     1
  1
15
  7
ASAMI
1001
ACAD
1000
MTEXTBEGIN
1070
    73
1070
     1
1070
    44
1040
1.0
1070
    74
1070
     0
1000
MTEXTEND
  0
POINT
  5
4A78
330
412B
100
AcDbEntity
  8
DEFPOINTS
 62
     0
100
AcDbPoint
 10
-0.0000000000000142
 20
-0.0000000000000111
 30
0.0
  0
POINT
  5
4A79
330
412B
100
AcDbEntity
  8
DEFPOINTS
 62
     0
100
AcDbPoint
 10
-15.0
 20
-3.0
 30
0.0
  0
POINT
  5
4A7A
330
412B
100
AcDbEntity
  8
DEFPOINTS
 62
     0
100
AcDbPoint
 10
-15.0
 20
-11.7544242590367
 30
0.0
  0
ENDBLK
  5
4136
330
412B
100
AcDbEntity
  8
0
100
AcDbBlockEnd
  0
BLOCK
  5
4605
330
45F9
100
AcDbEntity
  8
0
100
AcDbBlockBegin
  2
*D7
 70
     1
 10
0.0
 20
0.0
 30
0.0
  3
*D7
  1

  0
LINE
  5
4673
330
45F9
100
AcDbEntity
  8
AM_5
100
AcDbLine
 10
-79.99999999999999
 20
2.999999999999916
 30
0.0
 11
-89.55619512995953
 21
2.999999999999919
 31
0.0
  0
LINE
  5
4674
330
45F9
100
AcDbEntity
  8
AM_5
100
AcDbLine
 10
-79.99999999999997
 20
-3.000000000000027
 30
0.0
 11
-89.55619512995953
 21
-3.000000000000024
 31
0.0
  0
LINE
  5
4675
330
45F9
100
AcDbEntity
  8
AM_5
100
AcDbLine
 10
-89.05619512995953
 20
1.749999999999918
 30
0.0
 11
-89.05619512995953
 21
-1.750000000000025
 31
0.0
  0
INSERT
  5
4676
330
45F9
100
AcDbEntity
  8
AM_5
100
AcDbBlockReference
  2
_OPEN30
 10
-89.05619512995953
 20
2.999999999999919
 30
0.0
 41
1.25
 42
1.25
 43
1.25
 50
90.0
  0
INSERT
  5
4677
330
45F9
100
AcDbEntity
  8
AM_5
100
AcDbBlockReference
  2
_OPEN30
 10
-89.05619512995953
 20
-3.000000000000024
 30
0.0
 41
1.25
 42
1.25
 43
1.25
 50
270.0
  0
MTEXT
  5
4678
330
45F9
100
AcDbEntity
  8
AM_5
 62
     2
100
AcDbMText
 10
-90.60619512995954
 20
-0.0000000000000672
 30
0.0
 40
1.6
 41
0.0
 71
     5
 72
     1
  1
%%c6
  7
ASAMI
 11
0.0000000000000001
 21
1.0
 31
0.0
1001
ACAD
1000
MTEXTBEGIN
1070
    73
1070
     1
1070
    44
1040
1.0
1070
    74
1070
     0
1000
MTEXTEND
  0
POINT
  5
4679
330
45F9
100
AcDbEntity
  8
DEFPOINTS
 62
     0
100
AcDbPoint
 10
-79.49999999999999
 20
2.999999999999916
 30
0.0
  0
POINT
  5
467A
330
45F9
100
AcDbEntity
  8
DEFPOINTS
 62
     0
100
AcDbPoint
 10
-79.49999999999997
 20
-3.000000000000027
 30
0.0
  0
POINT
  5
467B
330
45F9
100
AcDbEntity
  8
DEFPOINTS
 62
     0
100
AcDbPoint
 10
-89.05619512995953
 20
-3.000000000000024
 30
0.0
  0
ENDBLK
  5
4606
330
45F9
100
AcDbEntity
  8
0
100
AcDbBlockEnd
  0
BLOCK
  5
4772
330
4768
100
AcDbEntity
  8
0
100
AcDbBlockBegin
  2
*D8
 70
     1
 10
0.0
 20
0.0
 30
0.0
  3
*D8
  1

  0
LINE
  5
4A7B
330
4768
100
AcDbEntity
  8
AM_5
100
AcDbLine
 10
-2.500000000000001
 20
2.999999999999999
 30
0.0
 11
8.841627940564752
 21
2.999999999999996
 31
0.0
  0
LINE
  5
4A7C
330
4768
100
AcDbEntity
  8
AM_5
100
AcDbLine
 10
-3.1
 20
-3.0
 30
0.0
 11
8.841627940564752
 21
-3.000000000000003
 31
0.0
  0
LINE
  5
4A7D
330
4768
100
AcDbEntity
  8
AM_5
100
AcDbLine
 10
8.341627940564752
 20
1.749999999999996
 30
0.0
 11
8.341627940564752
 21
-1.750000000000003
 31
0.0
  0
INSERT
  5
4A7E
330
4768
100
AcDbEntity
  8
AM_5
100
AcDbBlockReference
  2
_OPEN30
 10
8.341627940564752
 20
2.999999999999996
 30
0.0
 41
1.25
 42
1.25
 43
1.25
 50
90.0
  0
INSERT
  5
4A7F
330
4768
100
AcDbEntity
  8
AM_5
100
AcDbBlockReference
  2
_OPEN30
 10
8.341627940564752
 20
-3.000000000000003
 30
0.0
 41
1.25
 42
1.25
 43
1.25
 50
270.0
  0
MTEXT
  5
4A80
330
4768
100
AcDbEntity
  8
AM_5
 62
     2
100
AcDbMText
 10
6.791627940564751
 20
-0.0000000000000023
 30
0.0
 40
1.6
 41
0.0
 71
     5
 72
     1
  1
%%c6
  7
ASAMI
 11
0.0000000000000001
 21
1.0
 31
0.0
1001
ACAD
1000
MTEXTBEGIN
1070
    73
1070
     1
1070
    44
1040
1.0
1070
    74
1070
     0
1000
MTEXTEND
  0
POINT
  5
4A81
330
4768
100
AcDbEntity
  8
DEFPOINTS
 62
     0
100
AcDbPoint
 10
-3.000000000000001
 20
3.0
 30
0.0
  0
POINT
  5
4A82
330
4768
100
AcDbEntity
  8
DEFPOINTS
 62
     0
100
AcDbPoint
 10
-3.6
 20
-3.0
 30
0.0
  0
POINT
  5
4A83
330
4768
100
AcDbEntity
  8
DEFPOINTS
 62
     0
100
AcDbPoint
 10
8.341627940564752
 20
-3.000000000000003
 30
0.0
  0
ENDBLK
  5
4773
330
4768
100
AcDbEntity
  8
0
100
AcDbBlockEnd
  0
BLOCK
  5
477B
330
4774
100
AcDbEntity
  8
0
100
AcDbBlockBegin
  2
*D9
 70
     1
 10
0.0
 20
0.0
 30
0.0
  3
*D9
  1

  0
LINE
  5
4B46
330
4774
100
AcDbEntity
  8
AM_5
100
AcDbLine
 10
3.085168194358575
 20
-7.465426686732143
 30
0.0
 11
-0.324624328342511
 21
-3.256674766042407
 31
0.0
  0
MTEXT
  5
4B47
330
4774
100
AcDbEntity
  8
AM_5
 62
     2
100
AcDbMText
 10
2.978060081393989
 20
-4.87095070304778
 30
0.0
 40
1.6
 41
0.0
 71
     5
 72
     1
  1
R3
  7
ASAMI
 11
0.6295001580371237
 21
-0.7770003545888745
 31
0.0
  0
LINE
  5
4B48
330
4774
100
AcDbEntity
  8
AM_5
100
AcDbLine
 10
-3.000000000000285
 20
0.045576740960307
 30
0.0
 11
-1.111499525888915
 21
-2.285424322806314
 31
0.0
  0
INSERT
  5
4B49
330
4774
100
AcDbEntity
  8
AM_5
100
AcDbBlockReference
  2
_OPEN30
 10
-1.111499525888915
 20
-2.285424322806314
 30
0.0
 41
1.25
 42
1.25
 43
1.25
 50
129.0132547232072
  0
POINT
  5
4B4A
330
4774
100
AcDbEntity
  8
DEFPOINTS
 62
     0
100
AcDbPoint
 10
-1.111499525888915
 20
-2.285424322806314
 30
0.0
  0
POINT
  5
4B4B
330
4774
100
AcDbEntity
  8
DEFPOINTS
 62
     0
100
AcDbPoint
 10
-3.000000000000285
 20
0.045576740960307
 30
0.0
  0
ENDBLK
  5
477C
330
4774
100
AcDbEntity
  8
0
100
AcDbBlockEnd
  0
ENDSEC
  0
SECTION
  2
ENTITIES
  0
TEXT
  5
1500
330
1F
100
AcDbEntity
  8
AM_6
100
AcDbText
 10
-48.03571428571427
 20
-29.00442425903667
 30
0.0
 40
2.5
  1
SSB2060
 72
     4
 11
-39.99999999999998
 21
-27.75442425903667
 31
0.0
100
AcDbText
  0
LINE
  5
3EE8
330
1F
100
AcDbEntity
  8
AM_7
  6
AM_ISO08W050X2
100
AcDbLine
 10
1.341626940564765
 20
0.0
 30
0.0
 11
-82.05619412995956
 21
-0.0000000000000355
 31
0.0
1001
GENIUS_GENODEF_13
1002
{
1000
HIER
1070
     0
1002
}
1002
{
1000
MANEDIT
1070
     0
1002
}
1002
{
1000
NOSEL
1070
     0
1002
}
1002
{
1000
BEHIND
1070
     0
1002
}
1002
{
1000
REACTOR
1002
}
1001
GENIUS_GENOBJ-N-CEN_13
1002
{
1000
OWNER
1000
GEN
1002
}
  0
DIMENSION
  5
4047
330
1F
100
AcDbEntity
  8
AM_5
100
AcDbDimension
  2
*D5
 10
-0.0000000000000004
 20
-17.75442425903667
 30
0.0
 11
-39.99999999999998
 21
-16.20442425903667
 31
0.0
 70
    32
  1
<>
  3
AM_JIS
100
AcDbAlignedDimension
 13
-79.99999999999997
 23
-2.500000000000015
 33
0.0
 14
0.0000000000000007
 24
-0.0000000000000005
 34
0.0
 50
0.0000000000001132
100
AcDbRotatedDimension
1001
GENIUS_GENDTOL_13
1000

1000
h7
1000

1040
0.0
  0
DIMENSION
  5
412A
330
1F
100
AcDbEntity
  8
AM_5
100
AcDbDimension
  2
*D6
 10
-15.0
 20
-11.7544242590367
 30
0.0
 11
-7.500000000000007
 21
-10.2044242590367
 31
0.0
 70
    32
  1
<>
  3
AM_JIS
100
AcDbAlignedDimension
 13
-0.0000000000000142
 23
-0.0000000000000111
 33
0.0
 14
-15.0
 24
-3.0
 34
0.0
 50
0.0000000000001132
100
AcDbRotatedDimension
1001
GENIUS_GENDTOL_13
1000

1000
h7
1000

1040
0.0
  0
LINE
  5
45F3
330
1F
100
AcDbEntity
  8
AM_0
100
AcDbLine
 10
-20.21099091455183
 20
-2.999999999999996
 30
0.0
 11
-79.49999999999997
 21
-3.000000000000015
 31
0.0
  0
LINE
  5
45F6
330
1F
100
AcDbEntity
  8
AM_0
100
AcDbLine
 10
-79.49999999999999
 20
2.999999999999916
 30
0.0
 11
-79.49999999999997
 21
-3.000000000000024
 31
0.0
  0
LINE
  5
45F7
330
1F
100
AcDbEntity
  8
AM_0
100
AcDbLine
 10
-80.0
 20
2.499999999999916
 30
0.0
 11
-79.99999999999997
 21
-2.500000000000015
 31
0.0
  0
DIMENSION
  5
45F8
330
1F
100
AcDbEntity
  8
AM_5
100
AcDbDimension
  2
*D7
 10
-89.05619512995953
 20
-3.000000000000024
 30
0.0
 11
-90.60619512995954
 21
-0.0000000000000672
 31
0.0
 70
    32
  1
%%c<>
  3
AM_JIS
100
AcDbAlignedDimension
 13
-79.49999999999999
 23
2.999999999999916
 33
0.0
 14
-79.49999999999997
 24
-3.000000000000027
 34
0.0
 50
270.0
100
AcDbRotatedDimension
1001
GENIUS_GENDTOL_13
1000

1000
h7
1000

1040
0.0
  0
LINE
  5
4607
330
1F
100
AcDbEntity
  8
AM_0
100
AcDbLine
 10
-20.07537813891016
 20
2.999999999999916
 30
0.0
 11
-79.5
 21
2.999999999999916
 31
0.0
  0
LINE
  5
4615
330
1F
100
AcDbEntity
  8
AM_0
100
AcDbLine
 10
-79.5
 20
2.999999999999916
 30
0.0
 11
-80.0
 21
2.499999999999916
 31
0.0
1001
GENIUS_GENFIL_13
1070
     0
1040
0.5
1040
0.5
1040
20.0
1040
0.0
1002
{
1002
}
1001
GENIUS_GENODEF_13
1002
{
1000
HIER
1070
     0
1002
}
1002
{
1000
MANEDIT
1070
     0
1002
}
1002
{
1000
NOSEL
1070
     0
1002
}
1002
{
1000
BEHIND
1070
     0
1002
}
1002
{
1000
REACTOR
1002
}
1001
GENIUS_GENOBJ-N-CHA_13
1002
{
1000
OWNER
1000
GEN
1002
}
  0
LINE
  5
4618
330
1F
100
AcDbEntity
  8
AM_0
100
AcDbLine
 10
-79.99999999999997
 20
-2.500000000000015
 30
0.0
 11
-79.49999999999997
 21
-3.000000000000015
 31
0.0
1001
GENIUS_GENFIL_13
1070
     0
1040
0.5
1040
0.5
1040
20.0
1040
0.0
1002
{
1002
}
1001
GENIUS_GENODEF_13
1002
{
1000
HIER
1070
     0
1002
}
1002
{
1000
MANEDIT
1070
     0
1002
}
1002
{
1000
NOSEL
1070
     0
1002
}
1002
{
1000
BEHIND
1070
     0
1002
}
1002
{
1000
REACTOR
1002
}
1001
GENIUS_GENOBJ-N-CHA_13
1002
{
1000
OWNER
1000
GEN
1002
}
  0
SPLINE
  5
4737
330
1F
100
AcDbEntity
  8
AM_0
100
AcDbSpline
210
0.0
220
0.0
230
1.0
 70
     8
 71
     3
 72
     8
 73
     4
 74
     0
 42
0.0000000001
 43
0.0000000001
 40
1.794922859428793
 40
1.794922859428793
 40
1.794922859428793
 40
1.794922859428793
 40
17.5282628916844
 40
17.5282628916844
 40
17.5282628916844
 40
17.5282628916844
 10
-2.999999999998091
 20
-2.954423259036822
 30
0.0
 10
-6.108561187782099
 20
-2.69279508120335
 30
0.0
 10
-9.059122920978094
 20
-1.346397540601678
 30
0.0
 10
-12.00968465417436
 20
0.0
 30
0.0
  0
SPLINE
  5
4738
330
1F
100
AcDbEntity
  8
AM_0
100
AcDbSpline
210
0.0
220
0.0
230
1.0
 70
     8
 71
     3
 72
     8
 73
     4
 74
     0
 42
0.0000000001
 43
0.0000000001
 40
3.732786119440464
 40
3.732786119440464
 40
3.732786119440464
 40
3.732786119440464
 40
17.48613721147548
 40
17.48613721147548
 40
17.48613721147548
 40
17.48613721147548
 10
-2.870851786722325
 20
-2.725385766571257
 30
0.0
 10
-5.559777810536527
 20
-2.28892026479184
 30
0.0
 10
-8.148548018908055
 20
-1.144460132395991
 30
0.0
 10
-10.73731822727958
 20
0.0
 30
0.0
  0
SPLINE
  5
4739
330
1F
100
AcDbEntity
  8
AM_0
100
AcDbSpline
210
0.0
220
0.0
230
1.0
 70
     8
 71
     3
 72
     8
 73
     4
 74
     0
 42
0.0000000001
 43
0.0000000001
 40
6.513172597598655
 40
6.513172597598655
 40
6.513172597598655
 40
6.513172597598655
 40
17.4246383984571
 40
17.4246383984571
 40
17.4246383984571
 40
17.4246383984571
 10
-2.999999999999992
 20
-2.265212756615937
 30
0.0
 10
-5.110962797224329
 20
-1.737218098217091
 30
0.0
 10
-7.175909696885721
 20
-0.8686090491085494
 30
0.0
 10
-9.240856596547104
 20
0.0
 30
0.0
  0
SPLINE
  5
473A
330
1F
100
AcDbEntity
  8
AM_0
100
AcDbSpline
210
0.0
220
0.0
230
1.0
 70
     8
 71
     3
 72
     8
 73
     4
 74
     0
 42
0.0000000001
 43
0.0000000001
 40
1.794922859432252
 40
1.794922859432252
 40
1.794922859432252
 40
1.794922859432252
 40
8.217791785374707
 40
8.217791785374707
 40
8.217791785374707
 40
8.217791785374707
 10
-2.999999999999992
 20
2.954423259036481
 30
0.0
 10
-4.269017323497702
 20
2.84761799771784
 30
0.0
 10
-5.511703374427453
 20
2.560031367004761
 30
0.0
 10
-6.738807447727134
 20
2.165464291398556
 30
0.0
  0
SPLINE
  5
473B
330
1F
100
AcDbEntity
  8
AM_0
100
AcDbSpline
210
0.0
220
0.0
230
1.0
 70
     8
 71
     3
 72
     8
 73
     4
 74
     2
 42
0.0000000001
 43
0.0000000001
 44
0.0000000001
 12
-0.8789112757303589
 22
0.4769852926391262
 32
0.0
 13
0.9988106394578339
 23
0.0487576302319218
 33
0.0
 40
0.0
 40
0.0
 40
0.0
 40
0.0
 40
1.294469916197641
 40
1.294469916197641
 40
1.294469916197641
 40
1.294469916197641
 10
-3.136668816407556
 20
0.8333109893094814
 30
0.0
 10
-3.515910218220836
 20
1.039125359906173
 30
0.0
 10
-3.992314331330348
 20
2.035100768362596
 30
0.0
 10
-3.561337556411583
 20
2.056139196869366
 30
0.0
 11
-3.136668816407556
 21
0.8333109893094814
 31
0.0
 11
-3.561337556411583
 21
2.056139196869366
 31
0.0
  0
SPLINE
  5
473C
330
1F
100
AcDbEntity
  8
AM_0
100
AcDbSpline
210
0.0
220
0.0
230
1.0
 70
     8
 71
     3
 72
     8
 73
     4
 74
     2
 42
0.0000000001
 43
0.0000000001
 44
0.0000000001
 12
0.4216926876958761
 22
-0.9067388141818064
 32
0.0
 13
-0.9928045895078733
 23
-0.119745760058982
 33
0.0
 40
0.0
 40
0.0
 40
0.0
 40
0.0
 40
1.059251673879778
 40
1.059251673879778
 40
1.059251673879778
 40
1.059251673879778
 10
-2.999999999999992
 20
2.954423259036481
 30
0.0
 10
-2.851107104898419
 20
2.634268390138533
 30
0.0
 10
-3.210794248683795
 20
2.098419495795496
 30
0.0
 10
-3.561337556441042
 20
2.056139196868002
 30
0.0
 11
-2.999999999999992
 21
2.954423259036481
 31
0.0
 11
-3.561337556441042
 21
2.056139196868002
 31
0.0
  0
SPLINE
  5
473D
330
1F
100
AcDbEntity
  8
AM_0
100
AcDbSpline
210
0.0
220
0.0
230
1.0
 70
     8
 71
     3
 72
     9
 73
     5
 74
     3
 42
0.0000000001
 43
0.0000000001
 44
0.0000000001
 12
0.5867325161912575
 22
-0.8097808064185489
 32
0.0
 13
-0.8994987856269101
 23
0.4369232594583561
 33
0.0
 40
0.0
 40
0.0
 40
0.0
 40
0.0
 40
0.2688079098593672
 40
0.8007974290809809
 40
0.8007974290809809
 40
0.8007974290809809
 40
0.8007974290809809
 10
-2.631848344490101
 20
-1.825559501627097
 30
0.0
 10
-2.579275564048801
 20
-1.898117996966298
 30
0.0
 10
-2.352496380726148
 20
-2.157537890524803
 30
0.0
 10
-2.840492024497963
 20
-2.342692288194601
 30
0.0
 10
-2.999999999999992
 20
-2.265212756615937
 30
0.0
 11
-2.631848344490101
 21
-1.825559501627097
 31
0.0
 11
-2.507566554529778
 21
-2.063911613191521
 31
0.0
 11
-2.999999999999992
 21
-2.265212756615937
 31
0.0
  0
SPLINE
  5
473E
330
1F
100
AcDbEntity
  8
AM_0
100
AcDbSpline
210
0.0
220
0.0
230
1.0
 70
     8
 71
     3
 72
     8
 73
     4
 74
     0
 42
0.0000000001
 43
0.0000000001
 40
15.41323093265439
 40
15.41323093265439
 40
15.41323093265439
 40
15.41323093265439
 40
17.52826289168434
 40
17.52826289168434
 40
17.52826289168434
 40
17.52826289168434
 10
-15.00035031630468
 20
0.9795573470822489
 30
0.0
 10
-13.09385341230667
 20
0.4677994183814036
 30
0.0
 10
-12.50720400656608
 20
0.1809961408126099
 30
0.0
 10
-12.00968465417436
 20
0.0
 30
0.0
  0
SPLINE
  5
473F
330
1F
100
AcDbEntity
  8
AM_0
100
AcDbSpline
210
0.0
220
0.0
230
1.0
 70
     8
 71
     3
 72
     8
 73
     4
 74
     0
 42
0.0000000001
 43
0.0000000001
 40
13.13081676297142
 40
13.13081676297142
 40
13.13081676297142
 40
13.13081676297142
 40
17.48613721147548
 40
17.48613721147548
 40
17.48613721147548
 40
17.48613721147548
 10
-15.0
 20
1.526424786090267
 30
0.0
 10
-12.53952223235418
 20
0.7248401620471583
 30
0.0
 10
-11.55711289037987
 20
0.3624200810235791
 30
0.0
 10
-10.73731822727958
 20
0.0
 30
0.0
  0
SPLINE
  5
4740
330
1F
100
AcDbEntity
  8
AM_0
100
AcDbSpline
210
0.0
220
0.0
230
1.0
 70
     8
 71
     3
 72
     8
 73
     4
 74
     0
 42
0.0000000001
 43
0.0000000001
 40
0.7484745895110383
 40
0.7484745895110383
 40
0.7484745895110383
 40
0.7484745895110383
 40
17.4246383984571
 40
17.4246383984571
 40
17.4246383984571
 40
17.4246383984571
 10
-20.07537813913871
 20
2.999999999999936
 30
0.0
 10
-16.52183606099592
 20
2.655017584846817
 30
0.0
 10
-13.60389137757286
 20
1.739643273261059
 30
0.0
 10
-9.240856596547104
 20
0.0
 30
0.0
  0
SPLINE
  5
4741
330
1F
100
AcDbEntity
  8
AM_0
100
AcDbSpline
210
0.0
220
0.0
230
1.0
 70
     8
 71
     3
 72
     8
 73
     4
 74
     0
 42
0.0000000001
 43
0.0000000001
 40
0.0
 40
0.0
 40
0.0
 40
0.0
 40
4.656267981793611
 40
4.656267981793611
 40
4.656267981793611
 40
4.656267981793611
 10
-20.21099091455182
 20
-2.999999999999992
 30
0.0
 10
-18.5389369847939
 20
-2.687964456899727
 30
0.0
 10
-17.62106468878976
 20
-2.588914699998952
 30
0.0
 10
-16.71299789897005
 20
-2.417283581185984
 30
0.0
  0
LINE
  5
4742
330
1F
100
AcDbEntity
  8
AM_0
100
AcDbLine
 10
-16.71299789897208
 20
-2.417283581186037
 30
0.0
 11
-6.738807447727141
 21
-2.165464291398755
 31
0.0
  0
LINE
  5
4743
330
1F
100
AcDbEntity
  8
AM_11
100
AcDbLine
 10
-15.0
 20
-3.0
 30
0.0
 11
-3.0
 21
-3.0
 31
0.0
  0
LINE
  5
4744
330
1F
100
AcDbEntity
  8
AM_11
100
AcDbLine
 10
-3.0
 20
2.999999999999928
 30
0.0
 11
-15.0
 21
2.999999999999928
 31
0.0
  0
LINE
  5
4745
330
1F
100
AcDbEntity
  8
AM_0
100
AcDbLine
 10
-16.79410230725336
 20
2.485941211570431
 30
0.0
 11
-3.561337556411855
 21
2.056139196869366
 31
0.0
  0
LINE
  5
4747
330
1F
100
AcDbEntity
  8
AM_11
100
AcDbLine
 10
-15.0
 20
2.999999999999928
 30
0.0
 11
-15.0
 21
-3.000000000000003
 31
0.0
  0
POLYLINE
  5
4748
330
1F
100
AcDbEntity
  8
AM_0
100
AcDb2dPolyline
 66
     1
 10
0.0
 20
0.0
 30
0.0
 70
     2
  0
VERTEX
  5
4749
330
4748
100
AcDbEntity
  8
AM_0
100
AcDbVertex
100
AcDb2dVertex
 10
-15.00035031630468
 20
0.9795573470822525
 30
0.0
 42
0.0133190182982491
  0
VERTEX
  5
4AEB
330
4748
100
AcDbEntity
  8
AM_0
100
AcDbVertex
100
AcDb2dVertex
 10
-15.68268483663112
 20
0.8617829937525591
 30
0.0
 42
0.0206055082738515
 70
     1
  0
VERTEX
  5
474A
330
4748
100
AcDbEntity
  8
AM_0
100
AcDbVertex
100
AcDb2dVertex
 10
-16.11766548829655
 20
0.75590629460471
 30
0.0
 42
0.0010255928714721
  0
VERTEX
  5
4AEC
330
4748
100
AcDbEntity
  8
AM_0
100
AcDbVertex
100
AcDb2dVertex
 10
-16.69434786087481
 20
0.5888175063111021
 30
0.0
 42
0.0055579029934845
 70
     1
  0
VERTEX
  5
474B
330
4748
100
AcDbEntity
  8
AM_0
100
AcDbVertex
100
AcDb2dVertex
 10
-16.80035031630468
 20
0.556585426826949
 30
0.0
 42
0.0144265122349476
  0
VERTEX
  5
4AED
330
4748
100
AcDbEntity
  8
AM_0
100
AcDbVertex
100
AcDb2dVertex
 10
-17.33077264648542
 20
0.3718435131243325
 30
0.0
 42
0.0064805851230919
 70
     1
  0
VERTEX
  5
474C
330
4748
100
AcDbEntity
  8
AM_0
100
AcDbVertex
100
AcDb2dVertex
 10
-18.49313695190904
 20
-0.0883333060153291
 30
0.0
 42
0.0155505912919501
  0
VERTEX
  5
4AEE
330
4748
100
AcDbEntity
  8
AM_0
100
AcDbVertex
100
AcDb2dVertex
 10
-18.94033734412781
 20
-0.2885903309797868
 30
0.0
 42
0.0256792573039368
 70
     1
  0
VERTEX
  5
474D
330
4748
100
AcDbEntity
  8
AM_0
100
AcDbVertex
100
AcDb2dVertex
 10
-19.20035031630468
 20
-0.4318098417410994
 30
0.0
 42
0.088791518507992
  0
VERTEX
  5
4AEF
330
4748
100
AcDbEntity
  8
AM_0
100
AcDbVertex
100
AcDb2dVertex
 10
-19.43291434368967
 20
-0.6407476530089867
 30
0.0
 42
0.0497717146308276
 70
     1
  0
VERTEX
  5
474E
330
4748
100
AcDbEntity
  8
AM_0
100
AcDbVertex
100
AcDb2dVertex
 10
-19.72865695049441
 20
-1.110082728264696
 30
0.0
 42
0.0192205625836085
  0
VERTEX
  5
4AF0
330
4748
100
AcDbEntity
  8
AM_0
100
AcDbVertex
100
AcDb2dVertex
 10
-19.79085049846725
 20
-1.247727872928692
 30
0.0
 42
0.073039959225204
 70
     1
  0
VERTEX
  5
474F
330
4748
100
AcDbEntity
  8
AM_0
100
AcDbVertex
100
AcDb2dVertex
 10
-19.80035031630469
 20
-1.286526447376889
 30
0.0
 42
0.1494727330954523
  0
VERTEX
  5
4AF1
330
4748
100
AcDbEntity
  8
AM_0
100
AcDbVertex
100
AcDb2dVertex
 10
-19.7873689152994
 20
-1.34977145281806
 30
0.0
 42
0.0784794280511798
 70
     1
  0
VERTEX
  5
4750
330
4748
100
AcDbEntity
  8
AM_0
100
AcDbVertex
100
AcDb2dVertex
 10
-19.7135676880026
 20
-1.445686314752848
 30
0.0
 42
0.0693245041042068
  0
VERTEX
  5
4AF2
330
4748
100
AcDbEntity
  8
AM_0
100
AcDbVertex
100
AcDb2dVertex
 10
-19.50834492007348
 20
-1.592165927052331
 30
0.0
 42
0.0499519747851012
 70
     1
  0
VERTEX
  5
4751
330
4748
100
AcDbEntity
  8
AM_0
100
AcDbVertex
100
AcDb2dVertex
 10
-19.18434786081306
 20
-1.722195575497597
 30
0.0
 42
0.0025792573272688
  0
VERTEX
  5
4AF3
330
4748
100
AcDbEntity
  8
AM_0
100
AcDbVertex
100
AcDb2dVertex
 10
-18.88379061260297
 20
-1.807540400373682
 30
0.0
 42
0.0020191281189953
 70
     1
  0
VERTEX
  5
4752
330
4748
100
AcDbEntity
  8
AM_0
100
AcDbVertex
100
AcDb2dVertex
 10
-18.49886995777615
 20
-1.913025064187504
 30
0.0
 42
0.0040546004712545
  0
VERTEX
  5
4AF4
330
4748
100
AcDbEntity
  8
AM_0
100
AcDbVertex
100
AcDb2dVertex
 10
-17.05361759583442
 20
-2.290272986805117
 30
0.0
 42
0.0220392657856875
 70
     1
  0
VERTEX
  5
4753
330
4748
100
AcDbEntity
  8
AM_0
100
AcDbVertex
100
AcDb2dVertex
 10
-16.78434786081306
 20
-2.345739712715033
 30
0.0
 42
0.0202701267989589
  0
VERTEX
  5
4AF6
330
4748
100
AcDbEntity
  8
AM_0
100
AcDbVertex
100
AcDb2dVertex
 10
-16.50673674325997
 20
-2.378803268453438
 30
0.0
 42
0.0132038821895733
 70
     1
  0
VERTEX
  5
4754
330
4748
100
AcDbEntity
  8
AM_0
100
AcDbVertex
100
AcDb2dVertex
 10
-16.07821871110354
 20
-2.400934843748981
 30
0.0
 42
0.0007521614174221
  0
VERTEX
  5
4AF5
330
4748
100
AcDbEntity
  8
AM_0
100
AcDbVertex
100
AcDb2dVertex
 10
-16.07720008988439
 20
-2.400958979785528
 30
0.0
 42
0.0001326061479569
 70
     1
  0
VERTEX
  5
4755
330
4748
100
AcDbEntity
  8
AM_0
100
AcDbVertex
100
AcDb2dVertex
 10
-16.07142209168404
 20
-2.401085658665337
 30
0.0
  0
SEQEND
  5
4756
330
4748
100
AcDbEntity
  8
AM_0
  0
LINE
  5
4757
330
1F
100
AcDbEntity
  8
AM_0
100
AcDbLine
 10
-15.0
 20
0.9794633107786836
 30
0.0
 11
-15.0
 21
2.0333768550298
 31
0.0
  0
DIMENSION
  5
4758
330
1F
100
AcDbEntity
  8
AM_5
100
AcDbDimension
  2
*D9
 10
-3.000000000000285
 20
0.045576740960307
 30
0.0
 11
2.978060081393989
 21
-4.87095070304778
 31
0.0
 70
    36
  1
<>
  3
AM_JIS$4
100
AcDbRadialDimension
 15
-1.111499525888915
 25
-2.285424322806314
 35
0.0
 40
0.0
1001
GENIUS_GENDTOL_13
1000

1000
h7
1000

1040
0.0
1001
ACAD
1000
DSTYLE
1002
{
1070
   287
1070
     3
1070
   271
1070
     3
1070
   288
1070
     1
1070
   289
1070
     3
1070
   172
1070
     1
1070
    74
1070
     0
1002
}
  0
DIMENSION
  5
4759
330
1F
100
AcDbEntity
  8
AM_5
100
AcDbDimension
  2
*D8
 10
8.341627940564752
 20
-3.000000000000003
 30
0.0
 11
6.791627940564751
 21
-0.0000000000000023
 31
0.0
 70
    32
  1
%%c<>
  3
AM_JIS
100
AcDbAlignedDimension
 13
-3.0
 23
3.0
 33
0.0
 14
-3.6
 24
-3.0
 34
0.0
 50
90.0
100
AcDbRotatedDimension
1001
GENIUS_GENDTOL_13
1000

1000
h7
1000

1040
0.0
  0
ARC
  5
475A
330
1F
100
AcDbEntity
  8
AM_0
100
AcDbCircle
 10
-3.000000000000282
 20
0.0455767409603141
 30
0.0
 40
3.0
100
AcDbArc
 50
270.0000000000781
 51
359.1295148788724
  0
ARC
  5
475C
330
1F
100
AcDbEntity
  8
AM_0
100
AcDbCircle
 10
-2.903439329344756
 20
0.8059541548868303
 30
0.0
 40
2.645491596560777
100
AcDbArc
 50
275.8924707062755
 51
339.8416840647174
  0
LINE
  5
475D
330
1F
100
AcDbEntity
  8
AM_0
100
AcDbLine
 10
-0.0000000000000011
 20
0.0
 30
0.0
 11
-3.561337556411582
 21
2.056139196869366
 31
0.0
  0
ARC
  5
475E
330
1F
100
AcDbEntity
  8
AM_0
100
AcDbCircle
 10
-3.000000000000009
 20
-0.0455767409634511
 30
0.0
 40
3.0
100
AcDbArc
 50
0.8704851212057906
 51
90.0
  0
LINE
  5
475F
330
1F
100
AcDbEntity
  8
AM_0
100
AcDbLine
 10
-0.4200000000001648
 20
-0.1057228081530397
 30
0.0
 11
-3.136668816407564
 21
0.8333109893094849
 31
0.0
  0
ARC
  5
4760
330
1F
100
AcDbEntity
  8
AM_11
100
AcDbCircle
 10
-3.000000000000009
 20
0.0
 30
0.0
 40
3.0
100
AcDbArc
 50
270.0
 51
90.0
  0
ARC
  5
4761
330
1F
100
AcDbEntity
  8
AM_0
100
AcDbCircle
 10
-3.082112686076571
 20
0.2303002514842305
 30
0.0
 40
2.963226451846743
100
AcDbArc
 50
274.0883259404363
 51
353.4887846299623
  0
ARC
  5
4762
330
1F
100
AcDbEntity
  8
AM_0
100
AcDbCircle
 10
-0.1230845477044664
 20
0.0281198478723575
 30
0.0
 40
3.119298465813122
100
AcDbArc
 50
165.040742132377
 51
216.4600123166023
  0
LINE
  5
4763
330
1F
100
AcDbEntity
  8
AM_0
100
AcDbLine
 10
-2.870851786722324
 20
-2.725385766571115
 30
0.0
 11
-3.000000000000274
 21
-2.265212756615937
 31
0.0
  0
LINE
  5
4764
330
1F
100
AcDbEntity
  8
AM_0
100
AcDbLine
 10
-2.999999999963712
 20
-2.954423259039685
 30
0.0
 11
-2.870851786722324
 21
-2.725385766571115
 31
0.0
  0
LINE
  5
4765
330
1F
100
AcDbEntity
  8
AM_0
100
AcDbLine
 10
-0.138000000000012
 20
-0.1057228081530397
 30
0.0
 11
-0.4200000000001648
 21
-0.1057228081530397
 31
0.0
  0
LINE
  5
4766
330
1F
100
AcDbEntity
  8
AM_0
100
AcDbLine
 10
-0.0000000000000011
 20
0.0
 30
0.0
 11
-0.138000000000012
 21
-0.1057228081530397
 31
0.0
  0
VIEWPORT
  5
110
330
101
100
AcDbEntity
 67
     1
  8
0
100
AcDbViewport
 10
420.5
 20
297.0
 30
0.0
 40
948.9782706766916
 41
628.452
 68
     1
 69
     1
1001
ACAD
1000
MVIEW
1002
{
1070
    16
1010
0.0
1020
0.0
1030
0.0
1010
0.0
1020
0.0
1030
1.0
1040
0.0
1040
628.452
1040
420.5
1040
297.0
1040
50.0
1040
0.0
1040
0.0
1070
     0
1070
   100
1070
     1
1070
     1
1070
     0
1070
     0
1070
     0
1070
     0
1040
0.0
1040
0.0
1040
0.0
1040
10.0
1040
10.0
1040
10.0
1040
10.0
1070
     0
1002
{
1002
}
1002
}
  0
ENDSEC
  0
SECTION
  2
OBJECTS
  0
DICTIONARY
  5
C
330
0
100
AcDbDictionary
  3
ACAD_GROUP
350
D
  3
ACAD_LAYOUT
350
1A
  3
ACAD_MLINESTYLE
350
17
  3
ACAD_PLOTSETTINGS
350
19
  3
ACAD_PLOTSTYLENAME
350
E
  3
ACDBVARIABLEDICTIONARY
350
34
  3
ACMDICTIONARY
350
43
  3
AMG
350
2B
  3
AMGSNAPSETTINGS
350
6E
  3
ASE_INDEX_DICTIONARY
350
151A
  3
DWGPROPS
350
4B10
  3
ACDBHEADERROUNDTRIPXREC
350
4B1C
  0
DICTIONARY
  5
74
330
1F
100
AcDbDictionary
280
     1
  3
ACAD_INDEX
360
4B12
  3
ACAD_LAYOUTSELFREF
360
4B3F
  0
DICTIONARY
  5
4B44
330
101
100
AcDbDictionary
280
     1
  3
ACAD_LAYOUTSELFREF
360
4B45
  0
DICTIONARY
  5
D
102
{ACAD_REACTORS
330
C
102
}
330
C
100
AcDbDictionary
  0
DICTIONARY
  5
1A
102
{ACAD_REACTORS
330
C
102
}
330
C
100
AcDbDictionary
  0
DICTIONARY
  5
17
102
{ACAD_REACTORS
330
C
102
}
330
C
100
AcDbDictionary
  3
STANDARD
350
18
  0
DICTIONARY
  5
19
102
{ACAD_REACTORS
330
C
102
}
330
C
100
AcDbDictionary
  0
ACDBDICTIONARYWDFLT
  5
E
102
{ACAD_REACTORS
330
C
102
}
330
C
100
AcDbDictionary
281
     1
  3
Normal
350
F
100
AcDbDictionaryWithDefault
340
F
  0
DICTIONARY
  5
34
102
{ACAD_REACTORS
330
C
102
}
330
C
100
AcDbDictionary
  3
INDEXCTL
350
35
  3
SORTENTS
350
B5E
  0
DICTIONARY
  5
43
102
{ACAD_REACTORS
330
C
102
}
330
C
100
AcDbDictionary
  3
ACMSTDDICTIONARY
350
260
  0
DICTIONARY
  5
2B
102
{ACAD_REACTORS
330
C
102
}
330
C
100
AcDbDictionary
  3
ACMGSETTINGS
350
2C
  0
DICTIONARY
  5
6E
102
{ACAD_REACTORS
330
C
102
}
330
C
100
AcDbDictionary
  0
DICTIONARY
  5
151A
102
{ACAD_REACTORS
330
C
102
}
330
C
100
AcDbDictionary
  3
ASEBLOCKHIERARCHYINDEXRECORD
350
151C
1001
DCO15
1040
1471862535.906
  0
XRECORD
  5
4B10
102
{ACAD_REACTORS
330
C
102
}
330
C
100
AcDbXrecord
  1
DWGPROPS COOKIE
  2

  3

  4

  6

  7

  8

  9

300
AmdtFileType=82
301
=
302
=
303
=
304
=
305
=
306
=
307
=
308
=
309
=
 40
0.1623240162037037
 41
2452838.430434386
 42
2452871.598377187
  1

 90
        1
  0
DICTIONARY
  5
4B1C
102
{ACAD_REACTORS
330
C
102
}
330
C
100
AcDbDictionary
  3
TSTACKALIGN
350
4B1D
  3
TSTACKSIZE
350
4B1E
  3
HYPERLINKBASE
350
4B1F
  3
STYLESHEET
350
4B20
  3
LAYOUTDICT
350
4B21
  3
PLOTSETDICT
350
4B22
  3
PLOTSTYLNAMDICT
350
4B23
  3
LWETCUNION
350
4B24
  3
INSUNITS
350
4B25
  3
CEPSNTYPE
350
4B26
  3
FINGERPRINTGUID
350
4B27
  3
VERSIONGUID
350
4B28
  3
PSVPSCALE
350
4B29
  3
DIMSTYLEDATA
350
4B2A
  3
PUCSORTHOREF
350
4B2B
  3
PUCSORTHOVIEW
350
4B2C
  3
PUCSBASE
350
4B2D
  3
PUCSORGTOP
350
4B2E
  3
PUCSORGBOTTOM
350
4B2F
  3
PUCSORGLEFT
350
4B30
  3
PUCSORGRIGHT
350
4B31
  3
PUCSORGFRONT
350
4B32
  3
PUCSORGBACK
350
4B33
  3
UCSORTHOREF
350
4B34
  3
UCSORTHOVIEW
350
4B35
  3
UCSBASE
350
4B36
  3
UCSORGTOP
350
4B37
  3
UCSORGBOTTOM
350
4B38
  3
UCSORGLEFT
350
4B39
  3
UCSORGRIGHT
350
4B3A
  3
UCSORGFRONT
350
4B3B
  3
UCSORGBACK
350
4B3C
  0
DICTIONARY
  5
4B12
102
{ACAD_REACTORS
330
74
102
}
330
74
100
AcDbDictionary
  3
*A1
350
4B13
  0
XRECORD
  5
4B3F
102
{ACAD_REACTORS
330
74
102
}
330
74
100
AcDbXrecord
340
1F
  0
XRECORD
  5
4B45
102
{ACAD_REACTORS
330
4B44
102
}
330
4B44
100
AcDbXrecord
340
101
  0
MLINESTYLE
  5
18
102
{ACAD_REACTORS
330
17
102
}
330
17
100
AcDbMlineStyle
  2
STANDARD
 70
     0
  3

 62
   256
 51
90.0
 52
90.0
 71
     2
 49
0.5
 62
   256
  6
BYLAYER
 49
-0.5
 62
   256
  6
BYLAYER
  0
ACDBPLACEHOLDER
  5
F
102
{ACAD_REACTORS
330
E
102
}
330
E
100
AcDbPlaceHolder
280
     0
  0
DICTIONARYVAR
  5
35
102
{ACAD_REACTORS
330
34
102
}
330
34
100
DictionaryVariables
280
     0
  1
1
  0
DICTIONARYVAR
  5
B5E
102
{ACAD_REACTORS
330
34
102
}
330
34
100
DictionaryVariables
280
     0
  1
96
  0
DICTIONARY
  5
260
102
{ACAD_REACTORS
330
43
102
}
330
43
100
AcDbDictionary
  0
DICTIONARY
  5
2C
102
{ACAD_REACTORS
330
2B
102
}
330
2B
100
AcDbDictionary
  3
DWGSETTINGS
350
2D
  0
XRECORD
  5
151C
102
{ACAD_REACTORS
330
151A
102
}
330
151A
100
AcDbXrecord
330
0
330
0
330
0
330
0
330
0
330
0
330
0
330
0
  0
XRECORD
  5
4B1D
102
{ACAD_REACTORS
330
4B1C
102
}
330
4B1C
100
AcDbXrecord
 90
        1
  0
XRECORD
  5
4B1E
102
{ACAD_REACTORS
330
4B1C
102
}
330
4B1C
100
AcDbXrecord
 90
       70
  0
XRECORD
  5
4B1F
102
{ACAD_REACTORS
330
4B1C
102
}
330
4B1C
100
AcDbXrecord
  1

  0
XRECORD
  5
4B20
102
{ACAD_REACTORS
330
4B1C
102
}
330
4B1C
100
AcDbXrecord
  1
ASAMI.ctb
  0
XRECORD
  5
4B21
102
{ACAD_REACTORS
330
4B1C
102
}
330
4B1C
100
AcDbXrecord
340
1A
  0
XRECORD
  5
4B22
102
{ACAD_REACTORS
330
4B1C
102
}
330
4B1C
100
AcDbXrecord
340
19
  0
XRECORD
  5
4B23
102
{ACAD_REACTORS
330
4B1C
102
}
330
4B1C
100
AcDbXrecord
340
E
  0
XRECORD
  5
4B24
102
{ACAD_REACTORS
330
4B1C
102
}
330
4B1C
100
AcDbXrecord
 90
    10781
  0
XRECORD
  5
4B25
102
{ACAD_REACTORS
330
4B1C
102
}
330
4B1C
100
AcDbXrecord
 90
        4
  0
XRECORD
  5
4B26
102
{ACAD_REACTORS
330
4B1C
102
}
330
4B1C
100
AcDbXrecord
 90
        0
  0
XRECORD
  5
4B27
102
{ACAD_REACTORS
330
4B1C
102
}
330
4B1C
100
AcDbXrecord
  1
{AFB28963-8C59-40AE-9337-C84526B81ACE}
  0
XRECORD
  5
4B28
102
{ACAD_REACTORS
330
4B1C
102
}
330
4B1C
100
AcDbXrecord
  1
{1C46938A-FEA6-4D12-BB7C-763053A0625B}
  0
XRECORD
  5
4B29
102
{ACAD_REACTORS
330
4B1C
102
}
330
4B1C
100
AcDbXrecord
 40
0.0
  0
XRECORD
  5
4B2A
102
{ACAD_REACTORS
330
4B1C
102
}
330
4B1C
100
AcDbXrecord
1000
DSTYLE
1002
{
1070
    79
 70
     2
1070
   341
340
59
1070
   342
340
59
1070
   371
 70
    -1
1070
   372
 70
    -1
1002
}
  0
XRECORD
  5
4B2B
102
{ACAD_REACTORS
330
4B1C
102
}
330
4B1C
100
AcDbXrecord
340
0
  0
XRECORD
  5
4B2C
102
{ACAD_REACTORS
330
4B1C
102
}
330
4B1C
100
AcDbXrecord
 70
     0
  0
XRECORD
  5
4B2D
102
{ACAD_REACTORS
330
4B1C
102
}
330
4B1C
100
AcDbXrecord
340
0
  0
XRECORD
  5
4B2E
102
{ACAD_REACTORS
330
4B1C
102
}
330
4B1C
100
AcDbXrecord
 10
0.0
 20
0.0
 30
0.0
  0
XRECORD
  5
4B2F
102
{ACAD_REACTORS
330
4B1C
102
}
330
4B1C
100
AcDbXrecord
 10
0.0
 20
0.0
 30
0.0
  0
XRECORD
  5
4B30
102
{ACAD_REACTORS
330
4B1C
102
}
330
4B1C
100
AcDbXrecord
 10
0.0
 20
0.0
 30
0.0
  0
XRECORD
  5
4B31
102
{ACAD_REACTORS
330
4B1C
102
}
330
4B1C
100
AcDbXrecord
 10
0.0
 20
0.0
 30
0.0
  0
XRECORD
  5
4B32
102
{ACAD_REACTORS
330
4B1C
102
}
330
4B1C
100
AcDbXrecord
 10
0.0
 20
0.0
 30
0.0
  0
XRECORD
  5
4B33
102
{ACAD_REACTORS
330
4B1C
102
}
330
4B1C
100
AcDbXrecord
 10
0.0
 20
0.0
 30
0.0
  0
XRECORD
  5
4B34
102
{ACAD_REACTORS
330
4B1C
102
}
330
4B1C
100
AcDbXrecord
340
0
  0
XRECORD
  5
4B35
102
{ACAD_REACTORS
330
4B1C
102
}
330
4B1C
100
AcDbXrecord
 70
     0
  0
XRECORD
  5
4B36
102
{ACAD_REACTORS
330
4B1C
102
}
330
4B1C
100
AcDbXrecord
340
0
  0
XRECORD
  5
4B37
102
{ACAD_REACTORS
330
4B1C
102
}
330
4B1C
100
AcDbXrecord
 10
0.0
 20
0.0
 30
0.0
  0
XRECORD
  5
4B38
102
{ACAD_REACTORS
330
4B1C
102
}
330
4B1C
100
AcDbXrecord
 10
0.0
 20
0.0
 30
0.0
  0
XRECORD
  5
4B39
102
{ACAD_REACTORS
330
4B1C
102
}
330
4B1C
100
AcDbXrecord
 10
0.0
 20
0.0
 30
0.0
  0
XRECORD
  5
4B3A
102
{ACAD_REACTORS
330
4B1C
102
}
330
4B1C
100
AcDbXrecord
 10
0.0
 20
0.0
 30
0.0
  0
XRECORD
  5
4B3B
102
{ACAD_REACTORS
330
4B1C
102
}
330
4B1C
100
AcDbXrecord
 10
0.0
 20
0.0
 30
0.0
  0
XRECORD
  5
4B3C
102
{ACAD_REACTORS
330
4B1C
102
}
330
4B1C
100
AcDbXrecord
 10
0.0
 20
0.0
 30
0.0
  0
LAYER_INDEX
  5
4B13
102
{ACAD_REACTORS
330
4B12
102
}
330
4B12
100
AcDbIndex
 40
2453151.85977963
100
AcDbLayerIndex
  8
0
360
4B14
 90
        0
  8
AM_0
360
4B15
 90
       32
  8
AM_11
360
4B16
 90
        4
  8
AM_7
360
4B17
 90
        1
  8
AM_5
360
4B18
 90
        5
  8
Defpoints
360
4B19
 90
        0
  8
AM_6
360
4B1A
 90
        1
  0
XRECORD
  5
2D
102
{ACAD_REACTORS
330
2C
102
}
330
2C
100
AcDbXrecord
  1
VERSION
140
15.0
  1
PRODUCT
  2
AutoCAD Mechanical 2000
  0
IDBUFFER
  5
4B14
330
0
100
AcDbIdBuffer
  0
IDBUFFER
  5
4B15
330
0
100
AcDbIdBuffer
330
4741
330
4742
330
4745
330
4748
330
4757
330
475A
330
475C
330
475D
330
475E
330
475F
330
4761
330
4762
330
4763
330
4764
330
4765
330
4766
330
45F3
330
45F6
330
45F7
330
4607
330
4615
330
4618
330
4737
330
4738
330
4739
330
473A
330
473B
330
473C
330
473D
330
473E
330
473F
330
4740
  0
IDBUFFER
  5
4B16
330
0
100
AcDbIdBuffer
330
4743
330
4744
330
4747
330
4760
  0
IDBUFFER
  5
4B17
330
0
100
AcDbIdBuffer
330
3EE8
  0
IDBUFFER
  5
4B18
330
0
100
AcDbIdBuffer
330
4047
330
412A
330
45F8
330
4758
330
4759
  0
IDBUFFER
  5
4B19
330
0
100
AcDbIdBuffer
  0
IDBUFFER
  5
4B1A
330
0
100
AcDbIdBuffer
330
1500
  0
ENDSEC
  0
EOF
