  0
SECTION
  2
HEADER
  9
$ACADVER
  1
AC1014
  9
$ACADMAINTVER
 70
     9
  9
$DWGCODEPAGE
  3
ANSI_932
  9
$INSBASE
 10
0.0
 20
0.0
 30
0.0
  9
$EXTMIN
 10
-140.7561951299595
 20
-56.5000009999999
 30
-0.00000001
  9
$EXTMAX
 10
16.34162794056475
 20
7.999999999999934
 30
0.00000001
  9
$LIMMIN
 10
-146.0294989151178
 20
-77.89172813147951
  9
$LIMMAX
 10
22.70505047074311
 20
33.88226471855472
  9
$ORTHOMODE
 70
     0
  9
$REGENMODE
 70
     1
  9
$FILLMODE
 70
     1
  9
$QTEXTMODE
 70
     0
  9
$MIRRTEXT
 70
     0
  9
$DRAGMODE
 70
     2
  9
$LTSCALE
 40
1.0
  9
$OSMODE
 70
    55
  9
$ATTMODE
 70
     1
  9
$TEXTSIZE
 40
2.5
  9
$TRACEWID
 40
1.0
  9
$TEXTSTYLE
  7
STANDARD
  9
$CLAYER
  8
AM_0
  9
$CELTYPE
  6
BYLAYER
  9
$CECOLOR
 62
   256
  9
$CELTSCALE
 40
1.0
  9
$DELOBJ
 70
     1
  9
$DISPSILH
 70
     0
  9
$DIMSCALE
 40
1.0
  9
$DIMASZ
 40
2.5
  9
$DIMEXO
 40
1.0
  9
$DIMDLI
 40
12.0
  9
$DIMRND
 40
0.0
  9
$DIMDLE
 40
0.0
  9
$DIMEXE
 40
1.0
  9
$DIMTP
 40
0.1
  9
$DIMTM
 40
0.1
  9
$DIMTXT
 40
3.2
  9
$DIMCEN
 40
0.0
  9
$DIMTSZ
 40
0.0
  9
$DIMTOL
 70
     0
  9
$DIMLIM
 70
     0
  9
$DIMTIH
 70
     0
  9
$DIMTOH
 70
     0
  9
$DIMSE1
 70
     0
  9
$DIMSE2
 70
     0
  9
$DIMTAD
 70
     3
  9
$DIMZIN
 70
     8
  9
$DIMBLK
  1
OPEN30
  9
$DIMASO
 70
     1
  9
$DIMSHO
 70
     1
  9
$DIMPOST
  1

  9
$DIMAPOST
  1
"
  9
$DIMALT
 70
     0
  9
$DIMALTD
 70
     2
  9
$DIMALTF
 40
0.0393701
  9
$DIMLFAC
 40
1.0
  9
$DIMTOFL
 70
     1
  9
$DIMTVP
 40
0.0
  9
$DIMTIX
 70
     0
  9
$DIMSOXD
 70
     0
  9
$DIMSAH
 70
     0
  9
$DIMBLK1
  1

  9
$DIMBLK2
  1

  9
$DIMSTYLE
  2
AM_JIS
  9
$DIMCLRD
 70
   256
  9
$DIMCLRE
 70
   256
  9
$DIMCLRT
 70
     2
  9
$DIMTFAC
 40
0.71
  9
$DIMGAP
 40
1.5
  9
$DIMJUST
 70
     0
  9
$DIMSD1
 70
     0
  9
$DIMSD2
 70
     0
  9
$DIMTOLJ
 70
     0
  9
$DIMTZIN
 70
     0
  9
$DIMALTZ
 70
     0
  9
$DIMALTTZ
 70
     0
  9
$DIMFIT
 70
     3
  9
$DIMUPT
 70
     0
  9
$DIMUNIT
 70
     2
  9
$DIMDEC
 70
     3
  9
$DIMTDEC
 70
     3
  9
$DIMALTU
 70
     2
  9
$DIMALTTD
 70
     2
  9
$DIMTXSTY
  7
ASAMI
  9
$DIMAUNIT
 70
     0
  9
$LUNITS
 70
     2
  9
$LUPREC
 70
     2
  9
$SKETCHINC
 40
1.0
  9
$FILLETRAD
 40
2.5
  9
$AUNITS
 70
     0
  9
$AUPREC
 70
     0
  9
$MENU
  1
.
  9
$ELEVATION
 40
0.0
  9
$PELEVATION
 40
0.0
  9
$THICKNESS
 40
0.0
  9
$LIMCHECK
 70
     0
  9
$BLIPMODE
 70
     0
  9
$CHAMFERA
 40
1.0
  9
$CHAMFERB
 40
1.0
  9
$CHAMFERC
 40
20.0
  9
$CHAMFERD
 40
0.0
  9
$SKPOLY
 70
     0
  9
$TDCREATE
 40
2452838.430434386
  9
$TDUPDATE
 40
2453151.856510405
  9
$TDINDWG
 40
0.1726983681
  9
$TDUSRTIMER
 40
0.1726983681
  9
$USRTIMER
 70
     1
  9
$ANGBASE
 50
0.0
  9
$ANGDIR
 70
     0
  9
$PDMODE
 70
     0
  9
$PDSIZE
 40
0.0
  9
$PLINEWID
 40
0.0
  9
$COORDS
 70
     1
  9
$SPLFRAME
 70
     0
  9
$SPLINETYPE
 70
     6
  9
$SPLINESEGS
 70
     8
  9
$ATTDIA
 70
     1
  9
$ATTREQ
 70
     1
  9
$HANDLING
 70
 12289
  9
$HANDSEED
  5
4D7D
  9
$SURFTAB1
 70
     6
  9
$SURFTAB2
 70
     6
  9
$SURFTYPE
 70
     6
  9
$SURFU
 70
     6
  9
$SURFV
 70
     6
  9
$UCSNAME
  2

  9
$UCSORG
 10
0.0
 20
0.0
 30
0.0
  9
$UCSXDIR
 10
1.0
 20
0.0
 30
0.0
  9
$UCSYDIR
 10
0.0
 20
1.0
 30
0.0
  9
$PUCSNAME
  2

  9
$PUCSORG
 10
0.0
 20
0.0
 30
0.0
  9
$PUCSXDIR
 10
1.0
 20
0.0
 30
0.0
  9
$PUCSYDIR
 10
0.0
 20
1.0
 30
0.0
  9
$USERI1
 70
     0
  9
$USERI2
 70
     0
  9
$USERI3
 70
     0
  9
$USERI4
 70
     0
  9
$USERI5
 70
     0
  9
$USERR1
 40
0.0
  9
$USERR2
 40
0.0
  9
$USERR3
 40
0.0
  9
$USERR4
 40
0.0
  9
$USERR5
 40
0.0
  9
$WORLDVIEW
 70
     1
  9
$SHADEDGE
 70
     3
  9
$SHADEDIF
 70
    70
  9
$TILEMODE
 70
     1
  9
$MAXACTVP
 70
    64
  9
$PINSBASE
 10
0.0
 20
0.0
 30
0.0
  9
$PLIMCHECK
 70
     0
  9
$PEXTMIN
 10
1.000000000000000E+20
 20
1.000000000000000E+20
 30
1.000000000000000E+20
  9
$PEXTMAX
 10
-1.000000000000000E+20
 20
-1.000000000000000E+20
 30
-1.000000000000000E+20
  9
$PLIMMIN
 10
0.0
 20
0.0
  9
$PLIMMAX
 10
841.0
 20
594.0
  9
$UNITMODE
 70
     0
  9
$VISRETAIN
 70
     1
  9
$PLINEGEN
 70
     0
  9
$PSLTSCALE
 70
     0
  9
$TREEDEPTH
 70
  3020
  9
$PICKSTYLE
 70
     0
  9
$CMLSTYLE
  2
STANDARD
  9
$CMLJUST
 70
     0
  9
$CMLSCALE
 40
20.0
  9
$PROXYGRAPHICS
 70
     1
  9
$MEASUREMENT
 70
     1
  0
ENDSEC
  0
SECTION
  2
CLASSES
  0
CLASS
  1
ACDBDICTIONARYWDFLT
  2
AcDbDictionaryWithDefault
  3
AutoCAD 2000
 90
        0
280
     0
281
     0
  0
CLASS
  1
ACDBPLACEHOLDER
  2
AcDbPlaceHolder
  3
AutoCAD 2000
 90
        0
280
     0
281
     0
  0
CLASS
  1
LAYOUT
  2
AcDbLayout
  3
AutoCAD 2000
 90
        0
280
     0
281
     0
  0
CLASS
  1
AMGSETTINGSOBJ
  2
AmgSettingsObj
  3
"AcadM|Product Description: AutoCAD Mechanical 2000|Company: Autodesk"
 90
        0
280
     0
281
     0
  0
CLASS
  1
ACME_DOCUMENT
  2
AcMeDbDoc
  3
AcMeServices
 90
        0
280
     0
281
     0
  0
CLASS
  1
ACMESCOPE
  2
AcMeScope
  3
AcMeServices
 90
        0
280
     0
281
     0
  0
CLASS
  1
ACMECOMMANDHISTORY
  2
AcMeCommandHistory
  3
AcMeServices
 90
        0
280
     0
281
     0
  0
CLASS
  1
DICTIONARYVAR
  2
AcDbDictionaryVar
  3
AutoCAD 2000
 90
        0
280
     0
281
     0
  0
CLASS
  1
ACIMSYSVARMAN
  2
AcImSysVarManager
  3
AcMeServices
 90
        0
280
     0
281
     0
  0
CLASS
  1
ACIMREALSYSVAR
  2
AcImRealSysVar
  3
AcMeServices
 90
        0
280
     0
281
     0
  0
CLASS
  1
ACIMINTSYSVAR
  2
AcImIntSysVar
  3
AcMeServices
 90
        0
280
     0
281
     0
  0
CLASS
  1
ACMEDRAWINGMAN
  2
AcMeDrawingMan
  3
AcMeServices
 90
        0
280
     0
281
     0
  0
CLASS
  1
ACMEVIEW
  2
AcMeView
  3
AcMeServices
 90
        0
280
     0
281
     0
  0
CLASS
  1
ACDBENTITYCACHE
  2
AcMeEntityCache
  3
AcMeServices
 90
        0
280
     0
281
     0
  0
CLASS
  1
GSMANAGER
  2
AcMeGSManager
  3
AcMeServices
 90
        0
280
     0
281
     0
  0
CLASS
  1
AmdtInternalReactor
  2
AmdtInternalReactor
  3
AcMeServices
 90
        0
280
     0
281
     0
  0
CLASS
  1
ACMESTATEMGR
  2
AcMeStateMgr
  3
AcMeServices
 90
        0
280
     0
281
     0
  0
CLASS
  1
ACME_DATABASE
  2
AcMeDbDatabase
  3
AcMeServices
 90
        0
280
     0
281
     0
  0
CLASS
  1
ACRFINSADJUSTERMGR
  2
AcRfInsAdjusterMgr
  3
AcMeServices
 90
        0
280
     0
281
     0
  0
CLASS
  1
ACMDATADICTIONARY
  2
AcmDataDictionary
  3
"AcmSymBB|Product Description: AutoCAD Mechanical 2000|Company: Autodesk"
 90
        0
280
     0
281
     0
  0
CLASS
  1
ACMDATAENTRYBLOCK
  2
AcmDataEntryBlock
  3
"AcmSymBB|Product Description: AutoCAD Mechanical 2000|Company: Autodesk"
 90
        0
280
     0
281
     0
  0
CLASS
  1
AMGOBJPROPCFG
  2
AmgObjPropCfg
  3
"AmgLay|Product Description: AutoCAD Mechanical 2000|Company: Autodesk"
 90
        1
280
     0
281
     0
  0
CLASS
  1
ACAMGFILTERDAT
  2
AcAmgFilterDat
  3
"AcadM|Product Description: AutoCAD Mechanical 2000|Company: Autodesk"
 90
        0
280
     0
281
     0
  0
CLASS
  1
LAYER_INDEX
  2
AcDbLayerIndex
  3
AutoCAD 2000
 90
        0
280
     0
281
     0
  0
CLASS
  1
IDBUFFER
  2
AcDbIdBuffer
  3
AutoCAD 2000
 90
        0
280
     0
281
     0
  0
CLASS
  1
ACIMSTRSYSVAR
  2
AcImStrSysVar
  3
AcMeServices
 90
        0
280
     0
281
     0
  0
CLASS
  1
ACMSTANDARDJIS
  2
AcmStandardJIS
  3
"AcmSymBB|Product Description: AutoCAD Mechanical 2000|Company: Autodesk"
 90
        0
280
     0
281
     0
  0
CLASS
  1
ACMSURFSTANDARDJIS
  2
AcmSurfTextStdJIS
  3
"AcmSymBB|Product Description: AutoCAD Mechanical 2000|Company: Autodesk"
 90
        0
280
     0
281
     0
  0
CLASS
  1
ACMFCFSTANDARDJIS
  2
AcmFCFStdJIS
  3
"AcmSymBB|Product Description: AutoCAD Mechanical 2000|Company: Autodesk"
 90
        0
280
     0
281
     0
  0
CLASS
  1
ACMWELDSTANDARDJIS
  2
AcmWeldingStdJIS
  3
"AcmSymBB|Product Description: AutoCAD Mechanical 2000|Company: Autodesk"
 90
        0
280
     0
281
     0
  0
CLASS
  1
ACMIDSTANDARDJIS
  2
AcmIdStdJIS
  3
"AcmSymBB|Product Description: AutoCAD Mechanical 2000|Company: Autodesk"
 90
        0
280
     0
281
     0
  0
CLASS
  1
ACMDATUMSTANDARDJIS
  2
AcmDatumStdJIS
  3
"AcmSymBB|Product Description: AutoCAD Mechanical 2000|Company: Autodesk"
 90
        0
280
     0
281
     0
  0
CLASS
  1
ACMBOMSTANDARDJIS
  2
AcmBOMStdJIS
  3
"AcmSymBB|Product Description: AutoCAD Mechanical 2000|Company: Autodesk"
 90
        0
280
     0
281
     0
  0
CLASS
  1
ACMSTANDARDANSI
  2
AcmStandardANSI
  3
"AcmSymBB|Product Description: AutoCAD Mechanical 2000|Company: Autodesk"
 90
        0
280
     0
281
     0
  0
CLASS
  1
ACMSURFSTANDARDANSI
  2
AcmSurfTextStdANSI
  3
"AcmSymBB|Product Description: AutoCAD Mechanical 2000|Company: Autodesk"
 90
        0
280
     0
281
     0
  0
CLASS
  1
ACMFCFSTANDARDANSI
  2
AcmFCFStdANSI
  3
"AcmSymBB|Product Description: AutoCAD Mechanical 2000|Company: Autodesk"
 90
        0
280
     0
281
     0
  0
CLASS
  1
ACMWELDSTANDARDANSI
  2
AcmWeldingStdANSI
  3
"AcmSymBB|Product Description: AutoCAD Mechanical 2000|Company: Autodesk"
 90
        0
280
     0
281
     0
  0
CLASS
  1
ACMIDSTANDARDANSI
  2
AcmIdStdANSI
  3
"AcmSymBB|Product Description: AutoCAD Mechanical 2000|Company: Autodesk"
 90
        0
280
     0
281
     0
  0
CLASS
  1
ACMDATUMSTANDARDANSI
  2
AcmDatumStdANSI
  3
"AcmSymBB|Product Description: AutoCAD Mechanical 2000|Company: Autodesk"
 90
        0
280
     0
281
     0
  0
CLASS
  1
ACMBOMSTANDARDANSI
  2
AcmBOMStdANSI
  3
"AcmSymBB|Product Description: AutoCAD Mechanical 2000|Company: Autodesk"
 90
        0
280
     0
281
     0
  0
CLASS
  1
ACMSTANDARDBSI
  2
AcmStandardBSI
  3
"AcmSymBB|Product Description: AutoCAD Mechanical 2000|Company: Autodesk"
 90
        0
280
     0
281
     0
  0
CLASS
  1
ACMSURFSTANDARDBSI
  2
AcmSurfTextStdBSI
  3
"AcmSymBB|Product Description: AutoCAD Mechanical 2000|Company: Autodesk"
 90
        0
280
     0
281
     0
  0
CLASS
  1
ACMFCFSTANDARDBSI
  2
AcmFCFStdBSI
  3
"AcmSymBB|Product Description: AutoCAD Mechanical 2000|Company: Autodesk"
 90
        0
280
     0
281
     0
  0
CLASS
  1
ACMWELDSTANDARDBSI
  2
AcmWeldingStdBSI
  3
"AcmSymBB|Product Description: AutoCAD Mechanical 2000|Company: Autodesk"
 90
        0
280
     0
281
     0
  0
CLASS
  1
ACMIDSTANDARDBSI
  2
AcmIdStdBSI
  3
"AcmSymBB|Product Description: AutoCAD Mechanical 2000|Company: Autodesk"
 90
        0
280
     0
281
     0
  0
CLASS
  1
ACMDATUMSTANDARDBSI
  2
AcmDatumStdBSI
  3
"AcmSymBB|Product Description: AutoCAD Mechanical 2000|Company: Autodesk"
 90
        0
280
     0
281
     0
  0
CLASS
  1
ACMBOMSTANDARDBSI
  2
AcmBOMStdBSI
  3
"AcmSymBB|Product Description: AutoCAD Mechanical 2000|Company: Autodesk"
 90
        0
280
     0
281
     0
  0
CLASS
  1
LONG_TRANSACTION
  2
AcDbLongTransaction
  3
AutoCAD 2000
 90
        0
280
     0
281
     0
  0
CLASS
  1
LWPOLYLINE
  2
AcDbPolyline
  3
AutoCAD 2000
 90
        0
280
     0
281
     1
  0
CLASS
  1
HATCH
  2
AcDbHatch
  3
AutoCAD 2000
 90
        0
280
     0
281
     1
  0
CLASS
  1
XRECORD
  2
AcDbXrecord
  3
AutoCAD 2000
 90
        0
280
     0
281
     0
  0
ENDSEC
  0
SECTION
  2
TABLES
  0
TABLE
  2
VPORT
  5
8
330
0
100
AcDbSymbolTable
 70
     3
  0
VPORT
  5
4D4C
330
8
100
AcDbSymbolTableRecord
100
AcDbViewportTableRecord
  2
*ACTIVE
 70
     0
 10
0.0
 20
0.0
 11
1.0
 21
1.0
 12
-49.5313523247204
 22
-24.25177483842039
 13
0.0
 23
0.0
 14
2.5
 24
2.5
 15
10.0
 25
10.0
 16
0.0
 26
0.0
 36
1.0
 17
0.0
 27
0.0
 37
0.0
 40
117.0097319542161
 41
1.56570841889117
 42
50.0
 43
0.0
 44
0.0
 50
0.0
 51
0.0
 71
     0
 72
   100
 73
     1
 74
     3
 75
     0
 76
     0
 77
     0
 78
     0
  0
ENDTAB
  0
TABLE
  2
LTYPE
  5
5
330
0
100
AcDbSymbolTable
 70
    10
  0
LTYPE
  5
14
330
5
100
AcDbSymbolTableRecord
100
AcDbLinetypeTableRecord
  2
BYBLOCK
 70
     0
  3

 72
    65
 73
     0
 40
0.0
  0
LTYPE
  5
15
330
5
100
AcDbSymbolTableRecord
100
AcDbLinetypeTableRecord
  2
BYLAYER
 70
     0
  3

 72
    65
 73
     0
 40
0.0
  0
LTYPE
  5
16
330
5
100
AcDbSymbolTableRecord
100
AcDbLinetypeTableRecord
  2
CONTINUOUS
 70
     0
  3
Solid line
 72
    65
 73
     0
 40
0.0
  0
LTYPE
  5
4B
330
5
100
AcDbSymbolTableRecord
100
AcDbLinetypeTableRecord
  2
AM_ISO02W050
 70
     0
  3
__ __ __ __ __ __ __ __ __ __ __ __ __ __ __
 72
    65
 73
     2
 40
7.5
 49
6.0
 74
     0
 49
-1.5
 74
     0
  0
LTYPE
  5
4C
330
5
100
AcDbSymbolTableRecord
100
AcDbLinetypeTableRecord
  2
AM_ISO08W050
 70
     0
  3
____ . ____ . ____ . ____ . ____ . ____ . ____
 72
    65
 73
     4
 40
18.0
 49
12.0
 74
     0
 49
-1.5
 74
     0
 49
3.0
 74
     0
 49
-1.5
 74
     0
  0
LTYPE
  5
4D
330
5
100
AcDbSymbolTableRecord
100
AcDbLinetypeTableRecord
  2
AM_ISO09W050
 70
     0
  3
_____ . . _____ . . _____ . . ____ .. ____
 72
    65
 73
     6
 40
22.5
 49
12.0
 74
     0
 49
-1.5
 74
     0
 49
3.0
 74
     0
 49
-1.5
 74
     0
 49
3.0
 74
     0
 49
-1.5
 74
     0
  0
LTYPE
  5
4E
330
5
100
AcDbSymbolTableRecord
100
AcDbLinetypeTableRecord
  2
AMCONSTR
 70
     0
  3
_______________________
 72
    65
 73
     2
 40
9999.0
 49
9999.0
 74
     0
 49
0.0
 74
     0
  0
LTYPE
  5
4F
330
5
100
AcDbSymbolTableRecord
100
AcDbLinetypeTableRecord
  2
AM_ISO02W050X2
 70
     0
  3
 _ _ _ _ _ _ _ _ _ _ _ _
 72
    65
 73
     2
 40
3.75
 49
3.0
 74
     0
 49
-0.75
 74
     0
  0
LTYPE
  5
50
330
5
100
AcDbSymbolTableRecord
100
AcDbLinetypeTableRecord
  2
AM_ISO08W050X2
 70
     0
  3
__ . __ . __ . __ . __ . __
 72
    65
 73
     4
 40
9.0
 49
6.0
 74
     0
 49
-0.75
 74
     0
 49
1.5
 74
     0
 49
-0.75
 74
     0
  0
LTYPE
  5
53
330
5
100
AcDbSymbolTableRecord
100
AcDbLinetypeTableRecord
  2
AMZIGZAG
 70
     0
  3
/\/-/\/-/\/-/\/-/\/-/\/
 72
    65
 73
     2
 40
11.00009999999999
 49
0.0001
 74
     4
 75
   135
340
52
 46
0.04
 50
0.0
 44
0.0
 45
0.0
 49
-11.0
 74
     0
  0
LTYPE
  5
166
330
5
100
AcDbSymbolTableRecord
100
AcDbLinetypeTableRecord
  2
ACJISTGL
 70
     0
  3
_ _ _ _ _
 72
    65
 73
     2
 40
3.0
 49
2.0
 74
     0
 49
-1.0
 74
     0
  0
LTYPE
  5
26A
330
5
100
AcDbSymbolTableRecord
100
AcDbLinetypeTableRecord
  2
ACJISTGB
 70
     0
  3
__ . . __ . .
 72
    65
 73
     6
 40
9.0
 49
4.0
 74
     0
 49
-1.0
 74
     0
 49
1.0
 74
     0
 49
-1.0
 74
     0
 49
1.0
 74
     0
 49
-1.0
 74
     0
  0
ENDTAB
  0
TABLE
  2
LAYER
  5
2
330
0
100
AcDbSymbolTable
 70
     7
  0
LAYER
  5
10
330
2
100
AcDbSymbolTableRecord
100
AcDbLayerTableRecord
  2
0
 70
     0
 62
     7
  6
CONTINUOUS
  0
LAYER
  5
3F9
330
2
100
AcDbSymbolTableRecord
100
AcDbLayerTableRecord
  2
AM_0
 70
     0
 62
     7
  6
CONTINUOUS
  0
LAYER
  5
BDD
330
2
100
AcDbSymbolTableRecord
100
AcDbLayerTableRecord
  2
AM_11
 70
     0
 62
     3
  6
AM_ISO09W050
  0
LAYER
  5
BDE
330
2
100
AcDbSymbolTableRecord
100
AcDbLayerTableRecord
  2
AM_7
 70
     0
 62
     4
  6
AM_ISO08W050
  0
LAYER
  5
BDF
330
2
100
AcDbSymbolTableRecord
100
AcDbLayerTableRecord
  2
AM_5
 70
     0
 62
     3
  6
CONTINUOUS
  0
LAYER
  5
BE0
330
2
100
AcDbSymbolTableRecord
100
AcDbLayerTableRecord
  2
DEFPOINTS
 70
     0
 62
     7
  6
CONTINUOUS
  0
LAYER
  5
14FF
330
2
100
AcDbSymbolTableRecord
100
AcDbLayerTableRecord
  2
AM_6
 70
     0
 62
     2
  6
CONTINUOUS
  0
ENDTAB
  0
TABLE
  2
STYLE
  5
3
330
0
100
AcDbSymbolTable
 70
     5
  0
STYLE
  5
11
330
3
100
AcDbSymbolTableRecord
100
AcDbTextStyleTableRecord
  2
STANDARD
 70
     0
 40
0.0
 41
1.0
 50
0.0
 71
     0
 42
2.5
  3
simplex.shx
  4
EXTFONT.SHX
  0
STYLE
  5
52
330
3
100
AcDbSymbolTableRecord
100
AcDbTextStyleTableRecord
  2

 70
     1
 40
0.0
 41
1.0
 50
0.0
 71
     0
 42
2.5
  3
ltypeshp.shx
  4

  0
STYLE
  5
6B
330
3
100
AcDbSymbolTableRecord
100
AcDbTextStyleTableRecord
  2
ASAMI
 70
     0
 40
0.0
 41
1.0
 50
0.0
 71
     0
 42
2.5
  3
simplex.shx
  4
EXTFONT.SHX
  0
STYLE
  5
262
330
3
100
AcDbSymbolTableRecord
100
AcDbTextStyleTableRecord
  2
ACJISTS
 70
     0
 40
1.0
 41
1.0
 50
0.0
 71
     0
 42
2.5
  3
simplex.shx
  4
bigfont.shx
  0
STYLE
  5
269
330
3
100
AcDbSymbolTableRecord
100
AcDbTextStyleTableRecord
  2
ACJISGDT
 70
     0
 40
0.0
 41
1.0
 50
0.0
 71
     0
 42
2.5
  3
amgdtans.shx
  4

  0
ENDTAB
  0
TABLE
  2
VIEW
  5
6
330
0
100
AcDbSymbolTable
 70
     0
  0
ENDTAB
  0
TABLE
  2
UCS
  5
7
330
0
100
AcDbSymbolTable
 70
     0
  0
ENDTAB
  0
TABLE
  2
APPID
  5
9
330
0
100
AcDbSymbolTable
 70
    14
  0
APPID
  5
12
330
9
100
AcDbSymbolTableRecord
100
AcDbRegAppTableRecord
  2
ACAD
 70
     0
  0
APPID
  5
30
330
9
100
AcDbSymbolTableRecord
100
AcDbRegAppTableRecord
  2
MCAD_NO_VIS
 70
     0
  0
APPID
  5
31
330
9
100
AcDbSymbolTableRecord
100
AcDbRegAppTableRecord
  2
ACAD_TEMP_GRAPHIC
 70
     0
  0
APPID
  5
2C2
330
9
100
AcDbSymbolTableRecord
100
AcDbRegAppTableRecord
  2
GENIUS_GENDTOL_13
 70
     0
  0
APPID
  5
339
330
9
100
AcDbSymbolTableRecord
100
AcDbRegAppTableRecord
  2
GENIUS_GENODEF_13
 70
     0
  0
APPID
  5
33A
330
9
100
AcDbSymbolTableRecord
100
AcDbRegAppTableRecord
  2
GENIUS_GENOBJ-N-RSBK_13
 70
     0
  0
APPID
  5
33B
330
9
100
AcDbSymbolTableRecord
100
AcDbRegAppTableRecord
  2
GENIUS_GENOBJ-N-LIB_13
 70
     0
  0
APPID
  5
33C
330
9
100
AcDbSymbolTableRecord
100
AcDbRegAppTableRecord
  2
GENIUS_GENSCALE_13
 70
     0
  0
APPID
  5
378
330
9
100
AcDbSymbolTableRecord
100
AcDbRegAppTableRecord
  2
GENIUS_GENDIMSH_14
 70
     0
  0
APPID
  5
BE1
330
9
100
AcDbSymbolTableRecord
100
AcDbRegAppTableRecord
  2
GENIUS_GENFIL_13
 70
     0
  0
APPID
  5
BE2
330
9
100
AcDbSymbolTableRecord
100
AcDbRegAppTableRecord
  2
GENIUS_GENOBJ-N-CHA_13
 70
     0
  0
APPID
  5
151B
330
9
100
AcDbSymbolTableRecord
100
AcDbRegAppTableRecord
  2
DCO15
 70
     0
  0
APPID
  5
1860
330
9
100
AcDbSymbolTableRecord
100
AcDbRegAppTableRecord
  2
GENIUS_GENOBJ-N-CEN_13
 70
     0
  0
APPID
  5
359C
330
9
100
AcDbSymbolTableRecord
100
AcDbRegAppTableRecord
  2
GENIUS_GENOBJ-N-FIL_13
 70
     0
  0
ENDTAB
  0
TABLE
  2
DIMSTYLE
  5
A
330
0
100
AcDbSymbolTable
 70
     8
  0
DIMSTYLE
105
58
102
{ACAD_REACTORS
330
4047
330
412A
330
42F4
330
454D
102
}
330
A
100
AcDbSymbolTableRecord
100
AcDbDimStyleTableRecord
  2
AM_JIS
 70
     0
  3

  4
"
  5
OPEN30
  6

  7

 40
1.0
 41
2.5
 42
1.0
 43
12.0
 44
1.0
 45
0.0
 46
0.0
 47
0.1
 48
0.1
140
3.2
141
0.0
142
0.0
143
0.0393701
144
1.0
145
0.0
146
0.71
147
1.5
 71
     0
 72
     0
 73
     0
 74
     0
 75
     0
 76
     0
 77
     3
 78
     8
170
     0
171
     2
172
     1
173
     0
174
     0
175
     0
176
   256
177
   256
178
     2
270
     2
271
     3
272
     3
273
     2
274
     2
340
6B
275
     0
280
     0
281
     0
282
     0
283
     0
284
     0
285
     0
286
     0
287
     3
288
     0
  0
DIMSTYLE
105
5F
330
A
100
AcDbSymbolTableRecord
100
AcDbDimStyleTableRecord
  2
AM_JIS$3
 70
     0
  3

  4
"
  5
OPEN30
  6

  7

 40
1.0
 41
2.5
 42
1.0
 43
10.0
 44
1.0
 45
0.0
 46
0.0
 47
0.1
 48
0.1
140
3.2
141
0.0
142
0.0
143
0.0393701
144
1.0
145
0.0
146
0.71
147
1.5
 71
     0
 72
     0
 73
     0
 74
     1
 75
     0
 76
     0
 77
     3
 78
     8
170
     0
171
     2
172
     0
173
     0
174
     0
175
     0
176
   256
177
   256
178
     2
270
     2
271
     2
272
     3
273
     2
274
     2
340
6B
275
     0
280
     0
281
     0
282
     0
283
     0
284
     0
285
     0
286
     0
287
     0
288
     1
  0
DIMSTYLE
105
60
102
{ACAD_REACTORS
330
4C65
102
}
330
A
100
AcDbSymbolTableRecord
100
AcDbDimStyleTableRecord
  2
AM_JIS$4
 70
     0
  3

  4
"
  5
OPEN30
  6

  7

 40
1.0
 41
2.5
 42
1.0
 43
10.0
 44
1.0
 45
0.0
 46
0.0
 47
0.1
 48
0.1
140
3.2
141
0.0
142
0.0
143
0.0393701
144
1.0
145
0.0
146
0.71
147
1.5
 71
     0
 72
     0
 73
     0
 74
     1
 75
     0
 76
     0
 77
     3
 78
     8
170
     0
171
     2
172
     0
173
     0
174
     0
175
     0
176
   256
177
   256
178
     2
270
     2
271
     2
272
     3
273
     2
274
     2
340
6B
275
     0
280
     0
281
     0
282
     0
283
     0
284
     0
285
     0
286
     0
287
     0
288
     1
  0
DIMSTYLE
105
61
330
A
100
AcDbSymbolTableRecord
100
AcDbDimStyleTableRecord
  2
AM_JIS$6
 70
     0
  3

  4
"
  5
OPEN30
  6

  7

 40
1.0
 41
2.5
 42
1.0
 43
10.0
 44
1.0
 45
0.0
 46
0.0
 47
0.1
 48
0.1
140
3.2
141
0.0
142
0.0
143
0.0393701
144
1.0
145
0.0
146
0.71
147
1.5
 71
     0
 72
     0
 73
     0
 74
     0
 75
     0
 76
     0
 77
     0
 78
     8
170
     0
171
     2
172
     1
173
     0
174
     0
175
     0
176
   256
177
   256
178
     2
270
     2
271
     2
272
     2
273
     2
274
     2
340
6B
275
     0
280
     0
281
     0
282
     0
283
     0
284
     0
285
     0
286
     0
287
     3
288
     0
  0
DIMSTYLE
105
62
330
A
100
AcDbSymbolTableRecord
100
AcDbDimStyleTableRecord
  2
AM_JIS$7
 70
     0
  3

  4
"
  5
OPEN30
  6

  7

 40
1.0
 41
2.5
 42
1.0
 43
10.0
 44
1.0
 45
0.0
 46
0.0
 47
0.1
 48
0.1
140
3.2
141
0.0
142
0.0
143
0.0393701
144
1.0
145
0.0
146
0.71
147
1.5
 71
     0
 72
     0
 73
     0
 74
     0
 75
     0
 76
     0
 77
     3
 78
     8
170
     0
171
     2
172
     1
173
     0
174
     0
175
     0
176
   256
177
   256
178
     2
270
     2
271
     2
272
     3
273
     2
274
     2
340
6B
275
     0
280
     0
281
     0
282
     0
283
     0
284
     0
285
     0
286
     0
287
     3
288
     0
  0
DIMSTYLE
105
63
330
A
100
AcDbSymbolTableRecord
100
AcDbDimStyleTableRecord
  2
AM_JIS$SF
 70
     0
  3

  4
"
  5
OPEN30
  6

  7

 40
1.0
 41
2.5
 42
1.0
 43
10.0
 44
1.0
 45
0.0
 46
0.0
 47
0.1
 48
0.1
140
3.2
141
0.0
142
0.0
143
0.0393701
144
1.0
145
0.0
146
0.71
147
1.5
 71
     0
 72
     0
 73
     0
 74
     0
 75
     1
 76
     1
 77
     3
 78
     8
170
     0
171
     2
172
     1
173
     0
174
     0
175
     0
176
   256
177
   256
178
     2
270
     2
271
     2
272
     2
273
     2
274
     2
340
6B
275
     0
280
     0
281
     0
282
     0
283
     0
284
     0
285
     0
286
     0
287
     3
288
     0
  0
DIMSTYLE
105
68
330
A
100
AcDbSymbolTableRecord
100
AcDbDimStyleTableRecord
  2
AM_JIS$SH
 70
     0
  3

  4
"
  5

  6
GENAXEH
  7
OPEN30
 40
1.0
 41
2.5
 42
1.0
 43
10.0
 44
1.0
 45
0.0
 46
0.0
 47
0.1
 48
0.1
140
3.2
141
0.0
142
0.0
143
0.0393701
144
2.0
145
0.0
146
0.71
147
1.5
 71
     0
 72
     0
 73
     0
 74
     0
 75
     1
 76
     1
 77
     3
 78
     8
170
     0
171
     2
172
     1
173
     1
174
     0
175
     0
176
   256
177
   256
178
     2
270
     2
271
     2
272
     2
273
     2
274
     2
340
6B
275
     0
280
     0
281
     0
282
     0
283
     0
284
     0
285
     0
286
     0
287
     3
288
     0
  0
DIMSTYLE
105
B34
330
A
100
AcDbSymbolTableRecord
100
AcDbDimStyleTableRecord
  2
AM_JIS$2
 70
     0
  3

  4
"
  5
OPEN30
  6

  7

 40
1.0
 41
2.5
 42
1.0
 43
12.0
 44
1.0
 45
0.0
 46
0.0
 47
0.1
 48
0.1
140
3.2
141
0.0
142
0.0
143
0.0393701
144
1.0
145
0.0
146
0.71
147
1.5
 71
     0
 72
     0
 73
     0
 74
     0
 75
     0
 76
     0
 77
     3
 78
     8
170
     0
171
     2
172
     1
173
     0
174
     0
175
     0
176
   256
177
   256
178
     2
270
     2
271
     3
272
     3
273
     2
274
     2
340
6B
275
     0
280
     0
281
     0
282
     0
283
     0
284
     0
285
     0
286
     0
287
     3
288
     0
  0
ENDTAB
  0
TABLE
  2
BLOCK_RECORD
  5
1
330
0
100
AcDbSymbolTable
 70
    10
  0
BLOCK_RECORD
  5
1F
102
{ACAD_XDICTIONARY
360
74
102
}
330
1
100
AcDbSymbolTableRecord
100
AcDbBlockTableRecord
  2
*MODEL_SPACE
  0
BLOCK_RECORD
  5
101
102
{ACAD_XDICTIONARY
360
4D75
102
}
330
1
100
AcDbSymbolTableRecord
100
AcDbBlockTableRecord
  2
*PAPER_SPACE
  0
BLOCK_RECORD
  5
59
330
1
100
AcDbSymbolTableRecord
100
AcDbBlockTableRecord
  2
_OPEN30
  0
BLOCK_RECORD
  5
64
330
1
100
AcDbSymbolTableRecord
100
AcDbBlockTableRecord
  2
GENAXEH
  0
BLOCK_RECORD
  5
4048
330
1
100
AcDbSymbolTableRecord
100
AcDbBlockTableRecord
  2
*D5
  0
BLOCK_RECORD
  5
412B
330
1
100
AcDbSymbolTableRecord
100
AcDbBlockTableRecord
  2
*D6
  0
BLOCK_RECORD
  5
42F5
330
1
100
AcDbSymbolTableRecord
100
AcDbBlockTableRecord
  2
*D7
  0
BLOCK_RECORD
  5
454E
330
1
100
AcDbSymbolTableRecord
100
AcDbBlockTableRecord
  2
*D8
  0
BLOCK_RECORD
  5
4C66
330
1
100
AcDbSymbolTableRecord
100
AcDbBlockTableRecord
  2
*D9
  0
ENDTAB
  0
ENDSEC
  0
SECTION
  2
BLOCKS
  0
BLOCK
  5
20
330
1F
100
AcDbEntity
  8
0
100
AcDbBlockBegin
  2
*MODEL_SPACE
 70
     0
 10
0.0
 20
0.0
 30
0.0
  3
*MODEL_SPACE
  1

  0
ENDBLK
  5
21
330
1F
100
AcDbEntity
  8
0
100
AcDbBlockEnd
  0
BLOCK
  5
103
330
101
100
AcDbEntity
 67
     1
  8
0
100
AcDbBlockBegin
  2
*PAPER_SPACE
 70
     0
 10
0.0
 20
0.0
 30
0.0
  3
*PAPER_SPACE
  1

  0
ENDBLK
  5
104
330
101
100
AcDbEntity
 67
     1
  8
0
100
AcDbBlockEnd
  0
BLOCK
  5
5D
330
59
100
AcDbEntity
  8
0
100
AcDbBlockBegin
  2
_OPEN30
 70
     0
 10
0.0
 20
0.0
 30
0.0
  3
_OPEN30
  1

  0
LINE
  5
5A
330
59
100
AcDbEntity
  8
0
 62
     0
100
AcDbLine
 10
-1.0
 20
0.26794919
 30
0.0
 11
0.0
 21
0.0
 31
0.0
  0
LINE
  5
5B
330
59
100
AcDbEntity
  8
0
 62
     0
100
AcDbLine
 10
0.0
 20
0.0
 30
0.0
 11
-1.0
 21
-0.26794919
 31
0.0
  0
LINE
  5
5C
330
59
100
AcDbEntity
  8
0
 62
     0
100
AcDbLine
 10
0.0
 20
0.0
 30
0.0
 11
-1.0
 21
0.0
 31
0.0
  0
ENDBLK
  5
5E
330
59
100
AcDbEntity
  8
0
100
AcDbBlockEnd
  0
BLOCK
  5
66
330
64
100
AcDbEntity
  8
0
100
AcDbBlockBegin
  2
GENAXEH
 70
     0
 10
0.0
 20
0.0
 30
0.0
  3
GENAXEH
  1

  0
LINE
  5
65
330
64
100
AcDbEntity
  8
0
100
AcDbLine
 10
-1.0
 20
0.0
 30
0.0
 11
1.0
 21
0.0
 31
0.0
  0
ENDBLK
  5
67
330
64
100
AcDbEntity
  8
0
100
AcDbBlockEnd
  0
BLOCK
  5
4052
330
4048
100
AcDbEntity
  8
0
100
AcDbBlockBegin
  2
*D5
 70
     1
 10
0.0
 20
0.0
 30
0.0
  3
*D5
  1

  0
LINE
  5
4CEA
330
4048
100
AcDbEntity
  8
AM_5
100
AcDbLine
 10
-119.9999999999999
 20
-7.999999999999928
 30
0.0
 11
-119.9999999999999
 21
-35.00000099999987
 31
0.0
  0
LINE
  5
4CEB
330
4048
100
AcDbEntity
  8
AM_5
100
AcDbLine
 10
0.0000000000000006
 20
-1.0
 30
0.0
 11
-0.0000000000000015
 21
-35.00000099999987
 31
0.0
  0
LINE
  5
4CEC
330
4048
100
AcDbEntity
  8
AM_5
100
AcDbLine
 10
-117.4999999999999
 20
-34.00000099999987
 30
0.0
 11
-2.500000000000001
 21
-34.00000099999987
 31
0.0
  0
INSERT
  5
4CED
330
4048
100
AcDbEntity
  8
AM_5
100
AcDbBlockReference
  2
_OPEN30
 10
-119.9999999999999
 20
-34.00000099999987
 30
0.0
 41
2.5
 42
2.5
 43
2.5
 50
180.0
  0
INSERT
  5
4CEE
330
4048
100
AcDbEntity
  8
AM_5
100
AcDbBlockReference
  2
_OPEN30
 10
-0.0000000000000014
 20
-34.00000099999987
 30
0.0
 41
2.5
 42
2.5
 43
2.5
  0
MTEXT
  5
4CEF
330
4048
100
AcDbEntity
  8
AM_5
 62
     2
100
AcDbMText
 10
-60.0
 20
-30.90000099999987
 30
0.0
 40
3.2
 41
0.0
 71
     5
 72
     1
  1
120
  7
ASAMI
1001
ACAD
1000
MTEXTBEGIN
1070
    73
1070
     1
1070
    44
1040
1.0
1070
    74
1070
     0
1000
MTEXTEND
  0
POINT
  5
4CF0
330
4048
100
AcDbEntity
  8
DEFPOINTS
 62
     0
100
AcDbPoint
 10
-119.9999999999999
 20
-6.999999999999928
 30
0.0
  0
POINT
  5
4CF1
330
4048
100
AcDbEntity
  8
DEFPOINTS
 62
     0
100
AcDbPoint
 10
0.0000000000000007
 20
-0.0000000000000005
 30
0.0
  0
POINT
  5
4CF2
330
4048
100
AcDbEntity
  8
DEFPOINTS
 62
     0
100
AcDbPoint
 10
-0.0000000000000014
 20
-34.00000099999987
 30
0.0
  0
ENDBLK
  5
4053
330
4048
100
AcDbEntity
  8
0
100
AcDbBlockEnd
  0
BLOCK
  5
4135
330
412B
100
AcDbEntity
  8
0
100
AcDbBlockBegin
  2
*D6
 70
     1
 10
0.0
 20
0.0
 30
0.0
  3
*D6
  1

  0
LINE
  5
4CF3
330
412B
100
AcDbEntity
  8
AM_5
100
AcDbLine
 10
-0.0000000000000203
 20
-1.00000000000001
 30
0.0
 11
-0.0000000000000217
 21
-23.00000099999994
 31
0.0
  0
LINE
  5
4CF4
330
412B
100
AcDbEntity
  8
AM_5
100
AcDbLine
 10
-35.0
 20
-7.5
 30
0.0
 11
-35.0
 21
-23.00000099999994
 31
0.0
  0
LINE
  5
4CF5
330
412B
100
AcDbEntity
  8
AM_5
100
AcDbLine
 10
-2.500000000000021
 20
-22.00000099999994
 30
0.0
 11
-32.5
 21
-22.00000099999994
 31
0.0
  0
INSERT
  5
4CF6
330
412B
100
AcDbEntity
  8
AM_5
100
AcDbBlockReference
  2
_OPEN30
 10
-0.0000000000000216
 20
-22.00000099999994
 30
0.0
 41
2.5
 42
2.5
 43
2.5
  0
INSERT
  5
4CF7
330
412B
100
AcDbEntity
  8
AM_5
100
AcDbBlockReference
  2
_OPEN30
 10
-35.0
 20
-22.00000099999994
 30
0.0
 41
2.5
 42
2.5
 43
2.5
 50
180.0
  0
MTEXT
  5
4CF8
330
412B
100
AcDbEntity
  8
AM_5
 62
     2
100
AcDbMText
 10
-17.50000000000001
 20
-18.90000099999994
 30
0.0
 40
3.2
 41
0.0
 71
     5
 72
     1
  1
35
  7
ASAMI
1001
ACAD
1000
MTEXTBEGIN
1070
    73
1070
     1
1070
    44
1040
1.0
1070
    74
1070
     0
1000
MTEXTEND
  0
POINT
  5
4CF9
330
412B
100
AcDbEntity
  8
DEFPOINTS
 62
     0
100
AcDbPoint
 10
-0.0000000000000203
 20
-0.0000000000000103
 30
0.0
  0
POINT
  5
4CFA
330
412B
100
AcDbEntity
  8
DEFPOINTS
 62
     0
100
AcDbPoint
 10
-35.0
 20
-6.5
 30
0.0
  0
POINT
  5
4CFB
330
412B
100
AcDbEntity
  8
DEFPOINTS
 62
     0
100
AcDbPoint
 10
-35.0
 20
-22.00000099999994
 30
0.0
  0
ENDBLK
  5
4136
330
412B
100
AcDbEntity
  8
0
100
AcDbBlockEnd
  0
BLOCK
  5
42FF
330
42F5
100
AcDbEntity
  8
0
100
AcDbBlockBegin
  2
*D7
 70
     1
 10
0.0
 20
0.0
 30
0.0
  3
*D7
  1

  0
LINE
  5
4CFC
330
42F5
100
AcDbEntity
  8
AM_5
100
AcDbLine
 10
-5.500000000000007
 20
6.5
 30
0.0
 11
16.34162794056475
 21
6.499999999999994
 31
0.0
  0
LINE
  5
4CFD
330
42F5
100
AcDbEntity
  8
AM_5
100
AcDbLine
 10
-5.499999999999994
 20
-6.5
 30
0.0
 11
16.34162794056475
 21
-6.500000000000007
 31
0.0
  0
LINE
  5
4CFE
330
42F5
100
AcDbEntity
  8
AM_5
100
AcDbLine
 10
15.34162794056475
 20
3.999999999999994
 30
0.0
 11
15.34162794056475
 21
-4.000000000000007
 31
0.0
  0
INSERT
  5
4CFF
330
42F5
100
AcDbEntity
  8
AM_5
100
AcDbBlockReference
  2
_OPEN30
 10
15.34162794056475
 20
6.499999999999994
 30
0.0
 41
2.5
 42
2.5
 43
2.5
 50
90.0
  0
INSERT
  5
4D00
330
42F5
100
AcDbEntity
  8
AM_5
100
AcDbBlockReference
  2
_OPEN30
 10
15.34162794056475
 20
-6.500000000000007
 30
0.0
 41
2.5
 42
2.5
 43
2.5
 50
270.0
  0
MTEXT
  5
4D01
330
42F5
100
AcDbEntity
  8
AM_5
 62
     2
100
AcDbMText
 10
12.24162794056475
 20
-0.0000000000000032
 30
0.0
 40
3.2
 41
0.0
 71
     5
 72
     1
  1
%%c13
  7
ASAMI
 11
0.0000000000000001
 21
1.0
 31
0.0
1001
ACAD
1000
MTEXTBEGIN
1070
    73
1070
     1
1070
    44
1040
1.0
1070
    74
1070
     0
1000
MTEXTEND
  0
POINT
  5
4D02
330
42F5
100
AcDbEntity
  8
DEFPOINTS
 62
     0
100
AcDbPoint
 10
-6.500000000000007
 20
6.500000000000001
 30
0.0
  0
POINT
  5
4D03
330
42F5
100
AcDbEntity
  8
DEFPOINTS
 62
     0
100
AcDbPoint
 10
-6.499999999999994
 20
-6.5
 30
0.0
  0
POINT
  5
4D04
330
42F5
100
AcDbEntity
  8
DEFPOINTS
 62
     0
100
AcDbPoint
 10
15.34162794056475
 20
-6.500000000000007
 30
0.0
  0
ENDBLK
  5
4300
330
42F5
100
AcDbEntity
  8
0
100
AcDbBlockEnd
  0
BLOCK
  5
4558
330
454E
100
AcDbEntity
  8
0
100
AcDbBlockBegin
  2
*D8
 70
     1
 10
0.0
 20
0.0
 30
0.0
  3
*D8
  1

  0
LINE
  5
457D
330
454E
100
AcDbEntity
  8
AM_5
100
AcDbLine
 10
-120.0
 20
7.999999999999858
 30
0.0
 11
-137.0561951299595
 21
7.999999999999863
 31
0.0
  0
LINE
  5
457E
330
454E
100
AcDbEntity
  8
AM_5
100
AcDbLine
 10
-120.0
 20
-7.999999999999998
 30
0.0
 11
-137.0561951299595
 21
-7.999999999999992
 31
0.0
  0
LINE
  5
457F
330
454E
100
AcDbEntity
  8
AM_5
100
AcDbLine
 10
-136.0561951299595
 20
5.499999999999863
 30
0.0
 11
-136.0561951299595
 21
-5.499999999999992
 31
0.0
  0
INSERT
  5
4580
330
454E
100
AcDbEntity
  8
AM_5
100
AcDbBlockReference
  2
_OPEN30
 10
-136.0561951299595
 20
7.999999999999863
 30
0.0
 41
2.5
 42
2.5
 43
2.5
 50
90.0
  0
INSERT
  5
4581
330
454E
100
AcDbEntity
  8
AM_5
100
AcDbBlockReference
  2
_OPEN30
 10
-136.0561951299595
 20
-7.999999999999992
 30
0.0
 41
2.5
 42
2.5
 43
2.5
 50
270.0
  0
MTEXT
  5
4582
330
454E
100
AcDbEntity
  8
AM_5
 62
     2
100
AcDbMText
 10
-139.1561951299595
 20
-0.0000000000000863
 30
0.0
 40
3.2
 41
0.0
 71
     5
 72
     1
  1
%%c16
  7
ASAMI
 11
0.0000000000000001
 21
1.0
 31
0.0
1001
ACAD
1000
MTEXTBEGIN
1070
    73
1070
     1
1070
    44
1040
1.0
1070
    74
1070
     0
1000
MTEXTEND
  0
POINT
  5
4583
330
454E
100
AcDbEntity
  8
DEFPOINTS
 62
     0
100
AcDbPoint
 10
-119.0
 20
7.999999999999858
 30
0.0
  0
POINT
  5
4584
330
454E
100
AcDbEntity
  8
DEFPOINTS
 62
     0
100
AcDbPoint
 10
-119.0
 20
-7.999999999999998
 30
0.0
  0
POINT
  5
4585
330
454E
100
AcDbEntity
  8
DEFPOINTS
 62
     0
100
AcDbPoint
 10
-136.0561951299595
 20
-7.999999999999992
 30
0.0
  0
ENDBLK
  5
4559
330
454E
100
AcDbEntity
  8
0
100
AcDbBlockEnd
  0
BLOCK
  5
4C6D
330
4C66
100
AcDbEntity
  8
0
100
AcDbBlockBegin
  2
*D9
 70
     1
 10
0.0
 20
0.0
 30
0.0
  3
*D9
  1

  0
LINE
  5
4D77
330
4C66
100
AcDbEntity
  8
AM_5
100
AcDbLine
 10
12.97182808850561
 20
-19.41234005224768
 30
0.0
 11
-0.1263103437706574
 21
-6.354217510130132
 31
0.0
  0
MTEXT
  5
4D78
330
4C66
100
AcDbEntity
  8
AM_5
 62
     2
100
AcDbMText
 10
10.59100592707834
 20
-12.66142116736206
 30
0.0
 40
3.2
 41
0.0
 71
     5
 72
     1
  1
R6.5
  7
ASAMI
 11
0.7081877395812084
 21
-0.7060241677923348
 31
0.0
  0
LINE
  5
4D79
330
4C66
100
AcDbEntity
  8
AM_5
100
AcDbLine
 10
-6.500000000001532
 20
0.0000000000008806
 30
0.0
 11
-1.896779692723678
 21
-4.589157090649296
 31
0.0
  0
INSERT
  5
4D7A
330
4C66
100
AcDbEntity
  8
AM_5
100
AcDbBlockReference
  2
_OPEN30
 10
-1.896779692723678
 20
-4.589157090649296
 30
0.0
 41
2.5
 42
2.5
 43
2.5
 50
135.0876554884147
  0
POINT
  5
4D7B
330
4C66
100
AcDbEntity
  8
DEFPOINTS
 62
     0
100
AcDbPoint
 10
-1.896779692723678
 20
-4.589157090649296
 30
0.0
  0
POINT
  5
4D7C
330
4C66
100
AcDbEntity
  8
DEFPOINTS
 62
     0
100
AcDbPoint
 10
-6.500000000001532
 20
0.0000000000008806
 30
0.0
  0
ENDBLK
  5
4C6E
330
4C66
100
AcDbEntity
  8
0
100
AcDbBlockEnd
  0
ENDSEC
  0
SECTION
  2
ENTITIES
  0
TEXT
  5
1500
330
1F
100
AcDbEntity
  8
AM_6
100
AcDbText
 10
-80.35714285714282
 20
-56.50000099999988
 30
0.0
 40
5.0
  1
SSB2130ZX
 72
     4
 11
-59.99999999999996
 21
-54.00000099999988
 31
0.0
100
AcDbText
  0
LINE
  5
3EE8
330
1F
100
AcDbEntity
  8
AM_7
  6
AM_ISO08W050X2
100
AcDbLine
 10
2.796334965437722
 20
0.0
 30
0.0
 11
-122.0561941299595
 21
-0.0000000000000355
 31
0.0
1001
GENIUS_GENODEF_13
1002
{
1000
HIER
1070
     0
1002
}
1002
{
1000
MANEDIT
1070
     0
1002
}
1002
{
1000
NOSEL
1070
     0
1002
}
1002
{
1000
BEHIND
1070
     0
1002
}
1002
{
1000
REACTOR
1002
}
1001
GENIUS_GENOBJ-N-CEN_13
1002
{
1000
OWNER
1000
GEN
1002
}
  0
DIMENSION
  5
4047
330
1F
100
AcDbEntity
  8
AM_5
100
AcDbDimension
  2
*D5
 10
-0.0000000000000014
 20
-34.00000099999987
 30
0.0
 11
-60.0
 21
-30.90000099999987
 31
0.0
 70
    32
  1
<>
  3
AM_JIS
100
AcDbAlignedDimension
 13
-119.9999999999999
 23
-6.999999999999928
 33
0.0
 14
0.0000000000000007
 24
-0.0000000000000005
 34
0.0
 50
0.0000000000001132
100
AcDbRotatedDimension
1001
GENIUS_GENDTOL_13
1000

1000
h7
1000

1040
0.0
  0
DIMENSION
  5
412A
330
1F
100
AcDbEntity
  8
AM_5
100
AcDbDimension
  2
*D6
 10
-35.0
 20
-22.00000099999994
 30
0.0
 11
-17.50000000000001
 21
-18.90000099999994
 31
0.0
 70
    32
  1
<>
  3
AM_JIS
100
AcDbAlignedDimension
 13
-0.0000000000000203
 23
-0.0000000000000103
 33
0.0
 14
-35.0
 24
-6.5
 34
0.0
 50
0.0000000000001132
100
AcDbRotatedDimension
1001
GENIUS_GENDTOL_13
1000

1000
h7
1000

1040
0.0
  0
DIMENSION
  5
42F4
330
1F
100
AcDbEntity
  8
AM_5
100
AcDbDimension
  2
*D7
 10
15.34162794056475
 20
-6.500000000000007
 30
0.0
 11
12.24162794056475
 21
-0.0000000000000032
 31
0.0
 70
    32
  1
%%c<>
  3
AM_JIS
100
AcDbAlignedDimension
 13
-6.500000000000007
 23
6.500000000000001
 33
0.0
 14
-6.499999999999994
 24
-6.5
 34
0.0
 50
90.0
100
AcDbRotatedDimension
1001
GENIUS_GENDTOL_13
1000

1000
h7
1000

1040
0.0
  0
LINE
  5
4548
330
1F
100
AcDbEntity
  8
AM_0
100
AcDbLine
 10
-41.99999999999994
 20
-7.999999999999959
 30
0.0
 11
-118.9999999999999
 21
-7.999999999999957
 31
0.0
  0
LINE
  5
454B
330
1F
100
AcDbEntity
  8
AM_0
100
AcDbLine
 10
-120.0
 20
6.999999999999858
 30
0.0
 11
-119.9999999999999
 21
-6.999999999999957
 31
0.0
  0
LINE
  5
454C
330
1F
100
AcDbEntity
  8
AM_0
100
AcDbLine
 10
-119.0
 20
7.99999999999984
 30
0.0
 11
-119.0
 21
-7.999999999999999
 31
0.0
  0
DIMENSION
  5
454D
330
1F
100
AcDbEntity
  8
AM_5
100
AcDbDimension
  2
*D8
 10
-136.0561951299595
 20
-7.999999999999992
 30
0.0
 11
-139.1561951299595
 21
-0.0000000000000863
 31
0.0
 70
    32
  1
%%c<>
  3
AM_JIS
100
AcDbAlignedDimension
 13
-119.0
 23
7.999999999999858
 33
0.0
 14
-119.0
 24
-7.999999999999999
 34
0.0
 50
270.0
100
AcDbRotatedDimension
1001
GENIUS_GENDTOL_13
1000

1000
h7
1000

1040
0.0
  0
LINE
  5
455A
330
1F
100
AcDbEntity
  8
AM_0
100
AcDbLine
 10
-42.00000000000002
 20
7.999999999999857
 30
0.0
 11
-119.0
 21
7.999999999999858
 31
0.0
  0
LINE
  5
4566
330
1F
100
AcDbEntity
  8
AM_0
100
AcDbLine
 10
-119.0
 20
7.999999999999858
 30
0.0
 11
-120.0
 21
6.999999999999858
 31
0.0
1001
GENIUS_GENFIL_13
1070
     0
1040
1.0
1040
1.0
1040
20.0
1040
0.0
1002
{
1002
}
1001
GENIUS_GENODEF_13
1002
{
1000
HIER
1070
     0
1002
}
1002
{
1000
MANEDIT
1070
     0
1002
}
1002
{
1000
NOSEL
1070
     0
1002
}
1002
{
1000
BEHIND
1070
     0
1002
}
1002
{
1000
REACTOR
1002
}
1001
GENIUS_GENOBJ-N-CHA_13
1002
{
1000
OWNER
1000
GEN
1002
}
  0
LINE
  5
4569
330
1F
100
AcDbEntity
  8
AM_0
100
AcDbLine
 10
-119.9999999999999
 20
-6.999999999999957
 30
0.0
 11
-118.9999999999999
 21
-7.999999999999957
 31
0.0
1001
GENIUS_GENFIL_13
1070
     0
1040
1.0
1040
1.0
1040
20.0
1040
0.0
1002
{
1002
}
1001
GENIUS_GENODEF_13
1002
{
1000
HIER
1070
     0
1002
}
1002
{
1000
MANEDIT
1070
     0
1002
}
1002
{
1000
NOSEL
1070
     0
1002
}
1002
{
1000
BEHIND
1070
     0
1002
}
1002
{
1000
REACTOR
1002
}
1001
GENIUS_GENOBJ-N-CHA_13
1002
{
1000
OWNER
1000
GEN
1002
}
  0
ARC
  5
4927
330
1F
100
AcDbEntity
  8
AM_11
100
AcDbCircle
 10
-6.500000000001531
 20
0.0000000000008808
 30
0.0
 40
6.5
100
AcDbArc
 50
270.0
 51
90.00000000000005
  0
LINE
  5
4928
330
1F
100
AcDbEntity
  8
AM_0
100
AcDbLine
 10
-0.9100000000018912
 20
-0.2290660843307063
 30
0.0
 11
-6.796115768883046
 21
1.805507143503873
 31
0.0
  0
ARC
  5
4929
330
1F
100
AcDbEntity
  8
AM_0
100
AcDbCircle
 10
-6.500000000001531
 20
-0.0987496054199289
 30
0.0
 40
6.5
100
AcDbArc
 50
0.870485121205805
 51
90.00000000000005
  0
LINE
  5
492A
330
1F
100
AcDbEntity
  8
AM_0
100
AcDbLine
 10
-0.0000000000015312
 20
0.0000000000008899
 30
0.0
 11
-7.716231372161463
 21
4.454968259886767
 31
0.0
  0
LINE
  5
492B
330
1F
100
AcDbEntity
  8
AM_0
100
AcDbLine
 10
-0.0000000000015378
 20
0.0000000000008808
 30
0.0
 11
-0.2990000000015601
 21
-0.2290660843307063
 31
0.0
  0
LINE
  5
492C
330
1F
100
AcDbEntity
  8
AM_0
100
AcDbLine
 10
-0.2990000000015601
 20
-0.2290660843307063
 30
0.0
 11
-0.9100000000018912
 21
-0.2290660843307063
 31
0.0
  0
ARC
  5
492D
330
1F
100
AcDbEntity
  8
AM_0
100
AcDbCircle
 10
-6.462241869146811
 20
0.0848106443340239
 30
0.0
 40
6.462048280943004
100
AcDbArc
 50
265.2264446645673
 51
359.2480044592643
  0
ARC
  5
492E
330
1F
100
AcDbEntity
  8
AM_0
100
AcDbCircle
 10
-7.235469938056055
 20
2.412767615997802
 30
0.0
 40
6.854987617597993
100
AcDbArc
 50
284.5520813493321
 51
337.3321363060605
  0
ARC
  5
492F
330
1F
100
AcDbEntity
  8
AM_0
100
AcDbCircle
 10
-6.571443890436942
 20
0.4501147657807087
 30
0.0
 40
6.309107621987065
100
AcDbArc
 50
270.6591867570298
 51
353.8200845304706
  0
LINE
  5
4C2C
330
1F
100
AcDbEntity
  8
AM_0
100
AcDbLine
 10
-7.000000000000007
 20
-6.354823210069438
 30
0.0
 11
-6.498859339166416
 21
-5.858575309720872
 31
0.0
  0
LINE
  5
4C2D
330
1F
100
AcDbEntity
  8
AM_0
100
AcDbLine
 10
-6.498859339166416
 20
-5.858575309720872
 30
0.0
 11
-7.000000000000007
 21
-4.779893832441909
 31
0.0
  0
LINE
  5
4C2F
330
1F
100
AcDbEntity
  8
AM_0
100
AcDbLine
 10
-35.0
 20
3.127228554298101
 30
0.0
 11
-35.0
 21
5.534259112724198
 31
0.0
  0
LINE
  5
4C30
330
1F
100
AcDbEntity
  8
AM_0
100
AcDbLine
 10
-35.0
 20
-5.206861023928924
 30
0.0
 11
-14.60074947007548
 21
-4.691839298030641
 31
0.0
  0
LINE
  5
4C32
330
1F
100
AcDbEntity
  8
AM_11
100
AcDbLine
 10
-35.0
 20
6.499999999999846
 30
0.0
 11
-35.0
 21
-6.500000000000007
 31
0.0
  0
POLYLINE
  5
4C33
330
1F
100
AcDbEntity
  8
AM_0
100
AcDb2dPolyline
 66
     1
 10
0.0
 20
0.0
 30
0.0
 70
     2
  0
VERTEX
  5
4C34
330
4C33
100
AcDbEntity
  8
AM_0
100
AcDbVertex
100
AcDb2dVertex
 10
-35.0
 20
-5.197378603329351
 30
0.0
 42
-0.0327265397341093
  0
VERTEX
  5
4C35
330
4C33
100
AcDbEntity
  8
AM_0
100
AcDbVertex
100
AcDb2dVertex
 10
-36.19384837612613
 20
-4.873925685521064
 30
0.0
 42
-0.0527919606368268
 70
     1
  0
VERTEX
  5
4C36
330
4C33
100
AcDbEntity
  8
AM_0
100
AcDbVertex
100
AcDb2dVertex
 10
-36.88760916833798
 20
-4.558908892672855
 30
0.0
 42
-0.0335865657455972
  0
VERTEX
  5
4C37
330
4C33
100
AcDbEntity
  8
AM_0
100
AcDbVertex
100
AcDb2dVertex
 10
-38.47971188390978
 20
-3.48677934299891
 30
0.0
 42
-0.0501066675972432
 70
     1
  0
VERTEX
  5
4C38
330
4C33
100
AcDbEntity
  8
AM_0
100
AcDbVertex
100
AcDb2dVertex
 10
-39.40442139278861
 20
-2.611960646674073
 30
0.0
 42
-0.0507110570056034
  0
VERTEX
  5
4C39
330
4C33
100
AcDbEntity
  8
AM_0
100
AcDbVertex
100
AcDb2dVertex
 10
-39.95404965207476
 20
-1.823738159107361
 30
0.0
 42
-0.1341778759932262
 70
     1
  0
VERTEX
  5
4C3A
330
4C33
100
AcDbEntity
  8
AM_0
100
AcDbVertex
100
AcDb2dVertex
 10
-40.03362444890127
 20
-1.471037525064153
 30
0.0
 42
-0.1041773563276469
  0
VERTEX
  5
4C3B
330
4C33
100
AcDbEntity
  8
AM_0
100
AcDbVertex
100
AcDb2dVertex
 10
-39.90517312929453
 20
-1.036436506761849
 30
0.0
 42
-0.0549771151911048
 70
     1
  0
VERTEX
  5
4C3C
330
4C33
100
AcDbEntity
  8
AM_0
100
AcDbVertex
100
AcDb2dVertex
 10
-39.40102951891186
 20
-0.3301144034541811
 30
0.0
 42
-0.0240560300686452
  0
VERTEX
  5
4C3D
330
4C33
100
AcDbEntity
  8
AM_0
100
AcDbVertex
100
AcDb2dVertex
 10
-38.77566243395535
 20
0.3017190417056668
 30
0.0
 42
-0.0104657151014467
 70
     1
  0
VERTEX
  5
4C3E
330
4C33
100
AcDbEntity
  8
AM_0
100
AcDbVertex
100
AcDb2dVertex
 10
-37.23448409935677
 20
1.657857715580913
 30
0.0
 42
-0.030357308254851
  0
VERTEX
  5
4C3F
330
4C33
100
AcDbEntity
  8
AM_0
100
AcDbVertex
100
AcDb2dVertex
 10
-36.40313306625337
 20
2.278152588251383
 30
0.0
 42
-0.0193205933642949
 70
     1
  0
VERTEX
  5
4C40
330
4C33
100
AcDbEntity
  8
AM_0
100
AcDbVertex
100
AcDb2dVertex
 10
-35.0
 20
3.127228554298101
 30
0.0
  0
SEQEND
  5
4C41
330
4C33
100
AcDbEntity
  8
AM_0
  0
LINE
  5
4C42
330
1F
100
AcDbEntity
  8
AM_0
100
AcDbLine
 10
-34.38833516606147
 20
5.321281850637785
 30
0.0
 11
-7.716231372225691
 21
4.454968259883628
 31
0.0
  0
LINE
  5
4C43
330
1F
100
AcDbEntity
  8
AM_11
100
AcDbLine
 10
-6.500000000001538
 20
6.500000000000881
 30
0.0
 11
-35.00000000000001
 21
6.499999999999852
 31
0.0
  0
LINE
  5
4C44
330
1F
100
AcDbEntity
  8
AM_11
100
AcDbLine
 10
-35.00000000000001
 20
-6.5
 30
0.0
 11
-6.500000000001531
 21
-6.5
 31
0.0
  0
ELLIPSE
  5
4C45
330
1F
100
AcDbEntity
  8
AM_0
100
AcDbEllipse
 10
-34.11913811281007
 20
26.77839502945509
 30
0.0
 11
22.61925493448087
 21
22.61925493448087
 31
0.0
210
0.0
220
0.0
230
1.0
 40
0.9999999999176461
 41
3.904574528667355
 42
3.905034995822204
  0
ELLIPSE
  5
4C46
330
1F
100
AcDbEntity
  8
AM_0
100
AcDbEllipse
 10
-34.52660072741217
 20
8.604362061616329
 30
0.0
 11
-9.765043580411568
 21
9.765043580411571
 31
0.0
210
0.0
220
0.0
230
1.0
 40
0.9999999999997172
 41
2.321907963186911
 42
2.333778201831065
  0
SPLINE
  5
4C47
330
1F
100
AcDbEntity
  8
AM_0
100
AcDbSpline
210
0.0
220
0.0
230
1.0
 70
     8
 71
     3
 72
     8
 73
     4
 74
     0
 42
0.0000000001
 43
0.0000000001
 40
13.13081676297142
 40
13.13081676297142
 40
13.13081676297142
 40
13.13081676297142
 40
17.48613721147548
 40
17.48613721147548
 40
17.48613721147548
 40
17.48613721147548
 10
-35.00000000000001
 20
4.43586296335522
 30
0.0
 10
-27.1689648367674
 20
1.570487017768842
 30
0.0
 10
-25.04041126248972
 20
0.7852435088844167
 30
0.0
 10
-23.26418949243911
 20
-0.0000000000000093
 30
0.0
  0
SPLINE
  5
4C48
330
1F
100
AcDbEntity
  8
AM_0
100
AcDbSpline
210
0.0
220
0.0
230
1.0
 70
     8
 71
     3
 72
     8
 73
     4
 74
     0
 42
0.0000000001
 43
0.0000000001
 40
15.41323093265439
 40
15.41323093265439
 40
15.41323093265439
 40
15.41323093265439
 40
17.52826289168434
 40
17.52826289168434
 40
17.52826289168434
 40
17.52826289168434
 10
-35.00000000000001
 20
3.127228554298102
 30
0.0
 10
-28.37001572666447
 20
1.013565406493035
 30
0.0
 10
-27.09894201422651
 20
0.3921583050939854
 30
0.0
 10
-26.02098341737779
 20
-0.0000000000000093
 30
0.0
  0
SPLINE
  5
4C49
330
1F
100
AcDbEntity
  8
AM_0
100
AcDbSpline
210
0.0
220
0.0
230
1.0
 70
     8
 71
     3
 72
     8
 73
     4
 74
     0
 42
0.0000000001
 43
0.0000000001
 40
6.513172597598655
 40
6.513172597598655
 40
6.513172597598655
 40
6.513172597598655
 40
17.4246383984571
 40
17.4246383984571
 40
17.4246383984571
 40
17.4246383984571
 10
-6.499999999999991
 20
-4.907960972667873
 30
0.0
 10
-11.07375272731938
 20
-3.763972546137039
 30
0.0
 10
-15.5478043432524
 20
-1.881986273068523
 30
0.0
 10
-20.02185595918539
 20
-0.0000000000000093
 30
0.0
  0
SPLINE
  5
4C4A
330
1F
100
AcDbEntity
  8
AM_0
100
AcDbSpline
210
0.0
220
0.0
230
1.0
 70
     8
 71
     3
 72
     8
 73
     4
 74
     0
 42
0.0000000001
 43
0.0000000001
 40
3.952207848119031
 40
3.952207848119031
 40
3.952207848119031
 40
3.952207848119031
 40
17.48613721147548
 40
17.48613721147548
 40
17.48613721147548
 40
17.48613721147548
 10
-6.498859339151302
 20
-5.858575309723399
 30
0.0
 10
-12.22515792001549
 20
-4.880205857609117
 30
0.0
 10
-17.74467370622729
 20
-2.440102928804705
 30
0.0
 10
-23.26418949243911
 20
-0.0000000000000093
 30
0.0
  0
SPLINE
  5
4C4B
330
1F
100
AcDbEntity
  8
AM_0
100
AcDbSpline
210
0.0
220
0.0
230
1.0
 70
     8
 71
     3
 72
     8
 73
     4
 74
     0
 42
0.0000000001
 43
0.0000000001
 40
2.184739966414224
 40
2.184739966414224
 40
2.184739966414224
 40
2.184739966414224
 40
17.5282628916844
 40
17.5282628916844
 40
17.5282628916844
 40
17.5282628916844
 10
-6.999999999939308
 20
-6.354823210009327
 30
0.0
 10
-13.55200248182366
 20
-5.689833592213575
 30
0.0
 10
-19.78649294960044
 20
-2.844916796106792
 30
0.0
 10
-26.02098341737779
 20
-0.0000000000000093
 30
0.0
  0
SPLINE
  5
4C4C
330
1F
100
AcDbEntity
  8
AM_0
100
AcDbSpline
210
0.0
220
0.0
230
1.0
 70
     8
 71
     3
 72
     9
 73
     5
 74
     0
 42
0.0000000001
 43
0.0000000001
 40
0.0
 40
0.0
 40
0.0
 40
0.0
 40
0.6272184563385302
 40
1.868527334522297
 40
1.868527334522297
 40
1.868527334522297
 40
1.868527334522297
 10
-5.702338079728558
 20
-3.955378920192047
 30
0.0
 10
-5.588430388772409
 20
-4.112588993426984
 30
0.0
 10
-5.097075491573328
 20
-4.674665429470416
 30
0.0
 10
-6.154399386412261
 20
-5.075833291088313
 30
0.0
 10
-6.499999999999991
 20
-4.907960972667873
 30
0.0
  0
SPLINE
  5
4C4D
330
1F
100
AcDbEntity
  8
AM_0
100
AcDbSpline
210
0.0
220
0.0
230
1.0
 70
     8
 71
     3
 72
     8
 73
     4
 74
     0
 42
0.0000000001
 43
0.0000000001
 40
0.0
 40
0.0
 40
0.0
 40
0.0
 40
2.471587239052811
 40
2.471587239052811
 40
2.471587239052811
 40
2.471587239052811
 10
-6.499999999999991
 20
6.401250394579031
 30
0.0
 10
-6.177398727279915
 20
5.707581511966812
 30
0.0
 10
-6.956720872148226
 20
4.546575574223568
 30
0.0
 10
-7.716231372288929
 20
4.454968259880664
 30
0.0
  0
SPLINE
  5
4C4E
330
1F
100
AcDbEntity
  8
AM_0
100
AcDbSpline
210
0.0
220
0.0
230
1.0
 70
     8
 71
     3
 72
     8
 73
     4
 74
     0
 42
0.0000000001
 43
0.0000000001
 40
0.0
 40
0.0
 40
0.0
 40
0.0
 40
3.020429804461157
 40
3.020429804461157
 40
3.020429804461157
 40
3.020429804461157
 10
-6.796115768883046
 20
1.805507143503873
 30
0.0
 10
-7.617805472811815
 20
2.251438279796706
 30
0.0
 10
-8.650014384549089
 20
4.409384998118951
 30
0.0
 10
-7.716231372225101
 20
4.45496825988362
 30
0.0
  0
SPLINE
  5
4C4F
330
1F
100
AcDbEntity
  8
AM_0
100
AcDbSpline
210
0.0
220
0.0
230
1.0
 70
     8
 71
     3
 72
     8
 73
     4
 74
     0
 42
0.0000000001
 43
0.0000000001
 40
1.794922859432252
 40
1.794922859432252
 40
1.794922859432252
 40
1.794922859432252
 40
8.217791785374707
 40
8.217791785374707
 40
8.217791785374707
 40
8.217791785374707
 10
-6.499999999999991
 20
6.401250394579031
 30
0.0
 10
-9.249537534245027
 20
6.169838995055309
 30
0.0
 10
-11.94202397792615
 20
5.546734628510308
 30
0.0
 10
-14.60074947007546
 20
4.691839298030188
 30
0.0
  0
ELLIPSE
  5
4C50
330
1F
100
AcDbEntity
  8
AM_0
100
AcDbEllipse
 10
-0.2666831866930157
 20
0.060926337056776
 30
0.0
 11
-4.778967045062715
 21
4.778967045062715
 31
0.0
210
0.0
220
0.0
230
0.9999999999999998
 40
0.9999999999999998
 41
0.5243098599525622
 42
1.421745423639844
  0
SPLINE
  5
4C51
330
1F
100
AcDbEntity
  8
AM_0
100
AcDbSpline
210
0.0
220
0.0
230
1.0
 70
     8
 71
     3
 72
     8
 73
     4
 74
     0
 42
0.0000000001
 43
0.0000000001
 40
5.881811449586002
 40
5.881811449586002
 40
5.881811449586002
 40
5.881811449586002
 40
17.4246383984571
 40
17.4246383984571
 40
17.4246383984571
 40
17.4246383984571
 10
-37.78546122399275
 20
6.499999999999849
 30
0.0
 10
-31.60835912570789
 20
4.36228699357041
 30
0.0
 10
-26.56515560872767
 20
2.608965500289109
 30
0.0
 10
-20.02185595918539
 20
-0.0000000000000075
 30
0.0
  0
SPLINE
  5
4C52
330
1F
100
AcDbEntity
  8
AM_0
100
AcDbSpline
210
0.0
220
0.0
230
1.0
 70
     8
 71
     3
 72
     8
 73
     4
 74
     0
 42
0.0000000001
 43
0.0000000001
 40
2.568603027490863
 40
2.568603027490863
 40
2.568603027490863
 40
2.568603027490863
 40
4.656267981793611
 40
4.656267981793611
 40
4.656267981793611
 40
4.656267981793611
 10
-37.8071085330158
 20
-6.500000000000002
 30
0.0
 10
-36.65582579465545
 20
-6.002474720897824
 30
0.0
 10
-35.69907309020335
 20
-5.689177689996527
 30
0.0
 10
-35.00000000000001
 20
-5.206861023928925
 30
0.0
  0
DIMENSION
  5
4C65
330
1F
100
AcDbEntity
  8
AM_5
100
AcDbDimension
  2
*D9
 10
-6.500000000001532
 20
0.0000000000008806
 30
0.0
 11
8.402331006922107
 21
-14.85680316006381
 31
0.0
 70
   164
  1
<>
  3
AM_JIS$4
100
AcDbRadialDimension
 15
-1.896779692723678
 25
-4.589157090649296
 35
0.0
 40
0.0
1001
GENIUS_GENDTOL_13
1000

1000
h7
1000

1040
0.0
1001
ACAD
1000
DSTYLE
1002
{
1070
   287
1070
     3
1070
   271
1070
     3
1070
   288
1070
     1
1070
   289
1070
     3
1070
   172
1070
     1
1070
    74
1070
     0
1002
}
  0
LINE
  5
4CD9
330
1F
100
AcDbEntity
  8
AM_0
100
AcDbLine
 10
-42.00000000000001
 20
7.999999999999856
 30
0.0
 11
-41.99999999999994
 21
-7.999999999999958
 31
0.0
  0
LINE
  5
4CDA
330
1F
100
AcDbEntity
  8
AM_0
100
AcDbLine
 10
-41.99999999999994
 20
-7.999999999999959
 30
0.0
 11
-37.87878387081813
 21
-6.500000000000003
 31
0.0
  0
LINE
  5
4CDB
330
1F
100
AcDbEntity
  8
AM_0
100
AcDbLine
 10
-37.8071085330158
 20
-6.500000000000002
 30
0.0
 11
-37.87878387081814
 21
-6.500000000000002
 31
0.0
  0
LINE
  5
4CDC
330
1F
100
AcDbEntity
  8
AM_0
100
AcDbLine
 10
-37.78546122399275
 20
6.49999999999985
 30
0.0
 11
-37.87878387081778
 21
6.49999999999985
 31
0.0
  0
LINE
  5
4CDF
330
1F
100
AcDbEntity
  8
AM_0
100
AcDbLine
 10
-41.99999999999994
 20
7.999999999999934
 30
0.0
 11
-37.87878387081813
 21
6.499999999999978
 31
0.0
  0
LINE
  5
4CE0
330
1F
100
AcDbEntity
  8
AM_0
100
AcDbLine
 10
-37.87878387081777
 20
6.499999999999849
 30
0.0
 11
-37.87878387081792
 21
1.104796883144537
 31
0.0
  0
LINE
  5
4CE1
330
1F
100
AcDbEntity
  8
AM_0
100
AcDbLine
 10
-37.87878387081807
 20
-3.92836681397149
 30
0.0
 11
-37.87878387081813
 21
-6.500000000000003
 31
0.0
  0
VIEWPORT
  5
110
330
101
100
AcDbEntity
 67
     1
  8
0
100
AcDbViewport
 10
420.5
 20
297.0
 30
0.0
 40
948.9782706766916
 41
628.452
 68
     1
 69
     1
1001
ACAD
1000
MVIEW
1002
{
1070
    16
1010
0.0
1020
0.0
1030
0.0
1010
0.0
1020
0.0
1030
1.0
1040
0.0
1040
628.452
1040
420.5
1040
297.0
1040
50.0
1040
0.0
1040
0.0
1070
     0
1070
   100
1070
     1
1070
     1
1070
     0
1070
     0
1070
     0
1070
     0
1040
0.0
1040
0.0
1040
0.0
1040
10.0
1040
10.0
1040
10.0
1040
10.0
1070
     0
1002
{
1002
}
1002
}
  0
ENDSEC
  0
SECTION
  2
OBJECTS
  0
DICTIONARY
  5
C
330
0
100
AcDbDictionary
  3
ACAD_GROUP
350
D
  3
ACAD_LAYOUT
350
1A
  3
ACAD_MLINESTYLE
350
17
  3
ACAD_PLOTSETTINGS
350
19
  3
ACAD_PLOTSTYLENAME
350
E
  3
ACDBVARIABLEDICTIONARY
350
34
  3
ACMDICTIONARY
350
43
  3
AMG
350
2B
  3
AMGSNAPSETTINGS
350
6E
  3
ASE_INDEX_DICTIONARY
350
151A
  3
DWGPROPS
350
4D41
  3
ACDBHEADERROUNDTRIPXREC
350
4D4D
  0
DICTIONARY
  5
74
330
1F
100
AcDbDictionary
280
     1
  3
ACAD_INDEX
360
4D43
  3
ACAD_LAYOUTSELFREF
360
4D70
  0
DICTIONARY
  5
4D75
330
101
100
AcDbDictionary
280
     1
  3
ACAD_LAYOUTSELFREF
360
4D76
  0
DICTIONARY
  5
D
102
{ACAD_REACTORS
330
C
102
}
330
C
100
AcDbDictionary
  0
DICTIONARY
  5
1A
102
{ACAD_REACTORS
330
C
102
}
330
C
100
AcDbDictionary
  0
DICTIONARY
  5
17
102
{ACAD_REACTORS
330
C
102
}
330
C
100
AcDbDictionary
  3
STANDARD
350
18
  0
DICTIONARY
  5
19
102
{ACAD_REACTORS
330
C
102
}
330
C
100
AcDbDictionary
  0
ACDBDICTIONARYWDFLT
  5
E
102
{ACAD_REACTORS
330
C
102
}
330
C
100
AcDbDictionary
281
     1
  3
Normal
350
F
100
AcDbDictionaryWithDefault
340
F
  0
DICTIONARY
  5
34
102
{ACAD_REACTORS
330
C
102
}
330
C
100
AcDbDictionary
  3
INDEXCTL
350
35
  3
SORTENTS
350
B5E
  0
DICTIONARY
  5
43
102
{ACAD_REACTORS
330
C
102
}
330
C
100
AcDbDictionary
  3
ACMSTDDICTIONARY
350
260
  0
DICTIONARY
  5
2B
102
{ACAD_REACTORS
330
C
102
}
330
C
100
AcDbDictionary
  3
ACMGSETTINGS
350
2C
  0
DICTIONARY
  5
6E
102
{ACAD_REACTORS
330
C
102
}
330
C
100
AcDbDictionary
  0
DICTIONARY
  5
151A
102
{ACAD_REACTORS
330
C
102
}
330
C
100
AcDbDictionary
  3
ASEBLOCKHIERARCHYINDEXRECORD
350
151C
1001
DCO15
1040
1471862535.906
  0
XRECORD
  5
4D41
102
{ACAD_REACTORS
330
C
102
}
330
C
100
AcDbXrecord
  1
DWGPROPS COOKIE
  2

  3

  4

  6

  7

  8

  9

300
AmdtFileType=82
301
=
302
=
303
=
304
=
305
=
306
=
307
=
308
=
309
=
 40
0.1724667013888889
 41
2452838.430434386
 42
2452901.592687164
  1

 90
        1
  0
DICTIONARY
  5
4D4D
102
{ACAD_REACTORS
330
C
102
}
330
C
100
AcDbDictionary
  3
TSTACKALIGN
350
4D4E
  3
TSTACKSIZE
350
4D4F
  3
HYPERLINKBASE
350
4D50
  3
STYLESHEET
350
4D51
  3
LAYOUTDICT
350
4D52
  3
PLOTSETDICT
350
4D53
  3
PLOTSTYLNAMDICT
350
4D54
  3
LWETCUNION
350
4D55
  3
INSUNITS
350
4D56
  3
CEPSNTYPE
350
4D57
  3
FINGERPRINTGUID
350
4D58
  3
VERSIONGUID
350
4D59
  3
PSVPSCALE
350
4D5A
  3
DIMSTYLEDATA
350
4D5B
  3
PUCSORTHOREF
350
4D5C
  3
PUCSORTHOVIEW
350
4D5D
  3
PUCSBASE
350
4D5E
  3
PUCSORGTOP
350
4D5F
  3
PUCSORGBOTTOM
350
4D60
  3
PUCSORGLEFT
350
4D61
  3
PUCSORGRIGHT
350
4D62
  3
PUCSORGFRONT
350
4D63
  3
PUCSORGBACK
350
4D64
  3
UCSORTHOREF
350
4D65
  3
UCSORTHOVIEW
350
4D66
  3
UCSBASE
350
4D67
  3
UCSORGTOP
350
4D68
  3
UCSORGBOTTOM
350
4D69
  3
UCSORGLEFT
350
4D6A
  3
UCSORGRIGHT
350
4D6B
  3
UCSORGFRONT
350
4D6C
  3
UCSORGBACK
350
4D6D
  0
DICTIONARY
  5
4D43
102
{ACAD_REACTORS
330
74
102
}
330
74
100
AcDbDictionary
  3
*A1
350
4D44
  0
XRECORD
  5
4D70
102
{ACAD_REACTORS
330
74
102
}
330
74
100
AcDbXrecord
340
1F
  0
XRECORD
  5
4D76
102
{ACAD_REACTORS
330
4D75
102
}
330
4D75
100
AcDbXrecord
340
101
  0
MLINESTYLE
  5
18
102
{ACAD_REACTORS
330
17
102
}
330
17
100
AcDbMlineStyle
  2
STANDARD
 70
     0
  3

 62
   256
 51
90.0
 52
90.0
 71
     2
 49
0.5
 62
   256
  6
BYLAYER
 49
-0.5
 62
   256
  6
BYLAYER
  0
ACDBPLACEHOLDER
  5
F
102
{ACAD_REACTORS
330
E
102
}
330
E
100
AcDbPlaceHolder
280
     0
  0
DICTIONARYVAR
  5
35
102
{ACAD_REACTORS
330
34
102
}
330
34
100
DictionaryVariables
280
     0
  1
1
  0
DICTIONARYVAR
  5
B5E
102
{ACAD_REACTORS
330
34
102
}
330
34
100
DictionaryVariables
280
     0
  1
96
  0
DICTIONARY
  5
260
102
{ACAD_REACTORS
330
43
102
}
330
43
100
AcDbDictionary
  0
DICTIONARY
  5
2C
102
{ACAD_REACTORS
330
2B
102
}
330
2B
100
AcDbDictionary
  3
DWGSETTINGS
350
2D
  0
XRECORD
  5
151C
102
{ACAD_REACTORS
330
151A
102
}
330
151A
100
AcDbXrecord
330
0
330
0
330
0
330
0
330
0
330
0
330
0
330
0
  0
XRECORD
  5
4D4E
102
{ACAD_REACTORS
330
4D4D
102
}
330
4D4D
100
AcDbXrecord
 90
        1
  0
XRECORD
  5
4D4F
102
{ACAD_REACTORS
330
4D4D
102
}
330
4D4D
100
AcDbXrecord
 90
       70
  0
XRECORD
  5
4D50
102
{ACAD_REACTORS
330
4D4D
102
}
330
4D4D
100
AcDbXrecord
  1

  0
XRECORD
  5
4D51
102
{ACAD_REACTORS
330
4D4D
102
}
330
4D4D
100
AcDbXrecord
  1
ASAMI.ctb
  0
XRECORD
  5
4D52
102
{ACAD_REACTORS
330
4D4D
102
}
330
4D4D
100
AcDbXrecord
340
1A
  0
XRECORD
  5
4D53
102
{ACAD_REACTORS
330
4D4D
102
}
330
4D4D
100
AcDbXrecord
340
19
  0
XRECORD
  5
4D54
102
{ACAD_REACTORS
330
4D4D
102
}
330
4D4D
100
AcDbXrecord
340
E
  0
XRECORD
  5
4D55
102
{ACAD_REACTORS
330
4D4D
102
}
330
4D4D
100
AcDbXrecord
 90
    10781
  0
XRECORD
  5
4D56
102
{ACAD_REACTORS
330
4D4D
102
}
330
4D4D
100
AcDbXrecord
 90
        4
  0
XRECORD
  5
4D57
102
{ACAD_REACTORS
330
4D4D
102
}
330
4D4D
100
AcDbXrecord
 90
        0
  0
XRECORD
  5
4D58
102
{ACAD_REACTORS
330
4D4D
102
}
330
4D4D
100
AcDbXrecord
  1
{AFB28963-8C59-40AE-9337-C84526B81ACE}
  0
XRECORD
  5
4D59
102
{ACAD_REACTORS
330
4D4D
102
}
330
4D4D
100
AcDbXrecord
  1
{A06D26E8-7B90-47CA-91F5-5E62896E2A83}
  0
XRECORD
  5
4D5A
102
{ACAD_REACTORS
330
4D4D
102
}
330
4D4D
100
AcDbXrecord
 40
0.0
  0
XRECORD
  5
4D5B
102
{ACAD_REACTORS
330
4D4D
102
}
330
4D4D
100
AcDbXrecord
1000
DSTYLE
1002
{
1070
    79
 70
     2
1070
   341
340
59
1070
   342
340
59
1070
   371
 70
    -1
1070
   372
 70
    -1
1002
}
  0
XRECORD
  5
4D5C
102
{ACAD_REACTORS
330
4D4D
102
}
330
4D4D
100
AcDbXrecord
340
0
  0
XRECORD
  5
4D5D
102
{ACAD_REACTORS
330
4D4D
102
}
330
4D4D
100
AcDbXrecord
 70
     0
  0
XRECORD
  5
4D5E
102
{ACAD_REACTORS
330
4D4D
102
}
330
4D4D
100
AcDbXrecord
340
0
  0
XRECORD
  5
4D5F
102
{ACAD_REACTORS
330
4D4D
102
}
330
4D4D
100
AcDbXrecord
 10
0.0
 20
0.0
 30
0.0
  0
XRECORD
  5
4D60
102
{ACAD_REACTORS
330
4D4D
102
}
330
4D4D
100
AcDbXrecord
 10
0.0
 20
0.0
 30
0.0
  0
XRECORD
  5
4D61
102
{ACAD_REACTORS
330
4D4D
102
}
330
4D4D
100
AcDbXrecord
 10
0.0
 20
0.0
 30
0.0
  0
XRECORD
  5
4D62
102
{ACAD_REACTORS
330
4D4D
102
}
330
4D4D
100
AcDbXrecord
 10
0.0
 20
0.0
 30
0.0
  0
XRECORD
  5
4D63
102
{ACAD_REACTORS
330
4D4D
102
}
330
4D4D
100
AcDbXrecord
 10
0.0
 20
0.0
 30
0.0
  0
XRECORD
  5
4D64
102
{ACAD_REACTORS
330
4D4D
102
}
330
4D4D
100
AcDbXrecord
 10
0.0
 20
0.0
 30
0.0
  0
XRECORD
  5
4D65
102
{ACAD_REACTORS
330
4D4D
102
}
330
4D4D
100
AcDbXrecord
340
0
  0
XRECORD
  5
4D66
102
{ACAD_REACTORS
330
4D4D
102
}
330
4D4D
100
AcDbXrecord
 70
     0
  0
XRECORD
  5
4D67
102
{ACAD_REACTORS
330
4D4D
102
}
330
4D4D
100
AcDbXrecord
340
0
  0
XRECORD
  5
4D68
102
{ACAD_REACTORS
330
4D4D
102
}
330
4D4D
100
AcDbXrecord
 10
0.0
 20
0.0
 30
0.0
  0
XRECORD
  5
4D69
102
{ACAD_REACTORS
330
4D4D
102
}
330
4D4D
100
AcDbXrecord
 10
0.0
 20
0.0
 30
0.0
  0
XRECORD
  5
4D6A
102
{ACAD_REACTORS
330
4D4D
102
}
330
4D4D
100
AcDbXrecord
 10
0.0
 20
0.0
 30
0.0
  0
XRECORD
  5
4D6B
102
{ACAD_REACTORS
330
4D4D
102
}
330
4D4D
100
AcDbXrecord
 10
0.0
 20
0.0
 30
0.0
  0
XRECORD
  5
4D6C
102
{ACAD_REACTORS
330
4D4D
102
}
330
4D4D
100
AcDbXrecord
 10
0.0
 20
0.0
 30
0.0
  0
XRECORD
  5
4D6D
102
{ACAD_REACTORS
330
4D4D
102
}
330
4D4D
100
AcDbXrecord
 10
0.0
 20
0.0
 30
0.0
  0
LAYER_INDEX
  5
4D44
102
{ACAD_REACTORS
330
4D43
102
}
330
4D43
100
AcDbIndex
 40
2453151.856510405
100
AcDbLayerIndex
  8
0
360
4D45
 90
        0
  8
AM_0
360
4D46
 90
       41
  8
AM_11
360
4D47
 90
        4
  8
AM_7
360
4D48
 90
        1
  8
AM_5
360
4D49
 90
        5
  8
Defpoints
360
4D4A
 90
        0
  8
AM_6
360
4D4B
 90
        1
  0
XRECORD
  5
2D
102
{ACAD_REACTORS
330
2C
102
}
330
2C
100
AcDbXrecord
  1
VERSION
140
15.0
  1
PRODUCT
  2
AutoCAD Mechanical 2000
  0
IDBUFFER
  5
4D45
330
0
100
AcDbIdBuffer
  0
IDBUFFER
  5
4D46
330
0
100
AcDbIdBuffer
330
4C2F
330
4C30
330
4C33
330
4C42
330
4C45
330
4C46
330
4C47
330
4C48
330
4C49
330
4C4A
330
4C4B
330
4C4C
330
4C4D
330
4C4E
330
4C4F
330
4C50
330
4C51
330
4C52
330
4CD9
330
4CDA
330
4CDB
330
4CDC
330
4CDF
330
4CE0
330
4CE1
330
4548
330
454B
330
454C
330
455A
330
4566
330
4569
330
4928
330
4929
330
492A
330
492B
330
492C
330
492D
330
492E
330
492F
330
4C2C
330
4C2D
  0
IDBUFFER
  5
4D47
330
0
100
AcDbIdBuffer
330
4927
330
4C32
330
4C43
330
4C44
  0
IDBUFFER
  5
4D48
330
0
100
AcDbIdBuffer
330
3EE8
  0
IDBUFFER
  5
4D49
330
0
100
AcDbIdBuffer
330
4047
330
412A
330
42F4
330
454D
330
4C65
  0
IDBUFFER
  5
4D4A
330
0
100
AcDbIdBuffer
  0
IDBUFFER
  5
4D4B
330
0
100
AcDbIdBuffer
330
1500
  0
ENDSEC
  0
EOF
