  0
SECTION
  2
HEADER
  9
$ACADVER
  1
AC1014
  9
$ACADMAINTVER
 70
     9
  9
$DWGCODEPAGE
  3
ANSI_932
  9
$INSBASE
 10
0.0
 20
0.0
 30
0.0
  9
$EXTMIN
 10
-150.7562430222803
 20
-61.17839580177411
 30
-0.00000001
  9
$EXTMAX
 10
18.25828354081445
 20
10.00060500091338
 30
0.00000001
  9
$LIMMIN
 10
-165.0406886155364
 20
-77.46656336229071
  9
$LIMMAX
 10
37.81815160731753
 20
27.83246914333841
  9
$ORTHOMODE
 70
     0
  9
$REGENMODE
 70
     1
  9
$FILLMODE
 70
     1
  9
$QTEXTMODE
 70
     0
  9
$MIRRTEXT
 70
     0
  9
$DRAGMODE
 70
     2
  9
$LTSCALE
 40
1.0
  9
$OSMODE
 70
    55
  9
$ATTMODE
 70
     1
  9
$TEXTSIZE
 40
2.5
  9
$TRACEWID
 40
1.0
  9
$TEXTSTYLE
  7
STANDARD
  9
$CLAYER
  8
AM_0
  9
$CELTYPE
  6
BYLAYER
  9
$CECOLOR
 62
   256
  9
$CELTSCALE
 40
1.0
  9
$DELOBJ
 70
     1
  9
$DISPSILH
 70
     0
  9
$DIMSCALE
 40
1.0
  9
$DIMASZ
 40
2.5
  9
$DIMEXO
 40
1.0
  9
$DIMDLI
 40
12.0
  9
$DIMRND
 40
0.0
  9
$DIMDLE
 40
0.0
  9
$DIMEXE
 40
1.0
  9
$DIMTP
 40
0.1
  9
$DIMTM
 40
0.1
  9
$DIMTXT
 40
3.2
  9
$DIMCEN
 40
0.0
  9
$DIMTSZ
 40
0.0
  9
$DIMTOL
 70
     0
  9
$DIMLIM
 70
     0
  9
$DIMTIH
 70
     0
  9
$DIMTOH
 70
     0
  9
$DIMSE1
 70
     0
  9
$DIMSE2
 70
     0
  9
$DIMTAD
 70
     3
  9
$DIMZIN
 70
     8
  9
$DIMBLK
  1
OPEN30
  9
$DIMASO
 70
     1
  9
$DIMSHO
 70
     1
  9
$DIMPOST
  1

  9
$DIMAPOST
  1
"
  9
$DIMALT
 70
     0
  9
$DIMALTD
 70
     2
  9
$DIMALTF
 40
0.0393701
  9
$DIMLFAC
 40
1.0
  9
$DIMTOFL
 70
     1
  9
$DIMTVP
 40
0.0
  9
$DIMTIX
 70
     0
  9
$DIMSOXD
 70
     0
  9
$DIMSAH
 70
     0
  9
$DIMBLK1
  1

  9
$DIMBLK2
  1

  9
$DIMSTYLE
  2
AM_JIS
  9
$DIMCLRD
 70
   256
  9
$DIMCLRE
 70
   256
  9
$DIMCLRT
 70
     2
  9
$DIMTFAC
 40
0.71
  9
$DIMGAP
 40
1.5
  9
$DIMJUST
 70
     0
  9
$DIMSD1
 70
     0
  9
$DIMSD2
 70
     0
  9
$DIMTOLJ
 70
     0
  9
$DIMTZIN
 70
     0
  9
$DIMALTZ
 70
     0
  9
$DIMALTTZ
 70
     0
  9
$DIMFIT
 70
     3
  9
$DIMUPT
 70
     0
  9
$DIMUNIT
 70
     2
  9
$DIMDEC
 70
     3
  9
$DIMTDEC
 70
     3
  9
$DIMALTU
 70
     2
  9
$DIMALTTD
 70
     2
  9
$DIMTXSTY
  7
ASAMI
  9
$DIMAUNIT
 70
     0
  9
$LUNITS
 70
     2
  9
$LUPREC
 70
     2
  9
$SKETCHINC
 40
1.0
  9
$FILLETRAD
 40
2.5
  9
$AUNITS
 70
     0
  9
$AUPREC
 70
     0
  9
$MENU
  1
.
  9
$ELEVATION
 40
0.0
  9
$PELEVATION
 40
0.0
  9
$THICKNESS
 40
0.0
  9
$LIMCHECK
 70
     0
  9
$BLIPMODE
 70
     0
  9
$CHAMFERA
 40
1.25
  9
$CHAMFERB
 40
1.25
  9
$CHAMFERC
 40
20.0
  9
$CHAMFERD
 40
0.0
  9
$SKPOLY
 70
     0
  9
$TDCREATE
 40
2452838.430434386
  9
$TDUPDATE
 40
2453151.857589352
  9
$TDINDWG
 40
0.1946021528
  9
$TDUSRTIMER
 40
0.1946021528
  9
$USRTIMER
 70
     1
  9
$ANGBASE
 50
0.0
  9
$ANGDIR
 70
     0
  9
$PDMODE
 70
     0
  9
$PDSIZE
 40
0.0
  9
$PLINEWID
 40
0.0
  9
$COORDS
 70
     1
  9
$SPLFRAME
 70
     0
  9
$SPLINETYPE
 70
     6
  9
$SPLINESEGS
 70
     8
  9
$ATTDIA
 70
     1
  9
$ATTREQ
 70
     1
  9
$HANDLING
 70
 12289
  9
$HANDSEED
  5
549F
  9
$SURFTAB1
 70
     6
  9
$SURFTAB2
 70
     6
  9
$SURFTYPE
 70
     6
  9
$SURFU
 70
     6
  9
$SURFV
 70
     6
  9
$UCSNAME
  2

  9
$UCSORG
 10
0.0
 20
0.0
 30
0.0
  9
$UCSXDIR
 10
1.0
 20
0.0
 30
0.0
  9
$UCSYDIR
 10
0.0
 20
1.0
 30
0.0
  9
$PUCSNAME
  2

  9
$PUCSORG
 10
0.0
 20
0.0
 30
0.0
  9
$PUCSXDIR
 10
1.0
 20
0.0
 30
0.0
  9
$PUCSYDIR
 10
0.0
 20
1.0
 30
0.0
  9
$USERI1
 70
     0
  9
$USERI2
 70
     0
  9
$USERI3
 70
     0
  9
$USERI4
 70
     0
  9
$USERI5
 70
     0
  9
$USERR1
 40
0.0
  9
$USERR2
 40
0.0
  9
$USERR3
 40
0.0
  9
$USERR4
 40
0.0
  9
$USERR5
 40
0.0
  9
$WORLDVIEW
 70
     1
  9
$SHADEDGE
 70
     3
  9
$SHADEDIF
 70
    70
  9
$TILEMODE
 70
     1
  9
$MAXACTVP
 70
    64
  9
$PINSBASE
 10
0.0
 20
0.0
 30
0.0
  9
$PLIMCHECK
 70
     0
  9
$PEXTMIN
 10
1.000000000000000E+20
 20
1.000000000000000E+20
 30
1.000000000000000E+20
  9
$PEXTMAX
 10
-1.000000000000000E+20
 20
-1.000000000000000E+20
 30
-1.000000000000000E+20
  9
$PLIMMIN
 10
0.0
 20
0.0
  9
$PLIMMAX
 10
841.0
 20
594.0
  9
$UNITMODE
 70
     0
  9
$VISRETAIN
 70
     1
  9
$PLINEGEN
 70
     0
  9
$PSLTSCALE
 70
     0
  9
$TREEDEPTH
 70
  3020
  9
$PICKSTYLE
 70
     0
  9
$CMLSTYLE
  2
STANDARD
  9
$CMLJUST
 70
     0
  9
$CMLSCALE
 40
20.0
  9
$PROXYGRAPHICS
 70
     1
  9
$MEASUREMENT
 70
     1
  0
ENDSEC
  0
SECTION
  2
CLASSES
  0
CLASS
  1
ACDBDICTIONARYWDFLT
  2
AcDbDictionaryWithDefault
  3
AutoCAD 2000
 90
        0
280
     0
281
     0
  0
CLASS
  1
ACDBPLACEHOLDER
  2
AcDbPlaceHolder
  3
AutoCAD 2000
 90
        0
280
     0
281
     0
  0
CLASS
  1
LAYOUT
  2
AcDbLayout
  3
AutoCAD 2000
 90
        0
280
     0
281
     0
  0
CLASS
  1
AMGSETTINGSOBJ
  2
AmgSettingsObj
  3
"AcadM|Product Description: AutoCAD Mechanical 2000|Company: Autodesk"
 90
        0
280
     0
281
     0
  0
CLASS
  1
ACME_DOCUMENT
  2
AcMeDbDoc
  3
AcMeServices
 90
        0
280
     0
281
     0
  0
CLASS
  1
ACMESCOPE
  2
AcMeScope
  3
AcMeServices
 90
        0
280
     0
281
     0
  0
CLASS
  1
ACMECOMMANDHISTORY
  2
AcMeCommandHistory
  3
AcMeServices
 90
        0
280
     0
281
     0
  0
CLASS
  1
DICTIONARYVAR
  2
AcDbDictionaryVar
  3
AutoCAD 2000
 90
        0
280
     0
281
     0
  0
CLASS
  1
ACIMSYSVARMAN
  2
AcImSysVarManager
  3
AcMeServices
 90
        0
280
     0
281
     0
  0
CLASS
  1
ACIMREALSYSVAR
  2
AcImRealSysVar
  3
AcMeServices
 90
        0
280
     0
281
     0
  0
CLASS
  1
ACIMINTSYSVAR
  2
AcImIntSysVar
  3
AcMeServices
 90
        0
280
     0
281
     0
  0
CLASS
  1
ACMEDRAWINGMAN
  2
AcMeDrawingMan
  3
AcMeServices
 90
        0
280
     0
281
     0
  0
CLASS
  1
ACMEVIEW
  2
AcMeView
  3
AcMeServices
 90
        0
280
     0
281
     0
  0
CLASS
  1
ACDBENTITYCACHE
  2
AcMeEntityCache
  3
AcMeServices
 90
        0
280
     0
281
     0
  0
CLASS
  1
GSMANAGER
  2
AcMeGSManager
  3
AcMeServices
 90
        0
280
     0
281
     0
  0
CLASS
  1
AmdtInternalReactor
  2
AmdtInternalReactor
  3
AcMeServices
 90
        0
280
     0
281
     0
  0
CLASS
  1
ACMESTATEMGR
  2
AcMeStateMgr
  3
AcMeServices
 90
        0
280
     0
281
     0
  0
CLASS
  1
ACME_DATABASE
  2
AcMeDbDatabase
  3
AcMeServices
 90
        0
280
     0
281
     0
  0
CLASS
  1
ACRFINSADJUSTERMGR
  2
AcRfInsAdjusterMgr
  3
AcMeServices
 90
        0
280
     0
281
     0
  0
CLASS
  1
ACMDATADICTIONARY
  2
AcmDataDictionary
  3
"AcmSymBB|Product Description: AutoCAD Mechanical 2000|Company: Autodesk"
 90
        0
280
     0
281
     0
  0
CLASS
  1
ACMDATAENTRYBLOCK
  2
AcmDataEntryBlock
  3
"AcmSymBB|Product Description: AutoCAD Mechanical 2000|Company: Autodesk"
 90
        0
280
     0
281
     0
  0
CLASS
  1
AMGOBJPROPCFG
  2
AmgObjPropCfg
  3
"AmgLay|Product Description: AutoCAD Mechanical 2000|Company: Autodesk"
 90
        1
280
     0
281
     0
  0
CLASS
  1
ACAMGFILTERDAT
  2
AcAmgFilterDat
  3
"AcadM|Product Description: AutoCAD Mechanical 2000|Company: Autodesk"
 90
        0
280
     0
281
     0
  0
CLASS
  1
LAYER_INDEX
  2
AcDbLayerIndex
  3
AutoCAD 2000
 90
        0
280
     0
281
     0
  0
CLASS
  1
IDBUFFER
  2
AcDbIdBuffer
  3
AutoCAD 2000
 90
        0
280
     0
281
     0
  0
CLASS
  1
ACIMSTRSYSVAR
  2
AcImStrSysVar
  3
AcMeServices
 90
        0
280
     0
281
     0
  0
CLASS
  1
ACMSTANDARDJIS
  2
AcmStandardJIS
  3
"AcmSymBB|Product Description: AutoCAD Mechanical 2000|Company: Autodesk"
 90
        0
280
     0
281
     0
  0
CLASS
  1
ACMSURFSTANDARDJIS
  2
AcmSurfTextStdJIS
  3
"AcmSymBB|Product Description: AutoCAD Mechanical 2000|Company: Autodesk"
 90
        0
280
     0
281
     0
  0
CLASS
  1
ACMFCFSTANDARDJIS
  2
AcmFCFStdJIS
  3
"AcmSymBB|Product Description: AutoCAD Mechanical 2000|Company: Autodesk"
 90
        0
280
     0
281
     0
  0
CLASS
  1
ACMWELDSTANDARDJIS
  2
AcmWeldingStdJIS
  3
"AcmSymBB|Product Description: AutoCAD Mechanical 2000|Company: Autodesk"
 90
        0
280
     0
281
     0
  0
CLASS
  1
ACMIDSTANDARDJIS
  2
AcmIdStdJIS
  3
"AcmSymBB|Product Description: AutoCAD Mechanical 2000|Company: Autodesk"
 90
        0
280
     0
281
     0
  0
CLASS
  1
ACMDATUMSTANDARDJIS
  2
AcmDatumStdJIS
  3
"AcmSymBB|Product Description: AutoCAD Mechanical 2000|Company: Autodesk"
 90
        0
280
     0
281
     0
  0
CLASS
  1
ACMBOMSTANDARDJIS
  2
AcmBOMStdJIS
  3
"AcmSymBB|Product Description: AutoCAD Mechanical 2000|Company: Autodesk"
 90
        0
280
     0
281
     0
  0
CLASS
  1
ACMSTANDARDANSI
  2
AcmStandardANSI
  3
"AcmSymBB|Product Description: AutoCAD Mechanical 2000|Company: Autodesk"
 90
        0
280
     0
281
     0
  0
CLASS
  1
ACMSURFSTANDARDANSI
  2
AcmSurfTextStdANSI
  3
"AcmSymBB|Product Description: AutoCAD Mechanical 2000|Company: Autodesk"
 90
        0
280
     0
281
     0
  0
CLASS
  1
ACMFCFSTANDARDANSI
  2
AcmFCFStdANSI
  3
"AcmSymBB|Product Description: AutoCAD Mechanical 2000|Company: Autodesk"
 90
        0
280
     0
281
     0
  0
CLASS
  1
ACMWELDSTANDARDANSI
  2
AcmWeldingStdANSI
  3
"AcmSymBB|Product Description: AutoCAD Mechanical 2000|Company: Autodesk"
 90
        0
280
     0
281
     0
  0
CLASS
  1
ACMIDSTANDARDANSI
  2
AcmIdStdANSI
  3
"AcmSymBB|Product Description: AutoCAD Mechanical 2000|Company: Autodesk"
 90
        0
280
     0
281
     0
  0
CLASS
  1
ACMDATUMSTANDARDANSI
  2
AcmDatumStdANSI
  3
"AcmSymBB|Product Description: AutoCAD Mechanical 2000|Company: Autodesk"
 90
        0
280
     0
281
     0
  0
CLASS
  1
ACMBOMSTANDARDANSI
  2
AcmBOMStdANSI
  3
"AcmSymBB|Product Description: AutoCAD Mechanical 2000|Company: Autodesk"
 90
        0
280
     0
281
     0
  0
CLASS
  1
ACMSTANDARDBSI
  2
AcmStandardBSI
  3
"AcmSymBB|Product Description: AutoCAD Mechanical 2000|Company: Autodesk"
 90
        0
280
     0
281
     0
  0
CLASS
  1
ACMSURFSTANDARDBSI
  2
AcmSurfTextStdBSI
  3
"AcmSymBB|Product Description: AutoCAD Mechanical 2000|Company: Autodesk"
 90
        0
280
     0
281
     0
  0
CLASS
  1
ACMFCFSTANDARDBSI
  2
AcmFCFStdBSI
  3
"AcmSymBB|Product Description: AutoCAD Mechanical 2000|Company: Autodesk"
 90
        0
280
     0
281
     0
  0
CLASS
  1
ACMWELDSTANDARDBSI
  2
AcmWeldingStdBSI
  3
"AcmSymBB|Product Description: AutoCAD Mechanical 2000|Company: Autodesk"
 90
        0
280
     0
281
     0
  0
CLASS
  1
ACMIDSTANDARDBSI
  2
AcmIdStdBSI
  3
"AcmSymBB|Product Description: AutoCAD Mechanical 2000|Company: Autodesk"
 90
        0
280
     0
281
     0
  0
CLASS
  1
ACMDATUMSTANDARDBSI
  2
AcmDatumStdBSI
  3
"AcmSymBB|Product Description: AutoCAD Mechanical 2000|Company: Autodesk"
 90
        0
280
     0
281
     0
  0
CLASS
  1
ACMBOMSTANDARDBSI
  2
AcmBOMStdBSI
  3
"AcmSymBB|Product Description: AutoCAD Mechanical 2000|Company: Autodesk"
 90
        0
280
     0
281
     0
  0
CLASS
  1
LONG_TRANSACTION
  2
AcDbLongTransaction
  3
AutoCAD 2000
 90
        0
280
     0
281
     0
  0
CLASS
  1
LWPOLYLINE
  2
AcDbPolyline
  3
AutoCAD 2000
 90
        0
280
     0
281
     1
  0
CLASS
  1
HATCH
  2
AcDbHatch
  3
AutoCAD 2000
 90
        0
280
     0
281
     1
  0
CLASS
  1
XRECORD
  2
AcDbXrecord
  3
AutoCAD 2000
 90
        0
280
     0
281
     0
  0
ENDSEC
  0
SECTION
  2
TABLES
  0
TABLE
  2
VPORT
  5
8
330
0
100
AcDbSymbolTable
 70
     3
  0
VPORT
  5
546E
330
8
100
AcDbSymbolTableRecord
100
AcDbViewportTableRecord
  2
*ACTIVE
 70
     0
 10
0.0
 20
0.0
 11
1.0
 21
1.0
 12
-66.25007970005518
 22
-25.23881499273954
 13
0.0
 23
0.0
 14
2.5
 24
2.5
 15
10.0
 25
10.0
 16
0.0
 26
0.0
 36
1.0
 17
0.0
 27
0.0
 37
0.0
 40
108.3977597256421
 41
1.56570841889117
 42
50.0
 43
0.0
 44
0.0
 50
0.0
 51
0.0
 71
     0
 72
   100
 73
     1
 74
     3
 75
     0
 76
     0
 77
     0
 78
     0
  0
ENDTAB
  0
TABLE
  2
LTYPE
  5
5
330
0
100
AcDbSymbolTable
 70
    10
  0
LTYPE
  5
14
330
5
100
AcDbSymbolTableRecord
100
AcDbLinetypeTableRecord
  2
BYBLOCK
 70
     0
  3

 72
    65
 73
     0
 40
0.0
  0
LTYPE
  5
15
330
5
100
AcDbSymbolTableRecord
100
AcDbLinetypeTableRecord
  2
BYLAYER
 70
     0
  3

 72
    65
 73
     0
 40
0.0
  0
LTYPE
  5
16
330
5
100
AcDbSymbolTableRecord
100
AcDbLinetypeTableRecord
  2
CONTINUOUS
 70
     0
  3
Solid line
 72
    65
 73
     0
 40
0.0
  0
LTYPE
  5
4B
330
5
100
AcDbSymbolTableRecord
100
AcDbLinetypeTableRecord
  2
AM_ISO02W050
 70
     0
  3
__ __ __ __ __ __ __ __ __ __ __ __ __ __ __
 72
    65
 73
     2
 40
7.5
 49
6.0
 74
     0
 49
-1.5
 74
     0
  0
LTYPE
  5
4C
330
5
100
AcDbSymbolTableRecord
100
AcDbLinetypeTableRecord
  2
AM_ISO08W050
 70
     0
  3
____ . ____ . ____ . ____ . ____ . ____ . ____
 72
    65
 73
     4
 40
18.0
 49
12.0
 74
     0
 49
-1.5
 74
     0
 49
3.0
 74
     0
 49
-1.5
 74
     0
  0
LTYPE
  5
4D
330
5
100
AcDbSymbolTableRecord
100
AcDbLinetypeTableRecord
  2
AM_ISO09W050
 70
     0
  3
_____ . . _____ . . _____ . . ____ .. ____
 72
    65
 73
     6
 40
22.5
 49
12.0
 74
     0
 49
-1.5
 74
     0
 49
3.0
 74
     0
 49
-1.5
 74
     0
 49
3.0
 74
     0
 49
-1.5
 74
     0
  0
LTYPE
  5
4E
330
5
100
AcDbSymbolTableRecord
100
AcDbLinetypeTableRecord
  2
AMCONSTR
 70
     0
  3
_______________________
 72
    65
 73
     2
 40
9999.0
 49
9999.0
 74
     0
 49
0.0
 74
     0
  0
LTYPE
  5
4F
330
5
100
AcDbSymbolTableRecord
100
AcDbLinetypeTableRecord
  2
AM_ISO02W050X2
 70
     0
  3
 _ _ _ _ _ _ _ _ _ _ _ _
 72
    65
 73
     2
 40
3.75
 49
3.0
 74
     0
 49
-0.75
 74
     0
  0
LTYPE
  5
50
330
5
100
AcDbSymbolTableRecord
100
AcDbLinetypeTableRecord
  2
AM_ISO08W050X2
 70
     0
  3
__ . __ . __ . __ . __ . __
 72
    65
 73
     4
 40
9.0
 49
6.0
 74
     0
 49
-0.75
 74
     0
 49
1.5
 74
     0
 49
-0.75
 74
     0
  0
LTYPE
  5
53
330
5
100
AcDbSymbolTableRecord
100
AcDbLinetypeTableRecord
  2
AMZIGZAG
 70
     0
  3
/\/-/\/-/\/-/\/-/\/-/\/
 72
    65
 73
     2
 40
11.00009999999999
 49
0.0001
 74
     4
 75
   135
340
52
 46
0.04
 50
0.0
 44
0.0
 45
0.0
 49
-11.0
 74
     0
  0
LTYPE
  5
166
330
5
100
AcDbSymbolTableRecord
100
AcDbLinetypeTableRecord
  2
ACJISTGL
 70
     0
  3
_ _ _ _ _
 72
    65
 73
     2
 40
3.0
 49
2.0
 74
     0
 49
-1.0
 74
     0
  0
LTYPE
  5
26A
330
5
100
AcDbSymbolTableRecord
100
AcDbLinetypeTableRecord
  2
ACJISTGB
 70
     0
  3
__ . . __ . .
 72
    65
 73
     6
 40
9.0
 49
4.0
 74
     0
 49
-1.0
 74
     0
 49
1.0
 74
     0
 49
-1.0
 74
     0
 49
1.0
 74
     0
 49
-1.0
 74
     0
  0
ENDTAB
  0
TABLE
  2
LAYER
  5
2
330
0
100
AcDbSymbolTable
 70
     7
  0
LAYER
  5
10
330
2
100
AcDbSymbolTableRecord
100
AcDbLayerTableRecord
  2
0
 70
     0
 62
     7
  6
CONTINUOUS
  0
LAYER
  5
3F9
330
2
100
AcDbSymbolTableRecord
100
AcDbLayerTableRecord
  2
AM_0
 70
     0
 62
     7
  6
CONTINUOUS
  0
LAYER
  5
BDD
330
2
100
AcDbSymbolTableRecord
100
AcDbLayerTableRecord
  2
AM_11
 70
     0
 62
     3
  6
AM_ISO09W050
  0
LAYER
  5
BDE
330
2
100
AcDbSymbolTableRecord
100
AcDbLayerTableRecord
  2
AM_7
 70
     0
 62
     4
  6
AM_ISO08W050
  0
LAYER
  5
BDF
330
2
100
AcDbSymbolTableRecord
100
AcDbLayerTableRecord
  2
AM_5
 70
     0
 62
     3
  6
CONTINUOUS
  0
LAYER
  5
BE0
330
2
100
AcDbSymbolTableRecord
100
AcDbLayerTableRecord
  2
DEFPOINTS
 70
     0
 62
     7
  6
CONTINUOUS
  0
LAYER
  5
14FF
330
2
100
AcDbSymbolTableRecord
100
AcDbLayerTableRecord
  2
AM_6
 70
     0
 62
     2
  6
CONTINUOUS
  0
ENDTAB
  0
TABLE
  2
STYLE
  5
3
330
0
100
AcDbSymbolTable
 70
     5
  0
STYLE
  5
11
330
3
100
AcDbSymbolTableRecord
100
AcDbTextStyleTableRecord
  2
STANDARD
 70
     0
 40
0.0
 41
1.0
 50
0.0
 71
     0
 42
2.5
  3
simplex.shx
  4
EXTFONT.SHX
  0
STYLE
  5
52
330
3
100
AcDbSymbolTableRecord
100
AcDbTextStyleTableRecord
  2

 70
     1
 40
0.0
 41
1.0
 50
0.0
 71
     0
 42
2.5
  3
ltypeshp.shx
  4

  0
STYLE
  5
6B
330
3
100
AcDbSymbolTableRecord
100
AcDbTextStyleTableRecord
  2
ASAMI
 70
     0
 40
0.0
 41
1.0
 50
0.0
 71
     0
 42
2.5
  3
simplex.shx
  4
EXTFONT.SHX
  0
STYLE
  5
262
330
3
100
AcDbSymbolTableRecord
100
AcDbTextStyleTableRecord
  2
ACJISTS
 70
     0
 40
1.0
 41
1.0
 50
0.0
 71
     0
 42
2.5
  3
simplex.shx
  4
bigfont.shx
  0
STYLE
  5
269
330
3
100
AcDbSymbolTableRecord
100
AcDbTextStyleTableRecord
  2
ACJISGDT
 70
     0
 40
0.0
 41
1.0
 50
0.0
 71
     0
 42
2.5
  3
amgdtans.shx
  4

  0
ENDTAB
  0
TABLE
  2
VIEW
  5
6
330
0
100
AcDbSymbolTable
 70
     0
  0
ENDTAB
  0
TABLE
  2
UCS
  5
7
330
0
100
AcDbSymbolTable
 70
     0
  0
ENDTAB
  0
TABLE
  2
APPID
  5
9
330
0
100
AcDbSymbolTable
 70
    14
  0
APPID
  5
12
330
9
100
AcDbSymbolTableRecord
100
AcDbRegAppTableRecord
  2
ACAD
 70
     0
  0
APPID
  5
30
330
9
100
AcDbSymbolTableRecord
100
AcDbRegAppTableRecord
  2
MCAD_NO_VIS
 70
     0
  0
APPID
  5
31
330
9
100
AcDbSymbolTableRecord
100
AcDbRegAppTableRecord
  2
ACAD_TEMP_GRAPHIC
 70
     0
  0
APPID
  5
2C2
330
9
100
AcDbSymbolTableRecord
100
AcDbRegAppTableRecord
  2
GENIUS_GENDTOL_13
 70
     0
  0
APPID
  5
339
330
9
100
AcDbSymbolTableRecord
100
AcDbRegAppTableRecord
  2
GENIUS_GENODEF_13
 70
     0
  0
APPID
  5
33A
330
9
100
AcDbSymbolTableRecord
100
AcDbRegAppTableRecord
  2
GENIUS_GENOBJ-N-RSBK_13
 70
     0
  0
APPID
  5
33B
330
9
100
AcDbSymbolTableRecord
100
AcDbRegAppTableRecord
  2
GENIUS_GENOBJ-N-LIB_13
 70
     0
  0
APPID
  5
33C
330
9
100
AcDbSymbolTableRecord
100
AcDbRegAppTableRecord
  2
GENIUS_GENSCALE_13
 70
     0
  0
APPID
  5
378
330
9
100
AcDbSymbolTableRecord
100
AcDbRegAppTableRecord
  2
GENIUS_GENDIMSH_14
 70
     0
  0
APPID
  5
BE1
330
9
100
AcDbSymbolTableRecord
100
AcDbRegAppTableRecord
  2
GENIUS_GENFIL_13
 70
     0
  0
APPID
  5
BE2
330
9
100
AcDbSymbolTableRecord
100
AcDbRegAppTableRecord
  2
GENIUS_GENOBJ-N-CHA_13
 70
     0
  0
APPID
  5
151B
330
9
100
AcDbSymbolTableRecord
100
AcDbRegAppTableRecord
  2
DCO15
 70
     0
  0
APPID
  5
1860
330
9
100
AcDbSymbolTableRecord
100
AcDbRegAppTableRecord
  2
GENIUS_GENOBJ-N-CEN_13
 70
     0
  0
APPID
  5
359C
330
9
100
AcDbSymbolTableRecord
100
AcDbRegAppTableRecord
  2
GENIUS_GENOBJ-N-FIL_13
 70
     0
  0
ENDTAB
  0
TABLE
  2
DIMSTYLE
  5
A
330
0
100
AcDbSymbolTable
 70
     8
  0
DIMSTYLE
105
58
102
{ACAD_REACTORS
330
4047
330
412A
330
42F4
330
4913
102
}
330
A
100
AcDbSymbolTableRecord
100
AcDbDimStyleTableRecord
  2
AM_JIS
 70
     0
  3

  4
"
  5
OPEN30
  6

  7

 40
1.0
 41
2.5
 42
1.0
 43
12.0
 44
1.0
 45
0.0
 46
0.0
 47
0.1
 48
0.1
140
3.2
141
0.0
142
0.0
143
0.0393701
144
1.0
145
0.0
146
0.71
147
1.5
 71
     0
 72
     0
 73
     0
 74
     0
 75
     0
 76
     0
 77
     3
 78
     8
170
     0
171
     2
172
     1
173
     0
174
     0
175
     0
176
   256
177
   256
178
     2
270
     2
271
     3
272
     3
273
     2
274
     2
340
6B
275
     0
280
     0
281
     0
282
     0
283
     0
284
     0
285
     0
286
     0
287
     3
288
     0
  0
DIMSTYLE
105
5F
330
A
100
AcDbSymbolTableRecord
100
AcDbDimStyleTableRecord
  2
AM_JIS$3
 70
     0
  3

  4
"
  5
OPEN30
  6

  7

 40
1.0
 41
2.5
 42
1.0
 43
10.0
 44
1.0
 45
0.0
 46
0.0
 47
0.1
 48
0.1
140
3.2
141
0.0
142
0.0
143
0.0393701
144
1.0
145
0.0
146
0.71
147
1.5
 71
     0
 72
     0
 73
     0
 74
     1
 75
     0
 76
     0
 77
     3
 78
     8
170
     0
171
     2
172
     0
173
     0
174
     0
175
     0
176
   256
177
   256
178
     2
270
     2
271
     2
272
     3
273
     2
274
     2
340
6B
275
     0
280
     0
281
     0
282
     0
283
     0
284
     0
285
     0
286
     0
287
     0
288
     1
  0
DIMSTYLE
105
60
102
{ACAD_REACTORS
330
484C
102
}
330
A
100
AcDbSymbolTableRecord
100
AcDbDimStyleTableRecord
  2
AM_JIS$4
 70
     0
  3

  4
"
  5
OPEN30
  6

  7

 40
1.0
 41
2.5
 42
1.0
 43
10.0
 44
1.0
 45
0.0
 46
0.0
 47
0.1
 48
0.1
140
3.2
141
0.0
142
0.0
143
0.0393701
144
1.0
145
0.0
146
0.71
147
1.5
 71
     0
 72
     0
 73
     0
 74
     1
 75
     0
 76
     0
 77
     3
 78
     8
170
     0
171
     2
172
     0
173
     0
174
     0
175
     0
176
   256
177
   256
178
     2
270
     2
271
     2
272
     3
273
     2
274
     2
340
6B
275
     0
280
     0
281
     0
282
     0
283
     0
284
     0
285
     0
286
     0
287
     0
288
     1
  0
DIMSTYLE
105
61
330
A
100
AcDbSymbolTableRecord
100
AcDbDimStyleTableRecord
  2
AM_JIS$6
 70
     0
  3

  4
"
  5
OPEN30
  6

  7

 40
1.0
 41
2.5
 42
1.0
 43
10.0
 44
1.0
 45
0.0
 46
0.0
 47
0.1
 48
0.1
140
3.2
141
0.0
142
0.0
143
0.0393701
144
1.0
145
0.0
146
0.71
147
1.5
 71
     0
 72
     0
 73
     0
 74
     0
 75
     0
 76
     0
 77
     0
 78
     8
170
     0
171
     2
172
     1
173
     0
174
     0
175
     0
176
   256
177
   256
178
     2
270
     2
271
     2
272
     2
273
     2
274
     2
340
6B
275
     0
280
     0
281
     0
282
     0
283
     0
284
     0
285
     0
286
     0
287
     3
288
     0
  0
DIMSTYLE
105
62
330
A
100
AcDbSymbolTableRecord
100
AcDbDimStyleTableRecord
  2
AM_JIS$7
 70
     0
  3

  4
"
  5
OPEN30
  6

  7

 40
1.0
 41
2.5
 42
1.0
 43
10.0
 44
1.0
 45
0.0
 46
0.0
 47
0.1
 48
0.1
140
3.2
141
0.0
142
0.0
143
0.0393701
144
1.0
145
0.0
146
0.71
147
1.5
 71
     0
 72
     0
 73
     0
 74
     0
 75
     0
 76
     0
 77
     3
 78
     8
170
     0
171
     2
172
     1
173
     0
174
     0
175
     0
176
   256
177
   256
178
     2
270
     2
271
     2
272
     3
273
     2
274
     2
340
6B
275
     0
280
     0
281
     0
282
     0
283
     0
284
     0
285
     0
286
     0
287
     3
288
     0
  0
DIMSTYLE
105
63
330
A
100
AcDbSymbolTableRecord
100
AcDbDimStyleTableRecord
  2
AM_JIS$SF
 70
     0
  3

  4
"
  5
OPEN30
  6

  7

 40
1.0
 41
2.5
 42
1.0
 43
10.0
 44
1.0
 45
0.0
 46
0.0
 47
0.1
 48
0.1
140
3.2
141
0.0
142
0.0
143
0.0393701
144
1.0
145
0.0
146
0.71
147
1.5
 71
     0
 72
     0
 73
     0
 74
     0
 75
     1
 76
     1
 77
     3
 78
     8
170
     0
171
     2
172
     1
173
     0
174
     0
175
     0
176
   256
177
   256
178
     2
270
     2
271
     2
272
     2
273
     2
274
     2
340
6B
275
     0
280
     0
281
     0
282
     0
283
     0
284
     0
285
     0
286
     0
287
     3
288
     0
  0
DIMSTYLE
105
68
330
A
100
AcDbSymbolTableRecord
100
AcDbDimStyleTableRecord
  2
AM_JIS$SH
 70
     0
  3

  4
"
  5

  6
GENAXEH
  7
OPEN30
 40
1.0
 41
2.5
 42
1.0
 43
10.0
 44
1.0
 45
0.0
 46
0.0
 47
0.1
 48
0.1
140
3.2
141
0.0
142
0.0
143
0.0393701
144
2.0
145
0.0
146
0.71
147
1.5
 71
     0
 72
     0
 73
     0
 74
     0
 75
     1
 76
     1
 77
     3
 78
     8
170
     0
171
     2
172
     1
173
     1
174
     0
175
     0
176
   256
177
   256
178
     2
270
     2
271
     2
272
     2
273
     2
274
     2
340
6B
275
     0
280
     0
281
     0
282
     0
283
     0
284
     0
285
     0
286
     0
287
     3
288
     0
  0
DIMSTYLE
105
B34
330
A
100
AcDbSymbolTableRecord
100
AcDbDimStyleTableRecord
  2
AM_JIS$2
 70
     0
  3

  4
"
  5
OPEN30
  6

  7

 40
1.0
 41
2.5
 42
1.0
 43
12.0
 44
1.0
 45
0.0
 46
0.0
 47
0.1
 48
0.1
140
3.2
141
0.0
142
0.0
143
0.0393701
144
1.0
145
0.0
146
0.71
147
1.5
 71
     0
 72
     0
 73
     0
 74
     0
 75
     0
 76
     0
 77
     3
 78
     8
170
     0
171
     2
172
     1
173
     0
174
     0
175
     0
176
   256
177
   256
178
     2
270
     2
271
     3
272
     3
273
     2
274
     2
340
6B
275
     0
280
     0
281
     0
282
     0
283
     0
284
     0
285
     0
286
     0
287
     3
288
     0
  0
ENDTAB
  0
TABLE
  2
BLOCK_RECORD
  5
1
330
0
100
AcDbSymbolTable
 70
    10
  0
BLOCK_RECORD
  5
1F
102
{ACAD_XDICTIONARY
360
74
102
}
330
1
100
AcDbSymbolTableRecord
100
AcDbBlockTableRecord
  2
*MODEL_SPACE
  0
BLOCK_RECORD
  5
101
102
{ACAD_XDICTIONARY
360
5497
102
}
330
1
100
AcDbSymbolTableRecord
100
AcDbBlockTableRecord
  2
*PAPER_SPACE
  0
BLOCK_RECORD
  5
59
330
1
100
AcDbSymbolTableRecord
100
AcDbBlockTableRecord
  2
_OPEN30
  0
BLOCK_RECORD
  5
64
330
1
100
AcDbSymbolTableRecord
100
AcDbBlockTableRecord
  2
GENAXEH
  0
BLOCK_RECORD
  5
4048
330
1
100
AcDbSymbolTableRecord
100
AcDbBlockTableRecord
  2
*D5
  0
BLOCK_RECORD
  5
412B
330
1
100
AcDbSymbolTableRecord
100
AcDbBlockTableRecord
  2
*D6
  0
BLOCK_RECORD
  5
42F5
330
1
100
AcDbSymbolTableRecord
100
AcDbBlockTableRecord
  2
*D7
  0
BLOCK_RECORD
  5
4859
330
1
100
AcDbSymbolTableRecord
100
AcDbBlockTableRecord
  2
*D8
  0
BLOCK_RECORD
  5
4914
330
1
100
AcDbSymbolTableRecord
100
AcDbBlockTableRecord
  2
*D9
  0
ENDTAB
  0
ENDSEC
  0
SECTION
  2
BLOCKS
  0
BLOCK
  5
20
330
1F
100
AcDbEntity
  8
0
100
AcDbBlockBegin
  2
*MODEL_SPACE
 70
     0
 10
0.0
 20
0.0
 30
0.0
  3
*MODEL_SPACE
  1

  0
ENDBLK
  5
21
330
1F
100
AcDbEntity
  8
0
100
AcDbBlockEnd
  0
BLOCK
  5
103
330
101
100
AcDbEntity
 67
     1
  8
0
100
AcDbBlockBegin
  2
*PAPER_SPACE
 70
     0
 10
0.0
 20
0.0
 30
0.0
  3
*PAPER_SPACE
  1

  0
ENDBLK
  5
104
330
101
100
AcDbEntity
 67
     1
  8
0
100
AcDbBlockEnd
  0
BLOCK
  5
5D
330
59
100
AcDbEntity
  8
0
100
AcDbBlockBegin
  2
_OPEN30
 70
     0
 10
0.0
 20
0.0
 30
0.0
  3
_OPEN30
  1

  0
LINE
  5
5A
330
59
100
AcDbEntity
  8
0
 62
     0
100
AcDbLine
 10
-1.0
 20
0.26794919
 30
0.0
 11
0.0
 21
0.0
 31
0.0
  0
LINE
  5
5B
330
59
100
AcDbEntity
  8
0
 62
     0
100
AcDbLine
 10
0.0
 20
0.0
 30
0.0
 11
-1.0
 21
-0.26794919
 31
0.0
  0
LINE
  5
5C
330
59
100
AcDbEntity
  8
0
 62
     0
100
AcDbLine
 10
0.0
 20
0.0
 30
0.0
 11
-1.0
 21
0.0
 31
0.0
  0
ENDBLK
  5
5E
330
59
100
AcDbEntity
  8
0
100
AcDbBlockEnd
  0
BLOCK
  5
66
330
64
100
AcDbEntity
  8
0
100
AcDbBlockBegin
  2
GENAXEH
 70
     0
 10
0.0
 20
0.0
 30
0.0
  3
GENAXEH
  1

  0
LINE
  5
65
330
64
100
AcDbEntity
  8
0
100
AcDbLine
 10
-1.0
 20
0.0
 30
0.0
 11
1.0
 21
0.0
 31
0.0
  0
ENDBLK
  5
67
330
64
100
AcDbEntity
  8
0
100
AcDbBlockEnd
  0
BLOCK
  5
4052
330
4048
100
AcDbEntity
  8
0
100
AcDbBlockBegin
  2
*D5
 70
     1
 10
0.0
 20
0.0
 30
0.0
  3
*D5
  1

  0
LINE
  5
4C5C
330
4048
100
AcDbEntity
  8
AM_5
100
AcDbLine
 10
-130.0000478923208
 20
-9.749394999086316
 30
0.0
 11
-130.0000478923208
 21
-39.67839580177408
 31
0.0
  0
LINE
  5
4C5D
330
4048
100
AcDbEntity
  8
AM_5
100
AcDbLine
 10
-0.0000000000000074
 20
-0.9999999999999998
 30
0.0
 11
-0.0000000000000098
 21
-39.67839580177408
 31
0.0
  0
LINE
  5
4C5E
330
4048
100
AcDbEntity
  8
AM_5
100
AcDbLine
 10
-127.5000478923208
 20
-38.67839580177408
 30
0.0
 11
-2.500000000000009
 21
-38.67839580177408
 31
0.0
  0
INSERT
  5
4C5F
330
4048
100
AcDbEntity
  8
AM_5
100
AcDbBlockReference
  2
_OPEN30
 10
-130.0000478923208
 20
-38.67839580177408
 30
0.0
 41
2.5
 42
2.5
 43
2.5
 50
180.0
  0
INSERT
  5
4C60
330
4048
100
AcDbEntity
  8
AM_5
100
AcDbBlockReference
  2
_OPEN30
 10
-0.0000000000000097
 20
-38.67839580177408
 30
0.0
 41
2.5
 42
2.5
 43
2.5
  0
MTEXT
  5
4C61
330
4048
100
AcDbEntity
  8
AM_5
 62
     2
100
AcDbMText
 10
-65.00002394616044
 20
-35.57839580177407
 30
0.0
 40
3.2
 41
0.0
 71
     5
 72
     1
  1
130
  7
ASAMI
1001
ACAD
1000
MTEXTBEGIN
1070
    73
1070
     1
1070
    44
1040
1.0
1070
    74
1070
     0
1000
MTEXTEND
  0
POINT
  5
4C62
330
4048
100
AcDbEntity
  8
DEFPOINTS
 62
     0
100
AcDbPoint
 10
-130.0000478923208
 20
-8.749394999086316
 30
0.0
  0
POINT
  5
4C63
330
4048
100
AcDbEntity
  8
DEFPOINTS
 62
     0
100
AcDbPoint
 10
-0.0000000000000073
 20
0.0000000000000001
 30
0.0
  0
POINT
  5
4C64
330
4048
100
AcDbEntity
  8
DEFPOINTS
 62
     0
100
AcDbPoint
 10
-0.0000000000000097
 20
-38.67839580177408
 30
0.0
  0
ENDBLK
  5
4053
330
4048
100
AcDbEntity
  8
0
100
AcDbBlockEnd
  0
BLOCK
  5
4135
330
412B
100
AcDbEntity
  8
0
100
AcDbBlockBegin
  2
*D6
 70
     1
 10
0.0
 20
0.0
 30
0.0
  3
*D6
  1

  0
LINE
  5
4C6E
330
412B
100
AcDbEntity
  8
AM_5
100
AcDbLine
 10
-0.0000000000000025
 20
-0.9999999999999998
 30
0.0
 11
-0.0000000000000041
 21
-27.67839580177415
 31
0.0
  0
LINE
  5
4C6F
330
412B
100
AcDbEntity
  8
AM_5
100
AcDbLine
 10
-40.00011643248011
 20
-10.0
 30
0.0
 11
-40.00011643248011
 21
-27.67839580177415
 31
0.0
  0
LINE
  5
4C70
330
412B
100
AcDbEntity
  8
AM_5
100
AcDbLine
 10
-2.500000000000003
 20
-26.67839580177416
 30
0.0
 11
-37.5001164324801
 21
-26.67839580177416
 31
0.0
  0
INSERT
  5
4C71
330
412B
100
AcDbEntity
  8
AM_5
100
AcDbBlockReference
  2
_OPEN30
 10
-0.0000000000000041
 20
-26.67839580177416
 30
0.0
 41
2.5
 42
2.5
 43
2.5
  0
INSERT
  5
4C72
330
412B
100
AcDbEntity
  8
AM_5
100
AcDbBlockReference
  2
_OPEN30
 10
-40.00011643248011
 20
-26.67839580177416
 30
0.0
 41
2.5
 42
2.5
 43
2.5
 50
180.0
  0
MTEXT
  5
4C73
330
412B
100
AcDbEntity
  8
AM_5
 62
     2
100
AcDbMText
 10
-20.00005821624005
 20
-23.57839580177415
 30
0.0
 40
3.2
 41
0.0
 71
     5
 72
     1
  1
40
  7
ASAMI
1001
ACAD
1000
MTEXTBEGIN
1070
    73
1070
     1
1070
    44
1040
1.0
1070
    74
1070
     0
1000
MTEXTEND
  0
POINT
  5
4C74
330
412B
100
AcDbEntity
  8
DEFPOINTS
 62
     0
100
AcDbPoint
 10
-0.0000000000000024
 20
0.0000000000000001
 30
0.0
  0
POINT
  5
4C75
330
412B
100
AcDbEntity
  8
DEFPOINTS
 62
     0
100
AcDbPoint
 10
-40.00011643248011
 20
-9.0
 30
0.0
  0
POINT
  5
4C76
330
412B
100
AcDbEntity
  8
DEFPOINTS
 62
     0
100
AcDbPoint
 10
-40.00011643248011
 20
-26.67839580177416
 30
0.0
  0
ENDBLK
  5
4136
330
412B
100
AcDbEntity
  8
0
100
AcDbBlockEnd
  0
BLOCK
  5
42FF
330
42F5
100
AcDbEntity
  8
0
100
AcDbBlockBegin
  2
*D7
 70
     1
 10
0.0
 20
0.0
 30
0.0
  3
*D7
  1

  0
LINE
  5
4C3B
330
42F5
100
AcDbEntity
  8
AM_5
100
AcDbLine
 10
-8.000000000000001
 20
9.0
 30
0.0
 11
18.25828354081445
 21
8.999999999999992
 31
0.0
  0
LINE
  5
4C3C
330
42F5
100
AcDbEntity
  8
AM_5
100
AcDbLine
 10
-8.000000000000001
 20
-9.0
 30
0.0
 11
18.25828354081444
 21
-9.000000000000007
 31
0.0
  0
LINE
  5
4C3D
330
42F5
100
AcDbEntity
  8
AM_5
100
AcDbLine
 10
17.25828354081444
 20
6.499999999999992
 30
0.0
 11
17.25828354081444
 21
-6.500000000000007
 31
0.0
  0
INSERT
  5
4C3E
330
42F5
100
AcDbEntity
  8
AM_5
100
AcDbBlockReference
  2
_OPEN30
 10
17.25828354081445
 20
8.999999999999992
 30
0.0
 41
2.5
 42
2.5
 43
2.5
 50
90.0
  0
INSERT
  5
4C3F
330
42F5
100
AcDbEntity
  8
AM_5
100
AcDbBlockReference
  2
_OPEN30
 10
17.25828354081444
 20
-9.000000000000007
 30
0.0
 41
2.5
 42
2.5
 43
2.5
 50
270.0
  0
MTEXT
  5
4C40
330
42F5
100
AcDbEntity
  8
AM_5
 62
     2
100
AcDbMText
 10
14.15828354081444
 20
-0.0000000000000042
 30
0.0
 40
3.2
 41
0.0
 71
     5
 72
     1
  1
%%c18
  7
ASAMI
 11
0.0000000000000001
 21
1.0
 31
0.0
1001
ACAD
1000
MTEXTBEGIN
1070
    73
1070
     1
1070
    44
1040
1.0
1070
    74
1070
     0
1000
MTEXTEND
  0
POINT
  5
4C41
330
42F5
100
AcDbEntity
  8
DEFPOINTS
 62
     0
100
AcDbPoint
 10
-9.000000000000001
 20
9.0
 30
0.0
  0
POINT
  5
4C42
330
42F5
100
AcDbEntity
  8
DEFPOINTS
 62
     0
100
AcDbPoint
 10
-9.000000000000001
 20
-9.0
 30
0.0
  0
POINT
  5
4C43
330
42F5
100
AcDbEntity
  8
DEFPOINTS
 62
     0
100
AcDbPoint
 10
17.25828354081444
 20
-9.000000000000007
 30
0.0
  0
ENDBLK
  5
4300
330
42F5
100
AcDbEntity
  8
0
100
AcDbBlockEnd
  0
BLOCK
  5
4860
330
4859
100
AcDbEntity
  8
0
100
AcDbBlockBegin
  2
*D8
 70
     1
 10
0.0
 20
0.0
 30
0.0
  3
*D8
  1

  0
LINE
  5
5499
330
4859
100
AcDbEntity
  8
AM_5
100
AcDbLine
 10
12.40633699009126
 20
-17.19777968088733
 30
0.0
 11
-0.0628214432456629
 21
-7.100454274192212
 31
0.0
  0
MTEXT
  5
549A
330
4859
100
AcDbEntity
  8
AM_5
 62
     2
100
AcDbMText
 10
11.17833315048129
 20
-12.21440712460019
 30
0.0
 40
3.2
 41
0.0
 71
     5
 72
     1
  1
R9
  7
ASAMI
 11
0.7771459614569709
 21
-0.6293203910498378
 31
0.0
  0
LINE
  5
549B
330
4859
100
AcDbEntity
  8
AM_5
100
AcDbLine
 10
-9.00000000000087
 20
0.1367302228809573
 30
0.0
 11
-2.005686346888089
 21
-5.527153296567618
 31
0.0
  0
INSERT
  5
549C
330
4859
100
AcDbEntity
  8
AM_5
100
AcDbBlockReference
  2
_OPEN30
 10
-2.005686346888089
 20
-5.527153296567618
 30
0.0
 41
2.5
 42
2.5
 43
2.5
 50
140.9999999999999
  0
POINT
  5
549D
330
4859
100
AcDbEntity
  8
DEFPOINTS
 62
     0
100
AcDbPoint
 10
-2.005686346888089
 20
-5.527153296567618
 30
0.0
  0
POINT
  5
549E
330
4859
100
AcDbEntity
  8
DEFPOINTS
 62
     0
100
AcDbPoint
 10
-9.00000000000087
 20
0.1367302228809573
 30
0.0
  0
ENDBLK
  5
4861
330
4859
100
AcDbEntity
  8
0
100
AcDbBlockEnd
  0
BLOCK
  5
491E
330
4914
100
AcDbEntity
  8
0
100
AcDbBlockBegin
  2
*D9
 70
     1
 10
0.0
 20
0.0
 30
0.0
  3
*D9
  1

  0
LINE
  5
4C65
330
4914
100
AcDbEntity
  8
AM_5
100
AcDbLine
 10
-129.7500478923208
 20
10.00060500091336
 30
0.0
 11
-147.0562430222804
 21
10.00060500091337
 31
0.0
  0
LINE
  5
4C66
330
4914
100
AcDbEntity
  8
AM_5
100
AcDbLine
 10
-129.7500478923207
 20
-9.999394999086455
 30
0.0
 11
-147.0562430222804
 21
-9.999394999086449
 31
0.0
  0
LINE
  5
4C67
330
4914
100
AcDbEntity
  8
AM_5
100
AcDbLine
 10
-146.0562430222803
 20
7.500605000913373
 30
0.0
 11
-146.0562430222803
 21
-7.499394999086448
 31
0.0
  0
INSERT
  5
4C68
330
4914
100
AcDbEntity
  8
AM_5
100
AcDbBlockReference
  2
_OPEN30
 10
-146.0562430222803
 20
10.00060500091337
 30
0.0
 41
2.5
 42
2.5
 43
2.5
 50
90.0
  0
INSERT
  5
4C69
330
4914
100
AcDbEntity
  8
AM_5
100
AcDbBlockReference
  2
_OPEN30
 10
-146.0562430222803
 20
-9.999394999086449
 30
0.0
 41
2.5
 42
2.5
 43
2.5
 50
270.0
  0
MTEXT
  5
4C6A
330
4914
100
AcDbEntity
  8
AM_5
 62
     2
100
AcDbMText
 10
-149.1562430222803
 20
0.0006050009134388
 30
0.0
 40
3.2
 41
0.0
 71
     5
 72
     1
  1
%%c20
  7
ASAMI
 11
0.0000000000000001
 21
1.0
 31
0.0
1001
ACAD
1000
MTEXTBEGIN
1070
    73
1070
     1
1070
    44
1040
1.0
1070
    74
1070
     0
1000
MTEXTEND
  0
POINT
  5
4C6B
330
4914
100
AcDbEntity
  8
DEFPOINTS
 62
     0
100
AcDbPoint
 10
-128.7500478923208
 20
10.00060500091336
 30
0.0
  0
POINT
  5
4C6C
330
4914
100
AcDbEntity
  8
DEFPOINTS
 62
     0
100
AcDbPoint
 10
-128.7500478923207
 20
-9.999394999086455
 30
0.0
  0
POINT
  5
4C6D
330
4914
100
AcDbEntity
  8
DEFPOINTS
 62
     0
100
AcDbPoint
 10
-146.0562430222803
 20
-9.999394999086449
 30
0.0
  0
ENDBLK
  5
491F
330
4914
100
AcDbEntity
  8
0
100
AcDbBlockEnd
  0
ENDSEC
  0
SECTION
  2
ENTITIES
  0
TEXT
  5
1500
330
1F
100
AcDbEntity
  8
AM_6
100
AcDbText
 10
-85.35716680330326
 20
-61.17839580177408
 30
0.0
 40
5.0
  1
SSB2180ZX
 72
     4
 11
-65.00002394616041
 21
-58.67839580177408
 31
0.0
100
AcDbText
  0
LINE
  5
3EE8
330
1F
100
AcDbEntity
  8
AM_7
  6
AM_ISO08W050X2
100
AcDbLine
 10
1.341626940564757
 20
0.0000000000000005
 30
0.0
 11
-132.0551941299595
 21
-0.0000000000000457
 31
0.0
1001
GENIUS_GENODEF_13
1002
{
1000
HIER
1070
     0
1002
}
1002
{
1000
MANEDIT
1070
     0
1002
}
1002
{
1000
NOSEL
1070
     0
1002
}
1002
{
1000
BEHIND
1070
     0
1002
}
1002
{
1000
REACTOR
1002
}
1001
GENIUS_GENOBJ-N-CEN_13
1002
{
1000
OWNER
1000
GEN
1002
}
  0
DIMENSION
  5
4047
330
1F
100
AcDbEntity
  8
AM_5
100
AcDbDimension
  2
*D5
 10
-0.0000000000000097
 20
-38.67839580177408
 30
0.0
 11
-65.00002394616044
 21
-35.57839580177407
 31
0.0
 70
    32
  1
<>
  3
AM_JIS
100
AcDbAlignedDimension
 13
-130.0000478923208
 23
-8.749394999086316
 33
0.0
 14
-0.0000000000000073
 24
0.0000000000000001
 34
0.0
 50
0.0000000000001132
100
AcDbRotatedDimension
1001
GENIUS_GENDTOL_13
1000

1000
h7
1000

1040
0.0
  0
DIMENSION
  5
412A
330
1F
100
AcDbEntity
  8
AM_5
100
AcDbDimension
  2
*D6
 10
-40.00011643248011
 20
-26.67839580177416
 30
0.0
 11
-20.00005821624005
 21
-23.57839580177415
 31
0.0
 70
    32
  1
<>
  3
AM_JIS
100
AcDbAlignedDimension
 13
-0.0000000000000024
 23
0.0000000000000001
 33
0.0
 14
-40.00011643248011
 24
-9.0
 34
0.0
 50
0.0000000000001132
100
AcDbRotatedDimension
1001
GENIUS_GENDTOL_13
1000

1000
h7
1000

1040
0.0
  0
DIMENSION
  5
42F4
330
1F
100
AcDbEntity
  8
AM_5
100
AcDbDimension
  2
*D7
 10
17.25828354081444
 20
-9.000000000000007
 30
0.0
 11
14.15828354081444
 21
-0.0000000000000042
 31
0.0
 70
    32
  1
%%c<>
  3
AM_JIS
100
AcDbAlignedDimension
 13
-9.000000000000001
 23
9.0
 33
0.0
 14
-9.000000000000001
 24
-9.0
 34
0.0
 50
90.0
100
AcDbRotatedDimension
1001
GENIUS_GENDTOL_13
1000

1000
h7
1000

1040
0.0
  0
DIMENSION
  5
484C
330
1F
100
AcDbEntity
  8
AM_5
100
AcDbDimension
  2
*D8
 10
-9.00000000000087
 20
0.1367302228809573
 30
0.0
 11
9.227439938226799
 21
-14.6235596051168
 31
0.0
 70
   164
  1
<>
  3
AM_JIS$4
100
AcDbRadialDimension
 15
-2.005686346888089
 25
-5.527153296567618
 35
0.0
 40
0.0
1001
GENIUS_GENDTOL_13
1000

1000
h7
1000

1040
0.0
1001
ACAD
1000
DSTYLE
1002
{
1070
   287
1070
     3
1070
   271
1070
     3
1070
   288
1070
     1
1070
   289
1070
     3
1070
   172
1070
     1
1070
    74
1070
     0
1002
}
  0
LINE
  5
490E
330
1F
100
AcDbEntity
  8
AM_0
100
AcDbLine
 10
-45.50004789232079
 20
-9.999394999086389
 30
0.0
 11
-128.7500478923208
 21
-9.999394999086401
 31
0.0
  0
LINE
  5
4911
330
1F
100
AcDbEntity
  8
AM_0
100
AcDbLine
 10
-128.7500478923208
 20
10.00060500091336
 30
0.0
 11
-128.7500478923208
 21
-9.999394999086433
 31
0.0
  0
LINE
  5
4912
330
1F
100
AcDbEntity
  8
AM_0
100
AcDbLine
 10
-130.0000478923208
 20
8.750605000913367
 30
0.0
 11
-130.0000478923208
 21
-8.749394999086401
 31
0.0
  0
DIMENSION
  5
4913
330
1F
100
AcDbEntity
  8
AM_5
100
AcDbDimension
  2
*D9
 10
-146.0562430222803
 20
-9.999394999086449
 30
0.0
 11
-149.1562430222803
 21
0.0006050009134388
 31
0.0
 70
    32
  1
%%c<>
  3
AM_JIS
100
AcDbAlignedDimension
 13
-128.7500478923208
 23
10.00060500091336
 33
0.0
 14
-128.7500478923207
 24
-9.999394999086455
 34
0.0
 50
270.0
100
AcDbRotatedDimension
1001
GENIUS_GENDTOL_13
1000

1000
h7
1000

1040
0.0
  0
LINE
  5
4920
330
1F
100
AcDbEntity
  8
AM_0
100
AcDbLine
 10
-45.50004789232083
 20
10.00060500091337
 30
0.0
 11
-128.7500478923208
 21
10.00060500091336
 31
0.0
  0
LINE
  5
492C
330
1F
100
AcDbEntity
  8
AM_0
100
AcDbLine
 10
-128.7500478923208
 20
10.00060500091336
 30
0.0
 11
-130.0000478923208
 21
8.750605000913367
 31
0.0
1001
GENIUS_GENFIL_13
1070
     0
1040
1.25
1040
1.25
1040
20.0
1040
0.0
1002
{
1002
}
1001
GENIUS_GENODEF_13
1002
{
1000
HIER
1070
     0
1002
}
1002
{
1000
MANEDIT
1070
     0
1002
}
1002
{
1000
NOSEL
1070
     0
1002
}
1002
{
1000
BEHIND
1070
     0
1002
}
1002
{
1000
REACTOR
1002
}
1001
GENIUS_GENOBJ-N-CHA_13
1002
{
1000
OWNER
1000
GEN
1002
}
  0
LINE
  5
492F
330
1F
100
AcDbEntity
  8
AM_0
100
AcDbLine
 10
-130.0000478923208
 20
-8.749394999086401
 30
0.0
 11
-128.7500478923208
 21
-9.999394999086401
 31
0.0
1001
GENIUS_GENFIL_13
1070
     0
1040
1.25
1040
1.25
1040
20.0
1040
0.0
1002
{
1002
}
1001
GENIUS_GENODEF_13
1002
{
1000
HIER
1070
     0
1002
}
1002
{
1000
MANEDIT
1070
     0
1002
}
1002
{
1000
NOSEL
1070
     0
1002
}
1002
{
1000
BEHIND
1070
     0
1002
}
1002
{
1000
REACTOR
1002
}
1001
GENIUS_GENOBJ-N-CHA_13
1002
{
1000
OWNER
1000
GEN
1002
}
  0
SPLINE
  5
4F37
330
1F
100
AcDbEntity
  8
AM_0
100
AcDbSpline
210
0.0
220
0.0
230
1.0
 70
     8
 71
     3
 72
     8
 73
     4
 74
     0
 42
0.0000000001
 43
0.0000000001
 40
1.794922859428793
 40
1.794922859428793
 40
1.794922859428793
 40
1.794922859428793
 40
17.5282628916844
 40
17.5282628916844
 40
17.5282628916844
 40
17.5282628916844
 10
-8.999999999994269
 20
-8.863269777110474
 30
0.0
 10
-18.32568356334629
 20
-8.078385243610057
 30
0.0
 10
-27.17736876293427
 20
-4.039192621805028
 30
0.0
 10
-36.02905396252309
 20
-0.0000000000000142
 30
0.0
  0
SPLINE
  5
4F38
330
1F
100
AcDbEntity
  8
AM_0
100
AcDbSpline
210
0.0
220
0.0
230
1.0
 70
     8
 71
     3
 72
     8
 73
     4
 74
     0
 42
0.0000000001
 43
0.0000000001
 40
3.732786119440464
 40
3.732786119440464
 40
3.732786119440464
 40
3.732786119440464
 40
17.48613721147548
 40
17.48613721147548
 40
17.48613721147548
 40
17.48613721147548
 10
-8.61255536016697
 20
-8.176157299713764
 30
0.0
 10
-16.67933343160957
 20
-6.866760794375537
 30
0.0
 10
-24.44564405672415
 20
-3.433380397187974
 30
0.0
 10
-32.21195468183876
 20
-0.0000000000000142
 30
0.0
  0
SPLINE
  5
4F39
330
1F
100
AcDbEntity
  8
AM_0
100
AcDbSpline
210
0.0
220
0.0
230
1.0
 70
     8
 71
     3
 72
     8
 73
     4
 74
     0
 42
0.0000000001
 43
0.0000000001
 40
6.513172597598655
 40
6.513172597598655
 40
6.513172597598655
 40
6.513172597598655
 40
17.4246383984571
 40
17.4246383984571
 40
17.4246383984571
 40
17.4246383984571
 10
-8.999999999999971
 20
-6.795638269847827
 30
0.0
 10
-15.33288839167298
 20
-5.211654294651282
 30
0.0
 10
-21.52772909065716
 20
-2.605827147325641
 30
0.0
 10
-27.7225697896413
 20
-0.0000000000000142
 30
0.0
  0
SPLINE
  5
4F3A
330
1F
100
AcDbEntity
  8
AM_0
100
AcDbSpline
210
0.0
220
0.0
230
1.0
 70
     8
 71
     3
 72
     8
 73
     4
 74
     0
 42
0.0000000001
 43
0.0000000001
 40
1.794922859432252
 40
1.794922859432252
 40
1.794922859432252
 40
1.794922859432252
 40
7.369631927527395
 40
7.369631927527395
 40
7.369631927527395
 40
7.369631927527395
 10
-8.999999999999971
 20
8.863269777109451
 30
0.0
 10
-12.30431889352361
 20
8.585165895966058
 30
0.0
 10
-15.54912923273903
 20
7.898496955509373
 30
0.0
 10
-18.75551636104223
 20
6.948027597982752
 30
0.0
  0
SPLINE
  5
4F3B
330
1F
100
AcDbEntity
  8
AM_0
100
AcDbSpline
210
0.0
220
0.0
230
1.0
 70
     8
 71
     3
 72
     8
 73
     4
 74
     2
 42
0.0000000001
 43
0.0000000001
 44
0.0000000001
 12
-0.8789112757303589
 22
0.4769852926391262
 32
0.0
 13
0.9988106394578341
 23
0.0487576302319218
 33
0.0
 40
0.0
 40
0.0
 40
0.0
 40
0.0
 40
3.883409748592911
 40
3.883409748592911
 40
3.883409748592911
 40
3.883409748592911
 10
-9.410006449222665
 20
2.499932967928444
 30
0.0
 10
-10.5477306546625
 20
3.117376079718519
 30
0.0
 10
-11.97694299399103
 20
6.105302305087775
 30
0.0
 10
-10.68401266923474
 20
6.168417590608086
 30
0.0
 11
-9.410006449222665
 21
2.499932967928444
 31
0.0
 11
-10.68401266923474
 21
6.168417590608086
 31
0.0
  0
SPLINE
  5
4F3C
330
1F
100
AcDbEntity
  8
AM_0
100
AcDbSpline
210
0.0
220
0.0
230
1.0
 70
     8
 71
     3
 72
     8
 73
     4
 74
     2
 42
0.0000000001
 43
0.0000000001
 44
0.0000000001
 12
0.4216926876958761
 22
-0.9067388141818064
 32
0.0
 13
-0.9928045895078733
 23
-0.1197457600589821
 33
0.0
 40
0.0
 40
0.0
 40
0.0
 40
0.0
 40
3.177755021639352
 40
3.177755021639352
 40
3.177755021639352
 40
3.177755021639352
 10
-8.999999999999971
 20
8.863269777109451
 30
0.0
 10
-8.553321314695249
 20
7.902805170415602
 30
0.0
 10
-9.632382746051373
 20
6.295258487386477
 30
0.0
 10
-10.68401266932312
 20
6.168417590603993
 30
0.0
 11
-8.999999999999971
 21
8.863269777109451
 31
0.0
 11
-10.68401266932312
 21
6.168417590603993
 31
0.0
  0
SPLINE
  5
4F3D
330
1F
100
AcDbEntity
  8
AM_0
100
AcDbSpline
210
0.0
220
0.0
230
1.0
 70
     8
 71
     3
 72
     9
 73
     5
 74
     3
 42
0.0000000001
 43
0.0000000001
 44
0.0000000001
 12
0.5867325161912575
 22
-0.8097808064185493
 32
0.0
 13
-0.8994987856269101
 23
0.436923259458356
 33
0.0
 40
0.0
 40
0.0
 40
0.0
 40
0.0
 40
0.8064237295781151
 40
2.402392287242955
 40
2.402392287242955
 40
2.402392287242955
 40
2.402392287242955
 10
-7.895545033470302
 20
-5.476678504881292
 30
0.0
 10
-7.7378266921464
 20
-5.694353990898898
 30
0.0
 10
-7.057489142178441
 20
-6.47261367157442
 30
0.0
 10
-8.521476073493886
 20
-7.028076864583819
 30
0.0
 10
-8.999999999999971
 20
-6.795638269847827
 30
0.0
 11
-7.895545033470302
 21
-5.476678504881292
 31
0.0
 11
-7.52269966358933
 21
-6.191734839574579
 31
0.0
 11
-8.999999999999971
 21
-6.795638269847827
 31
0.0
  0
SPLINE
  5
4F3E
330
1F
100
AcDbEntity
  8
AM_0
100
AcDbSpline
210
0.0
220
0.0
230
1.0
 70
     8
 71
     3
 72
     8
 73
     4
 74
     0
 42
0.0000000001
 43
0.0000000001
 40
16.21529059929073
 40
16.21529059929073
 40
16.21529059929073
 40
16.21529059929073
 40
17.52826289168434
 40
17.52826289168434
 40
17.52826289168434
 40
17.52826289168434
 10
-40.00111643248009
 20
1.46371572442392
 30
0.0
 10
-37.98520222139642
 20
0.7964786254009369
 30
0.0
 10
-36.95560609592849
 20
0.3370770596196451
 30
0.0
 10
-36.02905396252309
 20
-0.0000000000000142
 30
0.0
  0
SPLINE
  5
4F3F
330
1F
100
AcDbEntity
  8
AM_0
100
AcDbSpline
210
0.0
220
0.0
230
1.0
 70
     8
 71
     3
 72
     8
 73
     4
 74
     0
 42
0.0000000001
 43
0.0000000001
 40
14.28274239738606
 40
14.28274239738606
 40
14.28274239738606
 40
14.28274239738606
 40
17.48613721147548
 40
17.48613721147548
 40
17.48613721147548
 40
17.48613721147548
 10
-40.00111643248016
 20
2.923567816719526
 30
0.0
 10
-36.09368604175399
 20
1.599388088844165
 30
0.0
 10
-34.02086358081239
 20
0.7996940444220684
 30
0.0
 10
-32.21195468183876
 20
-0.0000000000000142
 30
0.0
  0
SPLINE
  5
4F40
330
1F
100
AcDbEntity
  8
AM_0
100
AcDbSpline
210
0.0
220
0.0
230
1.0
 70
     8
 71
     3
 72
     8
 73
     4
 74
     0
 42
0.0000000001
 43
0.0000000001
 40
11.51458572635037
 40
11.51458572635037
 40
11.51458572635037
 40
11.51458572635037
 40
17.4246383984571
 40
17.4246383984571
 40
17.4246383984571
 40
17.4246383984571
 10
-40.0001164324801
 20
4.650959225937146
 30
0.0
 10
-36.45564778680272
 20
3.388605023970793
 30
0.0
 10
-32.36136423808565
 20
1.849595055572694
 30
0.0
 10
-27.7225697896413
 20
-0.0000000000000142
 30
0.0
  0
LINE
  5
4F42
330
1F
100
AcDbEntity
  8
AM_0
100
AcDbLine
 10
-0.0000000000000007
 20
0.0
 30
0.0
 11
-10.68401266923474
 21
6.1684175906081
 31
0.0
  0
ARC
  5
4F43
330
1F
100
AcDbEntity
  8
AM_0
100
AcDbCircle
 10
-0.3692536431133966
 20
0.084359543617083
 30
0.0
 40
9.357895397439367
100
AcDbArc
 50
165.0407421323771
 51
216.4600123166024
  0
LINE
  5
4F44
330
1F
100
AcDbEntity
  8
AM_11
100
AcDbLine
 10
-40.0001164324801
 20
-9.0
 30
0.0
 11
-9.0
 21
-9.0
 31
0.0
  0
LINE
  5
4F45
330
1F
100
AcDbEntity
  8
AM_11
100
AcDbLine
 10
-9.0
 20
8.999999999999786
 30
0.0
 11
-40.0001164324801
 21
8.999999999999786
 31
0.0
  0
LINE
  5
4F47
330
1F
100
AcDbEntity
  8
AM_0
100
AcDbLine
 10
-40.00111643248014
 20
-8.109570779387752
 30
0.0
 11
-20.21642234318142
 21
-6.496392874196274
 31
0.0
  0
LINE
  5
4F48
330
1F
100
AcDbEntity
  8
AM_0
100
AcDbLine
 10
-45.50004789232083
 20
10.00060500091338
 30
0.0
 11
-45.50004789232079
 21
-9.999394999086391
 31
0.0
  0
LINE
  5
4F49
330
1F
100
AcDbEntity
  8
AM_0
100
AcDbLine
 10
-42.75404800739858
 20
-8.999932777676292
 30
0.0
 11
-42.753495768161
 21
-5.834000870853536
 31
0.0
  0
LINE
  5
4F59
330
1F
100
AcDbEntity
  8
AM_11
100
AcDbLine
 10
-40.0001164324801
 20
8.999999999999786
 30
0.0
 11
-40.0001164324801
 21
-9.000000000000014
 31
0.0
  0
LINE
  5
4F5A
330
1F
100
AcDbEntity
  8
AM_0
100
AcDbLine
 10
-42.75404800739858
 20
-8.999932777676292
 30
0.0
 11
-45.50004789232079
 21
-9.999394999086391
 31
0.0
  0
LINE
  5
4F5C
330
1F
100
AcDbEntity
  8
AM_0
100
AcDbLine
 10
-40.0001164324801
 20
1.463384729825683
 30
0.0
 11
-40.0001164324801
 21
4.650959225937143
 31
0.0
  0
LINE
  5
4F5F
330
1F
100
AcDbEntity
  8
AM_0
100
AcDbLine
 10
-42.75090824651738
 20
8.999999999999786
 30
0.0
 11
-45.50004789232083
 21
10.00060500091338
 31
0.0
  0
ARC
  5
4F61
330
1F
100
AcDbEntity
  8
AM_11
100
AcDbCircle
 10
-9.000000000000028
 20
0.0
 30
0.0
 40
9.0
100
AcDbArc
 50
270.0
 51
90.0
  0
ARC
  5
4F62
330
1F
100
AcDbEntity
  8
AM_0
100
AcDbCircle
 10
-9.000000000000838
 20
0.1367302228809422
 30
0.0
 40
9.0
100
AcDbArc
 50
270.0000000000781
 51
359.1295148788724
  0
ARC
  5
4F63
330
1F
100
AcDbEntity
  8
AM_0
100
AcDbCircle
 10
-9.24633805822971
 20
0.6909007544526986
 30
0.0
 40
8.889679355540227
100
AcDbArc
 50
274.0883259404363
 51
353.4887846299623
  0
ARC
  5
4F64
330
1F
100
AcDbEntity
  8
AM_0
100
AcDbCircle
 10
-8.710317988034262
 20
2.417862464660501
 30
0.0
 40
7.936474789682334
100
AcDbArc
 50
275.8924707062755
 51
339.8416840647174
  0
LINE
  5
4F65
330
1F
100
AcDbEntity
  8
AM_0
100
AcDbLine
 10
-8.612555360166965
 20
-8.176157299713352
 30
0.0
 11
-9.000000000000824
 21
-6.795638269847813
 31
0.0
  0
LINE
  5
4F66
330
1F
100
AcDbEntity
  8
AM_0
100
AcDbLine
 10
-8.99999999989113
 20
-8.863269777119057
 30
0.0
 11
-8.612555360166965
 21
-8.176157299713352
 31
0.0
  0
ARC
  5
4F67
330
1F
100
AcDbEntity
  8
AM_0
100
AcDbCircle
 10
-9.000000000000028
 20
-0.136730222890364
 30
0.0
 40
9.0
100
AcDbArc
 50
0.8704851212057665
 51
90.0
  0
LINE
  5
4F68
330
1F
100
AcDbEntity
  8
AM_0
100
AcDbLine
 10
-1.260000000000488
 20
-0.3171684244591262
 30
0.0
 11
-9.410006449222692
 21
2.499932967928444
 31
0.0
  0
LINE
  5
4F69
330
1F
100
AcDbEntity
  8
AM_0
100
AcDbLine
 10
-0.0000000000000007
 20
0.0
 30
0.0
 11
-0.4140000000000306
 21
-0.3171684244591262
 31
0.0
  0
LINE
  5
4F6A
330
1F
100
AcDbEntity
  8
AM_0
100
AcDbLine
 10
-0.4140000000000306
 20
-0.3171684244591262
 30
0.0
 11
-1.260000000000488
 21
-0.3171684244591262
 31
0.0
  0
LINE
  5
50A1
330
1F
100
AcDbEntity
  8
AM_0
100
AcDbLine
 10
-40.00011643248036
 20
8.999999999999786
 30
0.0
 11
-10.68401266923557
 21
6.1684175906081
 31
0.0
  0
POLYLINE
  5
5135
330
1F
100
AcDbEntity
  8
AM_0
100
AcDb2dPolyline
 66
     1
 10
0.0
 20
0.0
 30
0.0
 70
     2
  0
VERTEX
  5
531D
330
5135
100
AcDbEntity
  8
AM_0
100
AcDbVertex
100
AcDb2dVertex
 10
-40.00111643248014
 20
-8.109570779387752
 30
0.0
 42
-0.0242327565264497
  0
VERTEX
  5
5325
330
5135
100
AcDbEntity
  8
AM_0
100
AcDbVertex
100
AcDb2dVertex
 10
-41.55485827216489
 20
-6.991500353249932
 30
0.0
 42
-0.0375960208323854
 70
     1
  0
VERTEX
  5
531E
330
5135
100
AcDbEntity
  8
AM_0
100
AcDbVertex
100
AcDb2dVertex
 10
-42.46058230643462
 20
-6.152167353988332
 30
0.0
 42
-0.0105474993396356
  0
VERTEX
  5
5326
330
5135
100
AcDbEntity
  8
AM_0
100
AcDbVertex
100
AcDb2dVertex
 10
-43.91407656200652
 20
-4.518736579742494
 30
0.0
 42
-0.0251980706910674
 70
     1
  0
VERTEX
  5
531F
330
5135
100
AcDbEntity
  8
AM_0
100
AcDbVertex
100
AcDb2dVertex
 10
-44.47239299257433
 20
-3.792923470600882
 30
0.0
 42
-0.047232279547272
  0
VERTEX
  5
5327
330
5135
100
AcDbEntity
  8
AM_0
100
AcDbVertex
100
AcDb2dVertex
 10
-44.92069491135525
 20
-2.99318415620408
 30
0.0
 42
-0.0757202206198351
 70
     1
  0
VERTEX
  5
5320
330
5135
100
AcDbEntity
  8
AM_0
100
AcDbVertex
100
AcDb2dVertex
 10
-45.07120497634977
 20
-2.439386079779715
 30
0.0
 42
-0.1363877294608876
  0
VERTEX
  5
5328
330
5135
100
AcDbEntity
  8
AM_0
100
AcDbVertex
100
AcDb2dVertex
 10
-44.98583912726592
 20
-1.89973302806031
 30
0.0
 42
-0.0793565606596126
 70
     1
  0
VERTEX
  5
5321
330
5135
100
AcDbEntity
  8
AM_0
100
AcDbVertex
100
AcDb2dVertex
 10
-44.47251799257433
 20
-1.127021838402285
 30
0.0
 42
-0.054019364065921
  0
VERTEX
  5
532A
330
5135
100
AcDbEntity
  8
AM_0
100
AcDbVertex
100
AcDb2dVertex
 10
-43.66147900996131
 20
-0.4183919999045145
 30
0.0
 42
-0.0264256528840467
 70
     1
  0
VERTEX
  5
5322
330
5135
100
AcDbEntity
  8
AM_0
100
AcDbVertex
100
AcDb2dVertex
 10
-41.79717738380643
 20
0.7435289358626349
 30
0.0
 42
-0.0308842836396712
  0
VERTEX
  5
5329
330
5135
100
AcDbEntity
  8
AM_0
100
AcDbVertex
100
AcDb2dVertex
 10
-41.08202000948458
 20
1.082616787977968
 30
0.0
 42
-0.0213015714155614
 70
     1
  0
VERTEX
  5
5323
330
5135
100
AcDbEntity
  8
AM_0
100
AcDbVertex
100
AcDb2dVertex
 10
-40.00011643248011
 20
1.463384729825676
 30
0.0
  0
SEQEND
  5
5324
330
5135
100
AcDbEntity
  8
AM_0
  0
SPLINE
  5
5144
330
1F
100
AcDbEntity
  8
AM_0
100
AcDbSpline
210
0.0
220
0.0
230
1.0
 70
     8
 71
     3
 72
     8
 73
     4
 74
     0
 42
0.0000000001
 43
0.0000000001
 40
1.894834578855647
 40
1.894834578855647
 40
1.894834578855647
 40
1.894834578855647
 40
4.656267981793611
 40
4.656267981793611
 40
4.656267981793611
 40
4.656267981793611
 10
-42.75404800739858
 20
-8.999932777676292
 30
0.0
 10
-42.6652195162584
 20
-8.934816824136913
 30
0.0
 10
-41.34607774110535
 20
-7.975689097997449
 30
0.0
 10
-40.0001164324801
 20
-8.109489242726231
 30
0.0
  0
POLYLINE
  5
52DF
330
1F
100
AcDbEntity
  8
AM_0
100
AcDb2dPolyline
 66
     1
 10
0.0
 20
0.0
 30
0.0
 70
     2
  0
VERTEX
  5
52FB
330
52DF
100
AcDbEntity
  8
AM_0
100
AcDbVertex
100
AcDb2dVertex
 10
-40.0001164324801
 20
4.650959225937143
 30
0.0
 42
-0.0287483984109746
  0
VERTEX
  5
5304
330
52DF
100
AcDbEntity
  8
AM_0
100
AcDbVertex
100
AcDb2dVertex
 10
-41.43265680668535
 20
5.164750077868543
 30
0.0
 42
-0.0400199942251168
 70
     1
  0
VERTEX
  5
52FC
330
52DF
100
AcDbEntity
  8
AM_0
100
AcDbVertex
100
AcDb2dVertex
 10
-42.40218316747553
 20
5.671771251997768
 30
0.0
 42
-0.0064975382419927
  0
VERTEX
  5
5305
330
52DF
100
AcDbEntity
  8
AM_0
100
AcDbVertex
100
AcDb2dVertex
 10
-43.27736742050013
 20
6.238727606417398
 30
0.0
 42
-0.0118445708228097
 70
     1
  0
VERTEX
  5
52FD
330
52DF
100
AcDbEntity
  8
AM_0
100
AcDbVertex
100
AcDb2dVertex
 10
-43.74578106737226
 20
6.567171426512629
 30
0.0
 42
-0.0549186877920505
  0
VERTEX
  5
5306
330
52DF
100
AcDbEntity
  8
AM_0
100
AcDbVertex
100
AcDb2dVertex
 10
-44.50446552039511
 20
7.266814886251026
 30
0.0
 42
-0.0825641395662316
 70
     1
  0
VERTEX
  5
52FE
330
52DF
100
AcDbEntity
  8
AM_0
100
AcDbVertex
100
AcDb2dVertex
 10
-44.86544690451228
 20
7.853771533174437
 30
0.0
 42
-0.1525757762122719
  0
VERTEX
  5
5307
330
52DF
100
AcDbEntity
  8
AM_0
100
AcDbVertex
100
AcDb2dVertex
 10
-44.91420542287585
 20
8.434190403347116
 30
0.0
 42
-0.2768010733489516
 70
     1
  0
VERTEX
  5
52FF
330
52DF
100
AcDbEntity
  8
AM_0
100
AcDbVertex
100
AcDb2dVertex
 10
-44.6817143702041
 20
8.679249263354819
 30
0.0
 42
-0.0324496733730335
  0
VERTEX
  5
5308
330
52DF
100
AcDbEntity
  8
AM_0
100
AcDbVertex
100
AcDb2dVertex
 10
-44.22077955909836
 20
8.775930468363149
 30
0.0
 42
-0.0190010117927543
 70
     1
  0
VERTEX
  5
5300
330
52DF
100
AcDbEntity
  8
AM_0
100
AcDbVertex
100
AcDb2dVertex
 10
-43.42136024826102
 20
8.859273322900449
 30
0.0
 42
-0.0006236438306664
  0
VERTEX
  5
530A
330
52DF
100
AcDbEntity
  8
AM_0
100
AcDbVertex
100
AcDb2dVertex
 10
-43.02363075802531
 20
8.885016122429135
 30
0.0
 42
-0.0003258689024204
 70
     1
  0
VERTEX
  5
5301
330
52DF
100
AcDbEntity
  8
AM_0
100
AcDbVertex
100
AcDb2dVertex
 10
-42.26236906291728
 20
8.932836788232236
 30
0.0
 42
-0.0081010642406161
  0
VERTEX
  5
5309
330
52DF
100
AcDbEntity
  8
AM_0
100
AcDbVertex
100
AcDb2dVertex
 10
-41.3411915648087
 20
8.975131660252458
 30
0.0
 42
-0.0055692906631658
 70
     1
  0
VERTEX
  5
5302
330
52DF
100
AcDbEntity
  8
AM_0
100
AcDbVertex
100
AcDb2dVertex
 10
-40.0001164324801
 20
8.999999999999786
 30
0.0
  0
SEQEND
  5
5303
330
52DF
100
AcDbEntity
  8
AM_0
  0
LINE
  5
52F2
330
1F
100
AcDbEntity
  8
AM_0
100
AcDbLine
 10
-42.75092529524679
 20
8.902261352080586
 30
0.0
 11
-42.75090824651738
 21
8.999999999999786
 31
0.0
  0
LINE
  5
52F3
330
1F
100
AcDbEntity
  8
AM_0
100
AcDbLine
 10
-42.75244632365662
 20
0.1823587333698668
 30
0.0
 11
-42.7514504438275
 21
5.891637451536283
 31
0.0
  0
LINE
  5
52F4
330
1F
100
AcDbEntity
  8
AM_0
100
AcDbLine
 10
-42.75090824651738
 20
8.999999999999786
 30
0.0
 11
-40.0001164324801
 21
8.999999999999786
 31
0.0
  0
VIEWPORT
  5
110
330
101
100
AcDbEntity
 67
     1
  8
0
100
AcDbViewport
 10
420.5
 20
297.0
 30
0.0
 40
948.9782706766916
 41
628.452
 68
     1
 69
     1
1001
ACAD
1000
MVIEW
1002
{
1070
    16
1010
0.0
1020
0.0
1030
0.0
1010
0.0
1020
0.0
1030
1.0
1040
0.0
1040
628.452
1040
420.5
1040
297.0
1040
50.0
1040
0.0
1040
0.0
1070
     0
1070
   100
1070
     1
1070
     1
1070
     0
1070
     0
1070
     0
1070
     0
1040
0.0
1040
0.0
1040
0.0
1040
10.0
1040
10.0
1040
10.0
1040
10.0
1070
     0
1002
{
1002
}
1002
}
  0
ENDSEC
  0
SECTION
  2
OBJECTS
  0
DICTIONARY
  5
C
330
0
100
AcDbDictionary
  3
ACAD_GROUP
350
D
  3
ACAD_LAYOUT
350
1A
  3
ACAD_MLINESTYLE
350
17
  3
ACAD_PLOTSETTINGS
350
19
  3
ACAD_PLOTSTYLENAME
350
E
  3
ACDBVARIABLEDICTIONARY
350
34
  3
ACMDICTIONARY
350
43
  3
AMG
350
2B
  3
AMGSNAPSETTINGS
350
6E
  3
ASE_INDEX_DICTIONARY
350
151A
  3
DWGPROPS
350
5463
  3
ACDBHEADERROUNDTRIPXREC
350
546F
  0
DICTIONARY
  5
74
330
1F
100
AcDbDictionary
280
     1
  3
ACAD_INDEX
360
5465
  3
ACAD_LAYOUTSELFREF
360
5492
  0
DICTIONARY
  5
5497
330
101
100
AcDbDictionary
280
     1
  3
ACAD_LAYOUTSELFREF
360
5498
  0
DICTIONARY
  5
D
102
{ACAD_REACTORS
330
C
102
}
330
C
100
AcDbDictionary
  0
DICTIONARY
  5
1A
102
{ACAD_REACTORS
330
C
102
}
330
C
100
AcDbDictionary
  0
DICTIONARY
  5
17
102
{ACAD_REACTORS
330
C
102
}
330
C
100
AcDbDictionary
  3
STANDARD
350
18
  0
DICTIONARY
  5
19
102
{ACAD_REACTORS
330
C
102
}
330
C
100
AcDbDictionary
  0
ACDBDICTIONARYWDFLT
  5
E
102
{ACAD_REACTORS
330
C
102
}
330
C
100
AcDbDictionary
281
     1
  3
Normal
350
F
100
AcDbDictionaryWithDefault
340
F
  0
DICTIONARY
  5
34
102
{ACAD_REACTORS
330
C
102
}
330
C
100
AcDbDictionary
  3
INDEXCTL
350
35
  3
SORTENTS
350
B5E
  0
DICTIONARY
  5
43
102
{ACAD_REACTORS
330
C
102
}
330
C
100
AcDbDictionary
  3
ACMSTDDICTIONARY
350
260
  0
DICTIONARY
  5
2B
102
{ACAD_REACTORS
330
C
102
}
330
C
100
AcDbDictionary
  3
ACMGSETTINGS
350
2C
  0
DICTIONARY
  5
6E
102
{ACAD_REACTORS
330
C
102
}
330
C
100
AcDbDictionary
  0
DICTIONARY
  5
151A
102
{ACAD_REACTORS
330
C
102
}
330
C
100
AcDbDictionary
  3
ASEBLOCKHIERARCHYINDEXRECORD
350
151C
1001
DCO15
1040
1471862535.906
  0
XRECORD
  5
5463
102
{ACAD_REACTORS
330
C
102
}
330
C
100
AcDbXrecord
  1
DWGPROPS COOKIE
  2

  3

  4

  6

  7

  8

  9

300
AmdtFileType=82
301
=
302
=
303
=
304
=
305
=
306
=
307
=
308
=
309
=
 40
0.194366875
 41
2452838.430434386
 42
2452901.592281528
  1

 90
        1
  0
DICTIONARY
  5
546F
102
{ACAD_REACTORS
330
C
102
}
330
C
100
AcDbDictionary
  3
TSTACKALIGN
350
5470
  3
TSTACKSIZE
350
5471
  3
HYPERLINKBASE
350
5472
  3
STYLESHEET
350
5473
  3
LAYOUTDICT
350
5474
  3
PLOTSETDICT
350
5475
  3
PLOTSTYLNAMDICT
350
5476
  3
LWETCUNION
350
5477
  3
INSUNITS
350
5478
  3
CEPSNTYPE
350
5479
  3
FINGERPRINTGUID
350
547A
  3
VERSIONGUID
350
547B
  3
PSVPSCALE
350
547C
  3
DIMSTYLEDATA
350
547D
  3
PUCSORTHOREF
350
547E
  3
PUCSORTHOVIEW
350
547F
  3
PUCSBASE
350
5480
  3
PUCSORGTOP
350
5481
  3
PUCSORGBOTTOM
350
5482
  3
PUCSORGLEFT
350
5483
  3
PUCSORGRIGHT
350
5484
  3
PUCSORGFRONT
350
5485
  3
PUCSORGBACK
350
5486
  3
UCSORTHOREF
350
5487
  3
UCSORTHOVIEW
350
5488
  3
UCSBASE
350
5489
  3
UCSORGTOP
350
548A
  3
UCSORGBOTTOM
350
548B
  3
UCSORGLEFT
350
548C
  3
UCSORGRIGHT
350
548D
  3
UCSORGFRONT
350
548E
  3
UCSORGBACK
350
548F
  0
DICTIONARY
  5
5465
102
{ACAD_REACTORS
330
74
102
}
330
74
100
AcDbDictionary
  3
*A1
350
5466
  0
XRECORD
  5
5492
102
{ACAD_REACTORS
330
74
102
}
330
74
100
AcDbXrecord
340
1F
  0
XRECORD
  5
5498
102
{ACAD_REACTORS
330
5497
102
}
330
5497
100
AcDbXrecord
340
101
  0
MLINESTYLE
  5
18
102
{ACAD_REACTORS
330
17
102
}
330
17
100
AcDbMlineStyle
  2
STANDARD
 70
     0
  3

 62
   256
 51
90.0
 52
90.0
 71
     2
 49
0.5
 62
   256
  6
BYLAYER
 49
-0.5
 62
   256
  6
BYLAYER
  0
ACDBPLACEHOLDER
  5
F
102
{ACAD_REACTORS
330
E
102
}
330
E
100
AcDbPlaceHolder
280
     0
  0
DICTIONARYVAR
  5
35
102
{ACAD_REACTORS
330
34
102
}
330
34
100
DictionaryVariables
280
     0
  1
1
  0
DICTIONARYVAR
  5
B5E
102
{ACAD_REACTORS
330
34
102
}
330
34
100
DictionaryVariables
280
     0
  1
96
  0
DICTIONARY
  5
260
102
{ACAD_REACTORS
330
43
102
}
330
43
100
AcDbDictionary
  0
DICTIONARY
  5
2C
102
{ACAD_REACTORS
330
2B
102
}
330
2B
100
AcDbDictionary
  3
DWGSETTINGS
350
2D
  0
XRECORD
  5
151C
102
{ACAD_REACTORS
330
151A
102
}
330
151A
100
AcDbXrecord
330
0
330
0
330
0
330
0
330
0
330
0
330
0
330
0
  0
XRECORD
  5
5470
102
{ACAD_REACTORS
330
546F
102
}
330
546F
100
AcDbXrecord
 90
        1
  0
XRECORD
  5
5471
102
{ACAD_REACTORS
330
546F
102
}
330
546F
100
AcDbXrecord
 90
       70
  0
XRECORD
  5
5472
102
{ACAD_REACTORS
330
546F
102
}
330
546F
100
AcDbXrecord
  1

  0
XRECORD
  5
5473
102
{ACAD_REACTORS
330
546F
102
}
330
546F
100
AcDbXrecord
  1
ASAMI.ctb
  0
XRECORD
  5
5474
102
{ACAD_REACTORS
330
546F
102
}
330
546F
100
AcDbXrecord
340
1A
  0
XRECORD
  5
5475
102
{ACAD_REACTORS
330
546F
102
}
330
546F
100
AcDbXrecord
340
19
  0
XRECORD
  5
5476
102
{ACAD_REACTORS
330
546F
102
}
330
546F
100
AcDbXrecord
340
E
  0
XRECORD
  5
5477
102
{ACAD_REACTORS
330
546F
102
}
330
546F
100
AcDbXrecord
 90
    10781
  0
XRECORD
  5
5478
102
{ACAD_REACTORS
330
546F
102
}
330
546F
100
AcDbXrecord
 90
        4
  0
XRECORD
  5
5479
102
{ACAD_REACTORS
330
546F
102
}
330
546F
100
AcDbXrecord
 90
        0
  0
XRECORD
  5
547A
102
{ACAD_REACTORS
330
546F
102
}
330
546F
100
AcDbXrecord
  1
{AFB28963-8C59-40AE-9337-C84526B81ACE}
  0
XRECORD
  5
547B
102
{ACAD_REACTORS
330
546F
102
}
330
546F
100
AcDbXrecord
  1
{5A1B3040-7718-45D0-B7AA-23012BD0994C}
  0
XRECORD
  5
547C
102
{ACAD_REACTORS
330
546F
102
}
330
546F
100
AcDbXrecord
 40
0.0
  0
XRECORD
  5
547D
102
{ACAD_REACTORS
330
546F
102
}
330
546F
100
AcDbXrecord
1000
DSTYLE
1002
{
1070
    79
 70
     2
1070
   341
340
59
1070
   342
340
59
1070
   371
 70
    -1
1070
   372
 70
    -1
1002
}
  0
XRECORD
  5
547E
102
{ACAD_REACTORS
330
546F
102
}
330
546F
100
AcDbXrecord
340
0
  0
XRECORD
  5
547F
102
{ACAD_REACTORS
330
546F
102
}
330
546F
100
AcDbXrecord
 70
     0
  0
XRECORD
  5
5480
102
{ACAD_REACTORS
330
546F
102
}
330
546F
100
AcDbXrecord
340
0
  0
XRECORD
  5
5481
102
{ACAD_REACTORS
330
546F
102
}
330
546F
100
AcDbXrecord
 10
0.0
 20
0.0
 30
0.0
  0
XRECORD
  5
5482
102
{ACAD_REACTORS
330
546F
102
}
330
546F
100
AcDbXrecord
 10
0.0
 20
0.0
 30
0.0
  0
XRECORD
  5
5483
102
{ACAD_REACTORS
330
546F
102
}
330
546F
100
AcDbXrecord
 10
0.0
 20
0.0
 30
0.0
  0
XRECORD
  5
5484
102
{ACAD_REACTORS
330
546F
102
}
330
546F
100
AcDbXrecord
 10
0.0
 20
0.0
 30
0.0
  0
XRECORD
  5
5485
102
{ACAD_REACTORS
330
546F
102
}
330
546F
100
AcDbXrecord
 10
0.0
 20
0.0
 30
0.0
  0
XRECORD
  5
5486
102
{ACAD_REACTORS
330
546F
102
}
330
546F
100
AcDbXrecord
 10
0.0
 20
0.0
 30
0.0
  0
XRECORD
  5
5487
102
{ACAD_REACTORS
330
546F
102
}
330
546F
100
AcDbXrecord
340
0
  0
XRECORD
  5
5488
102
{ACAD_REACTORS
330
546F
102
}
330
546F
100
AcDbXrecord
 70
     0
  0
XRECORD
  5
5489
102
{ACAD_REACTORS
330
546F
102
}
330
546F
100
AcDbXrecord
340
0
  0
XRECORD
  5
548A
102
{ACAD_REACTORS
330
546F
102
}
330
546F
100
AcDbXrecord
 10
0.0
 20
0.0
 30
0.0
  0
XRECORD
  5
548B
102
{ACAD_REACTORS
330
546F
102
}
330
546F
100
AcDbXrecord
 10
0.0
 20
0.0
 30
0.0
  0
XRECORD
  5
548C
102
{ACAD_REACTORS
330
546F
102
}
330
546F
100
AcDbXrecord
 10
0.0
 20
0.0
 30
0.0
  0
XRECORD
  5
548D
102
{ACAD_REACTORS
330
546F
102
}
330
546F
100
AcDbXrecord
 10
0.0
 20
0.0
 30
0.0
  0
XRECORD
  5
548E
102
{ACAD_REACTORS
330
546F
102
}
330
546F
100
AcDbXrecord
 10
0.0
 20
0.0
 30
0.0
  0
XRECORD
  5
548F
102
{ACAD_REACTORS
330
546F
102
}
330
546F
100
AcDbXrecord
 10
0.0
 20
0.0
 30
0.0
  0
LAYER_INDEX
  5
5466
102
{ACAD_REACTORS
330
5465
102
}
330
5465
100
AcDbIndex
 40
2453151.857589352
100
AcDbLayerIndex
  8
0
360
5467
 90
        0
  8
AM_0
360
5468
 90
       40
  8
AM_11
360
5469
 90
        4
  8
AM_7
360
546A
 90
        1
  8
AM_5
360
546B
 90
        5
  8
Defpoints
360
546C
 90
        0
  8
AM_6
360
546D
 90
        1
  0
XRECORD
  5
2D
102
{ACAD_REACTORS
330
2C
102
}
330
2C
100
AcDbXrecord
  1
VERSION
140
15.0
  1
PRODUCT
  2
AutoCAD Mechanical 2000
  0
IDBUFFER
  5
5467
330
0
100
AcDbIdBuffer
  0
IDBUFFER
  5
5468
330
0
100
AcDbIdBuffer
330
4F42
330
4F43
330
4F47
330
4F48
330
4F49
330
4F5A
330
4F5C
330
4F5F
330
4F62
330
4F63
330
4F64
330
4F65
330
4F66
330
4F67
330
4F68
330
4F69
330
4F6A
330
50A1
330
5135
330
5144
330
52DF
330
52F2
330
52F3
330
52F4
330
490E
330
4911
330
4912
330
4920
330
492C
330
492F
330
4F37
330
4F38
330
4F39
330
4F3A
330
4F3B
330
4F3C
330
4F3D
330
4F3E
330
4F3F
330
4F40
  0
IDBUFFER
  5
5469
330
0
100
AcDbIdBuffer
330
4F44
330
4F45
330
4F59
330
4F61
  0
IDBUFFER
  5
546A
330
0
100
AcDbIdBuffer
330
3EE8
  0
IDBUFFER
  5
546B
330
0
100
AcDbIdBuffer
330
4047
330
412A
330
42F4
330
484C
330
4913
  0
IDBUFFER
  5
546C
330
0
100
AcDbIdBuffer
  0
IDBUFFER
  5
546D
330
0
100
AcDbIdBuffer
330
1500
  0
ENDSEC
  0
EOF
