  0
SECTION
  2
HEADER
  9
$ACADVER
  1
AC1014
  9
$ACADMAINTVER
 70
     9
  9
$DWGCODEPAGE
  3
ANSI_932
  9
$INSBASE
 10
0.0
 20
0.0
 30
0.0
  9
$EXTMIN
 10
-50.850001
 20
-26.25000099999998
 30
-0.00000001
  9
$EXTMAX
 10
9.551050680252135
 20
3.499999999999997
 30
0.00000001
  9
$LIMMIN
 10
-55.3627995885628
 20
-34.31011377923141
  9
$LIMMAX
 10
17.85251095369306
 20
18.99179033629555
  9
$ORTHOMODE
 70
     0
  9
$REGENMODE
 70
     1
  9
$FILLMODE
 70
     1
  9
$QTEXTMODE
 70
     0
  9
$MIRRTEXT
 70
     0
  9
$DRAGMODE
 70
     2
  9
$LTSCALE
 40
1.0
  9
$OSMODE
 70
    55
  9
$ATTMODE
 70
     1
  9
$TEXTSIZE
 40
2.5
  9
$TRACEWID
 40
1.0
  9
$TEXTSTYLE
  7
STANDARD
  9
$CLAYER
  8
AM_0
  9
$CELTYPE
  6
BYLAYER
  9
$CECOLOR
 62
   256
  9
$CELTSCALE
 40
1.0
  9
$DELOBJ
 70
     1
  9
$DISPSILH
 70
     0
  9
$DIMSCALE
 40
0.5
  9
$DIMASZ
 40
2.5
  9
$DIMEXO
 40
1.0
  9
$DIMDLI
 40
12.0
  9
$DIMRND
 40
0.0
  9
$DIMDLE
 40
0.0
  9
$DIMEXE
 40
1.0
  9
$DIMTP
 40
0.1
  9
$DIMTM
 40
0.1
  9
$DIMTXT
 40
3.2
  9
$DIMCEN
 40
0.0
  9
$DIMTSZ
 40
0.0
  9
$DIMTOL
 70
     0
  9
$DIMLIM
 70
     0
  9
$DIMTIH
 70
     0
  9
$DIMTOH
 70
     0
  9
$DIMSE1
 70
     0
  9
$DIMSE2
 70
     0
  9
$DIMTAD
 70
     3
  9
$DIMZIN
 70
     8
  9
$DIMBLK
  1
OPEN30
  9
$DIMASO
 70
     1
  9
$DIMSHO
 70
     1
  9
$DIMPOST
  1

  9
$DIMAPOST
  1
"
  9
$DIMALT
 70
     0
  9
$DIMALTD
 70
     2
  9
$DIMALTF
 40
0.0393701
  9
$DIMLFAC
 40
1.0
  9
$DIMTOFL
 70
     1
  9
$DIMTVP
 40
0.0
  9
$DIMTIX
 70
     0
  9
$DIMSOXD
 70
     0
  9
$DIMSAH
 70
     0
  9
$DIMBLK1
  1

  9
$DIMBLK2
  1

  9
$DIMSTYLE
  2
AM_JIS
  9
$DIMCLRD
 70
   256
  9
$DIMCLRE
 70
   256
  9
$DIMCLRT
 70
     2
  9
$DIMTFAC
 40
0.71
  9
$DIMGAP
 40
1.5
  9
$DIMJUST
 70
     0
  9
$DIMSD1
 70
     0
  9
$DIMSD2
 70
     0
  9
$DIMTOLJ
 70
     0
  9
$DIMTZIN
 70
     0
  9
$DIMALTZ
 70
     0
  9
$DIMALTTZ
 70
     0
  9
$DIMFIT
 70
     3
  9
$DIMUPT
 70
     0
  9
$DIMUNIT
 70
     2
  9
$DIMDEC
 70
     3
  9
$DIMTDEC
 70
     3
  9
$DIMALTU
 70
     2
  9
$DIMALTTD
 70
     2
  9
$DIMTXSTY
  7
ASAMI
  9
$DIMAUNIT
 70
     0
  9
$LUNITS
 70
     2
  9
$LUPREC
 70
     2
  9
$SKETCHINC
 40
1.0
  9
$FILLETRAD
 40
2.5
  9
$AUNITS
 70
     0
  9
$AUPREC
 70
     0
  9
$MENU
  1
.
  9
$ELEVATION
 40
0.0
  9
$PELEVATION
 40
0.0
  9
$THICKNESS
 40
0.0
  9
$LIMCHECK
 70
     0
  9
$BLIPMODE
 70
     0
  9
$CHAMFERA
 40
0.25
  9
$CHAMFERB
 40
0.25
  9
$CHAMFERC
 40
20.0
  9
$CHAMFERD
 40
0.0
  9
$SKPOLY
 70
     0
  9
$TDCREATE
 40
2452838.430434386
  9
$TDUPDATE
 40
2453151.805810150
  9
$TDINDWG
 40
0.2064030093
  9
$TDUSRTIMER
 40
0.2064030093
  9
$USRTIMER
 70
     1
  9
$ANGBASE
 50
0.0
  9
$ANGDIR
 70
     0
  9
$PDMODE
 70
     0
  9
$PDSIZE
 40
0.0
  9
$PLINEWID
 40
0.0
  9
$COORDS
 70
     1
  9
$SPLFRAME
 70
     0
  9
$SPLINETYPE
 70
     6
  9
$SPLINESEGS
 70
     8
  9
$ATTDIA
 70
     1
  9
$ATTREQ
 70
     1
  9
$HANDLING
 70
 12289
  9
$HANDSEED
  5
3623
  9
$SURFTAB1
 70
     6
  9
$SURFTAB2
 70
     6
  9
$SURFTYPE
 70
     6
  9
$SURFU
 70
     6
  9
$SURFV
 70
     6
  9
$UCSNAME
  2

  9
$UCSORG
 10
0.0
 20
0.0
 30
0.0
  9
$UCSXDIR
 10
1.0
 20
0.0
 30
0.0
  9
$UCSYDIR
 10
0.0
 20
1.0
 30
0.0
  9
$PUCSNAME
  2

  9
$PUCSORG
 10
0.0
 20
0.0
 30
0.0
  9
$PUCSXDIR
 10
1.0
 20
0.0
 30
0.0
  9
$PUCSYDIR
 10
0.0
 20
1.0
 30
0.0
  9
$USERI1
 70
     0
  9
$USERI2
 70
     0
  9
$USERI3
 70
     0
  9
$USERI4
 70
     0
  9
$USERI5
 70
     0
  9
$USERR1
 40
0.0
  9
$USERR2
 40
0.0
  9
$USERR3
 40
0.0
  9
$USERR4
 40
0.0
  9
$USERR5
 40
0.0
  9
$WORLDVIEW
 70
     1
  9
$SHADEDGE
 70
     3
  9
$SHADEDIF
 70
    70
  9
$TILEMODE
 70
     1
  9
$MAXACTVP
 70
    64
  9
$PINSBASE
 10
0.0
 20
0.0
 30
0.0
  9
$PLIMCHECK
 70
     0
  9
$PEXTMIN
 10
1.000000000000000E+20
 20
1.000000000000000E+20
 30
1.000000000000000E+20
  9
$PEXTMAX
 10
-1.000000000000000E+20
 20
-1.000000000000000E+20
 30
-1.000000000000000E+20
  9
$PLIMMIN
 10
0.0
 20
0.0
  9
$PLIMMAX
 10
841.0
 20
594.0
  9
$UNITMODE
 70
     0
  9
$VISRETAIN
 70
     1
  9
$PLINEGEN
 70
     0
  9
$PSLTSCALE
 70
     0
  9
$TREEDEPTH
 70
  3020
  9
$PICKSTYLE
 70
     0
  9
$CMLSTYLE
  2
STANDARD
  9
$CMLJUST
 70
     0
  9
$CMLSCALE
 40
20.0
  9
$PROXYGRAPHICS
 70
     1
  9
$MEASUREMENT
 70
     1
  0
ENDSEC
  0
SECTION
  2
CLASSES
  0
CLASS
  1
ACDBDICTIONARYWDFLT
  2
AcDbDictionaryWithDefault
  3
AutoCAD 2000
 90
        0
280
     0
281
     0
  0
CLASS
  1
ACDBPLACEHOLDER
  2
AcDbPlaceHolder
  3
AutoCAD 2000
 90
        0
280
     0
281
     0
  0
CLASS
  1
LAYOUT
  2
AcDbLayout
  3
AutoCAD 2000
 90
        0
280
     0
281
     0
  0
CLASS
  1
AMGSETTINGSOBJ
  2
AmgSettingsObj
  3
"AcadM|Product Description: AutoCAD Mechanical 2000|Company: Autodesk"
 90
        0
280
     0
281
     0
  0
CLASS
  1
ACME_DOCUMENT
  2
AcMeDbDoc
  3
AcMeServices
 90
        0
280
     0
281
     0
  0
CLASS
  1
ACMESCOPE
  2
AcMeScope
  3
AcMeServices
 90
        0
280
     0
281
     0
  0
CLASS
  1
ACMECOMMANDHISTORY
  2
AcMeCommandHistory
  3
AcMeServices
 90
        0
280
     0
281
     0
  0
CLASS
  1
DICTIONARYVAR
  2
AcDbDictionaryVar
  3
AutoCAD 2000
 90
        0
280
     0
281
     0
  0
CLASS
  1
ACIMSYSVARMAN
  2
AcImSysVarManager
  3
AcMeServices
 90
        0
280
     0
281
     0
  0
CLASS
  1
ACIMREALSYSVAR
  2
AcImRealSysVar
  3
AcMeServices
 90
        0
280
     0
281
     0
  0
CLASS
  1
ACIMINTSYSVAR
  2
AcImIntSysVar
  3
AcMeServices
 90
        0
280
     0
281
     0
  0
CLASS
  1
ACMEDRAWINGMAN
  2
AcMeDrawingMan
  3
AcMeServices
 90
        0
280
     0
281
     0
  0
CLASS
  1
ACMEVIEW
  2
AcMeView
  3
AcMeServices
 90
        0
280
     0
281
     0
  0
CLASS
  1
ACDBENTITYCACHE
  2
AcMeEntityCache
  3
AcMeServices
 90
        0
280
     0
281
     0
  0
CLASS
  1
GSMANAGER
  2
AcMeGSManager
  3
AcMeServices
 90
        0
280
     0
281
     0
  0
CLASS
  1
AmdtInternalReactor
  2
AmdtInternalReactor
  3
AcMeServices
 90
        0
280
     0
281
     0
  0
CLASS
  1
ACMESTATEMGR
  2
AcMeStateMgr
  3
AcMeServices
 90
        0
280
     0
281
     0
  0
CLASS
  1
ACME_DATABASE
  2
AcMeDbDatabase
  3
AcMeServices
 90
        0
280
     0
281
     0
  0
CLASS
  1
ACRFINSADJUSTERMGR
  2
AcRfInsAdjusterMgr
  3
AcMeServices
 90
        0
280
     0
281
     0
  0
CLASS
  1
ACMDATADICTIONARY
  2
AcmDataDictionary
  3
"AcmSymBB|Product Description: AutoCAD Mechanical 2000|Company: Autodesk"
 90
        0
280
     0
281
     0
  0
CLASS
  1
ACMDATAENTRYBLOCK
  2
AcmDataEntryBlock
  3
"AcmSymBB|Product Description: AutoCAD Mechanical 2000|Company: Autodesk"
 90
        0
280
     0
281
     0
  0
CLASS
  1
AMGOBJPROPCFG
  2
AmgObjPropCfg
  3
"AmgLay|Product Description: AutoCAD Mechanical 2000|Company: Autodesk"
 90
        1
280
     0
281
     0
  0
CLASS
  1
ACAMGFILTERDAT
  2
AcAmgFilterDat
  3
"AcadM|Product Description: AutoCAD Mechanical 2000|Company: Autodesk"
 90
        0
280
     0
281
     0
  0
CLASS
  1
LAYER_INDEX
  2
AcDbLayerIndex
  3
AutoCAD 2000
 90
        0
280
     0
281
     0
  0
CLASS
  1
IDBUFFER
  2
AcDbIdBuffer
  3
AutoCAD 2000
 90
        0
280
     0
281
     0
  0
CLASS
  1
ACIMSTRSYSVAR
  2
AcImStrSysVar
  3
AcMeServices
 90
        0
280
     0
281
     0
  0
CLASS
  1
ACMSTANDARDJIS
  2
AcmStandardJIS
  3
"AcmSymBB|Product Description: AutoCAD Mechanical 2000|Company: Autodesk"
 90
        0
280
     0
281
     0
  0
CLASS
  1
ACMSURFSTANDARDJIS
  2
AcmSurfTextStdJIS
  3
"AcmSymBB|Product Description: AutoCAD Mechanical 2000|Company: Autodesk"
 90
        0
280
     0
281
     0
  0
CLASS
  1
ACMFCFSTANDARDJIS
  2
AcmFCFStdJIS
  3
"AcmSymBB|Product Description: AutoCAD Mechanical 2000|Company: Autodesk"
 90
        0
280
     0
281
     0
  0
CLASS
  1
ACMWELDSTANDARDJIS
  2
AcmWeldingStdJIS
  3
"AcmSymBB|Product Description: AutoCAD Mechanical 2000|Company: Autodesk"
 90
        0
280
     0
281
     0
  0
CLASS
  1
ACMIDSTANDARDJIS
  2
AcmIdStdJIS
  3
"AcmSymBB|Product Description: AutoCAD Mechanical 2000|Company: Autodesk"
 90
        0
280
     0
281
     0
  0
CLASS
  1
ACMDATUMSTANDARDJIS
  2
AcmDatumStdJIS
  3
"AcmSymBB|Product Description: AutoCAD Mechanical 2000|Company: Autodesk"
 90
        0
280
     0
281
     0
  0
CLASS
  1
ACMBOMSTANDARDJIS
  2
AcmBOMStdJIS
  3
"AcmSymBB|Product Description: AutoCAD Mechanical 2000|Company: Autodesk"
 90
        0
280
     0
281
     0
  0
CLASS
  1
ACMSTANDARDANSI
  2
AcmStandardANSI
  3
"AcmSymBB|Product Description: AutoCAD Mechanical 2000|Company: Autodesk"
 90
        0
280
     0
281
     0
  0
CLASS
  1
ACMSURFSTANDARDANSI
  2
AcmSurfTextStdANSI
  3
"AcmSymBB|Product Description: AutoCAD Mechanical 2000|Company: Autodesk"
 90
        0
280
     0
281
     0
  0
CLASS
  1
ACMFCFSTANDARDANSI
  2
AcmFCFStdANSI
  3
"AcmSymBB|Product Description: AutoCAD Mechanical 2000|Company: Autodesk"
 90
        0
280
     0
281
     0
  0
CLASS
  1
ACMWELDSTANDARDANSI
  2
AcmWeldingStdANSI
  3
"AcmSymBB|Product Description: AutoCAD Mechanical 2000|Company: Autodesk"
 90
        0
280
     0
281
     0
  0
CLASS
  1
ACMIDSTANDARDANSI
  2
AcmIdStdANSI
  3
"AcmSymBB|Product Description: AutoCAD Mechanical 2000|Company: Autodesk"
 90
        0
280
     0
281
     0
  0
CLASS
  1
ACMDATUMSTANDARDANSI
  2
AcmDatumStdANSI
  3
"AcmSymBB|Product Description: AutoCAD Mechanical 2000|Company: Autodesk"
 90
        0
280
     0
281
     0
  0
CLASS
  1
ACMBOMSTANDARDANSI
  2
AcmBOMStdANSI
  3
"AcmSymBB|Product Description: AutoCAD Mechanical 2000|Company: Autodesk"
 90
        0
280
     0
281
     0
  0
CLASS
  1
ACMSTANDARDBSI
  2
AcmStandardBSI
  3
"AcmSymBB|Product Description: AutoCAD Mechanical 2000|Company: Autodesk"
 90
        0
280
     0
281
     0
  0
CLASS
  1
ACMSURFSTANDARDBSI
  2
AcmSurfTextStdBSI
  3
"AcmSymBB|Product Description: AutoCAD Mechanical 2000|Company: Autodesk"
 90
        0
280
     0
281
     0
  0
CLASS
  1
ACMFCFSTANDARDBSI
  2
AcmFCFStdBSI
  3
"AcmSymBB|Product Description: AutoCAD Mechanical 2000|Company: Autodesk"
 90
        0
280
     0
281
     0
  0
CLASS
  1
ACMWELDSTANDARDBSI
  2
AcmWeldingStdBSI
  3
"AcmSymBB|Product Description: AutoCAD Mechanical 2000|Company: Autodesk"
 90
        0
280
     0
281
     0
  0
CLASS
  1
ACMIDSTANDARDBSI
  2
AcmIdStdBSI
  3
"AcmSymBB|Product Description: AutoCAD Mechanical 2000|Company: Autodesk"
 90
        0
280
     0
281
     0
  0
CLASS
  1
ACMDATUMSTANDARDBSI
  2
AcmDatumStdBSI
  3
"AcmSymBB|Product Description: AutoCAD Mechanical 2000|Company: Autodesk"
 90
        0
280
     0
281
     0
  0
CLASS
  1
ACMBOMSTANDARDBSI
  2
AcmBOMStdBSI
  3
"AcmSymBB|Product Description: AutoCAD Mechanical 2000|Company: Autodesk"
 90
        0
280
     0
281
     0
  0
CLASS
  1
LONG_TRANSACTION
  2
AcDbLongTransaction
  3
AutoCAD 2000
 90
        0
280
     0
281
     0
  0
CLASS
  1
LWPOLYLINE
  2
AcDbPolyline
  3
AutoCAD 2000
 90
        0
280
     0
281
     1
  0
CLASS
  1
HATCH
  2
AcDbHatch
  3
AutoCAD 2000
 90
        0
280
     0
281
     1
  0
CLASS
  1
XRECORD
  2
AcDbXrecord
  3
AutoCAD 2000
 90
        0
280
     0
281
     0
  0
ENDSEC
  0
SECTION
  2
TABLES
  0
TABLE
  2
VPORT
  5
8
330
0
100
AcDbSymbolTable
 70
     3
  0
VPORT
  5
35F8
330
8
100
AcDbSymbolTableRecord
100
AcDbViewportTableRecord
  2
*ACTIVE
 70
     0
 10
0.0
 20
0.0
 11
1.0
 21
1.0
 12
-14.76012795544313
 22
-5.665068921932157
 13
0.0
 23
0.0
 14
2.5
 24
2.5
 15
10.0
 25
10.0
 16
0.0
 26
0.0
 36
1.0
 17
0.0
 27
0.0
 37
0.0
 40
56.40293814498984
 41
1.56570841889117
 42
50.0
 43
0.0
 44
0.0
 50
0.0
 51
0.0
 71
     0
 72
   100
 73
     1
 74
     3
 75
     0
 76
     0
 77
     0
 78
     0
  0
ENDTAB
  0
TABLE
  2
LTYPE
  5
5
330
0
100
AcDbSymbolTable
 70
    10
  0
LTYPE
  5
14
330
5
100
AcDbSymbolTableRecord
100
AcDbLinetypeTableRecord
  2
BYBLOCK
 70
     0
  3

 72
    65
 73
     0
 40
0.0
  0
LTYPE
  5
15
330
5
100
AcDbSymbolTableRecord
100
AcDbLinetypeTableRecord
  2
BYLAYER
 70
     0
  3

 72
    65
 73
     0
 40
0.0
  0
LTYPE
  5
16
330
5
100
AcDbSymbolTableRecord
100
AcDbLinetypeTableRecord
  2
CONTINUOUS
 70
     0
  3
Solid line
 72
    65
 73
     0
 40
0.0
  0
LTYPE
  5
4B
330
5
100
AcDbSymbolTableRecord
100
AcDbLinetypeTableRecord
  2
AM_ISO02W050
 70
     0
  3
__ __ __ __ __ __ __ __ __ __ __ __ __ __ __
 72
    65
 73
     2
 40
7.5
 49
6.0
 74
     0
 49
-1.5
 74
     0
  0
LTYPE
  5
4C
330
5
100
AcDbSymbolTableRecord
100
AcDbLinetypeTableRecord
  2
AM_ISO08W050
 70
     0
  3
____ . ____ . ____ . ____ . ____ . ____ . ____
 72
    65
 73
     4
 40
18.0
 49
12.0
 74
     0
 49
-1.5
 74
     0
 49
3.0
 74
     0
 49
-1.5
 74
     0
  0
LTYPE
  5
4D
330
5
100
AcDbSymbolTableRecord
100
AcDbLinetypeTableRecord
  2
AM_ISO09W050
 70
     0
  3
_____ . . _____ . . _____ . . ____ .. ____
 72
    65
 73
     6
 40
22.5
 49
12.0
 74
     0
 49
-1.5
 74
     0
 49
3.0
 74
     0
 49
-1.5
 74
     0
 49
3.0
 74
     0
 49
-1.5
 74
     0
  0
LTYPE
  5
4E
330
5
100
AcDbSymbolTableRecord
100
AcDbLinetypeTableRecord
  2
AMCONSTR
 70
     0
  3
_______________________
 72
    65
 73
     2
 40
9999.0
 49
9999.0
 74
     0
 49
0.0
 74
     0
  0
LTYPE
  5
4F
330
5
100
AcDbSymbolTableRecord
100
AcDbLinetypeTableRecord
  2
AM_ISO02W050X2
 70
     0
  3
 _ _ _ _ _ _ _ _ _ _ _ _
 72
    65
 73
     2
 40
3.75
 49
3.0
 74
     0
 49
-0.75
 74
     0
  0
LTYPE
  5
50
330
5
100
AcDbSymbolTableRecord
100
AcDbLinetypeTableRecord
  2
AM_ISO08W050X2
 70
     0
  3
__ . __ . __ . __ . __ . __
 72
    65
 73
     4
 40
9.0
 49
6.0
 74
     0
 49
-0.75
 74
     0
 49
1.5
 74
     0
 49
-0.75
 74
     0
  0
LTYPE
  5
53
330
5
100
AcDbSymbolTableRecord
100
AcDbLinetypeTableRecord
  2
AMZIGZAG
 70
     0
  3
/\/-/\/-/\/-/\/-/\/-/\/
 72
    65
 73
     2
 40
11.00009999999999
 49
0.0001
 74
     4
 75
   135
340
52
 46
0.04
 50
0.0
 44
0.0
 45
0.0
 49
-11.0
 74
     0
  0
LTYPE
  5
166
330
5
100
AcDbSymbolTableRecord
100
AcDbLinetypeTableRecord
  2
ACJISTGL
 70
     0
  3
_ _ _ _ _
 72
    65
 73
     2
 40
3.0
 49
2.0
 74
     0
 49
-1.0
 74
     0
  0
LTYPE
  5
26A
330
5
100
AcDbSymbolTableRecord
100
AcDbLinetypeTableRecord
  2
ACJISTGB
 70
     0
  3
__ . . __ . .
 72
    65
 73
     6
 40
9.0
 49
4.0
 74
     0
 49
-1.0
 74
     0
 49
1.0
 74
     0
 49
-1.0
 74
     0
 49
1.0
 74
     0
 49
-1.0
 74
     0
  0
ENDTAB
  0
TABLE
  2
LAYER
  5
2
330
0
100
AcDbSymbolTable
 70
     7
  0
LAYER
  5
10
330
2
100
AcDbSymbolTableRecord
100
AcDbLayerTableRecord
  2
0
 70
     0
 62
     7
  6
CONTINUOUS
  0
LAYER
  5
3F9
330
2
100
AcDbSymbolTableRecord
100
AcDbLayerTableRecord
  2
AM_0
 70
     0
 62
     7
  6
CONTINUOUS
  0
LAYER
  5
BDD
330
2
100
AcDbSymbolTableRecord
100
AcDbLayerTableRecord
  2
AM_11
 70
     0
 62
     3
  6
AM_ISO09W050
  0
LAYER
  5
BDE
330
2
100
AcDbSymbolTableRecord
100
AcDbLayerTableRecord
  2
AM_7
 70
     0
 62
     4
  6
AM_ISO08W050
  0
LAYER
  5
BDF
330
2
100
AcDbSymbolTableRecord
100
AcDbLayerTableRecord
  2
AM_5
 70
     0
 62
     3
  6
CONTINUOUS
  0
LAYER
  5
BE0
330
2
100
AcDbSymbolTableRecord
100
AcDbLayerTableRecord
  2
DEFPOINTS
 70
     0
 62
     7
  6
CONTINUOUS
  0
LAYER
  5
14FF
330
2
100
AcDbSymbolTableRecord
100
AcDbLayerTableRecord
  2
AM_6
 70
     0
 62
     2
  6
CONTINUOUS
  0
ENDTAB
  0
TABLE
  2
STYLE
  5
3
330
0
100
AcDbSymbolTable
 70
     5
  0
STYLE
  5
11
330
3
100
AcDbSymbolTableRecord
100
AcDbTextStyleTableRecord
  2
STANDARD
 70
     0
 40
0.0
 41
1.0
 50
0.0
 71
     0
 42
2.5
  3
simplex.shx
  4
EXTFONT.SHX
  0
STYLE
  5
52
330
3
100
AcDbSymbolTableRecord
100
AcDbTextStyleTableRecord
  2

 70
     1
 40
0.0
 41
1.0
 50
0.0
 71
     0
 42
2.5
  3
ltypeshp.shx
  4

  0
STYLE
  5
6B
330
3
100
AcDbSymbolTableRecord
100
AcDbTextStyleTableRecord
  2
ASAMI
 70
     0
 40
0.0
 41
1.0
 50
0.0
 71
     0
 42
2.5
  3
simplex.shx
  4
EXTFONT.SHX
  0
STYLE
  5
262
330
3
100
AcDbSymbolTableRecord
100
AcDbTextStyleTableRecord
  2
ACJISTS
 70
     0
 40
1.0
 41
1.0
 50
0.0
 71
     0
 42
2.5
  3
simplex.shx
  4
bigfont.shx
  0
STYLE
  5
269
330
3
100
AcDbSymbolTableRecord
100
AcDbTextStyleTableRecord
  2
ACJISGDT
 70
     0
 40
0.0
 41
1.0
 50
0.0
 71
     0
 42
2.5
  3
amgdtans.shx
  4

  0
ENDTAB
  0
TABLE
  2
VIEW
  5
6
330
0
100
AcDbSymbolTable
 70
     0
  0
ENDTAB
  0
TABLE
  2
UCS
  5
7
330
0
100
AcDbSymbolTable
 70
     0
  0
ENDTAB
  0
TABLE
  2
APPID
  5
9
330
0
100
AcDbSymbolTable
 70
    13
  0
APPID
  5
12
330
9
100
AcDbSymbolTableRecord
100
AcDbRegAppTableRecord
  2
ACAD
 70
     0
  0
APPID
  5
30
330
9
100
AcDbSymbolTableRecord
100
AcDbRegAppTableRecord
  2
MCAD_NO_VIS
 70
     0
  0
APPID
  5
31
330
9
100
AcDbSymbolTableRecord
100
AcDbRegAppTableRecord
  2
ACAD_TEMP_GRAPHIC
 70
     0
  0
APPID
  5
2C2
330
9
100
AcDbSymbolTableRecord
100
AcDbRegAppTableRecord
  2
GENIUS_GENDTOL_13
 70
     0
  0
APPID
  5
339
330
9
100
AcDbSymbolTableRecord
100
AcDbRegAppTableRecord
  2
GENIUS_GENODEF_13
 70
     0
  0
APPID
  5
33A
330
9
100
AcDbSymbolTableRecord
100
AcDbRegAppTableRecord
  2
GENIUS_GENOBJ-N-RSBK_13
 70
     0
  0
APPID
  5
33B
330
9
100
AcDbSymbolTableRecord
100
AcDbRegAppTableRecord
  2
GENIUS_GENOBJ-N-LIB_13
 70
     0
  0
APPID
  5
33C
330
9
100
AcDbSymbolTableRecord
100
AcDbRegAppTableRecord
  2
GENIUS_GENSCALE_13
 70
     0
  0
APPID
  5
378
330
9
100
AcDbSymbolTableRecord
100
AcDbRegAppTableRecord
  2
GENIUS_GENDIMSH_14
 70
     0
  0
APPID
  5
BE1
330
9
100
AcDbSymbolTableRecord
100
AcDbRegAppTableRecord
  2
GENIUS_GENFIL_13
 70
     0
  0
APPID
  5
BE2
330
9
100
AcDbSymbolTableRecord
100
AcDbRegAppTableRecord
  2
GENIUS_GENOBJ-N-CHA_13
 70
     0
  0
APPID
  5
151B
330
9
100
AcDbSymbolTableRecord
100
AcDbRegAppTableRecord
  2
DCO15
 70
     0
  0
APPID
  5
1860
330
9
100
AcDbSymbolTableRecord
100
AcDbRegAppTableRecord
  2
GENIUS_GENOBJ-N-CEN_13
 70
     0
  0
ENDTAB
  0
TABLE
  2
DIMSTYLE
  5
A
330
0
100
AcDbSymbolTable
 70
     8
  0
DIMSTYLE
105
58
102
{ACAD_REACTORS
330
10F0
330
12D8
330
1A73
330
31A2
102
}
330
A
100
AcDbSymbolTableRecord
100
AcDbDimStyleTableRecord
  2
AM_JIS
 70
     0
  3

  4
"
  5
OPEN30
  6

  7

 40
0.5
 41
2.5
 42
1.0
 43
12.0
 44
1.0
 45
0.0
 46
0.0
 47
0.1
 48
0.1
140
3.2
141
0.0
142
0.0
143
0.0393701
144
1.0
145
0.0
146
0.71
147
1.5
 71
     0
 72
     0
 73
     0
 74
     0
 75
     0
 76
     0
 77
     3
 78
     8
170
     0
171
     2
172
     1
173
     0
174
     0
175
     0
176
   256
177
   256
178
     2
270
     2
271
     3
272
     3
273
     2
274
     2
340
6B
275
     0
280
     0
281
     0
282
     0
283
     0
284
     0
285
     0
286
     0
287
     3
288
     0
  0
DIMSTYLE
105
5F
330
A
100
AcDbSymbolTableRecord
100
AcDbDimStyleTableRecord
  2
AM_JIS$3
 70
     0
  3

  4
"
  5
OPEN30
  6

  7

 40
0.5
 41
2.5
 42
1.0
 43
10.0
 44
1.0
 45
0.0
 46
0.0
 47
0.1
 48
0.1
140
3.2
141
0.0
142
0.0
143
0.0393701
144
1.0
145
0.0
146
0.71
147
1.5
 71
     0
 72
     0
 73
     0
 74
     1
 75
     0
 76
     0
 77
     3
 78
     8
170
     0
171
     2
172
     0
173
     0
174
     0
175
     0
176
   256
177
   256
178
     2
270
     2
271
     2
272
     3
273
     2
274
     2
340
6B
275
     0
280
     0
281
     0
282
     0
283
     0
284
     0
285
     0
286
     0
287
     0
288
     1
  0
DIMSTYLE
105
60
330
A
100
AcDbSymbolTableRecord
100
AcDbDimStyleTableRecord
  2
AM_JIS$4
 70
     0
  3

  4
"
  5
OPEN30
  6

  7

 40
0.5
 41
2.5
 42
1.0
 43
10.0
 44
1.0
 45
0.0
 46
0.0
 47
0.1
 48
0.1
140
3.2
141
0.0
142
0.0
143
0.0393701
144
1.0
145
0.0
146
0.71
147
1.5
 71
     0
 72
     0
 73
     0
 74
     1
 75
     0
 76
     0
 77
     3
 78
     8
170
     0
171
     2
172
     0
173
     0
174
     0
175
     0
176
   256
177
   256
178
     2
270
     2
271
     2
272
     3
273
     2
274
     2
340
6B
275
     0
280
     0
281
     0
282
     0
283
     0
284
     0
285
     0
286
     0
287
     0
288
     1
  0
DIMSTYLE
105
61
330
A
100
AcDbSymbolTableRecord
100
AcDbDimStyleTableRecord
  2
AM_JIS$6
 70
     0
  3

  4
"
  5
OPEN30
  6

  7

 40
0.5
 41
2.5
 42
1.0
 43
10.0
 44
1.0
 45
0.0
 46
0.0
 47
0.1
 48
0.1
140
3.2
141
0.0
142
0.0
143
0.0393701
144
1.0
145
0.0
146
0.71
147
1.5
 71
     0
 72
     0
 73
     0
 74
     0
 75
     0
 76
     0
 77
     0
 78
     8
170
     0
171
     2
172
     1
173
     0
174
     0
175
     0
176
   256
177
   256
178
     2
270
     2
271
     2
272
     2
273
     2
274
     2
340
6B
275
     0
280
     0
281
     0
282
     0
283
     0
284
     0
285
     0
286
     0
287
     3
288
     0
  0
DIMSTYLE
105
62
330
A
100
AcDbSymbolTableRecord
100
AcDbDimStyleTableRecord
  2
AM_JIS$7
 70
     0
  3

  4
"
  5
OPEN30
  6

  7

 40
0.5
 41
2.5
 42
1.0
 43
10.0
 44
1.0
 45
0.0
 46
0.0
 47
0.1
 48
0.1
140
3.2
141
0.0
142
0.0
143
0.0393701
144
1.0
145
0.0
146
0.71
147
1.5
 71
     0
 72
     0
 73
     0
 74
     0
 75
     0
 76
     0
 77
     3
 78
     8
170
     0
171
     2
172
     1
173
     0
174
     0
175
     0
176
   256
177
   256
178
     2
270
     2
271
     2
272
     3
273
     2
274
     2
340
6B
275
     0
280
     0
281
     0
282
     0
283
     0
284
     0
285
     0
286
     0
287
     3
288
     0
  0
DIMSTYLE
105
63
330
A
100
AcDbSymbolTableRecord
100
AcDbDimStyleTableRecord
  2
AM_JIS$SF
 70
     0
  3

  4
"
  5
OPEN30
  6

  7

 40
0.5
 41
2.5
 42
1.0
 43
10.0
 44
1.0
 45
0.0
 46
0.0
 47
0.1
 48
0.1
140
3.2
141
0.0
142
0.0
143
0.0393701
144
1.0
145
0.0
146
0.71
147
1.5
 71
     0
 72
     0
 73
     0
 74
     0
 75
     1
 76
     1
 77
     3
 78
     8
170
     0
171
     2
172
     1
173
     0
174
     0
175
     0
176
   256
177
   256
178
     2
270
     2
271
     2
272
     2
273
     2
274
     2
340
6B
275
     0
280
     0
281
     0
282
     0
283
     0
284
     0
285
     0
286
     0
287
     3
288
     0
  0
DIMSTYLE
105
68
330
A
100
AcDbSymbolTableRecord
100
AcDbDimStyleTableRecord
  2
AM_JIS$SH
 70
     0
  3

  4
"
  5

  6
GENAXEH
  7
OPEN30
 40
0.5
 41
2.5
 42
1.0
 43
10.0
 44
1.0
 45
0.0
 46
0.0
 47
0.1
 48
0.1
140
3.2
141
0.0
142
0.0
143
0.0393701
144
2.0
145
0.0
146
0.71
147
1.5
 71
     0
 72
     0
 73
     0
 74
     0
 75
     1
 76
     1
 77
     3
 78
     8
170
     0
171
     2
172
     1
173
     1
174
     0
175
     0
176
   256
177
   256
178
     2
270
     2
271
     2
272
     2
273
     2
274
     2
340
6B
275
     0
280
     0
281
     0
282
     0
283
     0
284
     0
285
     0
286
     0
287
     3
288
     0
  0
DIMSTYLE
105
B34
330
A
100
AcDbSymbolTableRecord
100
AcDbDimStyleTableRecord
  2
AM_JIS$2
 70
     0
  3

  4
"
  5
OPEN30
  6

  7

 40
0.5
 41
2.5
 42
1.0
 43
12.0
 44
1.0
 45
0.0
 46
0.0
 47
0.1
 48
0.1
140
3.2
141
0.0
142
0.0
143
0.0393701
144
1.0
145
0.0
146
0.71
147
1.5
 71
     0
 72
     0
 73
     0
 74
     0
 75
     0
 76
     0
 77
     3
 78
     8
170
     0
171
     2
172
     1
173
     0
174
     0
175
     0
176
   256
177
   256
178
     2
270
     2
271
     3
272
     3
273
     2
274
     2
340
6B
275
     0
280
     0
281
     0
282
     0
283
     0
284
     0
285
     0
286
     0
287
     3
288
     0
  0
ENDTAB
  0
TABLE
  2
BLOCK_RECORD
  5
1
330
0
100
AcDbSymbolTable
 70
     9
  0
BLOCK_RECORD
  5
1F
102
{ACAD_XDICTIONARY
360
74
102
}
330
1
100
AcDbSymbolTableRecord
100
AcDbBlockTableRecord
  2
*MODEL_SPACE
  0
BLOCK_RECORD
  5
101
102
{ACAD_XDICTIONARY
360
3621
102
}
330
1
100
AcDbSymbolTableRecord
100
AcDbBlockTableRecord
  2
*PAPER_SPACE
  0
BLOCK_RECORD
  5
59
330
1
100
AcDbSymbolTableRecord
100
AcDbBlockTableRecord
  2
_OPEN30
  0
BLOCK_RECORD
  5
64
330
1
100
AcDbSymbolTableRecord
100
AcDbBlockTableRecord
  2
GENAXEH
  0
BLOCK_RECORD
  5
10F1
330
1
100
AcDbSymbolTableRecord
100
AcDbBlockTableRecord
  2
*D5
  0
BLOCK_RECORD
  5
12D9
330
1
100
AcDbSymbolTableRecord
100
AcDbBlockTableRecord
  2
*D6
  0
BLOCK_RECORD
  5
1A74
330
1
100
AcDbSymbolTableRecord
100
AcDbBlockTableRecord
  2
*D7
  0
BLOCK_RECORD
  5
31A3
330
1
100
AcDbSymbolTableRecord
100
AcDbBlockTableRecord
  2
*D8
  0
ENDTAB
  0
ENDSEC
  0
SECTION
  2
BLOCKS
  0
BLOCK
  5
20
330
1F
100
AcDbEntity
  8
0
100
AcDbBlockBegin
  2
*MODEL_SPACE
 70
     0
 10
0.0
 20
0.0
 30
0.0
  3
*MODEL_SPACE
  1

  0
ENDBLK
  5
21
330
1F
100
AcDbEntity
  8
0
100
AcDbBlockEnd
  0
BLOCK
  5
103
330
101
100
AcDbEntity
 67
     1
  8
0
100
AcDbBlockBegin
  2
*PAPER_SPACE
 70
     0
 10
0.0
 20
0.0
 30
0.0
  3
*PAPER_SPACE
  1

  0
ENDBLK
  5
104
330
101
100
AcDbEntity
 67
     1
  8
0
100
AcDbBlockEnd
  0
BLOCK
  5
5D
330
59
100
AcDbEntity
  8
0
100
AcDbBlockBegin
  2
_OPEN30
 70
     0
 10
0.0
 20
0.0
 30
0.0
  3
_OPEN30
  1

  0
LINE
  5
5A
330
59
100
AcDbEntity
  8
0
 62
     0
100
AcDbLine
 10
-1.0
 20
0.26794919
 30
0.0
 11
0.0
 21
0.0
 31
0.0
  0
LINE
  5
5B
330
59
100
AcDbEntity
  8
0
 62
     0
100
AcDbLine
 10
0.0
 20
0.0
 30
0.0
 11
-1.0
 21
-0.26794919
 31
0.0
  0
LINE
  5
5C
330
59
100
AcDbEntity
  8
0
 62
     0
100
AcDbLine
 10
0.0
 20
0.0
 30
0.0
 11
-1.0
 21
0.0
 31
0.0
  0
ENDBLK
  5
5E
330
59
100
AcDbEntity
  8
0
100
AcDbBlockEnd
  0
BLOCK
  5
66
330
64
100
AcDbEntity
  8
0
100
AcDbBlockBegin
  2
GENAXEH
 70
     0
 10
0.0
 20
0.0
 30
0.0
  3
GENAXEH
  1

  0
LINE
  5
65
330
64
100
AcDbEntity
  8
0
100
AcDbLine
 10
-1.0
 20
0.0
 30
0.0
 11
1.0
 21
0.0
 31
0.0
  0
ENDBLK
  5
67
330
64
100
AcDbEntity
  8
0
100
AcDbBlockEnd
  0
BLOCK
  5
10FB
330
10F1
100
AcDbEntity
  8
0
100
AcDbBlockBegin
  2
*D5
 70
     1
 10
0.0
 20
0.0
 30
0.0
  3
*D5
  1

  0
LINE
  5
31E9
330
10F1
100
AcDbEntity
  8
AM_5
100
AcDbLine
 10
-40.0
 20
-2.166666666666666
 30
0.0
 11
-40.0
 21
-15.50000099999997
 31
0.0
  0
LINE
  5
31EA
330
10F1
100
AcDbEntity
  8
AM_5
100
AcDbLine
 10
-0.0000000000001386
 20
-1.449999999999999
 30
0.0
 11
-0.0000000000001394
 21
-15.50000099999997
 31
0.0
  0
LINE
  5
31EB
330
10F1
100
AcDbEntity
  8
AM_5
100
AcDbLine
 10
-38.75
 20
-15.00000099999997
 30
0.0
 11
-1.250000000000139
 21
-15.00000099999997
 31
0.0
  0
INSERT
  5
31EC
330
10F1
100
AcDbEntity
  8
AM_5
100
AcDbBlockReference
  2
_OPEN30
 10
-40.0
 20
-15.00000099999997
 30
0.0
 41
1.25
 42
1.25
 43
1.25
 50
180.0
  0
INSERT
  5
31ED
330
10F1
100
AcDbEntity
  8
AM_5
100
AcDbBlockReference
  2
_OPEN30
 10
-0.0000000000001394
 20
-15.00000099999997
 30
0.0
 41
1.25
 42
1.25
 43
1.25
  0
MTEXT
  5
31EE
330
10F1
100
AcDbEntity
  8
AM_5
 62
     2
100
AcDbMText
 10
-20.00000000000007
 20
-13.45000099999997
 30
0.0
 40
1.6
 41
0.0
 71
     5
 72
     1
  1
40
  7
ASAMI
1001
ACAD
1000
MTEXTBEGIN
1070
    73
1070
     1
1070
    44
1040
1.0
1070
    74
1070
     0
1000
MTEXTEND
  0
POINT
  5
31EF
330
10F1
100
AcDbEntity
  8
DEFPOINTS
 62
     0
100
AcDbPoint
 10
-40.0
 20
-1.666666666666667
 30
0.0
  0
POINT
  5
31F0
330
10F1
100
AcDbEntity
  8
DEFPOINTS
 62
     0
100
AcDbPoint
 10
-0.0000000000001386
 20
-0.9499999999999992
 30
0.0
  0
POINT
  5
31F1
330
10F1
100
AcDbEntity
  8
DEFPOINTS
 62
     0
100
AcDbPoint
 10
-0.0000000000001394
 20
-15.00000099999997
 30
0.0
  0
ENDBLK
  5
10FC
330
10F1
100
AcDbEntity
  8
0
100
AcDbBlockEnd
  0
BLOCK
  5
12E5
330
12D9
100
AcDbEntity
  8
0
100
AcDbBlockBegin
  2
*D6
 70
     1
 10
0.0
 20
0.0
 30
0.0
  3
*D6
  1

  0
LINE
  5
3419
330
12D9
100
AcDbEntity
  8
AM_5
100
AcDbLine
 10
-0.0000000000001386
 20
-1.449999999999999
 30
0.0
 11
-0.0000000000001391
 21
-9.500000999999981
 31
0.0
  0
LINE
  5
341A
330
12D9
100
AcDbEntity
  8
AM_5
100
AcDbLine
 10
-5.999984267097705
 20
-1.5
 30
0.0
 11
-5.999984267097706
 21
-9.500000999999981
 31
0.0
  0
LINE
  5
341B
330
12D9
100
AcDbEntity
  8
AM_5
100
AcDbLine
 10
-1.250000000000138
 20
-9.000000999999981
 30
0.0
 11
-4.749984267097706
 21
-9.000000999999981
 31
0.0
  0
INSERT
  5
341C
330
12D9
100
AcDbEntity
  8
AM_5
100
AcDbBlockReference
  2
_OPEN30
 10
-0.000000000000139
 20
-9.000000999999981
 30
0.0
 41
1.25
 42
1.25
 43
1.25
  0
INSERT
  5
341D
330
12D9
100
AcDbEntity
  8
AM_5
100
AcDbBlockReference
  2
_OPEN30
 10
-5.999984267097706
 20
-9.000000999999981
 30
0.0
 41
1.25
 42
1.25
 43
1.25
 50
180.0
  0
MTEXT
  5
341E
330
12D9
100
AcDbEntity
  8
AM_5
 62
     2
100
AcDbMText
 10
-2.999992133548922
 20
-7.450000999999981
 30
0.0
 40
1.6
 41
0.0
 71
     5
 72
     1
  1
6
  7
ASAMI
1001
ACAD
1000
MTEXTBEGIN
1070
    73
1070
     1
1070
    44
1040
1.0
1070
    74
1070
     0
1000
MTEXTEND
  0
POINT
  5
341F
330
12D9
100
AcDbEntity
  8
DEFPOINTS
 62
     0
100
AcDbPoint
 10
-0.0000000000001386
 20
-0.9499999999999992
 30
0.0
  0
POINT
  5
3420
330
12D9
100
AcDbEntity
  8
DEFPOINTS
 62
     0
100
AcDbPoint
 10
-5.999984267097705
 20
-1.0
 30
0.0
  0
POINT
  5
3421
330
12D9
100
AcDbEntity
  8
DEFPOINTS
 62
     0
100
AcDbPoint
 10
-5.999984267097706
 20
-9.000000999999981
 30
0.0
  0
ENDBLK
  5
12E6
330
12D9
100
AcDbEntity
  8
0
100
AcDbBlockEnd
  0
BLOCK
  5
1A7F
330
1A74
100
AcDbEntity
  8
0
100
AcDbBlockBegin
  2
*D7
 70
     1
 10
0.0
 20
0.0
 30
0.0
  3
*D7
  1

  0
LINE
  5
1A92
330
1A74
100
AcDbEntity
  8
AM_5
100
AcDbLine
 10
-40.25000000000001
 20
2.0
 30
0.0
 11
-49.00000099999999
 21
2.000000000000003
 31
0.0
  0
LINE
  5
1A93
330
1A74
100
AcDbEntity
  8
AM_5
100
AcDbLine
 10
-40.25
 20
-2.0
 30
0.0
 11
-49.00000099999999
 21
-1.999999999999998
 31
0.0
  0
LINE
  5
1A94
330
1A74
100
AcDbEntity
  8
AM_5
100
AcDbLine
 10
-48.50000099999999
 20
0.7500000000000028
 30
0.0
 11
-48.50000099999999
 21
-0.7499999999999982
 31
0.0
  0
INSERT
  5
1A95
330
1A74
100
AcDbEntity
  8
AM_5
100
AcDbBlockReference
  2
_OPEN30
 10
-48.50000099999999
 20
2.000000000000002
 30
0.0
 41
1.25
 42
1.25
 43
1.25
 50
90.0
  0
INSERT
  5
1A96
330
1A74
100
AcDbEntity
  8
AM_5
100
AcDbBlockReference
  2
_OPEN30
 10
-48.50000099999999
 20
-1.999999999999998
 30
0.0
 41
1.25
 42
1.25
 43
1.25
 50
270.0
  0
MTEXT
  5
1A97
330
1A74
100
AcDbEntity
  8
AM_5
 62
     2
100
AcDbMText
 10
-50.050001
 20
-0.0000000000000053
 30
0.0
 40
1.6
 41
0.0
 71
     5
 72
     1
  1
%%c4
  7
ASAMI
 11
0.0000000000000001
 21
1.0
 31
0.0
1001
ACAD
1000
MTEXTBEGIN
1070
    73
1070
     1
1070
    44
1040
1.0
1070
    74
1070
     0
1000
MTEXTEND
  0
POINT
  5
1A98
330
1A74
100
AcDbEntity
  8
DEFPOINTS
 62
     0
100
AcDbPoint
 10
-39.75000000000001
 20
2.0
 30
0.0
  0
POINT
  5
1A99
330
1A74
100
AcDbEntity
  8
DEFPOINTS
 62
     0
100
AcDbPoint
 10
-39.75
 20
-2.0
 30
0.0
  0
POINT
  5
1A9A
330
1A74
100
AcDbEntity
  8
DEFPOINTS
 62
     0
100
AcDbPoint
 10
-48.50000099999999
 20
-1.999999999999998
 30
0.0
  0
ENDBLK
  5
1A80
330
1A74
100
AcDbEntity
  8
0
100
AcDbBlockEnd
  0
BLOCK
  5
31AF
330
31A3
100
AcDbEntity
  8
0
100
AcDbBlockBegin
  2
*D8
 70
     1
 10
0.0
 20
0.0
 30
0.0
  3
*D8
  1

  0
LINE
  5
3454
330
31A3
100
AcDbEntity
  8
AM_5
100
AcDbLine
 10
0.5
 20
0.9999999999999998
 30
0.0
 11
9.551050680252135
 21
0.9999999999999973
 31
0.0
  0
LINE
  5
3455
330
31A3
100
AcDbEntity
  8
AM_5
100
AcDbLine
 10
0.5
 20
-0.999999999999993
 30
0.0
 11
9.551050680252135
 21
-0.9999999999999955
 31
0.0
  0
LINE
  5
3456
330
31A3
100
AcDbEntity
  8
AM_5
100
AcDbLine
 10
9.051050680252135
 20
2.249999999999997
 30
0.0
 11
9.051050680252135
 21
3.499999999999997
 31
0.0
  0
LINE
  5
3457
330
31A3
100
AcDbEntity
  8
AM_5
100
AcDbLine
 10
9.051050680252135
 20
-2.249999999999995
 30
0.0
 11
9.051050680252133
 21
-7.514285714285709
 31
0.0
  0
LINE
  5
3458
330
31A3
100
AcDbEntity
  8
AM_5
100
AcDbLine
 10
9.051050680252135
 20
0.9999999999999975
 30
0.0
 11
9.051050680252135
 21
-0.9999999999999953
 31
0.0
  0
INSERT
  5
3459
330
31A3
100
AcDbEntity
  8
AM_5
100
AcDbBlockReference
  2
_OPEN30
 10
9.051050680252135
 20
0.9999999999999975
 30
0.0
 41
1.25
 42
1.25
 43
1.25
 50
270.0
  0
INSERT
  5
345A
330
31A3
100
AcDbEntity
  8
AM_5
100
AcDbBlockReference
  2
_OPEN30
 10
9.051050680252135
 20
-0.9999999999999953
 30
0.0
 41
1.25
 42
1.25
 43
1.25
 50
90.0
  0
MTEXT
  5
345B
330
31A3
100
AcDbEntity
  8
AM_5
 62
     2
100
AcDbMText
 10
7.501050680252134
 20
-5.507142857142851
 30
0.0
 40
1.6
 41
0.0
 71
     5
 72
     1
  1
%%c2
  7
ASAMI
 11
0.0000000000000001
 21
1.0
 31
0.0
1001
ACAD
1000
MTEXTBEGIN
1070
    73
1070
     1
1070
    44
1040
1.0
1070
    74
1070
     0
1000
MTEXTEND
  0
POINT
  5
345C
330
31A3
100
AcDbEntity
  8
DEFPOINTS
 62
     0
100
AcDbPoint
 10
0.0
 20
1.0
 30
0.0
  0
POINT
  5
345D
330
31A3
100
AcDbEntity
  8
DEFPOINTS
 62
     0
100
AcDbPoint
 10
0.0
 20
-0.9999999999999928
 30
0.0
  0
POINT
  5
345E
330
31A3
100
AcDbEntity
  8
DEFPOINTS
 62
     0
100
AcDbPoint
 10
9.051050680252135
 20
-0.9999999999999953
 30
0.0
  0
ENDBLK
  5
31B0
330
31A3
100
AcDbEntity
  8
0
100
AcDbBlockEnd
  0
ENDSEC
  0
SECTION
  2
ENTITIES
  0
LINE
  5
C2E
330
1F
100
AcDbEntity
  8
AM_7
  6
AM_ISO08W050X2
100
AcDbLine
 10
2.051049680252134
 20
0.0
 30
0.0
 11
-41.5
 21
0.0
 31
0.0
  0
LINE
  5
C38
330
1F
100
AcDbEntity
  8
AM_0
100
AcDbLine
 10
-12.49999999999973
 20
1.999999999999999
 30
0.0
 11
-6.828718180382013
 21
1.000000000000013
 31
0.0
  0
LINE
  5
C39
330
1F
100
AcDbEntity
  8
AM_0
100
AcDbLine
 10
-12.5
 20
-2.000000000000002
 30
0.0
 11
-6.828718180382011
 21
-1.0
 31
0.0
  0
DIMENSION
  5
10F0
330
1F
100
AcDbEntity
  8
AM_5
100
AcDbDimension
  2
*D5
 10
-0.0000000000001394
 20
-15.00000099999997
 30
0.0
 11
-20.00000000000007
 21
-13.45000099999997
 31
0.0
 70
    32
  1
<>
  3
AM_JIS
100
AcDbAlignedDimension
 13
-40.0
 23
-1.666666666666667
 33
0.0
 14
-0.0000000000001386
 24
-0.9499999999999992
 34
0.0
 50
0.0000000000001132
100
AcDbRotatedDimension
1001
GENIUS_GENDTOL_13
1000

1000
h7
1000

1040
0.0
  0
DIMENSION
  5
12D8
330
1F
100
AcDbEntity
  8
AM_5
100
AcDbDimension
  2
*D6
 10
-5.999984267097706
 20
-9.000000999999981
 30
0.0
 11
-2.999992133548922
 21
-7.450000999999981
 31
0.0
 70
    32
  1
<>
  3
AM_JIS
100
AcDbAlignedDimension
 13
-0.0000000000001386
 23
-0.9499999999999992
 33
0.0
 14
-5.999984267097705
 24
-1.0
 34
0.0
 50
0.0000000000001132
100
AcDbRotatedDimension
1001
GENIUS_GENDTOL_13
1000

1000
h7
1000

1040
0.0
  0
TEXT
  5
1500
330
1F
100
AcDbEntity
  8
AM_6
100
AcDbText
 10
-30.59523809523816
 20
-26.25000099999997
 30
0.0
 40
2.5
  1
SSM2020ZX
 72
     4
 11
-20.00000000000007
 21
-25.00000099999997
 31
0.0
100
AcDbText
  0
DIMENSION
  5
1A73
330
1F
100
AcDbEntity
  8
AM_5
100
AcDbDimension
  2
*D7
 10
-48.50000099999999
 20
-1.999999999999998
 30
0.0
 11
-48.50000099999999
 21
-0.0000000000000055
 31
0.0
 70
   160
  1
%%c<>
  3
AM_JIS
100
AcDbAlignedDimension
 13
-39.75000000000001
 23
2.0
 33
0.0
 14
-39.75
 24
-2.0
 34
0.0
 50
270.0
100
AcDbRotatedDimension
1001
GENIUS_GENDTOL_13
1000

1000
h7
1000

1040
0.0
  0
LINE
  5
1A81
330
1F
100
AcDbEntity
  8
AM_0
100
AcDbLine
 10
-12.5
 20
-1.999999999999999
 30
0.0
 11
-12.5
 21
1.999999999999999
 31
0.0
  0
LINE
  5
1A82
330
1F
100
AcDbEntity
  8
AM_0
100
AcDbLine
 10
-39.75000000000001
 20
2.0
 30
0.0
 11
-40.0
 21
1.666666666666667
 31
0.0
1001
GENIUS_GENFIL_13
1070
     0
1040
0.25
1040
0.25
1040
20.0
1040
0.0
1002
{
1002
}
1001
GENIUS_GENODEF_13
1002
{
1000
HIER
1070
     0
1002
}
1002
{
1000
MANEDIT
1070
     0
1002
}
1002
{
1000
NOSEL
1070
     0
1002
}
1002
{
1000
BEHIND
1070
     0
1002
}
1002
{
1000
REACTOR
1002
}
1001
GENIUS_GENOBJ-N-CHA_13
1002
{
1000
OWNER
1000
GEN
1002
}
  0
LINE
  5
1A83
330
1F
100
AcDbEntity
  8
AM_0
100
AcDbLine
 10
-39.75
 20
-2.0
 30
0.0
 11
-40.0
 21
-1.666666666666667
 31
0.0
1001
GENIUS_GENFIL_13
1070
     0
1040
0.25
1040
0.25
1040
20.0
1040
0.0
1002
{
1002
}
1001
GENIUS_GENODEF_13
1002
{
1000
HIER
1070
     0
1002
}
1002
{
1000
MANEDIT
1070
     0
1002
}
1002
{
1000
NOSEL
1070
     0
1002
}
1002
{
1000
BEHIND
1070
     0
1002
}
1002
{
1000
REACTOR
1002
}
1001
GENIUS_GENOBJ-N-CHA_13
1002
{
1000
OWNER
1000
GEN
1002
}
  0
LINE
  5
1A84
330
1F
100
AcDbEntity
  8
AM_0
100
AcDbLine
 10
-40.0
 20
-1.666666666666667
 30
0.0
 11
-40.0
 21
1.666666666666667
 31
0.0
  0
LINE
  5
1A85
330
1F
100
AcDbEntity
  8
AM_0
100
AcDbLine
 10
-39.75000000000001
 20
2.0
 30
0.0
 11
-39.75000000000001
 21
-2.0
 31
0.0
  0
LINE
  5
1A86
330
1F
100
AcDbEntity
  8
AM_0
100
AcDbLine
 10
-39.75
 20
-2.0
 30
0.0
 11
-12.5
 21
-2.000000000000002
 31
0.0
  0
LINE
  5
1A87
330
1F
100
AcDbEntity
  8
AM_0
100
AcDbLine
 10
-39.75000000000001
 20
2.0
 30
0.0
 11
-12.5
 21
1.999999999999999
 31
0.0
  0
DIMENSION
  5
31A2
330
1F
100
AcDbEntity
  8
AM_5
100
AcDbDimension
  2
*D8
 10
9.051050680252135
 20
-0.9999999999999953
 30
0.0
 11
7.501050680252134
 21
-5.507142857142851
 31
0.0
 70
    32
  1
%%c<>
  3
AM_JIS
100
AcDbAlignedDimension
 13
0.0
 23
1.0
 33
0.0
 14
0.0
 24
-0.9999999999999928
 34
0.0
 50
90.0
100
AcDbRotatedDimension
1001
GENIUS_GENDTOL_13
1000

1000
h7
1000

1040
0.0
  0
SPLINE
  5
3304
330
1F
100
AcDbEntity
  8
AM_0
100
AcDbSpline
210
0.0
220
0.0
230
1.0
 70
     8
 71
     3
 72
     8
 73
     4
 74
     0
 42
0.0000000001
 43
0.0000000001
 40
0.0
 40
0.0
 40
0.0
 40
0.0
 40
2.764560748519282
 40
2.764560748519282
 40
2.764560748519282
 40
2.764560748519282
 10
-5.816864298730159
 20
-0.9700567340671
 30
0.0
 10
-5.63256024882888
 20
-0.9700567340671
 30
0.0
 10
-4.725377875224396
 20
-0.9522762297020364
 30
0.0
 10
-4.546636394515413
 20
-0.9201195579658502
 30
0.0
  0
SPLINE
  5
3305
330
1F
100
AcDbEntity
  8
AM_0
100
AcDbSpline
210
0.0
220
0.0
230
1.0
 70
     8
 71
     3
 72
     8
 73
     4
 74
     0
 42
0.0000000001
 43
0.0000000001
 40
0.0
 40
0.0
 40
0.0
 40
0.0
 40
2.221495395472776
 40
2.221495395472776
 40
2.221495395472776
 40
2.221495395472776
 10
-4.688936663804945
 20
-0.9234889007605602
 30
0.0
 10
-4.540836970773426
 20
-0.9234889007605602
 30
0.0
 10
-4.394561424366514
 20
-0.9124421711134473
 30
0.0
 10
-4.24982787737143
 20
-0.8920573485802023
 30
0.0
  0
SPLINE
  5
3306
330
1F
100
AcDbEntity
  8
AM_0
100
AcDbSpline
210
0.0
220
0.0
230
1.0
 70
     8
 71
     3
 72
     8
 73
     4
 74
     0
 42
0.0000000001
 43
0.0000000001
 40
0.0
 40
0.0
 40
0.0
 40
0.0
 40
2.130230809022907
 40
2.130230809022907
 40
2.130230809022907
 40
2.130230809022907
 10
-6.725954055129129
 20
-1.000000000000021
 30
0.0
 10
-6.023938667860889
 20
-1.000000000000021
 30
0.0
 10
-5.883846837688359
 20
-0.9891934575640561
 30
0.0
 10
-5.745395774993568
 20
-0.969169084570538
 30
0.0
  0
SPLINE
  5
3307
330
1F
100
AcDbEntity
  8
AM_0
100
AcDbSpline
210
0.0
220
0.0
230
1.0
 70
     8
 71
     3
 72
     8
 73
     4
 74
     2
 42
0.0000000001
 43
0.0000000001
 44
0.0000000001
 12
1.0
 22
0.0000000000000006
 32
0.0
 40
0.0
 40
0.0
 40
0.0
 40
0.0
 40
2.897999309868792
 40
2.897999309868792
 40
2.897999309868792
 40
2.897999309868792
 10
-5.440000000000004
 20
1.000000000000021
 30
0.0
 10
-4.47400023004374
 20
1.000000000000021
 30
0.0
 10
-3.597000115021873
 20
0.5000000000000217
 30
0.0
 10
-2.720000000000005
 20
0.0000000000000213
 30
0.0
 11
-5.440000000000004
 21
1.000000000000021
 31
0.0
 11
-2.720000000000005
 21
0.0000000000000213
 31
0.0
  0
SPLINE
  5
3309
330
1F
100
AcDbEntity
  8
AM_0
100
AcDbSpline
210
0.0
220
0.0
230
1.0
 70
     8
 71
     3
 72
     8
 73
     4
 74
     2
 42
0.0000000001
 43
0.0000000001
 44
0.0000000001
 12
-0.6417012268563094
 22
-0.7669547153848832
 32
0.0
 13
-0.9900999427831042
 23
-0.140364180975397
 33
0.0
 40
0.0
 40
0.0
 40
0.0
 40
0.0
 40
0.5173130647233461
 40
0.5173130647233461
 40
0.5173130647233461
 40
0.5173130647233461
 10
-0.0000000000000071
 20
0.8149405373367955
 30
0.0
 10
-0.1106534761005966
 20
0.6826886392302037
 30
0.0
 10
-0.3005839009432095
 20
0.6258947593848748
 30
0.0
 10
-0.4713144462043886
 20
0.6016906845056198
 30
0.0
 11
-0.0000000000000071
 21
0.8149405373367955
 31
0.0
 11
-0.4713144462043886
 21
0.6016906845056198
 31
0.0
  0
SPLINE
  5
330A
330
1F
100
AcDbEntity
  8
AM_0
100
AcDbSpline
210
0.0
220
0.0
230
1.0
 70
     8
 71
     3
 72
     8
 73
     4
 74
     0
 42
0.0000000001
 43
0.0000000001
 40
0.0
 40
0.0
 40
0.0
 40
0.0
 40
7.57842115059705
 40
7.57842115059705
 40
7.57842115059705
 40
7.57842115059705
 10
-0.0000000000000071
 20
1.000000000000007
 30
0.0
 10
-0.505228076706473
 20
1.0
 30
0.0
 10
-0.9861111840991796
 20
0.8632299791964825
 30
0.0
 10
-1.455381998112834
 20
0.661222102203503
 30
0.0
  0
SPLINE
  5
330B
330
1F
100
AcDbEntity
  8
AM_0
100
AcDbSpline
210
0.0
220
0.0
230
1.0
 70
     8
 71
     3
 72
     8
 73
     4
 74
     0
 42
0.0000000001
 43
0.0000000001
 40
0.7142832446738512
 40
0.7142832446738512
 40
0.7142832446738512
 40
0.7142832446738512
 40
14.36247867694493
 40
14.36247867694493
 40
14.36247867694493
 40
14.36247867694493
 10
-5.019441719864445
 20
0.9691690845705309
 30
0.0
 10
-3.643784327071202
 20
0.8775614070951078
 30
0.0
 10
-2.806360495438077
 20
0.4387807035475575
 30
0.0
 10
-1.968936663804946
 20
0.0000000000000142
 30
0.0
  0
SPLINE
  5
330C
330
1F
100
AcDbEntity
  8
AM_0
100
AcDbSpline
210
0.0
220
0.0
230
1.0
 70
     8
 71
     3
 72
     8
 73
     4
 74
     0
 42
0.0000000001
 43
0.0000000001
 40
0.0
 40
0.0
 40
0.0
 40
0.0
 40
2.238610194515266
 40
2.238610194515266
 40
2.238610194515266
 40
2.238610194515266
 10
-2.305906700517006
 20
-0.7673390917459884
 30
0.0
 10
-2.013277916879303
 20
-0.7673390917459884
 30
0.0
 10
-1.725951472071244
 20
-0.7297178954587125
 30
0.0
 10
-1.44228311088176
 20
-0.6661418354265507
 30
0.0
  0
SPLINE
  5
330E
330
1F
100
AcDbEntity
  8
AM_0
100
AcDbSpline
210
0.0
220
0.0
230
1.0
 70
     8
 71
     3
 72
     8
 73
     4
 74
     0
 42
0.0000000001
 43
0.0000000001
 40
0.0
 40
0.0
 40
0.0
 40
0.0
 40
1.826664227499084
 40
1.826664227499084
 40
1.826664227499084
 40
1.826664227499084
 10
-5.440000000000004
 20
1.0
 30
0.0
 10
-5.561777615166604
 20
1.0
 30
0.0
 10
-5.682140840237851
 20
0.9920539574204024
 30
0.0
 10
-5.83114455424932
 20
0.9599143317136261
 30
0.0
  0
SPLINE
  5
330F
330
1F
100
AcDbEntity
  8
AM_0
100
AcDbSpline
210
0.0
220
0.0
230
1.0
 70
     8
 71
     3
 72
     8
 73
     4
 74
     2
 42
0.0000000001
 43
0.0000000001
 44
0.0000000001
 12
-1.0
 22
-0.0000000000000008
 32
0.0
 40
0.0
 40
0.0
 40
0.0
 40
0.0
 40
2.897999309868789
 40
2.897999309868789
 40
2.897999309868789
 40
2.897999309868789
 10
-0.0000000000000071
 20
-0.9999999999999928
 30
0.0
 10
-0.9659997699562701
 20
-0.9999999999999936
 30
0.0
 10
-1.842999884978137
 20
-0.4999999999999968
 30
0.0
 10
-2.720000000000005
 20
0.0
 30
0.0
 11
-0.0000000000000071
 21
-0.9999999999999928
 31
0.0
 11
-2.720000000000005
 21
0.0
 31
0.0
  0
SPLINE
  5
3311
330
1F
100
AcDbEntity
  8
AM_0
100
AcDbSpline
210
0.0
220
0.0
230
1.0
 70
     8
 71
     3
 72
     8
 73
     4
 74
     0
 42
0.0000000001
 43
0.0000000001
 40
4.219358800530717
 40
4.219358800530717
 40
4.219358800530717
 40
4.219358800530717
 40
14.36247867694493
 40
14.36247867694493
 40
14.36247867694493
 40
14.36247867694493
 10
-0.0749999999999957
 20
-0.8156440369026043
 30
0.0
 10
-0.7242167513780374
 20
-0.65218955833776
 30
0.0
 10
-1.346576707591495
 20
-0.3260947791688764
 30
0.0
 10
-1.968936663804946
 20
0.0000000000000142
 30
0.0
  0
SPLINE
  5
3312
330
1F
100
AcDbEntity
  8
AM_0
100
AcDbSpline
210
0.0
220
0.0
230
1.0
 70
     8
 71
     3
 72
     8
 73
     4
 74
     2
 42
0.0000000001
 43
0.0000000001
 44
0.0000000001
 12
-1.0
 22
-0.0000000000000008
 32
0.0
 40
0.0
 40
0.0
 40
0.0
 40
0.0
 40
2.783474684184507
 40
2.783474684184507
 40
2.783474684184507
 40
2.783474684184507
 10
-2.305906700517006
 20
-0.7673390917459884
 30
0.0
 10
-3.233731595245175
 20
-0.7673390917459891
 30
0.0
 10
-4.130168671208793
 20
-0.4734309364387496
 30
0.0
 10
-5.026605747172411
 20
-0.1795227811315101
 30
0.0
 11
-2.305906700517006
 21
-0.7673390917459884
 31
0.0
 11
-5.026605747172411
 21
-0.1795227811315101
 31
0.0
  0
LINE
  5
3314
330
1F
100
AcDbEntity
  8
AM_11
100
AcDbLine
 10
-5.999995736315796
 20
-1.0
 30
0.0
 11
-5.999995736315796
 21
0.9999999999999928
 31
0.0
  0
LINE
  5
3316
330
1F
100
AcDbEntity
  8
AM_0
100
AcDbLine
 10
-2.305906700516999
 20
-0.7673390917459884
 30
0.0
 11
-4.249827877374777
 21
-0.8920573485806855
 31
0.0
  0
LINE
  5
3317
330
1F
100
AcDbEntity
  8
AM_0
100
AcDbLine
 10
0.0
 20
-1.0
 30
0.0
 11
0.0
 21
0.0399999999999992
 31
0.0
  0
LINE
  5
3318
330
1F
100
AcDbEntity
  8
AM_0
100
AcDbLine
 10
-0.0210000000000008
 20
-0.9466882315243623
 30
0.0
 11
-0.0210000000000008
 21
0.0650268254444768
 31
0.0
  0
LINE
  5
3319
330
1F
100
AcDbEntity
  8
AM_0
100
AcDbLine
 10
-0.0210000000000008
 20
-0.9466882315243623
 30
0.0
 11
-0.0750000000000029
 21
-0.815644036902654
 31
0.0
  0
ARC
  5
331A
330
1F
100
AcDbEntity
  8
AM_0
100
AcDbCircle
 10
-5.354147707849436
 20
1.354385374201392
 30
0.0
 40
2.370050159420247
100
AcDbArc
 50
210.2500605116965
 51
258.7415517849489
  0
LINE
  5
331B
330
1F
100
AcDbEntity
  8
AM_0
100
AcDbLine
 10
-3.961793521343541
 20
0.8142473497465598
 30
0.0
 11
-0.4713144462043815
 21
0.6016906845056127
 31
0.0
  0
LINE
  5
331D
330
1F
100
AcDbEntity
  8
AM_11
100
AcDbLine
 10
-0.0000000000001563
 20
1.0
 30
0.0
 11
-5.999995736315796
 21
0.9999999999999943
 31
0.0
  0
LINE
  5
331E
330
1F
100
AcDbEntity
  8
AM_0
100
AcDbLine
 10
0.0
 20
0.0399999999999992
 30
0.0
 11
-0.4713144462043815
 21
0.6016906845056127
 31
0.0
  0
LINE
  5
331F
330
1F
100
AcDbEntity
  8
AM_0
100
AcDbLine
 10
0.0
 20
0.2000000000000028
 30
0.0
 11
0.0
 21
1.0
 31
0.0
  0
ARC
  5
3320
330
1F
100
AcDbEntity
  8
AM_0
100
AcDbCircle
 10
2.84135368847653
 20
0.0042074623416752
 30
0.0
 40
3.026504077982369
100
AcDbArc
 50
175.3635181775061
 51
195.5055110014725
  0
LINE
  5
3321
330
1F
100
AcDbEntity
  8
AM_0
100
AcDbLine
 10
-0.0671279704941839
 20
0.1199999999999903
 30
0.0
 11
0.0
 21
0.2000000000000028
 31
0.0
  0
LINE
  5
3322
330
1F
100
AcDbEntity
  8
AM_0
100
AcDbLine
 10
-0.0750000000000029
 20
-0.815644036902654
 30
0.0
 11
-0.0750000000000029
 21
-0.8048710862265266
 31
0.0
  0
ARC
  5
3323
330
1F
100
AcDbEntity
  8
AM_0
100
AcDbCircle
 10
-6.747401201876727
 20
-7.531400560774901
 30
0.0
 40
8.540606234203686
100
AcDbArc
 50
61.86444657186376
 51
87.33951950086467
  0
ARC
  5
3324
330
1F
100
AcDbEntity
  8
AM_0
100
AcDbCircle
 10
-1.700289344624154
 20
9.895708060437545
 30
0.0
 40
10.61012051396052
100
AcDbArc
 50
235.4519391458655
 51
251.7294680421938
  0
ARC
  5
3325
330
1F
100
AcDbEntity
  8
AM_0
100
AcDbCircle
 10
-6.456864098558744
 20
-0.2253664352673157
 30
0.0
 40
1.020355480249434
100
AcDbArc
 50
118.4749138860583
 51
157.7849501432219
  0
LINE
  5
3327
330
1F
100
AcDbEntity
  8
AM_11
100
AcDbLine
 10
-6.000000000000042
 20
-1.0
 30
0.0
 11
0.0
 21
-1.0
 31
0.0
  0
LINE
  5
3328
330
1F
100
AcDbEntity
  8
AM_0
100
AcDbLine
 10
0.0
 20
-1.0
 30
0.0
 11
-0.0210000000000008
 21
-0.9466882315243623
 31
0.0
  0
LINE
  5
3487
330
1F
100
AcDbEntity
  8
AM_0
100
AcDbLine
 10
-6.350967954874583
 20
0.9999999999999946
 30
0.0
 11
-6.828718180381899
 21
0.9999999999999937
 31
0.0
  0
LINE
  5
3489
330
1F
100
AcDbEntity
  8
AM_0
100
AcDbLine
 10
-6.828718180382011
 20
-1.0
 30
0.0
 11
-6.725938329953868
 21
-1.000000000000002
 31
0.0
  0
LINE
  5
3592
330
1F
100
AcDbEntity
  8
AM_0
100
AcDbLine
 10
-6.828718180381997
 20
-0.5010875250086827
 30
0.0
 11
-6.828718180382011
 21
-1.0
 31
0.0
  0
ARC
  5
35DB
330
1F
100
AcDbEntity
  8
AM_0
100
AcDbCircle
 10
-5.000029677013161
 20
2.330808254849797
 30
0.0
 40
3.269132735127256
100
AcDbArc
 50
224.949595140732
 51
275.4605700935382
  0
VIEWPORT
  5
110
330
101
100
AcDbEntity
 67
     1
  8
0
100
AcDbViewport
 10
420.5
 20
297.0
 30
0.0
 40
948.9782706766916
 41
628.452
 68
     1
 69
     1
1001
ACAD
1000
MVIEW
1002
{
1070
    16
1010
0.0
1020
0.0
1030
0.0
1010
0.0
1020
0.0
1030
1.0
1040
0.0
1040
628.452
1040
420.5
1040
297.0
1040
50.0
1040
0.0
1040
0.0
1070
     0
1070
   100
1070
     1
1070
     1
1070
     0
1070
     0
1070
     0
1070
     0
1040
0.0
1040
0.0
1040
0.0
1040
10.0
1040
10.0
1040
10.0
1040
10.0
1070
     0
1002
{
1002
}
1002
}
  0
ENDSEC
  0
SECTION
  2
OBJECTS
  0
DICTIONARY
  5
C
330
0
100
AcDbDictionary
  3
ACAD_GROUP
350
D
  3
ACAD_LAYOUT
350
1A
  3
ACAD_MLINESTYLE
350
17
  3
ACAD_PLOTSETTINGS
350
19
  3
ACAD_PLOTSTYLENAME
350
E
  3
ACDBVARIABLEDICTIONARY
350
34
  3
ACMDICTIONARY
350
43
  3
AMG
350
2B
  3
AMGSNAPSETTINGS
350
6E
  3
ASE_INDEX_DICTIONARY
350
151A
  3
DWGPROPS
350
35ED
  3
ACDBHEADERROUNDTRIPXREC
350
35F9
  0
DICTIONARY
  5
74
330
1F
100
AcDbDictionary
280
     1
  3
ACAD_INDEX
360
35EF
  3
ACAD_LAYOUTSELFREF
360
361C
  0
DICTIONARY
  5
3621
330
101
100
AcDbDictionary
280
     1
  3
ACAD_LAYOUTSELFREF
360
3622
  0
DICTIONARY
  5
D
102
{ACAD_REACTORS
330
C
102
}
330
C
100
AcDbDictionary
  0
DICTIONARY
  5
1A
102
{ACAD_REACTORS
330
C
102
}
330
C
100
AcDbDictionary
  0
DICTIONARY
  5
17
102
{ACAD_REACTORS
330
C
102
}
330
C
100
AcDbDictionary
  3
STANDARD
350
18
  0
DICTIONARY
  5
19
102
{ACAD_REACTORS
330
C
102
}
330
C
100
AcDbDictionary
  0
ACDBDICTIONARYWDFLT
  5
E
102
{ACAD_REACTORS
330
C
102
}
330
C
100
AcDbDictionary
281
     1
  3
Normal
350
F
100
AcDbDictionaryWithDefault
340
F
  0
DICTIONARY
  5
34
102
{ACAD_REACTORS
330
C
102
}
330
C
100
AcDbDictionary
  3
INDEXCTL
350
35
  3
SORTENTS
350
B5E
  0
DICTIONARY
  5
43
102
{ACAD_REACTORS
330
C
102
}
330
C
100
AcDbDictionary
  3
ACMSTDDICTIONARY
350
260
  0
DICTIONARY
  5
2B
102
{ACAD_REACTORS
330
C
102
}
330
C
100
AcDbDictionary
  3
ACMGSETTINGS
350
2C
  0
DICTIONARY
  5
6E
102
{ACAD_REACTORS
330
C
102
}
330
C
100
AcDbDictionary
  0
DICTIONARY
  5
151A
102
{ACAD_REACTORS
330
C
102
}
330
C
100
AcDbDictionary
  3
ASEBLOCKHIERARCHYINDEXRECORD
350
151C
1001
DCO15
1040
1471862535.906
  0
XRECORD
  5
35ED
102
{ACAD_REACTORS
330
C
102
}
330
C
100
AcDbXrecord
  1
DWGPROPS COOKIE
  2

  3

  4

  6

  7

  8

  9

300
AmdtFileType=82
301
=
302
=
303
=
304
=
305
=
306
=
307
=
308
=
309
=
 40
0.2061894328703703
 41
2452838.430434386
 42
2452962.802259826
  1

 90
        1
  0
DICTIONARY
  5
35F9
102
{ACAD_REACTORS
330
C
102
}
330
C
100
AcDbDictionary
  3
TSTACKALIGN
350
35FA
  3
TSTACKSIZE
350
35FB
  3
HYPERLINKBASE
350
35FC
  3
STYLESHEET
350
35FD
  3
LAYOUTDICT
350
35FE
  3
PLOTSETDICT
350
35FF
  3
PLOTSTYLNAMDICT
350
3600
  3
LWETCUNION
350
3601
  3
INSUNITS
350
3602
  3
CEPSNTYPE
350
3603
  3
FINGERPRINTGUID
350
3604
  3
VERSIONGUID
350
3605
  3
PSVPSCALE
350
3606
  3
DIMSTYLEDATA
350
3607
  3
PUCSORTHOREF
350
3608
  3
PUCSORTHOVIEW
350
3609
  3
PUCSBASE
350
360A
  3
PUCSORGTOP
350
360B
  3
PUCSORGBOTTOM
350
360C
  3
PUCSORGLEFT
350
360D
  3
PUCSORGRIGHT
350
360E
  3
PUCSORGFRONT
350
360F
  3
PUCSORGBACK
350
3610
  3
UCSORTHOREF
350
3611
  3
UCSORTHOVIEW
350
3612
  3
UCSBASE
350
3613
  3
UCSORGTOP
350
3614
  3
UCSORGBOTTOM
350
3615
  3
UCSORGLEFT
350
3616
  3
UCSORGRIGHT
350
3617
  3
UCSORGFRONT
350
3618
  3
UCSORGBACK
350
3619
  0
DICTIONARY
  5
35EF
102
{ACAD_REACTORS
330
74
102
}
330
74
100
AcDbDictionary
  3
*A1
350
35F0
  0
XRECORD
  5
361C
102
{ACAD_REACTORS
330
74
102
}
330
74
100
AcDbXrecord
340
1F
  0
XRECORD
  5
3622
102
{ACAD_REACTORS
330
3621
102
}
330
3621
100
AcDbXrecord
340
101
  0
MLINESTYLE
  5
18
102
{ACAD_REACTORS
330
17
102
}
330
17
100
AcDbMlineStyle
  2
STANDARD
 70
     0
  3

 62
   256
 51
90.0
 52
90.0
 71
     2
 49
0.5
 62
   256
  6
BYLAYER
 49
-0.5
 62
   256
  6
BYLAYER
  0
ACDBPLACEHOLDER
  5
F
102
{ACAD_REACTORS
330
E
102
}
330
E
100
AcDbPlaceHolder
280
     0
  0
DICTIONARYVAR
  5
35
102
{ACAD_REACTORS
330
34
102
}
330
34
100
DictionaryVariables
280
     0
  1
1
  0
DICTIONARYVAR
  5
B5E
102
{ACAD_REACTORS
330
34
102
}
330
34
100
DictionaryVariables
280
     0
  1
96
  0
DICTIONARY
  5
260
102
{ACAD_REACTORS
330
43
102
}
330
43
100
AcDbDictionary
  0
DICTIONARY
  5
2C
102
{ACAD_REACTORS
330
2B
102
}
330
2B
100
AcDbDictionary
  3
DWGSETTINGS
350
2D
  0
XRECORD
  5
151C
102
{ACAD_REACTORS
330
151A
102
}
330
151A
100
AcDbXrecord
330
0
330
0
330
0
330
0
330
1A95
330
1A96
330
0
330
0
  0
XRECORD
  5
35FA
102
{ACAD_REACTORS
330
35F9
102
}
330
35F9
100
AcDbXrecord
 90
        1
  0
XRECORD
  5
35FB
102
{ACAD_REACTORS
330
35F9
102
}
330
35F9
100
AcDbXrecord
 90
       70
  0
XRECORD
  5
35FC
102
{ACAD_REACTORS
330
35F9
102
}
330
35F9
100
AcDbXrecord
  1

  0
XRECORD
  5
35FD
102
{ACAD_REACTORS
330
35F9
102
}
330
35F9
100
AcDbXrecord
  1
ASAMI.ctb
  0
XRECORD
  5
35FE
102
{ACAD_REACTORS
330
35F9
102
}
330
35F9
100
AcDbXrecord
340
1A
  0
XRECORD
  5
35FF
102
{ACAD_REACTORS
330
35F9
102
}
330
35F9
100
AcDbXrecord
340
19
  0
XRECORD
  5
3600
102
{ACAD_REACTORS
330
35F9
102
}
330
35F9
100
AcDbXrecord
340
E
  0
XRECORD
  5
3601
102
{ACAD_REACTORS
330
35F9
102
}
330
35F9
100
AcDbXrecord
 90
    10781
  0
XRECORD
  5
3602
102
{ACAD_REACTORS
330
35F9
102
}
330
35F9
100
AcDbXrecord
 90
        4
  0
XRECORD
  5
3603
102
{ACAD_REACTORS
330
35F9
102
}
330
35F9
100
AcDbXrecord
 90
        0
  0
XRECORD
  5
3604
102
{ACAD_REACTORS
330
35F9
102
}
330
35F9
100
AcDbXrecord
  1
{AFB28963-8C59-40AE-9337-C84526B81ACE}
  0
XRECORD
  5
3605
102
{ACAD_REACTORS
330
35F9
102
}
330
35F9
100
AcDbXrecord
  1
{F99ADBAA-2583-4065-9E2F-245A0BE13D4E}
  0
XRECORD
  5
3606
102
{ACAD_REACTORS
330
35F9
102
}
330
35F9
100
AcDbXrecord
 40
0.0
  0
XRECORD
  5
3607
102
{ACAD_REACTORS
330
35F9
102
}
330
35F9
100
AcDbXrecord
1000
DSTYLE
1002
{
1070
    79
 70
     2
1070
   341
340
59
1070
   342
340
59
1070
   371
 70
    -1
1070
   372
 70
    -1
1002
}
  0
XRECORD
  5
3608
102
{ACAD_REACTORS
330
35F9
102
}
330
35F9
100
AcDbXrecord
340
0
  0
XRECORD
  5
3609
102
{ACAD_REACTORS
330
35F9
102
}
330
35F9
100
AcDbXrecord
 70
     0
  0
XRECORD
  5
360A
102
{ACAD_REACTORS
330
35F9
102
}
330
35F9
100
AcDbXrecord
340
0
  0
XRECORD
  5
360B
102
{ACAD_REACTORS
330
35F9
102
}
330
35F9
100
AcDbXrecord
 10
0.0
 20
0.0
 30
0.0
  0
XRECORD
  5
360C
102
{ACAD_REACTORS
330
35F9
102
}
330
35F9
100
AcDbXrecord
 10
0.0
 20
0.0
 30
0.0
  0
XRECORD
  5
360D
102
{ACAD_REACTORS
330
35F9
102
}
330
35F9
100
AcDbXrecord
 10
0.0
 20
0.0
 30
0.0
  0
XRECORD
  5
360E
102
{ACAD_REACTORS
330
35F9
102
}
330
35F9
100
AcDbXrecord
 10
0.0
 20
0.0
 30
0.0
  0
XRECORD
  5
360F
102
{ACAD_REACTORS
330
35F9
102
}
330
35F9
100
AcDbXrecord
 10
0.0
 20
0.0
 30
0.0
  0
XRECORD
  5
3610
102
{ACAD_REACTORS
330
35F9
102
}
330
35F9
100
AcDbXrecord
 10
0.0
 20
0.0
 30
0.0
  0
XRECORD
  5
3611
102
{ACAD_REACTORS
330
35F9
102
}
330
35F9
100
AcDbXrecord
340
0
  0
XRECORD
  5
3612
102
{ACAD_REACTORS
330
35F9
102
}
330
35F9
100
AcDbXrecord
 70
     0
  0
XRECORD
  5
3613
102
{ACAD_REACTORS
330
35F9
102
}
330
35F9
100
AcDbXrecord
340
0
  0
XRECORD
  5
3614
102
{ACAD_REACTORS
330
35F9
102
}
330
35F9
100
AcDbXrecord
 10
0.0
 20
0.0
 30
0.0
  0
XRECORD
  5
3615
102
{ACAD_REACTORS
330
35F9
102
}
330
35F9
100
AcDbXrecord
 10
0.0
 20
0.0
 30
0.0
  0
XRECORD
  5
3616
102
{ACAD_REACTORS
330
35F9
102
}
330
35F9
100
AcDbXrecord
 10
0.0
 20
0.0
 30
0.0
  0
XRECORD
  5
3617
102
{ACAD_REACTORS
330
35F9
102
}
330
35F9
100
AcDbXrecord
 10
0.0
 20
0.0
 30
0.0
  0
XRECORD
  5
3618
102
{ACAD_REACTORS
330
35F9
102
}
330
35F9
100
AcDbXrecord
 10
0.0
 20
0.0
 30
0.0
  0
XRECORD
  5
3619
102
{ACAD_REACTORS
330
35F9
102
}
330
35F9
100
AcDbXrecord
 10
0.0
 20
0.0
 30
0.0
  0
LAYER_INDEX
  5
35F0
102
{ACAD_REACTORS
330
35EF
102
}
330
35EF
100
AcDbIndex
 40
2453151.80581015
100
AcDbLayerIndex
  8
0
360
35F1
 90
        0
  8
AM_0
360
35F2
 90
       40
  8
AM_11
360
35F3
 90
        3
  8
AM_7
360
35F4
 90
        1
  8
AM_5
360
35F5
 90
        4
  8
Defpoints
360
35F6
 90
        0
  8
AM_6
360
35F7
 90
        1
  0
XRECORD
  5
2D
102
{ACAD_REACTORS
330
2C
102
}
330
2C
100
AcDbXrecord
  1
VERSION
140
15.0
  1
PRODUCT
  2
AutoCAD Mechanical 2000
  0
IDBUFFER
  5
35F1
330
0
100
AcDbIdBuffer
  0
IDBUFFER
  5
35F2
330
0
100
AcDbIdBuffer
330
330C
330
330E
330
330F
330
3311
330
3312
330
3316
330
3317
330
3318
330
3319
330
331A
330
331B
330
331E
330
331F
330
3320
330
3321
330
3322
330
3323
330
3324
330
3325
330
3328
330
3487
330
3489
330
3592
330
35DB
330
C38
330
C39
330
1A81
330
1A82
330
1A83
330
1A84
330
1A85
330
1A86
330
1A87
330
3304
330
3305
330
3306
330
3307
330
3309
330
330A
330
330B
  0
IDBUFFER
  5
35F3
330
0
100
AcDbIdBuffer
330
3314
330
331D
330
3327
  0
IDBUFFER
  5
35F4
330
0
100
AcDbIdBuffer
330
C2E
  0
IDBUFFER
  5
35F5
330
0
100
AcDbIdBuffer
330
10F0
330
12D8
330
1A73
330
31A2
  0
IDBUFFER
  5
35F6
330
0
100
AcDbIdBuffer
  0
IDBUFFER
  5
35F7
330
0
100
AcDbIdBuffer
330
1500
  0
ENDSEC
  0
EOF
