  0
SECTION
  2
HEADER
  9
$ACADVER
  1
AC1014
  9
$ACADMAINTVER
 70
     9
  9
$DWGCODEPAGE
  3
ANSI_932
  9
$INSBASE
 10
0.0
 20
0.0
 30
0.0
  9
$EXTMIN
 10
-55.850001
 20
-27.25000100000002
 30
-0.00000001
  9
$EXTMAX
 10
9.551050680252135
 20
5.499999999999999
 30
0.00000001
  9
$LIMMIN
 10
-57.9048011881377
 20
-34.2646675618237
  9
$LIMMAX
 10
13.86064368127159
 20
16.25708791496117
  9
$ORTHOMODE
 70
     0
  9
$REGENMODE
 70
     1
  9
$FILLMODE
 70
     1
  9
$QTEXTMODE
 70
     0
  9
$MIRRTEXT
 70
     0
  9
$DRAGMODE
 70
     2
  9
$LTSCALE
 40
1.0
  9
$OSMODE
 70
    55
  9
$ATTMODE
 70
     1
  9
$TEXTSIZE
 40
2.5
  9
$TRACEWID
 40
1.0
  9
$TEXTSTYLE
  7
STANDARD
  9
$CLAYER
  8
AM_0
  9
$CELTYPE
  6
BYLAYER
  9
$CECOLOR
 62
   256
  9
$CELTSCALE
 40
1.0
  9
$DELOBJ
 70
     1
  9
$DISPSILH
 70
     0
  9
$DIMSCALE
 40
0.5
  9
$DIMASZ
 40
2.5
  9
$DIMEXO
 40
1.0
  9
$DIMDLI
 40
12.0
  9
$DIMRND
 40
0.0
  9
$DIMDLE
 40
0.0
  9
$DIMEXE
 40
1.0
  9
$DIMTP
 40
0.1
  9
$DIMTM
 40
0.1
  9
$DIMTXT
 40
3.2
  9
$DIMCEN
 40
0.0
  9
$DIMTSZ
 40
0.0
  9
$DIMTOL
 70
     0
  9
$DIMLIM
 70
     0
  9
$DIMTIH
 70
     0
  9
$DIMTOH
 70
     0
  9
$DIMSE1
 70
     0
  9
$DIMSE2
 70
     0
  9
$DIMTAD
 70
     3
  9
$DIMZIN
 70
     8
  9
$DIMBLK
  1
OPEN30
  9
$DIMASO
 70
     1
  9
$DIMSHO
 70
     1
  9
$DIMPOST
  1

  9
$DIMAPOST
  1
"
  9
$DIMALT
 70
     0
  9
$DIMALTD
 70
     2
  9
$DIMALTF
 40
0.0393701
  9
$DIMLFAC
 40
1.0
  9
$DIMTOFL
 70
     1
  9
$DIMTVP
 40
0.0
  9
$DIMTIX
 70
     0
  9
$DIMSOXD
 70
     0
  9
$DIMSAH
 70
     0
  9
$DIMBLK1
  1

  9
$DIMBLK2
  1

  9
$DIMSTYLE
  2
AM_JIS
  9
$DIMCLRD
 70
   256
  9
$DIMCLRE
 70
   256
  9
$DIMCLRT
 70
     2
  9
$DIMTFAC
 40
0.71
  9
$DIMGAP
 40
1.5
  9
$DIMJUST
 70
     0
  9
$DIMSD1
 70
     0
  9
$DIMSD2
 70
     0
  9
$DIMTOLJ
 70
     0
  9
$DIMTZIN
 70
     0
  9
$DIMALTZ
 70
     0
  9
$DIMALTTZ
 70
     0
  9
$DIMFIT
 70
     3
  9
$DIMUPT
 70
     0
  9
$DIMUNIT
 70
     2
  9
$DIMDEC
 70
     3
  9
$DIMTDEC
 70
     3
  9
$DIMALTU
 70
     2
  9
$DIMALTTD
 70
     2
  9
$DIMTXSTY
  7
ASAMI
  9
$DIMAUNIT
 70
     0
  9
$LUNITS
 70
     2
  9
$LUPREC
 70
     2
  9
$SKETCHINC
 40
1.0
  9
$FILLETRAD
 40
2.5
  9
$AUNITS
 70
     0
  9
$AUPREC
 70
     0
  9
$MENU
  1
.
  9
$ELEVATION
 40
0.0
  9
$PELEVATION
 40
0.0
  9
$THICKNESS
 40
0.0
  9
$LIMCHECK
 70
     0
  9
$BLIPMODE
 70
     0
  9
$CHAMFERA
 40
0.5
  9
$CHAMFERB
 40
0.5
  9
$CHAMFERC
 40
20.0
  9
$CHAMFERD
 40
0.0
  9
$SKPOLY
 70
     0
  9
$TDCREATE
 40
2452838.430434386
  9
$TDUPDATE
 40
2453151.821047986
  9
$TDINDWG
 40
0.2077135764
  9
$TDUSRTIMER
 40
0.2077135764
  9
$USRTIMER
 70
     1
  9
$ANGBASE
 50
0.0
  9
$ANGDIR
 70
     0
  9
$PDMODE
 70
     0
  9
$PDSIZE
 40
0.0
  9
$PLINEWID
 40
0.0
  9
$COORDS
 70
     1
  9
$SPLFRAME
 70
     0
  9
$SPLINETYPE
 70
     6
  9
$SPLINESEGS
 70
     8
  9
$ATTDIA
 70
     1
  9
$ATTREQ
 70
     1
  9
$HANDLING
 70
 12289
  9
$HANDSEED
  5
43E0
  9
$SURFTAB1
 70
     6
  9
$SURFTAB2
 70
     6
  9
$SURFTYPE
 70
     6
  9
$SURFU
 70
     6
  9
$SURFV
 70
     6
  9
$UCSNAME
  2

  9
$UCSORG
 10
0.0
 20
0.0
 30
0.0
  9
$UCSXDIR
 10
1.0
 20
0.0
 30
0.0
  9
$UCSYDIR
 10
0.0
 20
1.0
 30
0.0
  9
$PUCSNAME
  2

  9
$PUCSORG
 10
0.0
 20
0.0
 30
0.0
  9
$PUCSXDIR
 10
1.0
 20
0.0
 30
0.0
  9
$PUCSYDIR
 10
0.0
 20
1.0
 30
0.0
  9
$USERI1
 70
     0
  9
$USERI2
 70
     0
  9
$USERI3
 70
     0
  9
$USERI4
 70
     0
  9
$USERI5
 70
     0
  9
$USERR1
 40
0.0
  9
$USERR2
 40
0.0
  9
$USERR3
 40
0.0
  9
$USERR4
 40
0.0
  9
$USERR5
 40
0.0
  9
$WORLDVIEW
 70
     1
  9
$SHADEDGE
 70
     3
  9
$SHADEDIF
 70
    70
  9
$TILEMODE
 70
     1
  9
$MAXACTVP
 70
    64
  9
$PINSBASE
 10
0.0
 20
0.0
 30
0.0
  9
$PLIMCHECK
 70
     0
  9
$PEXTMIN
 10
1.000000000000000E+20
 20
1.000000000000000E+20
 30
1.000000000000000E+20
  9
$PEXTMAX
 10
-1.000000000000000E+20
 20
-1.000000000000000E+20
 30
-1.000000000000000E+20
  9
$PLIMMIN
 10
0.0
 20
0.0
  9
$PLIMMAX
 10
841.0
 20
594.0
  9
$UNITMODE
 70
     0
  9
$VISRETAIN
 70
     1
  9
$PLINEGEN
 70
     0
  9
$PSLTSCALE
 70
     0
  9
$TREEDEPTH
 70
  3020
  9
$PICKSTYLE
 70
     0
  9
$CMLSTYLE
  2
STANDARD
  9
$CMLJUST
 70
     0
  9
$CMLSCALE
 40
20.0
  9
$PROXYGRAPHICS
 70
     1
  9
$MEASUREMENT
 70
     1
  0
ENDSEC
  0
SECTION
  2
CLASSES
  0
CLASS
  1
ACDBDICTIONARYWDFLT
  2
AcDbDictionaryWithDefault
  3
AutoCAD 2000
 90
        0
280
     0
281
     0
  0
CLASS
  1
ACDBPLACEHOLDER
  2
AcDbPlaceHolder
  3
AutoCAD 2000
 90
        0
280
     0
281
     0
  0
CLASS
  1
LAYOUT
  2
AcDbLayout
  3
AutoCAD 2000
 90
        0
280
     0
281
     0
  0
CLASS
  1
AMGSETTINGSOBJ
  2
AmgSettingsObj
  3
"AcadM|Product Description: AutoCAD Mechanical 2000|Company: Autodesk"
 90
        0
280
     0
281
     0
  0
CLASS
  1
ACME_DOCUMENT
  2
AcMeDbDoc
  3
AcMeServices
 90
        0
280
     0
281
     0
  0
CLASS
  1
ACMESCOPE
  2
AcMeScope
  3
AcMeServices
 90
        0
280
     0
281
     0
  0
CLASS
  1
ACMECOMMANDHISTORY
  2
AcMeCommandHistory
  3
AcMeServices
 90
        0
280
     0
281
     0
  0
CLASS
  1
DICTIONARYVAR
  2
AcDbDictionaryVar
  3
AutoCAD 2000
 90
        0
280
     0
281
     0
  0
CLASS
  1
ACIMSYSVARMAN
  2
AcImSysVarManager
  3
AcMeServices
 90
        0
280
     0
281
     0
  0
CLASS
  1
ACIMREALSYSVAR
  2
AcImRealSysVar
  3
AcMeServices
 90
        0
280
     0
281
     0
  0
CLASS
  1
ACIMINTSYSVAR
  2
AcImIntSysVar
  3
AcMeServices
 90
        0
280
     0
281
     0
  0
CLASS
  1
ACMEDRAWINGMAN
  2
AcMeDrawingMan
  3
AcMeServices
 90
        0
280
     0
281
     0
  0
CLASS
  1
ACMEVIEW
  2
AcMeView
  3
AcMeServices
 90
        0
280
     0
281
     0
  0
CLASS
  1
ACDBENTITYCACHE
  2
AcMeEntityCache
  3
AcMeServices
 90
        0
280
     0
281
     0
  0
CLASS
  1
GSMANAGER
  2
AcMeGSManager
  3
AcMeServices
 90
        0
280
     0
281
     0
  0
CLASS
  1
AmdtInternalReactor
  2
AmdtInternalReactor
  3
AcMeServices
 90
        0
280
     0
281
     0
  0
CLASS
  1
ACMESTATEMGR
  2
AcMeStateMgr
  3
AcMeServices
 90
        0
280
     0
281
     0
  0
CLASS
  1
ACME_DATABASE
  2
AcMeDbDatabase
  3
AcMeServices
 90
        0
280
     0
281
     0
  0
CLASS
  1
ACRFINSADJUSTERMGR
  2
AcRfInsAdjusterMgr
  3
AcMeServices
 90
        0
280
     0
281
     0
  0
CLASS
  1
ACMDATADICTIONARY
  2
AcmDataDictionary
  3
"AcmSymBB|Product Description: AutoCAD Mechanical 2000|Company: Autodesk"
 90
        0
280
     0
281
     0
  0
CLASS
  1
ACMDATAENTRYBLOCK
  2
AcmDataEntryBlock
  3
"AcmSymBB|Product Description: AutoCAD Mechanical 2000|Company: Autodesk"
 90
        0
280
     0
281
     0
  0
CLASS
  1
AMGOBJPROPCFG
  2
AmgObjPropCfg
  3
"AmgLay|Product Description: AutoCAD Mechanical 2000|Company: Autodesk"
 90
        1
280
     0
281
     0
  0
CLASS
  1
ACAMGFILTERDAT
  2
AcAmgFilterDat
  3
"AcadM|Product Description: AutoCAD Mechanical 2000|Company: Autodesk"
 90
        0
280
     0
281
     0
  0
CLASS
  1
LAYER_INDEX
  2
AcDbLayerIndex
  3
AutoCAD 2000
 90
        0
280
     0
281
     0
  0
CLASS
  1
IDBUFFER
  2
AcDbIdBuffer
  3
AutoCAD 2000
 90
        0
280
     0
281
     0
  0
CLASS
  1
ACIMSTRSYSVAR
  2
AcImStrSysVar
  3
AcMeServices
 90
        0
280
     0
281
     0
  0
CLASS
  1
ACMSTANDARDJIS
  2
AcmStandardJIS
  3
"AcmSymBB|Product Description: AutoCAD Mechanical 2000|Company: Autodesk"
 90
        0
280
     0
281
     0
  0
CLASS
  1
ACMSURFSTANDARDJIS
  2
AcmSurfTextStdJIS
  3
"AcmSymBB|Product Description: AutoCAD Mechanical 2000|Company: Autodesk"
 90
        0
280
     0
281
     0
  0
CLASS
  1
ACMFCFSTANDARDJIS
  2
AcmFCFStdJIS
  3
"AcmSymBB|Product Description: AutoCAD Mechanical 2000|Company: Autodesk"
 90
        0
280
     0
281
     0
  0
CLASS
  1
ACMWELDSTANDARDJIS
  2
AcmWeldingStdJIS
  3
"AcmSymBB|Product Description: AutoCAD Mechanical 2000|Company: Autodesk"
 90
        0
280
     0
281
     0
  0
CLASS
  1
ACMIDSTANDARDJIS
  2
AcmIdStdJIS
  3
"AcmSymBB|Product Description: AutoCAD Mechanical 2000|Company: Autodesk"
 90
        0
280
     0
281
     0
  0
CLASS
  1
ACMDATUMSTANDARDJIS
  2
AcmDatumStdJIS
  3
"AcmSymBB|Product Description: AutoCAD Mechanical 2000|Company: Autodesk"
 90
        0
280
     0
281
     0
  0
CLASS
  1
ACMBOMSTANDARDJIS
  2
AcmBOMStdJIS
  3
"AcmSymBB|Product Description: AutoCAD Mechanical 2000|Company: Autodesk"
 90
        0
280
     0
281
     0
  0
CLASS
  1
ACMSTANDARDANSI
  2
AcmStandardANSI
  3
"AcmSymBB|Product Description: AutoCAD Mechanical 2000|Company: Autodesk"
 90
        0
280
     0
281
     0
  0
CLASS
  1
ACMSURFSTANDARDANSI
  2
AcmSurfTextStdANSI
  3
"AcmSymBB|Product Description: AutoCAD Mechanical 2000|Company: Autodesk"
 90
        0
280
     0
281
     0
  0
CLASS
  1
ACMFCFSTANDARDANSI
  2
AcmFCFStdANSI
  3
"AcmSymBB|Product Description: AutoCAD Mechanical 2000|Company: Autodesk"
 90
        0
280
     0
281
     0
  0
CLASS
  1
ACMWELDSTANDARDANSI
  2
AcmWeldingStdANSI
  3
"AcmSymBB|Product Description: AutoCAD Mechanical 2000|Company: Autodesk"
 90
        0
280
     0
281
     0
  0
CLASS
  1
ACMIDSTANDARDANSI
  2
AcmIdStdANSI
  3
"AcmSymBB|Product Description: AutoCAD Mechanical 2000|Company: Autodesk"
 90
        0
280
     0
281
     0
  0
CLASS
  1
ACMDATUMSTANDARDANSI
  2
AcmDatumStdANSI
  3
"AcmSymBB|Product Description: AutoCAD Mechanical 2000|Company: Autodesk"
 90
        0
280
     0
281
     0
  0
CLASS
  1
ACMBOMSTANDARDANSI
  2
AcmBOMStdANSI
  3
"AcmSymBB|Product Description: AutoCAD Mechanical 2000|Company: Autodesk"
 90
        0
280
     0
281
     0
  0
CLASS
  1
ACMSTANDARDBSI
  2
AcmStandardBSI
  3
"AcmSymBB|Product Description: AutoCAD Mechanical 2000|Company: Autodesk"
 90
        0
280
     0
281
     0
  0
CLASS
  1
ACMSURFSTANDARDBSI
  2
AcmSurfTextStdBSI
  3
"AcmSymBB|Product Description: AutoCAD Mechanical 2000|Company: Autodesk"
 90
        0
280
     0
281
     0
  0
CLASS
  1
ACMFCFSTANDARDBSI
  2
AcmFCFStdBSI
  3
"AcmSymBB|Product Description: AutoCAD Mechanical 2000|Company: Autodesk"
 90
        0
280
     0
281
     0
  0
CLASS
  1
ACMWELDSTANDARDBSI
  2
AcmWeldingStdBSI
  3
"AcmSymBB|Product Description: AutoCAD Mechanical 2000|Company: Autodesk"
 90
        0
280
     0
281
     0
  0
CLASS
  1
ACMIDSTANDARDBSI
  2
AcmIdStdBSI
  3
"AcmSymBB|Product Description: AutoCAD Mechanical 2000|Company: Autodesk"
 90
        0
280
     0
281
     0
  0
CLASS
  1
ACMDATUMSTANDARDBSI
  2
AcmDatumStdBSI
  3
"AcmSymBB|Product Description: AutoCAD Mechanical 2000|Company: Autodesk"
 90
        0
280
     0
281
     0
  0
CLASS
  1
ACMBOMSTANDARDBSI
  2
AcmBOMStdBSI
  3
"AcmSymBB|Product Description: AutoCAD Mechanical 2000|Company: Autodesk"
 90
        0
280
     0
281
     0
  0
CLASS
  1
LONG_TRANSACTION
  2
AcDbLongTransaction
  3
AutoCAD 2000
 90
        0
280
     0
281
     0
  0
CLASS
  1
LWPOLYLINE
  2
AcDbPolyline
  3
AutoCAD 2000
 90
        0
280
     0
281
     1
  0
CLASS
  1
HATCH
  2
AcDbHatch
  3
AutoCAD 2000
 90
        0
280
     0
281
     1
  0
CLASS
  1
XRECORD
  2
AcDbXrecord
  3
AutoCAD 2000
 90
        0
280
     0
281
     0
  0
ENDSEC
  0
SECTION
  2
TABLES
  0
TABLE
  2
VPORT
  5
8
330
0
100
AcDbSymbolTable
 70
     3
  0
VPORT
  5
43B5
330
8
100
AcDbSymbolTableRecord
100
AcDbViewportTableRecord
  2
*ACTIVE
 70
     0
 10
0.0
 20
0.0
 11
1.0
 21
1.0
 12
-15.16871113277693
 22
-7.304144747137286
 13
0.0
 23
0.0
 14
2.5
 24
2.5
 15
10.0
 25
10.0
 16
0.0
 26
0.0
 36
1.0
 17
0.0
 27
0.0
 37
0.0
 40
82.86908674452671
 41
1.56570841889117
 42
50.0
 43
0.0
 44
0.0
 50
0.0
 51
0.0
 71
     0
 72
   100
 73
     1
 74
     3
 75
     0
 76
     0
 77
     0
 78
     0
  0
ENDTAB
  0
TABLE
  2
LTYPE
  5
5
330
0
100
AcDbSymbolTable
 70
    10
  0
LTYPE
  5
14
330
5
100
AcDbSymbolTableRecord
100
AcDbLinetypeTableRecord
  2
BYBLOCK
 70
     0
  3

 72
    65
 73
     0
 40
0.0
  0
LTYPE
  5
15
330
5
100
AcDbSymbolTableRecord
100
AcDbLinetypeTableRecord
  2
BYLAYER
 70
     0
  3

 72
    65
 73
     0
 40
0.0
  0
LTYPE
  5
16
330
5
100
AcDbSymbolTableRecord
100
AcDbLinetypeTableRecord
  2
CONTINUOUS
 70
     0
  3
Solid line
 72
    65
 73
     0
 40
0.0
  0
LTYPE
  5
4B
330
5
100
AcDbSymbolTableRecord
100
AcDbLinetypeTableRecord
  2
AM_ISO02W050
 70
     0
  3
__ __ __ __ __ __ __ __ __ __ __ __ __ __ __
 72
    65
 73
     2
 40
7.5
 49
6.0
 74
     0
 49
-1.5
 74
     0
  0
LTYPE
  5
4C
330
5
100
AcDbSymbolTableRecord
100
AcDbLinetypeTableRecord
  2
AM_ISO08W050
 70
     0
  3
____ . ____ . ____ . ____ . ____ . ____ . ____
 72
    65
 73
     4
 40
18.0
 49
12.0
 74
     0
 49
-1.5
 74
     0
 49
3.0
 74
     0
 49
-1.5
 74
     0
  0
LTYPE
  5
4D
330
5
100
AcDbSymbolTableRecord
100
AcDbLinetypeTableRecord
  2
AM_ISO09W050
 70
     0
  3
_____ . . _____ . . _____ . . ____ .. ____
 72
    65
 73
     6
 40
22.5
 49
12.0
 74
     0
 49
-1.5
 74
     0
 49
3.0
 74
     0
 49
-1.5
 74
     0
 49
3.0
 74
     0
 49
-1.5
 74
     0
  0
LTYPE
  5
4E
330
5
100
AcDbSymbolTableRecord
100
AcDbLinetypeTableRecord
  2
AMCONSTR
 70
     0
  3
_______________________
 72
    65
 73
     2
 40
9999.0
 49
9999.0
 74
     0
 49
0.0
 74
     0
  0
LTYPE
  5
4F
330
5
100
AcDbSymbolTableRecord
100
AcDbLinetypeTableRecord
  2
AM_ISO02W050X2
 70
     0
  3
 _ _ _ _ _ _ _ _ _ _ _ _
 72
    65
 73
     2
 40
3.75
 49
3.0
 74
     0
 49
-0.75
 74
     0
  0
LTYPE
  5
50
330
5
100
AcDbSymbolTableRecord
100
AcDbLinetypeTableRecord
  2
AM_ISO08W050X2
 70
     0
  3
__ . __ . __ . __ . __ . __
 72
    65
 73
     4
 40
9.0
 49
6.0
 74
     0
 49
-0.75
 74
     0
 49
1.5
 74
     0
 49
-0.75
 74
     0
  0
LTYPE
  5
53
330
5
100
AcDbSymbolTableRecord
100
AcDbLinetypeTableRecord
  2
AMZIGZAG
 70
     0
  3
/\/-/\/-/\/-/\/-/\/-/\/
 72
    65
 73
     2
 40
11.00009999999999
 49
0.0001
 74
     4
 75
   135
340
52
 46
0.04
 50
0.0
 44
0.0
 45
0.0
 49
-11.0
 74
     0
  0
LTYPE
  5
166
330
5
100
AcDbSymbolTableRecord
100
AcDbLinetypeTableRecord
  2
ACJISTGL
 70
     0
  3
_ _ _ _ _
 72
    65
 73
     2
 40
3.0
 49
2.0
 74
     0
 49
-1.0
 74
     0
  0
LTYPE
  5
26A
330
5
100
AcDbSymbolTableRecord
100
AcDbLinetypeTableRecord
  2
ACJISTGB
 70
     0
  3
__ . . __ . .
 72
    65
 73
     6
 40
9.0
 49
4.0
 74
     0
 49
-1.0
 74
     0
 49
1.0
 74
     0
 49
-1.0
 74
     0
 49
1.0
 74
     0
 49
-1.0
 74
     0
  0
ENDTAB
  0
TABLE
  2
LAYER
  5
2
330
0
100
AcDbSymbolTable
 70
     8
  0
LAYER
  5
10
330
2
100
AcDbSymbolTableRecord
100
AcDbLayerTableRecord
  2
0
 70
     0
 62
     7
  6
CONTINUOUS
  0
LAYER
  5
3F9
330
2
100
AcDbSymbolTableRecord
100
AcDbLayerTableRecord
  2
AM_0
 70
     0
 62
     7
  6
CONTINUOUS
  0
LAYER
  5
BDD
330
2
100
AcDbSymbolTableRecord
100
AcDbLayerTableRecord
  2
AM_11
 70
     0
 62
     3
  6
AM_ISO09W050
  0
LAYER
  5
BDE
330
2
100
AcDbSymbolTableRecord
100
AcDbLayerTableRecord
  2
AM_7
 70
     0
 62
     4
  6
AM_ISO08W050
  0
LAYER
  5
BDF
330
2
100
AcDbSymbolTableRecord
100
AcDbLayerTableRecord
  2
AM_5
 70
     0
 62
     3
  6
CONTINUOUS
  0
LAYER
  5
BE0
330
2
100
AcDbSymbolTableRecord
100
AcDbLayerTableRecord
  2
DEFPOINTS
 70
     0
 62
     7
  6
CONTINUOUS
  0
LAYER
  5
14FF
330
2
100
AcDbSymbolTableRecord
100
AcDbLayerTableRecord
  2
AM_6
 70
     0
 62
     2
  6
CONTINUOUS
  0
LAYER
  5
435C
330
2
100
AcDbSymbolTableRecord
100
AcDbLayerTableRecord
  2
AM_CL
 70
     0
 62
     1
  6
AMCONSTR
  0
ENDTAB
  0
TABLE
  2
STYLE
  5
3
330
0
100
AcDbSymbolTable
 70
     5
  0
STYLE
  5
11
330
3
100
AcDbSymbolTableRecord
100
AcDbTextStyleTableRecord
  2
STANDARD
 70
     0
 40
0.0
 41
1.0
 50
0.0
 71
     0
 42
2.5
  3
simplex.shx
  4
EXTFONT.SHX
  0
STYLE
  5
52
330
3
100
AcDbSymbolTableRecord
100
AcDbTextStyleTableRecord
  2

 70
     1
 40
0.0
 41
1.0
 50
0.0
 71
     0
 42
2.5
  3
ltypeshp.shx
  4

  0
STYLE
  5
6B
330
3
100
AcDbSymbolTableRecord
100
AcDbTextStyleTableRecord
  2
ASAMI
 70
     0
 40
0.0
 41
1.0
 50
0.0
 71
     0
 42
2.5
  3
simplex.shx
  4
EXTFONT.SHX
  0
STYLE
  5
262
330
3
100
AcDbSymbolTableRecord
100
AcDbTextStyleTableRecord
  2
ACJISTS
 70
     0
 40
1.0
 41
1.0
 50
0.0
 71
     0
 42
2.5
  3
simplex.shx
  4
bigfont.shx
  0
STYLE
  5
269
330
3
100
AcDbSymbolTableRecord
100
AcDbTextStyleTableRecord
  2
ACJISGDT
 70
     0
 40
0.0
 41
1.0
 50
0.0
 71
     0
 42
2.5
  3
amgdtans.shx
  4

  0
ENDTAB
  0
TABLE
  2
VIEW
  5
6
330
0
100
AcDbSymbolTable
 70
     0
  0
ENDTAB
  0
TABLE
  2
UCS
  5
7
330
0
100
AcDbSymbolTable
 70
     0
  0
ENDTAB
  0
TABLE
  2
APPID
  5
9
330
0
100
AcDbSymbolTable
 70
    13
  0
APPID
  5
12
330
9
100
AcDbSymbolTableRecord
100
AcDbRegAppTableRecord
  2
ACAD
 70
     0
  0
APPID
  5
30
330
9
100
AcDbSymbolTableRecord
100
AcDbRegAppTableRecord
  2
MCAD_NO_VIS
 70
     0
  0
APPID
  5
31
330
9
100
AcDbSymbolTableRecord
100
AcDbRegAppTableRecord
  2
ACAD_TEMP_GRAPHIC
 70
     0
  0
APPID
  5
2C2
330
9
100
AcDbSymbolTableRecord
100
AcDbRegAppTableRecord
  2
GENIUS_GENDTOL_13
 70
     0
  0
APPID
  5
339
330
9
100
AcDbSymbolTableRecord
100
AcDbRegAppTableRecord
  2
GENIUS_GENODEF_13
 70
     0
  0
APPID
  5
33A
330
9
100
AcDbSymbolTableRecord
100
AcDbRegAppTableRecord
  2
GENIUS_GENOBJ-N-RSBK_13
 70
     0
  0
APPID
  5
33B
330
9
100
AcDbSymbolTableRecord
100
AcDbRegAppTableRecord
  2
GENIUS_GENOBJ-N-LIB_13
 70
     0
  0
APPID
  5
33C
330
9
100
AcDbSymbolTableRecord
100
AcDbRegAppTableRecord
  2
GENIUS_GENSCALE_13
 70
     0
  0
APPID
  5
378
330
9
100
AcDbSymbolTableRecord
100
AcDbRegAppTableRecord
  2
GENIUS_GENDIMSH_14
 70
     0
  0
APPID
  5
BE1
330
9
100
AcDbSymbolTableRecord
100
AcDbRegAppTableRecord
  2
GENIUS_GENFIL_13
 70
     0
  0
APPID
  5
BE2
330
9
100
AcDbSymbolTableRecord
100
AcDbRegAppTableRecord
  2
GENIUS_GENOBJ-N-CHA_13
 70
     0
  0
APPID
  5
151B
330
9
100
AcDbSymbolTableRecord
100
AcDbRegAppTableRecord
  2
DCO15
 70
     0
  0
APPID
  5
1860
330
9
100
AcDbSymbolTableRecord
100
AcDbRegAppTableRecord
  2
GENIUS_GENOBJ-N-CEN_13
 70
     0
  0
ENDTAB
  0
TABLE
  2
DIMSTYLE
  5
A
330
0
100
AcDbSymbolTable
 70
     8
  0
DIMSTYLE
105
58
102
{ACAD_REACTORS
330
10F0
330
12D8
330
1A73
330
415C
102
}
330
A
100
AcDbSymbolTableRecord
100
AcDbDimStyleTableRecord
  2
AM_JIS
 70
     0
  3

  4
"
  5
OPEN30
  6

  7

 40
0.5
 41
2.5
 42
1.0
 43
12.0
 44
1.0
 45
0.0
 46
0.0
 47
0.1
 48
0.1
140
3.2
141
0.0
142
0.0
143
0.0393701
144
1.0
145
0.0
146
0.71
147
1.5
 71
     0
 72
     0
 73
     0
 74
     0
 75
     0
 76
     0
 77
     3
 78
     8
170
     0
171
     2
172
     1
173
     0
174
     0
175
     0
176
   256
177
   256
178
     2
270
     2
271
     3
272
     3
273
     2
274
     2
340
6B
275
     0
280
     0
281
     0
282
     0
283
     0
284
     0
285
     0
286
     0
287
     3
288
     0
  0
DIMSTYLE
105
5F
330
A
100
AcDbSymbolTableRecord
100
AcDbDimStyleTableRecord
  2
AM_JIS$3
 70
     0
  3

  4
"
  5
OPEN30
  6

  7

 40
0.5
 41
2.5
 42
1.0
 43
10.0
 44
1.0
 45
0.0
 46
0.0
 47
0.1
 48
0.1
140
3.2
141
0.0
142
0.0
143
0.0393701
144
1.0
145
0.0
146
0.71
147
1.5
 71
     0
 72
     0
 73
     0
 74
     1
 75
     0
 76
     0
 77
     3
 78
     8
170
     0
171
     2
172
     0
173
     0
174
     0
175
     0
176
   256
177
   256
178
     2
270
     2
271
     2
272
     3
273
     2
274
     2
340
6B
275
     0
280
     0
281
     0
282
     0
283
     0
284
     0
285
     0
286
     0
287
     0
288
     1
  0
DIMSTYLE
105
60
330
A
100
AcDbSymbolTableRecord
100
AcDbDimStyleTableRecord
  2
AM_JIS$4
 70
     0
  3

  4
"
  5
OPEN30
  6

  7

 40
0.5
 41
2.5
 42
1.0
 43
10.0
 44
1.0
 45
0.0
 46
0.0
 47
0.1
 48
0.1
140
3.2
141
0.0
142
0.0
143
0.0393701
144
1.0
145
0.0
146
0.71
147
1.5
 71
     0
 72
     0
 73
     0
 74
     1
 75
     0
 76
     0
 77
     3
 78
     8
170
     0
171
     2
172
     0
173
     0
174
     0
175
     0
176
   256
177
   256
178
     2
270
     2
271
     2
272
     3
273
     2
274
     2
340
6B
275
     0
280
     0
281
     0
282
     0
283
     0
284
     0
285
     0
286
     0
287
     0
288
     1
  0
DIMSTYLE
105
61
330
A
100
AcDbSymbolTableRecord
100
AcDbDimStyleTableRecord
  2
AM_JIS$6
 70
     0
  3

  4
"
  5
OPEN30
  6

  7

 40
0.5
 41
2.5
 42
1.0
 43
10.0
 44
1.0
 45
0.0
 46
0.0
 47
0.1
 48
0.1
140
3.2
141
0.0
142
0.0
143
0.0393701
144
1.0
145
0.0
146
0.71
147
1.5
 71
     0
 72
     0
 73
     0
 74
     0
 75
     0
 76
     0
 77
     0
 78
     8
170
     0
171
     2
172
     1
173
     0
174
     0
175
     0
176
   256
177
   256
178
     2
270
     2
271
     2
272
     2
273
     2
274
     2
340
6B
275
     0
280
     0
281
     0
282
     0
283
     0
284
     0
285
     0
286
     0
287
     3
288
     0
  0
DIMSTYLE
105
62
330
A
100
AcDbSymbolTableRecord
100
AcDbDimStyleTableRecord
  2
AM_JIS$7
 70
     0
  3

  4
"
  5
OPEN30
  6

  7

 40
0.5
 41
2.5
 42
1.0
 43
10.0
 44
1.0
 45
0.0
 46
0.0
 47
0.1
 48
0.1
140
3.2
141
0.0
142
0.0
143
0.0393701
144
1.0
145
0.0
146
0.71
147
1.5
 71
     0
 72
     0
 73
     0
 74
     0
 75
     0
 76
     0
 77
     3
 78
     8
170
     0
171
     2
172
     1
173
     0
174
     0
175
     0
176
   256
177
   256
178
     2
270
     2
271
     2
272
     3
273
     2
274
     2
340
6B
275
     0
280
     0
281
     0
282
     0
283
     0
284
     0
285
     0
286
     0
287
     3
288
     0
  0
DIMSTYLE
105
63
330
A
100
AcDbSymbolTableRecord
100
AcDbDimStyleTableRecord
  2
AM_JIS$SF
 70
     0
  3

  4
"
  5
OPEN30
  6

  7

 40
0.5
 41
2.5
 42
1.0
 43
10.0
 44
1.0
 45
0.0
 46
0.0
 47
0.1
 48
0.1
140
3.2
141
0.0
142
0.0
143
0.0393701
144
1.0
145
0.0
146
0.71
147
1.5
 71
     0
 72
     0
 73
     0
 74
     0
 75
     1
 76
     1
 77
     3
 78
     8
170
     0
171
     2
172
     1
173
     0
174
     0
175
     0
176
   256
177
   256
178
     2
270
     2
271
     2
272
     2
273
     2
274
     2
340
6B
275
     0
280
     0
281
     0
282
     0
283
     0
284
     0
285
     0
286
     0
287
     3
288
     0
  0
DIMSTYLE
105
68
330
A
100
AcDbSymbolTableRecord
100
AcDbDimStyleTableRecord
  2
AM_JIS$SH
 70
     0
  3

  4
"
  5

  6
GENAXEH
  7
OPEN30
 40
0.5
 41
2.5
 42
1.0
 43
10.0
 44
1.0
 45
0.0
 46
0.0
 47
0.1
 48
0.1
140
3.2
141
0.0
142
0.0
143
0.0393701
144
2.0
145
0.0
146
0.71
147
1.5
 71
     0
 72
     0
 73
     0
 74
     0
 75
     1
 76
     1
 77
     3
 78
     8
170
     0
171
     2
172
     1
173
     1
174
     0
175
     0
176
   256
177
   256
178
     2
270
     2
271
     2
272
     2
273
     2
274
     2
340
6B
275
     0
280
     0
281
     0
282
     0
283
     0
284
     0
285
     0
286
     0
287
     3
288
     0
  0
DIMSTYLE
105
B34
330
A
100
AcDbSymbolTableRecord
100
AcDbDimStyleTableRecord
  2
AM_JIS$2
 70
     0
  3

  4
"
  5
OPEN30
  6

  7

 40
0.5
 41
2.5
 42
1.0
 43
12.0
 44
1.0
 45
0.0
 46
0.0
 47
0.1
 48
0.1
140
3.2
141
0.0
142
0.0
143
0.0393701
144
1.0
145
0.0
146
0.71
147
1.5
 71
     0
 72
     0
 73
     0
 74
     0
 75
     0
 76
     0
 77
     3
 78
     8
170
     0
171
     2
172
     1
173
     0
174
     0
175
     0
176
   256
177
   256
178
     2
270
     2
271
     3
272
     3
273
     2
274
     2
340
6B
275
     0
280
     0
281
     0
282
     0
283
     0
284
     0
285
     0
286
     0
287
     3
288
     0
  0
ENDTAB
  0
TABLE
  2
BLOCK_RECORD
  5
1
330
0
100
AcDbSymbolTable
 70
     9
  0
BLOCK_RECORD
  5
1F
102
{ACAD_XDICTIONARY
360
74
102
}
330
1
100
AcDbSymbolTableRecord
100
AcDbBlockTableRecord
  2
*MODEL_SPACE
  0
BLOCK_RECORD
  5
101
102
{ACAD_XDICTIONARY
360
43DE
102
}
330
1
100
AcDbSymbolTableRecord
100
AcDbBlockTableRecord
  2
*PAPER_SPACE
  0
BLOCK_RECORD
  5
59
330
1
100
AcDbSymbolTableRecord
100
AcDbBlockTableRecord
  2
_OPEN30
  0
BLOCK_RECORD
  5
64
330
1
100
AcDbSymbolTableRecord
100
AcDbBlockTableRecord
  2
GENAXEH
  0
BLOCK_RECORD
  5
10F1
330
1
100
AcDbSymbolTableRecord
100
AcDbBlockTableRecord
  2
*D5
  0
BLOCK_RECORD
  5
12D9
330
1
100
AcDbSymbolTableRecord
100
AcDbBlockTableRecord
  2
*D6
  0
BLOCK_RECORD
  5
1A74
330
1
100
AcDbSymbolTableRecord
100
AcDbBlockTableRecord
  2
*D7
  0
BLOCK_RECORD
  5
415D
330
1
100
AcDbSymbolTableRecord
100
AcDbBlockTableRecord
  2
*D8
  0
ENDTAB
  0
ENDSEC
  0
SECTION
  2
BLOCKS
  0
BLOCK
  5
20
330
1F
100
AcDbEntity
  8
0
100
AcDbBlockBegin
  2
*MODEL_SPACE
 70
     0
 10
0.0
 20
0.0
 30
0.0
  3
*MODEL_SPACE
  1

  0
ENDBLK
  5
21
330
1F
100
AcDbEntity
  8
0
100
AcDbBlockEnd
  0
BLOCK
  5
103
330
101
100
AcDbEntity
 67
     1
  8
0
100
AcDbBlockBegin
  2
*PAPER_SPACE
 70
     0
 10
0.0
 20
0.0
 30
0.0
  3
*PAPER_SPACE
  1

  0
ENDBLK
  5
104
330
101
100
AcDbEntity
 67
     1
  8
0
100
AcDbBlockEnd
  0
BLOCK
  5
5D
330
59
100
AcDbEntity
  8
0
100
AcDbBlockBegin
  2
_OPEN30
 70
     0
 10
0.0
 20
0.0
 30
0.0
  3
_OPEN30
  1

  0
LINE
  5
5A
330
59
100
AcDbEntity
  8
0
 62
     0
100
AcDbLine
 10
-1.0
 20
0.26794919
 30
0.0
 11
0.0
 21
0.0
 31
0.0
  0
LINE
  5
5B
330
59
100
AcDbEntity
  8
0
 62
     0
100
AcDbLine
 10
0.0
 20
0.0
 30
0.0
 11
-1.0
 21
-0.26794919
 31
0.0
  0
LINE
  5
5C
330
59
100
AcDbEntity
  8
0
 62
     0
100
AcDbLine
 10
0.0
 20
0.0
 30
0.0
 11
-1.0
 21
0.0
 31
0.0
  0
ENDBLK
  5
5E
330
59
100
AcDbEntity
  8
0
100
AcDbBlockEnd
  0
BLOCK
  5
66
330
64
100
AcDbEntity
  8
0
100
AcDbBlockBegin
  2
GENAXEH
 70
     0
 10
0.0
 20
0.0
 30
0.0
  3
GENAXEH
  1

  0
LINE
  5
65
330
64
100
AcDbEntity
  8
0
100
AcDbLine
 10
-1.0
 20
0.0
 30
0.0
 11
1.0
 21
0.0
 31
0.0
  0
ENDBLK
  5
67
330
64
100
AcDbEntity
  8
0
100
AcDbBlockEnd
  0
BLOCK
  5
10FB
330
10F1
100
AcDbEntity
  8
0
100
AcDbBlockBegin
  2
*D5
 70
     1
 10
0.0
 20
0.0
 30
0.0
  3
*D5
  1

  0
LINE
  5
3FC6
330
10F1
100
AcDbEntity
  8
AM_5
100
AcDbLine
 10
-45.0
 20
-3.000000000000004
 30
0.0
 11
-45.0
 21
-16.50000100000001
 31
0.0
  0
LINE
  5
3FC7
330
10F1
100
AcDbEntity
  8
AM_5
100
AcDbLine
 10
0.0
 20
-2.05
 30
0.0
 11
-0.0000000000000009
 21
-16.50000100000001
 31
0.0
  0
LINE
  5
3FC8
330
10F1
100
AcDbEntity
  8
AM_5
100
AcDbLine
 10
-43.75
 20
-16.00000100000001
 30
0.0
 11
-1.25
 21
-16.00000100000001
 31
0.0
  0
INSERT
  5
3FC9
330
10F1
100
AcDbEntity
  8
AM_5
100
AcDbBlockReference
  2
_OPEN30
 10
-45.0
 20
-16.00000100000001
 30
0.0
 41
1.25
 42
1.25
 43
1.25
 50
180.0
  0
INSERT
  5
3FCA
330
10F1
100
AcDbEntity
  8
AM_5
100
AcDbBlockReference
  2
_OPEN30
 10
-0.0000000000000009
 20
-16.00000100000001
 30
0.0
 41
1.25
 42
1.25
 43
1.25
  0
MTEXT
  5
3FCB
330
10F1
100
AcDbEntity
  8
AM_5
 62
     2
100
AcDbMText
 10
-22.5
 20
-14.45000100000001
 30
0.0
 40
1.6
 41
0.0
 71
     5
 72
     1
  1
45
  7
ASAMI
1001
ACAD
1000
MTEXTBEGIN
1070
    73
1070
     1
1070
    44
1040
1.0
1070
    74
1070
     0
1000
MTEXTEND
  0
POINT
  5
3FCC
330
10F1
100
AcDbEntity
  8
DEFPOINTS
 62
     0
100
AcDbPoint
 10
-45.0
 20
-2.500000000000004
 30
0.0
  0
POINT
  5
3FCD
330
10F1
100
AcDbEntity
  8
DEFPOINTS
 62
     0
100
AcDbPoint
 10
0.0
 20
-1.55
 30
0.0
  0
POINT
  5
3FCE
330
10F1
100
AcDbEntity
  8
DEFPOINTS
 62
     0
100
AcDbPoint
 10
-0.0000000000000009
 20
-16.00000100000001
 30
0.0
  0
ENDBLK
  5
10FC
330
10F1
100
AcDbEntity
  8
0
100
AcDbBlockEnd
  0
BLOCK
  5
12E5
330
12D9
100
AcDbEntity
  8
0
100
AcDbBlockBegin
  2
*D6
 70
     1
 10
0.0
 20
0.0
 30
0.0
  3
*D6
  1

  0
LINE
  5
3FCF
330
12D9
100
AcDbEntity
  8
AM_5
100
AcDbLine
 10
0.0
 20
-2.05
 30
0.0
 11
-0.0000000000000005
 21
-10.50000100000002
 31
0.0
  0
LINE
  5
3FD0
330
12D9
100
AcDbEntity
  8
AM_5
100
AcDbLine
 10
-7.999989201225863
 20
-2.05
 30
0.0
 11
-7.999989201225864
 21
-10.50000100000002
 31
0.0
  0
LINE
  5
3FD1
330
12D9
100
AcDbEntity
  8
AM_5
100
AcDbLine
 10
-1.25
 20
-10.00000100000002
 30
0.0
 11
-6.749989201225864
 21
-10.00000100000002
 31
0.0
  0
INSERT
  5
3FD2
330
12D9
100
AcDbEntity
  8
AM_5
100
AcDbBlockReference
  2
_OPEN30
 10
-0.0000000000000005
 20
-10.00000100000002
 30
0.0
 41
1.25
 42
1.25
 43
1.25
  0
INSERT
  5
3FD3
330
12D9
100
AcDbEntity
  8
AM_5
100
AcDbBlockReference
  2
_OPEN30
 10
-7.999989201225864
 20
-10.00000100000002
 30
0.0
 41
1.25
 42
1.25
 43
1.25
 50
180.0
  0
MTEXT
  5
3FD4
330
12D9
100
AcDbEntity
  8
AM_5
 62
     2
100
AcDbMText
 10
-3.999994600612932
 20
-8.450001000000026
 30
0.0
 40
1.6
 41
0.0
 71
     5
 72
     1
  1
8
  7
ASAMI
1001
ACAD
1000
MTEXTBEGIN
1070
    73
1070
     1
1070
    44
1040
1.0
1070
    74
1070
     0
1000
MTEXTEND
  0
POINT
  5
3FD5
330
12D9
100
AcDbEntity
  8
DEFPOINTS
 62
     0
100
AcDbPoint
 10
0.0
 20
-1.55
 30
0.0
  0
POINT
  5
3FD6
330
12D9
100
AcDbEntity
  8
DEFPOINTS
 62
     0
100
AcDbPoint
 10
-7.999989201225863
 20
-1.55
 30
0.0
  0
POINT
  5
3FD7
330
12D9
100
AcDbEntity
  8
DEFPOINTS
 62
     0
100
AcDbPoint
 10
-7.999989201225864
 20
-10.00000100000002
 30
0.0
  0
ENDBLK
  5
12E6
330
12D9
100
AcDbEntity
  8
0
100
AcDbBlockEnd
  0
BLOCK
  5
1A7F
330
1A74
100
AcDbEntity
  8
0
100
AcDbBlockBegin
  2
*D7
 70
     1
 10
0.0
 20
0.0
 30
0.0
  3
*D7
  1

  0
LINE
  5
40AA
330
1A74
100
AcDbEntity
  8
AM_5
100
AcDbLine
 10
-45.00000000000001
 20
2.999999999999997
 30
0.0
 11
-54.00000099999999
 21
3.0
 31
0.0
  0
LINE
  5
40AB
330
1A74
100
AcDbEntity
  8
AM_5
100
AcDbLine
 10
-44.99999999999999
 20
-3.000000000000003
 30
0.0
 11
-54.00000099999999
 21
-3.000000000000001
 31
0.0
  0
LINE
  5
40AC
330
1A74
100
AcDbEntity
  8
AM_5
100
AcDbLine
 10
-53.50000099999999
 20
4.249999999999999
 30
0.0
 11
-53.50000099999999
 21
5.499999999999999
 31
0.0
  0
LINE
  5
40AD
330
1A74
100
AcDbEntity
  8
AM_5
100
AcDbLine
 10
-53.50000099999999
 20
-4.250000000000001
 30
0.0
 11
-53.50000099999999
 21
-5.500000000000001
 31
0.0
  0
LINE
  5
40AE
330
1A74
100
AcDbEntity
  8
AM_5
100
AcDbLine
 10
-53.50000099999999
 20
3.0
 30
0.0
 11
-53.50000099999999
 21
-3.000000000000001
 31
0.0
  0
INSERT
  5
40AF
330
1A74
100
AcDbEntity
  8
AM_5
100
AcDbBlockReference
  2
_OPEN30
 10
-53.50000099999999
 20
3.0
 30
0.0
 41
1.25
 42
1.25
 43
1.25
 50
270.0
  0
INSERT
  5
40B0
330
1A74
100
AcDbEntity
  8
AM_5
100
AcDbBlockReference
  2
_OPEN30
 10
-53.50000099999999
 20
-3.000000000000001
 30
0.0
 41
1.25
 42
1.25
 43
1.25
 50
90.0
  0
MTEXT
  5
40B1
330
1A74
100
AcDbEntity
  8
AM_5
 62
     2
100
AcDbMText
 10
-55.050001
 20
-0.0000000000000044
 30
0.0
 40
1.6
 41
0.0
 71
     5
 72
     1
  1
%%c6
  7
ASAMI
 11
0.0000000000000001
 21
1.0
 31
0.0
1001
ACAD
1000
MTEXTBEGIN
1070
    73
1070
     1
1070
    44
1040
1.0
1070
    74
1070
     0
1000
MTEXTEND
  0
POINT
  5
40B2
330
1A74
100
AcDbEntity
  8
DEFPOINTS
 62
     0
100
AcDbPoint
 10
-44.50000000000001
 20
2.999999999999997
 30
0.0
  0
POINT
  5
40B3
330
1A74
100
AcDbEntity
  8
DEFPOINTS
 62
     0
100
AcDbPoint
 10
-44.49999999999999
 20
-3.000000000000003
 30
0.0
  0
POINT
  5
40B4
330
1A74
100
AcDbEntity
  8
DEFPOINTS
 62
     0
100
AcDbPoint
 10
-53.50000099999999
 20
-3.000000000000001
 30
0.0
  0
ENDBLK
  5
1A80
330
1A74
100
AcDbEntity
  8
0
100
AcDbBlockEnd
  0
BLOCK
  5
4169
330
415D
100
AcDbEntity
  8
0
100
AcDbBlockBegin
  2
*D8
 70
     1
 10
0.0
 20
0.0
 30
0.0
  3
*D8
  1

  0
LINE
  5
418F
330
415D
100
AcDbEntity
  8
AM_5
100
AcDbLine
 10
0.5
 20
1.6
 30
0.0
 11
9.551050680252135
 21
1.599999999999997
 31
0.0
  0
LINE
  5
4190
330
415D
100
AcDbEntity
  8
AM_5
100
AcDbLine
 10
0.5
 20
-1.6
 30
0.0
 11
9.551050680252135
 21
-1.600000000000003
 31
0.0
  0
LINE
  5
4191
330
415D
100
AcDbEntity
  8
AM_5
100
AcDbLine
 10
9.051050680252135
 20
2.849999999999997
 30
0.0
 11
9.051050680252137
 21
4.099999999999997
 31
0.0
  0
LINE
  5
4192
330
415D
100
AcDbEntity
  8
AM_5
100
AcDbLine
 10
9.051050680252135
 20
-2.850000000000002
 30
0.0
 11
9.051050680252133
 21
-10.4
 31
0.0
  0
LINE
  5
4193
330
415D
100
AcDbEntity
  8
AM_5
100
AcDbLine
 10
9.051050680252135
 20
1.599999999999997
 30
0.0
 11
9.051050680252135
 21
-1.600000000000002
 31
0.0
  0
INSERT
  5
4194
330
415D
100
AcDbEntity
  8
AM_5
100
AcDbBlockReference
  2
_OPEN30
 10
9.051050680252135
 20
1.599999999999997
 30
0.0
 41
1.25
 42
1.25
 43
1.25
 50
270.0
  0
INSERT
  5
4195
330
415D
100
AcDbEntity
  8
AM_5
100
AcDbBlockReference
  2
_OPEN30
 10
9.051050680252135
 20
-1.600000000000002
 30
0.0
 41
1.25
 42
1.25
 43
1.25
 50
90.0
  0
MTEXT
  5
4196
330
415D
100
AcDbEntity
  8
AM_5
 62
     2
100
AcDbMText
 10
7.501050680252134
 20
-7.25
 30
0.0
 40
1.6
 41
0.0
 71
     5
 72
     1
  1
%%c3.2
  7
ASAMI
 11
0.0000000000000001
 21
1.0
 31
0.0
1001
ACAD
1000
MTEXTBEGIN
1070
    73
1070
     1
1070
    44
1040
1.0
1070
    74
1070
     0
1000
MTEXTEND
  0
POINT
  5
4197
330
415D
100
AcDbEntity
  8
DEFPOINTS
 62
     0
100
AcDbPoint
 10
0.0
 20
1.6
 30
0.0
  0
POINT
  5
4198
330
415D
100
AcDbEntity
  8
DEFPOINTS
 62
     0
100
AcDbPoint
 10
0.0
 20
-1.6
 30
0.0
  0
POINT
  5
4199
330
415D
100
AcDbEntity
  8
DEFPOINTS
 62
     0
100
AcDbPoint
 10
9.051050680252135
 20
-1.600000000000002
 30
0.0
  0
ENDBLK
  5
416A
330
415D
100
AcDbEntity
  8
0
100
AcDbBlockEnd
  0
ENDSEC
  0
SECTION
  2
ENTITIES
  0
LINE
  5
C2E
330
1F
100
AcDbEntity
  8
AM_7
  6
AM_ISO08W050X2
100
AcDbLine
 10
2.051049680252134
 20
0.0
 30
0.0
 11
-46.5
 21
-0.0000000000000038
 31
0.0
  0
DIMENSION
  5
10F0
330
1F
100
AcDbEntity
  8
AM_5
100
AcDbDimension
  2
*D5
 10
-0.0000000000000009
 20
-16.00000100000001
 30
0.0
 11
-22.5
 21
-14.45000100000001
 31
0.0
 70
    32
  1
<>
  3
AM_JIS
100
AcDbAlignedDimension
 13
-45.0
 23
-2.500000000000004
 33
0.0
 14
0.0
 24
-1.55
 34
0.0
 50
0.0000000000001132
100
AcDbRotatedDimension
1001
GENIUS_GENDTOL_13
1000

1000
h7
1000

1040
0.0
  0
DIMENSION
  5
12D8
330
1F
100
AcDbEntity
  8
AM_5
100
AcDbDimension
  2
*D6
 10
-7.999989201225864
 20
-10.00000100000002
 30
0.0
 11
-3.999994600612932
 21
-8.450001000000026
 31
0.0
 70
    32
  1
<>
  3
AM_JIS
100
AcDbAlignedDimension
 13
0.0
 23
-1.55
 33
0.0
 14
-7.999989201225863
 24
-1.55
 34
0.0
 50
0.0000000000001132
100
AcDbRotatedDimension
1001
GENIUS_GENDTOL_13
1000

1000
h7
1000

1040
0.0
  0
TEXT
  5
1500
330
1F
100
AcDbEntity
  8
AM_6
100
AcDbText
 10
-30.71428571428571
 20
-27.25000100000001
 30
0.0
 40
2.5
  1
SSM2032
 72
     4
 11
-22.5
 21
-26.00000100000001
 31
0.0
100
AcDbText
  0
DIMENSION
  5
1A73
330
1F
100
AcDbEntity
  8
AM_5
100
AcDbDimension
  2
*D7
 10
-53.50000099999999
 20
-3.000000000000001
 30
0.0
 11
-53.50000099999999
 21
-0.0000000000000046
 31
0.0
 70
   160
  1
%%c<>
  3
AM_JIS
100
AcDbAlignedDimension
 13
-44.50000000000001
 23
2.999999999999997
 33
0.0
 14
-44.49999999999999
 24
-3.000000000000003
 34
0.0
 50
270.0
100
AcDbRotatedDimension
1001
GENIUS_GENDTOL_13
1000

1000
h7
1000

1040
0.0
  0
LINE
  5
3D3C
330
1F
100
AcDbEntity
  8
AM_0
100
AcDbLine
 10
-9.998874948843964
 20
1.599999999999947
 30
0.0
 11
-12.27512886940319
 21
1.599999999999898
 31
0.0
  0
LINE
  5
3D3F
330
1F
100
AcDbEntity
  8
AM_0
100
AcDbLine
 10
-12.27512886940356
 20
-1.600000000000003
 30
0.0
 11
-7.999989201628554
 21
-1.6
 31
0.0
  0
LINE
  5
3DAD
330
1F
100
AcDbEntity
  8
AM_0
100
AcDbLine
 10
-44.99999999999999
 20
-2.500000000000003
 30
0.0
 11
-45.00000000000001
 21
2.499999999999997
 31
0.0
  0
LINE
  5
3DAF
330
1F
100
AcDbEntity
  8
AM_0
100
AcDbLine
 10
-44.49999999999999
 20
-3.000000000000003
 30
0.0
 11
-17.5
 21
-3.000000000000003
 31
0.0
  0
LINE
  5
3DB0
330
1F
100
AcDbEntity
  8
AM_0
100
AcDbLine
 10
-44.50000000000001
 20
2.999999999999997
 30
0.0
 11
-17.5
 21
3.0
 31
0.0
  0
LINE
  5
3E60
330
1F
100
AcDbEntity
  8
AM_0
100
AcDbLine
 10
-17.5
 20
3.0
 30
0.0
 11
-12.27512886940319
 21
1.599999999999898
 31
0.0
  0
LINE
  5
3E62
330
1F
100
AcDbEntity
  8
AM_0
100
AcDbLine
 10
-12.27512886940355
 20
-1.600000000000003
 30
0.0
 11
-17.49999999999999
 21
-3.000000000000001
 31
0.0
  0
LINE
  5
3E6A
330
1F
100
AcDbEntity
  8
AM_0
100
AcDbLine
 10
-12.27512886940319
 20
1.599999999999898
 30
0.0
 11
-12.27512886940319
 21
-1.599999999999905
 31
0.0
  0
LINE
  5
403B
330
1F
100
AcDbEntity
  8
AM_0
100
AcDbLine
 10
-17.49999999999999
 20
-3.000000000000002
 30
0.0
 11
-17.5
 21
3.000000000000002
 31
0.0
  0
LINE
  5
409A
330
1F
100
AcDbEntity
  8
AM_0
100
AcDbLine
 10
-44.50000000000001
 20
2.999999999999997
 30
0.0
 11
-45.00000000000001
 21
2.499999999999997
 31
0.0
1001
GENIUS_GENFIL_13
1070
     0
1040
0.5
1040
0.5
1040
20.0
1040
0.0
1002
{
1002
}
1001
GENIUS_GENODEF_13
1002
{
1000
HIER
1070
     0
1002
}
1002
{
1000
MANEDIT
1070
     0
1002
}
1002
{
1000
NOSEL
1070
     0
1002
}
1002
{
1000
BEHIND
1070
     0
1002
}
1002
{
1000
REACTOR
1002
}
1001
GENIUS_GENOBJ-N-CHA_13
1002
{
1000
OWNER
1000
GEN
1002
}
  0
LINE
  5
409C
330
1F
100
AcDbEntity
  8
AM_0
100
AcDbLine
 10
-44.99999999999999
 20
-2.500000000000003
 30
0.0
 11
-44.49999999999999
 21
-3.000000000000003
 31
0.0
1001
GENIUS_GENFIL_13
1070
     0
1040
0.5
1040
0.5
1040
20.0
1040
0.0
1002
{
1002
}
1001
GENIUS_GENODEF_13
1002
{
1000
HIER
1070
     0
1002
}
1002
{
1000
MANEDIT
1070
     0
1002
}
1002
{
1000
NOSEL
1070
     0
1002
}
1002
{
1000
BEHIND
1070
     0
1002
}
1002
{
1000
REACTOR
1002
}
1001
GENIUS_GENOBJ-N-CHA_13
1002
{
1000
OWNER
1000
GEN
1002
}
  0
LINE
  5
409D
330
1F
100
AcDbEntity
  8
AM_0
100
AcDbLine
 10
-44.50000000000001
 20
2.999999999999997
 30
0.0
 11
-44.49999999999999
 21
-3.000000000000003
 31
0.0
  0
DIMENSION
  5
415C
330
1F
100
AcDbEntity
  8
AM_5
100
AcDbDimension
  2
*D8
 10
9.051050680252135
 20
-1.600000000000002
 30
0.0
 11
7.501050680252134
 21
-7.25
 31
0.0
 70
    32
  1
%%c<>
  3
AM_JIS
100
AcDbAlignedDimension
 13
0.0
 23
1.6
 33
0.0
 14
0.0
 24
-1.6
 34
0.0
 50
90.0
100
AcDbRotatedDimension
1001
GENIUS_GENDTOL_13
1000

1000
h7
1000

1040
0.0
  0
LINE
  5
416B
330
1F
100
AcDbEntity
  8
AM_0
100
AcDbLine
 10
-0.0895039606589165
 20
0.1919999999999891
 30
0.0
 11
0.0
 21
0.3200000000000001
 31
0.0
  0
LINE
  5
416C
330
1F
100
AcDbEntity
  8
AM_0
100
AcDbLine
 10
0.0
 20
0.3200000000000001
 30
0.0
 11
0.0
 21
1.6
 31
0.0
  0
LINE
  5
416D
330
1F
100
AcDbEntity
  8
AM_0
100
AcDbLine
 10
0.0
 20
0.0639999999999964
 30
0.0
 11
-0.6284192616058455
 21
0.9627050952089851
 31
0.0
  0
LINE
  5
416E
330
1F
100
AcDbEntity
  8
AM_0
100
AcDbLine
 10
-0.0999999999999979
 20
-1.305030459044246
 30
0.0
 11
-0.0999999999999979
 21
-1.287793737962438
 31
0.0
  0
LINE
  5
416F
330
1F
100
AcDbEntity
  8
AM_0
100
AcDbLine
 10
0.0
 20
-1.6
 30
0.0
 11
-0.0280000000000023
 21
-1.514701170438984
 31
0.0
  0
LINE
  5
4170
330
1F
100
AcDbEntity
  8
AM_0
100
AcDbLine
 10
-0.0280000000000023
 20
-1.514701170438984
 30
0.0
 11
-0.0999999999999979
 21
-1.305030459044246
 31
0.0
  0
LINE
  5
4171
330
1F
100
AcDbEntity
  8
AM_0
100
AcDbLine
 10
0.0
 20
-1.6
 30
0.0
 11
0.0
 21
0.0639999999999964
 31
0.0
  0
LINE
  5
4172
330
1F
100
AcDbEntity
  8
AM_0
100
AcDbLine
 10
-0.0280000000000023
 20
-1.514701170438984
 30
0.0
 11
-0.0280000000000058
 21
0.1040429207111629
 31
0.0
  0
LINE
  5
4175
330
1F
100
AcDbEntity
  8
AM_0
100
AcDbLine
 10
-4.286651144183148
 20
-1.275651772286209
 30
0.0
 11
-6.878546046660185
 21
-1.475200983221729
 31
0.0
  0
LINE
  5
4176
330
1F
100
AcDbEntity
  8
AM_11
100
AcDbLine
 10
-7.999994315087725
 20
-1.6
 30
0.0
 11
-7.999994315087725
 21
1.599999999999991
 31
0.0
  0
LINE
  5
4177
330
1F
100
AcDbEntity
  8
AM_0
100
AcDbLine
 10
-5.236716141350842
 20
1.289750054572168
 30
0.0
 11
-0.6284192616058455
 21
0.9627050952089851
 31
0.0
  0
LINE
  5
4178
330
1F
100
AcDbEntity
  8
AM_11
100
AcDbLine
 10
-8.000000000000056
 20
-1.6
 30
0.0
 11
0.0
 21
-1.6
 31
0.0
  0
LINE
  5
4179
330
1F
100
AcDbEntity
  8
AM_11
100
AcDbLine
 10
-0.0000000000002061
 20
1.6
 30
0.0
 11
-7.999994315087725
 21
1.599999999999991
 31
0.0
  0
SPLINE
  5
417A
330
1F
100
AcDbEntity
  8
AM_0
100
AcDbSpline
210
0.0
220
0.0
230
1.0
 70
     8
 71
     3
 72
     8
 73
     4
 74
     0
 42
0.0000000001
 43
0.0000000001
 40
0.0
 40
0.0
 40
0.0
 40
0.0
 40
2.586565323616736
 40
2.586565323616736
 40
2.586565323616736
 40
2.586565323616736
 10
0.0
 20
1.303904859738868
 30
0.0
 10
-0.1475379681341202
 20
1.092301822768322
 30
0.0
 10
-0.4007785345909376
 20
1.00143161501579
 30
0.0
 10
-0.6284192616058455
 20
0.9627050952089851
 30
0.0
  0
SPLINE
  5
417B
330
1F
100
AcDbEntity
  8
AM_0
100
AcDbSpline
210
0.0
220
0.0
230
1.0
 70
     8
 71
     3
 72
     8
 73
     4
 74
     0
 42
0.0000000001
 43
0.0000000001
 40
0.0
 40
0.0
 40
0.0
 40
0.0
 40
7.57842115059705
 40
7.57842115059705
 40
7.57842115059705
 40
7.57842115059705
 10
0.0
 20
1.6
 30
0.0
 10
-0.6736374356086295
 20
1.6
 30
0.0
 10
-1.314814912132231
 20
1.381167966714365
 30
0.0
 10
-1.940509330817107
 20
1.057955363525598
 30
0.0
  0
SPLINE
  5
417C
330
1F
100
AcDbEntity
  8
AM_0
100
AcDbSpline
210
0.0
220
0.0
230
1.0
 70
     8
 71
     3
 72
     8
 73
     4
 74
     0
 42
0.0000000001
 43
0.0000000001
 40
0.0
 40
0.0
 40
0.0
 40
0.0
 40
14.48999654934396
 40
14.48999654934396
 40
14.48999654934396
 40
14.48999654934396
 10
0.0
 20
-1.6
 30
0.0
 10
-1.287999693275018
 20
-1.6
 30
0.0
 10
-2.457333179970841
 20
-0.8000000000000001
 30
0.0
 10
-3.626666666666665
 20
0.0
 30
0.0
  0
SPLINE
  5
417E
330
1F
100
AcDbEntity
  8
AM_0
100
AcDbSpline
210
0.0
220
0.0
230
1.0
 70
     8
 71
     3
 72
     8
 73
     4
 74
     0
 42
0.0000000001
 43
0.0000000001
 40
4.219358800530717
 40
4.219358800530717
 40
4.219358800530717
 40
4.219358800530717
 40
14.36247867694493
 40
14.36247867694493
 40
14.36247867694493
 40
14.36247867694493
 10
-0.0999999999999837
 20
-1.305030459044173
 30
0.0
 10
-0.9656223351707069
 20
-1.043503293340418
 30
0.0
 10
-1.79543561012198
 20
-0.5217516466702003
 30
0.0
 10
-2.625248885073254
 20
0.0000000000000182
 30
0.0
  0
SPLINE
  5
417F
330
1F
100
AcDbEntity
  8
AM_0
100
AcDbSpline
210
0.0
220
0.0
230
1.0
 70
     8
 71
     3
 72
     8
 73
     4
 74
     0
 42
0.0000000001
 43
0.0000000001
 40
0.0
 40
0.0
 40
0.0
 40
0.0
 40
2.764560748519282
 40
2.764560748519282
 40
2.764560748519282
 40
2.764560748519282
 10
-7.999989201628589
 20
-1.6
 30
0.0
 10
-7.754250468426877
 20
-1.6
 30
0.0
 10
-7.51261271045968
 20
-1.571551193015893
 30
0.0
 10
-7.274290736180854
 20
-1.52010051824247
 30
0.0
  0
SPLINE
  5
4180
330
1F
100
AcDbEntity
  8
AM_0
100
AcDbSpline
210
0.0
220
0.0
230
1.0
 70
     8
 71
     3
 72
     8
 73
     4
 74
     0
 42
0.0000000001
 43
0.0000000001
 40
0.0
 40
0.0
 40
0.0
 40
0.0
 40
2.221495395472776
 40
2.221495395472776
 40
2.221495395472776
 40
2.221495395472776
 10
-7.464024428567074
 20
-1.525491466709536
 30
0.0
 10
-7.266558171191713
 20
-1.525491466709536
 30
0.0
 10
-7.071524109315833
 20
-1.507816699274153
 30
0.0
 10
-6.878546046655716
 20
-1.475200983220966
 30
0.0
  0
SPLINE
  5
4182
330
1F
100
AcDbEntity
  8
AM_0
100
AcDbSpline
210
0.0
220
0.0
230
1.0
 70
     8
 71
     3
 72
     8
 73
     4
 74
     0
 42
0.0000000001
 43
0.0000000001
 40
0.0
 40
0.0
 40
0.0
 40
0.0
 40
14.48999654934395
 40
14.48999654934395
 40
14.48999654934395
 40
14.48999654934395
 10
-7.25333333333333
 20
1.600000000000027
 30
0.0
 10
-5.965333640058311
 20
1.600000000000027
 30
0.0
 10
-4.796000153362491
 20
0.8000000000000275
 30
0.0
 10
-3.626666666666665
 20
0.0000000000000364
 30
0.0
  0
SPLINE
  5
4184
330
1F
100
AcDbEntity
  8
AM_0
100
AcDbSpline
210
0.0
220
0.0
230
1.0
 70
     8
 71
     3
 72
     8
 73
     4
 74
     0
 42
0.0000000001
 43
0.0000000001
 40
0.7142832446738512
 40
0.7142832446738512
 40
0.7142832446738512
 40
0.7142832446738512
 40
14.36247867694493
 40
14.36247867694493
 40
14.36247867694493
 40
14.36247867694493
 10
-6.692588959819062
 20
1.550670535312812
 30
0.0
 10
-4.858379102761595
 20
1.404098251352161
 30
0.0
 10
-3.741813993917425
 20
0.7020491256760945
 30
0.0
 10
-2.625248885073254
 20
0.0000000000000182
 30
0.0
  0
SPLINE
  5
4185
330
1F
100
AcDbEntity
  8
AM_0
100
AcDbSpline
210
0.0
220
0.0
230
1.0
 70
     8
 71
     3
 72
     8
 73
     4
 74
     0
 42
0.0000000001
 43
0.0000000001
 40
0.0
 40
0.0
 40
0.0
 40
0.0
 40
2.238610194515266
 40
2.238610194515266
 40
2.238610194515266
 40
2.238610194515266
 10
-4.286651144183148
 20
-1.275651772286209
 30
0.0
 10
-3.563913799281489
 20
-1.275768427296865
 30
0.0
 10
-2.734087415955488
 20
-1.211046703084096
 30
0.0
 10
-1.923044147842336
 20
-1.065826936682479
 30
0.0
  0
SPLINE
  5
4186
330
1F
100
AcDbEntity
  8
AM_0
100
AcDbSpline
210
0.0
220
0.0
230
1.0
 70
     8
 71
     3
 72
     8
 73
     4
 74
     0
 42
0.0000000001
 43
0.0000000001
 40
5.297458184749251
 40
5.297458184749251
 40
5.297458184749251
 40
5.297458184749251
 40
7.218994763998551
 40
7.218994763998551
 40
7.218994763998551
 40
7.218994763998551
 10
-8.961057296070423
 20
0.3189641661921241
 30
0.0
 10
-8.590474933151666
 20
0.2117027649586129
 30
0.0
 10
-8.310137502027458
 20
0.0700074708562681
 30
0.0
 10
-7.954165936109689
 20
-0.1230611133812545
 30
0.0
  0
SPLINE
  5
4187
330
1F
100
AcDbEntity
  8
AM_0
100
AcDbSpline
210
0.0
220
0.0
230
1.0
 70
     8
 71
     3
 72
     8
 73
     4
 74
     0
 42
0.0000000001
 43
0.0000000001
 40
0.0
 40
0.0
 40
0.0
 40
0.0
 40
14.15489169609656
 40
14.15489169609656
 40
14.15489169609656
 40
14.15489169609656
 10
-4.286651144183148
 20
-1.275651772286209
 30
0.0
 10
-5.544863739391732
 20
-1.275651772286219
 30
0.0
 10
-6.789629941920111
 20
-0.7581549771908556
 30
0.0
 10
-7.954165936109689
 20
-0.1230611133811817
 30
0.0
  0
ELLIPSE
  5
4189
330
1F
100
AcDbEntity
  8
AM_0
100
AcDbEllipse
 10
3.788471584635377
 20
0.0067319397466781
 30
0.0
 11
0.000000000000053
 21
4.842406524771679
 31
0.0
210
0.0
220
0.0
230
1.0
 40
0.833333333333352
 41
1.489874453283518
 42
1.841418545974806
  0
ELLIPSE
  5
418A
330
1F
100
AcDbEntity
  8
AM_0
100
AcDbEllipse
 10
-7.779594618010473
 20
3.622994847457158
 30
0.0
 11
0.0000000000000181
 21
5.229686549779729
 31
0.0
210
0.0
220
0.0
230
1.0
 40
0.8333333333333351
 41
2.282147587728573
 42
3.090999494916658
  0
ELLIPSE
  5
418B
330
1F
100
AcDbEntity
  8
AM_0
100
AcDbEllipse
 10
-9.992997076307025
 20
0.0983528298974852
 30
0.0
 11
0.6128610098024475
 21
1.245956140722791
 31
0.0
210
0.0
220
0.0
230
0.9999999999999998
 40
0.7675080371995101
 41
1.095472726437611
 42
1.84878506566021
  0
ELLIPSE
  5
418C
330
1F
100
AcDbEntity
  8
AM_0
100
AcDbEllipse
 10
-1.514463987508011
 20
25.43963815458178
 30
0.0
 11
7.214398445267939
 21
25.1920849300098
 31
0.0
210
0.0
220
0.0
230
1.0
 40
0.4880472952145249
 41
2.924190276860599
 42
3.122600269077065
  0
ELLIPSE
  5
418D
330
1F
100
AcDbEntity
  8
AM_0
100
AcDbEllipse
 10
-9.60304463393799
 20
-15.23841521656771
 30
0.0
 11
-1.237631411296362
 21
16.80426624870851
 31
0.0
210
0.0
220
0.0
230
0.9999999999999998
 40
0.8707142383326807
 41
-0.503552352447829
 42
-0.0574247668680885
  0
SPLINE
  5
418E
330
1F
100
AcDbEntity
  8
AM_0
100
AcDbSpline
210
0.0
220
0.0
230
1.0
 70
     8
 71
     3
 72
     8
 73
     4
 74
     0
 42
0.0000000001
 43
0.0000000001
 40
0.0
 40
0.0
 40
0.0
 40
0.0
 40
1.875170891973597
 40
1.875170891973597
 40
1.875170891973597
 40
1.875170891973597
 10
-7.25333333333333
 20
1.599999999999991
 30
0.0
 10
-7.420015190397644
 20
1.599999999999991
 30
0.0
 10
-7.584709707337156
 20
1.586602149460443
 30
0.0
 10
-7.999994315087725
 20
1.458864209655091
 30
0.0
  0
ARC
  5
4390
330
1F
100
AcDbEntity
  8
AM_0
100
AcDbCircle
 10
-6.988780579097378
 20
4.104036162119943
 30
0.0
 40
5.649552021197152
100
AcDbArc
 50
223.5893871185832
 51
265.1745406905469
  0
VIEWPORT
  5
110
330
101
100
AcDbEntity
 67
     1
  8
0
100
AcDbViewport
 10
420.5
 20
297.0
 30
0.0
 40
948.9782706766916
 41
628.452
 68
     1
 69
     1
1001
ACAD
1000
MVIEW
1002
{
1070
    16
1010
0.0
1020
0.0
1030
0.0
1010
0.0
1020
0.0
1030
1.0
1040
0.0
1040
628.452
1040
420.5
1040
297.0
1040
50.0
1040
0.0
1040
0.0
1070
     0
1070
   100
1070
     1
1070
     1
1070
     0
1070
     0
1070
     0
1070
     0
1040
0.0
1040
0.0
1040
0.0
1040
10.0
1040
10.0
1040
10.0
1040
10.0
1070
     0
1002
{
1002
}
1002
}
  0
ENDSEC
  0
SECTION
  2
OBJECTS
  0
DICTIONARY
  5
C
330
0
100
AcDbDictionary
  3
ACAD_GROUP
350
D
  3
ACAD_LAYOUT
350
1A
  3
ACAD_MLINESTYLE
350
17
  3
ACAD_PLOTSETTINGS
350
19
  3
ACAD_PLOTSTYLENAME
350
E
  3
ACDBVARIABLEDICTIONARY
350
34
  3
ACMDICTIONARY
350
43
  3
AMG
350
2B
  3
AMGSNAPSETTINGS
350
6E
  3
ASE_INDEX_DICTIONARY
350
151A
  3
DWGPROPS
350
43A9
  3
ACDBHEADERROUNDTRIPXREC
350
43B6
  0
DICTIONARY
  5
74
330
1F
100
AcDbDictionary
280
     1
  3
ACAD_INDEX
360
43AB
  3
ACAD_LAYOUTSELFREF
360
43D9
  0
DICTIONARY
  5
43DE
330
101
100
AcDbDictionary
280
     1
  3
ACAD_LAYOUTSELFREF
360
43DF
  0
DICTIONARY
  5
D
102
{ACAD_REACTORS
330
C
102
}
330
C
100
AcDbDictionary
  0
DICTIONARY
  5
1A
102
{ACAD_REACTORS
330
C
102
}
330
C
100
AcDbDictionary
  0
DICTIONARY
  5
17
102
{ACAD_REACTORS
330
C
102
}
330
C
100
AcDbDictionary
  3
STANDARD
350
18
  0
DICTIONARY
  5
19
102
{ACAD_REACTORS
330
C
102
}
330
C
100
AcDbDictionary
  0
ACDBDICTIONARYWDFLT
  5
E
102
{ACAD_REACTORS
330
C
102
}
330
C
100
AcDbDictionary
281
     1
  3
Normal
350
F
100
AcDbDictionaryWithDefault
340
F
  0
DICTIONARY
  5
34
102
{ACAD_REACTORS
330
C
102
}
330
C
100
AcDbDictionary
  3
INDEXCTL
350
35
  3
SORTENTS
350
B5E
  0
DICTIONARY
  5
43
102
{ACAD_REACTORS
330
C
102
}
330
C
100
AcDbDictionary
  3
ACMSTDDICTIONARY
350
260
  0
DICTIONARY
  5
2B
102
{ACAD_REACTORS
330
C
102
}
330
C
100
AcDbDictionary
  3
ACMGSETTINGS
350
2C
  0
DICTIONARY
  5
6E
102
{ACAD_REACTORS
330
C
102
}
330
C
100
AcDbDictionary
  0
DICTIONARY
  5
151A
102
{ACAD_REACTORS
330
C
102
}
330
C
100
AcDbDictionary
  3
ASEBLOCKHIERARCHYINDEXRECORD
350
151C
1001
DCO15
1040
1471862535.906
  0
XRECORD
  5
43A9
102
{ACAD_REACTORS
330
C
102
}
330
C
100
AcDbXrecord
  1
DWGPROPS COOKIE
  2

  3

  4

  6

  7

  8

  9

300
AmdtFileType=82
301
=
302
=
303
=
304
=
305
=
306
=
307
=
308
=
309
=
 40
0.2074922106481481
 41
2452838.430434386
 42
2453045.602820671
  1

 90
        1
  0
DICTIONARY
  5
43B6
102
{ACAD_REACTORS
330
C
102
}
330
C
100
AcDbDictionary
  3
TSTACKALIGN
350
43B7
  3
TSTACKSIZE
350
43B8
  3
HYPERLINKBASE
350
43B9
  3
STYLESHEET
350
43BA
  3
LAYOUTDICT
350
43BB
  3
PLOTSETDICT
350
43BC
  3
PLOTSTYLNAMDICT
350
43BD
  3
LWETCUNION
350
43BE
  3
INSUNITS
350
43BF
  3
CEPSNTYPE
350
43C0
  3
FINGERPRINTGUID
350
43C1
  3
VERSIONGUID
350
43C2
  3
PSVPSCALE
350
43C3
  3
DIMSTYLEDATA
350
43C4
  3
PUCSORTHOREF
350
43C5
  3
PUCSORTHOVIEW
350
43C6
  3
PUCSBASE
350
43C7
  3
PUCSORGTOP
350
43C8
  3
PUCSORGBOTTOM
350
43C9
  3
PUCSORGLEFT
350
43CA
  3
PUCSORGRIGHT
350
43CB
  3
PUCSORGFRONT
350
43CC
  3
PUCSORGBACK
350
43CD
  3
UCSORTHOREF
350
43CE
  3
UCSORTHOVIEW
350
43CF
  3
UCSBASE
350
43D0
  3
UCSORGTOP
350
43D1
  3
UCSORGBOTTOM
350
43D2
  3
UCSORGLEFT
350
43D3
  3
UCSORGRIGHT
350
43D4
  3
UCSORGFRONT
350
43D5
  3
UCSORGBACK
350
43D6
  0
DICTIONARY
  5
43AB
102
{ACAD_REACTORS
330
74
102
}
330
74
100
AcDbDictionary
  3
*A1
350
43AC
  0
XRECORD
  5
43D9
102
{ACAD_REACTORS
330
74
102
}
330
74
100
AcDbXrecord
340
1F
  0
XRECORD
  5
43DF
102
{ACAD_REACTORS
330
43DE
102
}
330
43DE
100
AcDbXrecord
340
101
  0
MLINESTYLE
  5
18
102
{ACAD_REACTORS
330
17
102
}
330
17
100
AcDbMlineStyle
  2
STANDARD
 70
     0
  3

 62
   256
 51
90.0
 52
90.0
 71
     2
 49
0.5
 62
   256
  6
BYLAYER
 49
-0.5
 62
   256
  6
BYLAYER
  0
ACDBPLACEHOLDER
  5
F
102
{ACAD_REACTORS
330
E
102
}
330
E
100
AcDbPlaceHolder
280
     0
  0
DICTIONARYVAR
  5
35
102
{ACAD_REACTORS
330
34
102
}
330
34
100
DictionaryVariables
280
     0
  1
1
  0
DICTIONARYVAR
  5
B5E
102
{ACAD_REACTORS
330
34
102
}
330
34
100
DictionaryVariables
280
     0
  1
96
  0
DICTIONARY
  5
260
102
{ACAD_REACTORS
330
43
102
}
330
43
100
AcDbDictionary
  0
DICTIONARY
  5
2C
102
{ACAD_REACTORS
330
2B
102
}
330
2B
100
AcDbDictionary
  3
DWGSETTINGS
350
2D
  0
XRECORD
  5
151C
102
{ACAD_REACTORS
330
151A
102
}
330
151A
100
AcDbXrecord
330
0
330
0
330
0
330
0
330
0
330
0
330
0
330
0
  0
XRECORD
  5
43B7
102
{ACAD_REACTORS
330
43B6
102
}
330
43B6
100
AcDbXrecord
 90
        1
  0
XRECORD
  5
43B8
102
{ACAD_REACTORS
330
43B6
102
}
330
43B6
100
AcDbXrecord
 90
       70
  0
XRECORD
  5
43B9
102
{ACAD_REACTORS
330
43B6
102
}
330
43B6
100
AcDbXrecord
  1

  0
XRECORD
  5
43BA
102
{ACAD_REACTORS
330
43B6
102
}
330
43B6
100
AcDbXrecord
  1
ASAMI.ctb
  0
XRECORD
  5
43BB
102
{ACAD_REACTORS
330
43B6
102
}
330
43B6
100
AcDbXrecord
340
1A
  0
XRECORD
  5
43BC
102
{ACAD_REACTORS
330
43B6
102
}
330
43B6
100
AcDbXrecord
340
19
  0
XRECORD
  5
43BD
102
{ACAD_REACTORS
330
43B6
102
}
330
43B6
100
AcDbXrecord
340
E
  0
XRECORD
  5
43BE
102
{ACAD_REACTORS
330
43B6
102
}
330
43B6
100
AcDbXrecord
 90
    10781
  0
XRECORD
  5
43BF
102
{ACAD_REACTORS
330
43B6
102
}
330
43B6
100
AcDbXrecord
 90
        4
  0
XRECORD
  5
43C0
102
{ACAD_REACTORS
330
43B6
102
}
330
43B6
100
AcDbXrecord
 90
        0
  0
XRECORD
  5
43C1
102
{ACAD_REACTORS
330
43B6
102
}
330
43B6
100
AcDbXrecord
  1
{AFB28963-8C59-40AE-9337-C84526B81ACE}
  0
XRECORD
  5
43C2
102
{ACAD_REACTORS
330
43B6
102
}
330
43B6
100
AcDbXrecord
  1
{47CE7BA9-812D-4612-B2F2-C821AC4908B6}
  0
XRECORD
  5
43C3
102
{ACAD_REACTORS
330
43B6
102
}
330
43B6
100
AcDbXrecord
 40
0.0
  0
XRECORD
  5
43C4
102
{ACAD_REACTORS
330
43B6
102
}
330
43B6
100
AcDbXrecord
1000
DSTYLE
1002
{
1070
    79
 70
     2
1070
   341
340
59
1070
   342
340
59
1070
   371
 70
    -1
1070
   372
 70
    -1
1002
}
  0
XRECORD
  5
43C5
102
{ACAD_REACTORS
330
43B6
102
}
330
43B6
100
AcDbXrecord
340
0
  0
XRECORD
  5
43C6
102
{ACAD_REACTORS
330
43B6
102
}
330
43B6
100
AcDbXrecord
 70
     0
  0
XRECORD
  5
43C7
102
{ACAD_REACTORS
330
43B6
102
}
330
43B6
100
AcDbXrecord
340
0
  0
XRECORD
  5
43C8
102
{ACAD_REACTORS
330
43B6
102
}
330
43B6
100
AcDbXrecord
 10
0.0
 20
0.0
 30
0.0
  0
XRECORD
  5
43C9
102
{ACAD_REACTORS
330
43B6
102
}
330
43B6
100
AcDbXrecord
 10
0.0
 20
0.0
 30
0.0
  0
XRECORD
  5
43CA
102
{ACAD_REACTORS
330
43B6
102
}
330
43B6
100
AcDbXrecord
 10
0.0
 20
0.0
 30
0.0
  0
XRECORD
  5
43CB
102
{ACAD_REACTORS
330
43B6
102
}
330
43B6
100
AcDbXrecord
 10
0.0
 20
0.0
 30
0.0
  0
XRECORD
  5
43CC
102
{ACAD_REACTORS
330
43B6
102
}
330
43B6
100
AcDbXrecord
 10
0.0
 20
0.0
 30
0.0
  0
XRECORD
  5
43CD
102
{ACAD_REACTORS
330
43B6
102
}
330
43B6
100
AcDbXrecord
 10
0.0
 20
0.0
 30
0.0
  0
XRECORD
  5
43CE
102
{ACAD_REACTORS
330
43B6
102
}
330
43B6
100
AcDbXrecord
340
0
  0
XRECORD
  5
43CF
102
{ACAD_REACTORS
330
43B6
102
}
330
43B6
100
AcDbXrecord
 70
     0
  0
XRECORD
  5
43D0
102
{ACAD_REACTORS
330
43B6
102
}
330
43B6
100
AcDbXrecord
340
0
  0
XRECORD
  5
43D1
102
{ACAD_REACTORS
330
43B6
102
}
330
43B6
100
AcDbXrecord
 10
0.0
 20
0.0
 30
0.0
  0
XRECORD
  5
43D2
102
{ACAD_REACTORS
330
43B6
102
}
330
43B6
100
AcDbXrecord
 10
0.0
 20
0.0
 30
0.0
  0
XRECORD
  5
43D3
102
{ACAD_REACTORS
330
43B6
102
}
330
43B6
100
AcDbXrecord
 10
0.0
 20
0.0
 30
0.0
  0
XRECORD
  5
43D4
102
{ACAD_REACTORS
330
43B6
102
}
330
43B6
100
AcDbXrecord
 10
0.0
 20
0.0
 30
0.0
  0
XRECORD
  5
43D5
102
{ACAD_REACTORS
330
43B6
102
}
330
43B6
100
AcDbXrecord
 10
0.0
 20
0.0
 30
0.0
  0
XRECORD
  5
43D6
102
{ACAD_REACTORS
330
43B6
102
}
330
43B6
100
AcDbXrecord
 10
0.0
 20
0.0
 30
0.0
  0
LAYER_INDEX
  5
43AC
102
{ACAD_REACTORS
330
43AB
102
}
330
43AB
100
AcDbIndex
 40
2453151.821047986
100
AcDbLayerIndex
  8
0
360
43AD
 90
        0
  8
AM_0
360
43AE
 90
       40
  8
AM_11
360
43AF
 90
        3
  8
AM_7
360
43B0
 90
        1
  8
AM_5
360
43B1
 90
        4
  8
Defpoints
360
43B2
 90
        0
  8
AM_6
360
43B3
 90
        1
  8
AM_CL
360
43B4
 90
        0
  0
XRECORD
  5
2D
102
{ACAD_REACTORS
330
2C
102
}
330
2C
100
AcDbXrecord
  1
VERSION
140
15.0
  1
PRODUCT
  2
AutoCAD Mechanical 2000
  0
IDBUFFER
  5
43AD
330
0
100
AcDbIdBuffer
  0
IDBUFFER
  5
43AE
330
0
100
AcDbIdBuffer
330
416F
330
4170
330
4171
330
4172
330
4175
330
4177
330
417A
330
417B
330
417C
330
417E
330
417F
330
4180
330
4182
330
4184
330
4185
330
4186
330
4187
330
4189
330
418A
330
418B
330
418C
330
418D
330
418E
330
4390
330
3D3C
330
3D3F
330
3DAD
330
3DAF
330
3DB0
330
3E60
330
3E62
330
3E6A
330
403B
330
409A
330
409C
330
409D
330
416B
330
416C
330
416D
330
416E
  0
IDBUFFER
  5
43AF
330
0
100
AcDbIdBuffer
330
4176
330
4178
330
4179
  0
IDBUFFER
  5
43B0
330
0
100
AcDbIdBuffer
330
C2E
  0
IDBUFFER
  5
43B1
330
0
100
AcDbIdBuffer
330
10F0
330
12D8
330
1A73
330
415C
  0
IDBUFFER
  5
43B2
330
0
100
AcDbIdBuffer
  0
IDBUFFER
  5
43B3
330
0
100
AcDbIdBuffer
330
1500
  0
IDBUFFER
  5
43B4
330
0
100
AcDbIdBuffer
  0
ENDSEC
  0
EOF
