  0
SECTION
  2
HEADER
  9
$ACADVER
  1
AC1014
  9
$ACADMAINTVER
 70
     9
  9
$DWGCODEPAGE
  3
ANSI_932
  9
$INSBASE
 10
0.0
 20
0.0
 30
0.0
  9
$EXTMIN
 10
-60.850001
 20
-27.25000100000002
 30
-0.00000001
  9
$EXTMAX
 10
9.551050680252128
 20
5.499999999999995
 30
0.00000001
  9
$LIMMIN
 10
-65.26109045207299
 20
-32.68162917298762
  9
$LIMMAX
 10
15.80610970040365
 20
15.25733853261508
  9
$ORTHOMODE
 70
     0
  9
$REGENMODE
 70
     1
  9
$FILLMODE
 70
     1
  9
$QTEXTMODE
 70
     0
  9
$MIRRTEXT
 70
     0
  9
$DRAGMODE
 70
     2
  9
$LTSCALE
 40
1.0
  9
$OSMODE
 70
    55
  9
$ATTMODE
 70
     1
  9
$TEXTSIZE
 40
2.5
  9
$TRACEWID
 40
1.0
  9
$TEXTSTYLE
  7
STANDARD
  9
$CLAYER
  8
AM_0
  9
$CELTYPE
  6
BYLAYER
  9
$CECOLOR
 62
   256
  9
$CELTSCALE
 40
1.0
  9
$DELOBJ
 70
     1
  9
$DISPSILH
 70
     0
  9
$DIMSCALE
 40
0.5
  9
$DIMASZ
 40
2.5
  9
$DIMEXO
 40
1.0
  9
$DIMDLI
 40
12.0
  9
$DIMRND
 40
0.0
  9
$DIMDLE
 40
0.0
  9
$DIMEXE
 40
1.0
  9
$DIMTP
 40
0.1
  9
$DIMTM
 40
0.1
  9
$DIMTXT
 40
3.2
  9
$DIMCEN
 40
0.0
  9
$DIMTSZ
 40
0.0
  9
$DIMTOL
 70
     0
  9
$DIMLIM
 70
     0
  9
$DIMTIH
 70
     0
  9
$DIMTOH
 70
     0
  9
$DIMSE1
 70
     0
  9
$DIMSE2
 70
     0
  9
$DIMTAD
 70
     3
  9
$DIMZIN
 70
     8
  9
$DIMBLK
  1
OPEN30
  9
$DIMASO
 70
     1
  9
$DIMSHO
 70
     1
  9
$DIMPOST
  1

  9
$DIMAPOST
  1
"
  9
$DIMALT
 70
     0
  9
$DIMALTD
 70
     2
  9
$DIMALTF
 40
0.0393701
  9
$DIMLFAC
 40
1.0
  9
$DIMTOFL
 70
     1
  9
$DIMTVP
 40
0.0
  9
$DIMTIX
 70
     0
  9
$DIMSOXD
 70
     0
  9
$DIMSAH
 70
     0
  9
$DIMBLK1
  1

  9
$DIMBLK2
  1

  9
$DIMSTYLE
  2
AM_JIS
  9
$DIMCLRD
 70
   256
  9
$DIMCLRE
 70
   256
  9
$DIMCLRT
 70
     2
  9
$DIMTFAC
 40
0.71
  9
$DIMGAP
 40
1.5
  9
$DIMJUST
 70
     0
  9
$DIMSD1
 70
     0
  9
$DIMSD2
 70
     0
  9
$DIMTOLJ
 70
     0
  9
$DIMTZIN
 70
     0
  9
$DIMALTZ
 70
     0
  9
$DIMALTTZ
 70
     0
  9
$DIMFIT
 70
     3
  9
$DIMUPT
 70
     0
  9
$DIMUNIT
 70
     2
  9
$DIMDEC
 70
     3
  9
$DIMTDEC
 70
     3
  9
$DIMALTU
 70
     2
  9
$DIMALTTD
 70
     2
  9
$DIMTXSTY
  7
ASAMI
  9
$DIMAUNIT
 70
     0
  9
$LUNITS
 70
     2
  9
$LUPREC
 70
     2
  9
$SKETCHINC
 40
1.0
  9
$FILLETRAD
 40
2.5
  9
$AUNITS
 70
     0
  9
$AUPREC
 70
     0
  9
$MENU
  1
.
  9
$ELEVATION
 40
0.0
  9
$PELEVATION
 40
0.0
  9
$THICKNESS
 40
0.0
  9
$LIMCHECK
 70
     0
  9
$BLIPMODE
 70
     0
  9
$CHAMFERA
 40
0.5
  9
$CHAMFERB
 40
0.5
  9
$CHAMFERC
 40
20.0
  9
$CHAMFERD
 40
0.0
  9
$SKPOLY
 70
     0
  9
$TDCREATE
 40
2452838.430434386
  9
$TDUPDATE
 40
2453151.824878923
  9
$TDINDWG
 40
0.2264414815
  9
$TDUSRTIMER
 40
0.2264414815
  9
$USRTIMER
 70
     1
  9
$ANGBASE
 50
0.0
  9
$ANGDIR
 70
     0
  9
$PDMODE
 70
     0
  9
$PDSIZE
 40
0.0
  9
$PLINEWID
 40
0.0
  9
$COORDS
 70
     1
  9
$SPLFRAME
 70
     0
  9
$SPLINETYPE
 70
     6
  9
$SPLINESEGS
 70
     8
  9
$ATTDIA
 70
     1
  9
$ATTREQ
 70
     1
  9
$HANDLING
 70
 12289
  9
$HANDSEED
  5
5774
  9
$SURFTAB1
 70
     6
  9
$SURFTAB2
 70
     6
  9
$SURFTYPE
 70
     6
  9
$SURFU
 70
     6
  9
$SURFV
 70
     6
  9
$UCSNAME
  2

  9
$UCSORG
 10
0.0
 20
0.0
 30
0.0
  9
$UCSXDIR
 10
1.0
 20
0.0
 30
0.0
  9
$UCSYDIR
 10
0.0
 20
1.0
 30
0.0
  9
$PUCSNAME
  2

  9
$PUCSORG
 10
0.0
 20
0.0
 30
0.0
  9
$PUCSXDIR
 10
1.0
 20
0.0
 30
0.0
  9
$PUCSYDIR
 10
0.0
 20
1.0
 30
0.0
  9
$USERI1
 70
     0
  9
$USERI2
 70
     0
  9
$USERI3
 70
     0
  9
$USERI4
 70
     0
  9
$USERI5
 70
     0
  9
$USERR1
 40
0.0
  9
$USERR2
 40
0.0
  9
$USERR3
 40
0.0
  9
$USERR4
 40
0.0
  9
$USERR5
 40
0.0
  9
$WORLDVIEW
 70
     1
  9
$SHADEDGE
 70
     3
  9
$SHADEDIF
 70
    70
  9
$TILEMODE
 70
     1
  9
$MAXACTVP
 70
    64
  9
$PINSBASE
 10
0.0
 20
0.0
 30
0.0
  9
$PLIMCHECK
 70
     0
  9
$PEXTMIN
 10
1.000000000000000E+20
 20
1.000000000000000E+20
 30
1.000000000000000E+20
  9
$PEXTMAX
 10
-1.000000000000000E+20
 20
-1.000000000000000E+20
 30
-1.000000000000000E+20
  9
$PLIMMIN
 10
0.0
 20
0.0
  9
$PLIMMAX
 10
841.0
 20
594.0
  9
$UNITMODE
 70
     0
  9
$VISRETAIN
 70
     1
  9
$PLINEGEN
 70
     0
  9
$PSLTSCALE
 70
     0
  9
$TREEDEPTH
 70
  3020
  9
$PICKSTYLE
 70
     0
  9
$CMLSTYLE
  2
STANDARD
  9
$CMLJUST
 70
     0
  9
$CMLSCALE
 40
20.0
  9
$PROXYGRAPHICS
 70
     1
  9
$MEASUREMENT
 70
     1
  0
ENDSEC
  0
SECTION
  2
CLASSES
  0
CLASS
  1
ACDBDICTIONARYWDFLT
  2
AcDbDictionaryWithDefault
  3
AutoCAD 2000
 90
        0
280
     0
281
     0
  0
CLASS
  1
ACDBPLACEHOLDER
  2
AcDbPlaceHolder
  3
AutoCAD 2000
 90
        0
280
     0
281
     0
  0
CLASS
  1
LAYOUT
  2
AcDbLayout
  3
AutoCAD 2000
 90
        0
280
     0
281
     0
  0
CLASS
  1
AMGSETTINGSOBJ
  2
AmgSettingsObj
  3
"AcadM|Product Description: AutoCAD Mechanical 2000|Company: Autodesk"
 90
        0
280
     0
281
     0
  0
CLASS
  1
ACME_DOCUMENT
  2
AcMeDbDoc
  3
AcMeServices
 90
        0
280
     0
281
     0
  0
CLASS
  1
ACMESCOPE
  2
AcMeScope
  3
AcMeServices
 90
        0
280
     0
281
     0
  0
CLASS
  1
ACMECOMMANDHISTORY
  2
AcMeCommandHistory
  3
AcMeServices
 90
        0
280
     0
281
     0
  0
CLASS
  1
DICTIONARYVAR
  2
AcDbDictionaryVar
  3
AutoCAD 2000
 90
        0
280
     0
281
     0
  0
CLASS
  1
ACIMSYSVARMAN
  2
AcImSysVarManager
  3
AcMeServices
 90
        0
280
     0
281
     0
  0
CLASS
  1
ACIMREALSYSVAR
  2
AcImRealSysVar
  3
AcMeServices
 90
        0
280
     0
281
     0
  0
CLASS
  1
ACIMINTSYSVAR
  2
AcImIntSysVar
  3
AcMeServices
 90
        0
280
     0
281
     0
  0
CLASS
  1
ACMEDRAWINGMAN
  2
AcMeDrawingMan
  3
AcMeServices
 90
        0
280
     0
281
     0
  0
CLASS
  1
ACMEVIEW
  2
AcMeView
  3
AcMeServices
 90
        0
280
     0
281
     0
  0
CLASS
  1
ACDBENTITYCACHE
  2
AcMeEntityCache
  3
AcMeServices
 90
        0
280
     0
281
     0
  0
CLASS
  1
GSMANAGER
  2
AcMeGSManager
  3
AcMeServices
 90
        0
280
     0
281
     0
  0
CLASS
  1
AmdtInternalReactor
  2
AmdtInternalReactor
  3
AcMeServices
 90
        0
280
     0
281
     0
  0
CLASS
  1
ACMESTATEMGR
  2
AcMeStateMgr
  3
AcMeServices
 90
        0
280
     0
281
     0
  0
CLASS
  1
ACME_DATABASE
  2
AcMeDbDatabase
  3
AcMeServices
 90
        0
280
     0
281
     0
  0
CLASS
  1
ACRFINSADJUSTERMGR
  2
AcRfInsAdjusterMgr
  3
AcMeServices
 90
        0
280
     0
281
     0
  0
CLASS
  1
ACMDATADICTIONARY
  2
AcmDataDictionary
  3
"AcmSymBB|Product Description: AutoCAD Mechanical 2000|Company: Autodesk"
 90
        0
280
     0
281
     0
  0
CLASS
  1
ACMDATAENTRYBLOCK
  2
AcmDataEntryBlock
  3
"AcmSymBB|Product Description: AutoCAD Mechanical 2000|Company: Autodesk"
 90
        0
280
     0
281
     0
  0
CLASS
  1
AMGOBJPROPCFG
  2
AmgObjPropCfg
  3
"AmgLay|Product Description: AutoCAD Mechanical 2000|Company: Autodesk"
 90
        1
280
     0
281
     0
  0
CLASS
  1
ACAMGFILTERDAT
  2
AcAmgFilterDat
  3
"AcadM|Product Description: AutoCAD Mechanical 2000|Company: Autodesk"
 90
        0
280
     0
281
     0
  0
CLASS
  1
LAYER_INDEX
  2
AcDbLayerIndex
  3
AutoCAD 2000
 90
        0
280
     0
281
     0
  0
CLASS
  1
IDBUFFER
  2
AcDbIdBuffer
  3
AutoCAD 2000
 90
        0
280
     0
281
     0
  0
CLASS
  1
ACIMSTRSYSVAR
  2
AcImStrSysVar
  3
AcMeServices
 90
        0
280
     0
281
     0
  0
CLASS
  1
ACMSTANDARDJIS
  2
AcmStandardJIS
  3
"AcmSymBB|Product Description: AutoCAD Mechanical 2000|Company: Autodesk"
 90
        0
280
     0
281
     0
  0
CLASS
  1
ACMSURFSTANDARDJIS
  2
AcmSurfTextStdJIS
  3
"AcmSymBB|Product Description: AutoCAD Mechanical 2000|Company: Autodesk"
 90
        0
280
     0
281
     0
  0
CLASS
  1
ACMFCFSTANDARDJIS
  2
AcmFCFStdJIS
  3
"AcmSymBB|Product Description: AutoCAD Mechanical 2000|Company: Autodesk"
 90
        0
280
     0
281
     0
  0
CLASS
  1
ACMWELDSTANDARDJIS
  2
AcmWeldingStdJIS
  3
"AcmSymBB|Product Description: AutoCAD Mechanical 2000|Company: Autodesk"
 90
        0
280
     0
281
     0
  0
CLASS
  1
ACMIDSTANDARDJIS
  2
AcmIdStdJIS
  3
"AcmSymBB|Product Description: AutoCAD Mechanical 2000|Company: Autodesk"
 90
        0
280
     0
281
     0
  0
CLASS
  1
ACMDATUMSTANDARDJIS
  2
AcmDatumStdJIS
  3
"AcmSymBB|Product Description: AutoCAD Mechanical 2000|Company: Autodesk"
 90
        0
280
     0
281
     0
  0
CLASS
  1
ACMBOMSTANDARDJIS
  2
AcmBOMStdJIS
  3
"AcmSymBB|Product Description: AutoCAD Mechanical 2000|Company: Autodesk"
 90
        0
280
     0
281
     0
  0
CLASS
  1
ACMSTANDARDANSI
  2
AcmStandardANSI
  3
"AcmSymBB|Product Description: AutoCAD Mechanical 2000|Company: Autodesk"
 90
        0
280
     0
281
     0
  0
CLASS
  1
ACMSURFSTANDARDANSI
  2
AcmSurfTextStdANSI
  3
"AcmSymBB|Product Description: AutoCAD Mechanical 2000|Company: Autodesk"
 90
        0
280
     0
281
     0
  0
CLASS
  1
ACMFCFSTANDARDANSI
  2
AcmFCFStdANSI
  3
"AcmSymBB|Product Description: AutoCAD Mechanical 2000|Company: Autodesk"
 90
        0
280
     0
281
     0
  0
CLASS
  1
ACMWELDSTANDARDANSI
  2
AcmWeldingStdANSI
  3
"AcmSymBB|Product Description: AutoCAD Mechanical 2000|Company: Autodesk"
 90
        0
280
     0
281
     0
  0
CLASS
  1
ACMIDSTANDARDANSI
  2
AcmIdStdANSI
  3
"AcmSymBB|Product Description: AutoCAD Mechanical 2000|Company: Autodesk"
 90
        0
280
     0
281
     0
  0
CLASS
  1
ACMDATUMSTANDARDANSI
  2
AcmDatumStdANSI
  3
"AcmSymBB|Product Description: AutoCAD Mechanical 2000|Company: Autodesk"
 90
        0
280
     0
281
     0
  0
CLASS
  1
ACMBOMSTANDARDANSI
  2
AcmBOMStdANSI
  3
"AcmSymBB|Product Description: AutoCAD Mechanical 2000|Company: Autodesk"
 90
        0
280
     0
281
     0
  0
CLASS
  1
ACMSTANDARDBSI
  2
AcmStandardBSI
  3
"AcmSymBB|Product Description: AutoCAD Mechanical 2000|Company: Autodesk"
 90
        0
280
     0
281
     0
  0
CLASS
  1
ACMSURFSTANDARDBSI
  2
AcmSurfTextStdBSI
  3
"AcmSymBB|Product Description: AutoCAD Mechanical 2000|Company: Autodesk"
 90
        0
280
     0
281
     0
  0
CLASS
  1
ACMFCFSTANDARDBSI
  2
AcmFCFStdBSI
  3
"AcmSymBB|Product Description: AutoCAD Mechanical 2000|Company: Autodesk"
 90
        0
280
     0
281
     0
  0
CLASS
  1
ACMWELDSTANDARDBSI
  2
AcmWeldingStdBSI
  3
"AcmSymBB|Product Description: AutoCAD Mechanical 2000|Company: Autodesk"
 90
        0
280
     0
281
     0
  0
CLASS
  1
ACMIDSTANDARDBSI
  2
AcmIdStdBSI
  3
"AcmSymBB|Product Description: AutoCAD Mechanical 2000|Company: Autodesk"
 90
        0
280
     0
281
     0
  0
CLASS
  1
ACMDATUMSTANDARDBSI
  2
AcmDatumStdBSI
  3
"AcmSymBB|Product Description: AutoCAD Mechanical 2000|Company: Autodesk"
 90
        0
280
     0
281
     0
  0
CLASS
  1
ACMBOMSTANDARDBSI
  2
AcmBOMStdBSI
  3
"AcmSymBB|Product Description: AutoCAD Mechanical 2000|Company: Autodesk"
 90
        0
280
     0
281
     0
  0
CLASS
  1
LONG_TRANSACTION
  2
AcDbLongTransaction
  3
AutoCAD 2000
 90
        0
280
     0
281
     0
  0
CLASS
  1
LWPOLYLINE
  2
AcDbPolyline
  3
AutoCAD 2000
 90
        0
280
     0
281
     1
  0
CLASS
  1
HATCH
  2
AcDbHatch
  3
AutoCAD 2000
 90
        0
280
     0
281
     1
  0
CLASS
  1
XRECORD
  2
AcDbXrecord
  3
AutoCAD 2000
 90
        0
280
     0
281
     0
  0
ENDSEC
  0
SECTION
  2
TABLES
  0
TABLE
  2
VPORT
  5
8
330
0
100
AcDbSymbolTable
 70
     3
  0
VPORT
  5
5749
330
8
100
AcDbSymbolTableRecord
100
AcDbViewportTableRecord
  2
*ACTIVE
 70
     0
 10
0.0
 20
0.0
 11
1.0
 21
1.0
 12
-18.8314347535766
 22
-8.515580120643825
 13
0.0
 23
0.0
 14
2.5
 24
2.5
 15
10.0
 25
10.0
 16
0.0
 26
0.0
 36
1.0
 17
0.0
 27
0.0
 37
0.0
 40
119.2201760226492
 41
1.56570841889117
 42
50.0
 43
0.0
 44
0.0
 50
0.0
 51
0.0
 71
     0
 72
   100
 73
     1
 74
     3
 75
     0
 76
     0
 77
     0
 78
     0
  0
ENDTAB
  0
TABLE
  2
LTYPE
  5
5
330
0
100
AcDbSymbolTable
 70
    10
  0
LTYPE
  5
14
330
5
100
AcDbSymbolTableRecord
100
AcDbLinetypeTableRecord
  2
BYBLOCK
 70
     0
  3

 72
    65
 73
     0
 40
0.0
  0
LTYPE
  5
15
330
5
100
AcDbSymbolTableRecord
100
AcDbLinetypeTableRecord
  2
BYLAYER
 70
     0
  3

 72
    65
 73
     0
 40
0.0
  0
LTYPE
  5
16
330
5
100
AcDbSymbolTableRecord
100
AcDbLinetypeTableRecord
  2
CONTINUOUS
 70
     0
  3
Solid line
 72
    65
 73
     0
 40
0.0
  0
LTYPE
  5
4B
330
5
100
AcDbSymbolTableRecord
100
AcDbLinetypeTableRecord
  2
AM_ISO02W050
 70
     0
  3
__ __ __ __ __ __ __ __ __ __ __ __ __ __ __
 72
    65
 73
     2
 40
7.5
 49
6.0
 74
     0
 49
-1.5
 74
     0
  0
LTYPE
  5
4C
330
5
100
AcDbSymbolTableRecord
100
AcDbLinetypeTableRecord
  2
AM_ISO08W050
 70
     0
  3
____ . ____ . ____ . ____ . ____ . ____ . ____
 72
    65
 73
     4
 40
18.0
 49
12.0
 74
     0
 49
-1.5
 74
     0
 49
3.0
 74
     0
 49
-1.5
 74
     0
  0
LTYPE
  5
4D
330
5
100
AcDbSymbolTableRecord
100
AcDbLinetypeTableRecord
  2
AM_ISO09W050
 70
     0
  3
_____ . . _____ . . _____ . . ____ .. ____
 72
    65
 73
     6
 40
22.5
 49
12.0
 74
     0
 49
-1.5
 74
     0
 49
3.0
 74
     0
 49
-1.5
 74
     0
 49
3.0
 74
     0
 49
-1.5
 74
     0
  0
LTYPE
  5
4E
330
5
100
AcDbSymbolTableRecord
100
AcDbLinetypeTableRecord
  2
AMCONSTR
 70
     0
  3
_______________________
 72
    65
 73
     2
 40
9999.0
 49
9999.0
 74
     0
 49
0.0
 74
     0
  0
LTYPE
  5
4F
330
5
100
AcDbSymbolTableRecord
100
AcDbLinetypeTableRecord
  2
AM_ISO02W050X2
 70
     0
  3
 _ _ _ _ _ _ _ _ _ _ _ _
 72
    65
 73
     2
 40
3.75
 49
3.0
 74
     0
 49
-0.75
 74
     0
  0
LTYPE
  5
50
330
5
100
AcDbSymbolTableRecord
100
AcDbLinetypeTableRecord
  2
AM_ISO08W050X2
 70
     0
  3
__ . __ . __ . __ . __ . __
 72
    65
 73
     4
 40
9.0
 49
6.0
 74
     0
 49
-0.75
 74
     0
 49
1.5
 74
     0
 49
-0.75
 74
     0
  0
LTYPE
  5
53
330
5
100
AcDbSymbolTableRecord
100
AcDbLinetypeTableRecord
  2
AMZIGZAG
 70
     0
  3
/\/-/\/-/\/-/\/-/\/-/\/
 72
    65
 73
     2
 40
11.00009999999999
 49
0.0001
 74
     4
 75
   135
340
52
 46
0.04
 50
0.0
 44
0.0
 45
0.0
 49
-11.0
 74
     0
  0
LTYPE
  5
166
330
5
100
AcDbSymbolTableRecord
100
AcDbLinetypeTableRecord
  2
ACJISTGL
 70
     0
  3
_ _ _ _ _
 72
    65
 73
     2
 40
3.0
 49
2.0
 74
     0
 49
-1.0
 74
     0
  0
LTYPE
  5
26A
330
5
100
AcDbSymbolTableRecord
100
AcDbLinetypeTableRecord
  2
ACJISTGB
 70
     0
  3
__ . . __ . .
 72
    65
 73
     6
 40
9.0
 49
4.0
 74
     0
 49
-1.0
 74
     0
 49
1.0
 74
     0
 49
-1.0
 74
     0
 49
1.0
 74
     0
 49
-1.0
 74
     0
  0
ENDTAB
  0
TABLE
  2
LAYER
  5
2
330
0
100
AcDbSymbolTable
 70
     7
  0
LAYER
  5
10
330
2
100
AcDbSymbolTableRecord
100
AcDbLayerTableRecord
  2
0
 70
     0
 62
     7
  6
CONTINUOUS
  0
LAYER
  5
3F9
330
2
100
AcDbSymbolTableRecord
100
AcDbLayerTableRecord
  2
AM_0
 70
     0
 62
     7
  6
CONTINUOUS
  0
LAYER
  5
BDD
330
2
100
AcDbSymbolTableRecord
100
AcDbLayerTableRecord
  2
AM_11
 70
     0
 62
     3
  6
AM_ISO09W050
  0
LAYER
  5
BDE
330
2
100
AcDbSymbolTableRecord
100
AcDbLayerTableRecord
  2
AM_7
 70
     0
 62
     4
  6
AM_ISO08W050
  0
LAYER
  5
BDF
330
2
100
AcDbSymbolTableRecord
100
AcDbLayerTableRecord
  2
AM_5
 70
     0
 62
     3
  6
CONTINUOUS
  0
LAYER
  5
BE0
330
2
100
AcDbSymbolTableRecord
100
AcDbLayerTableRecord
  2
DEFPOINTS
 70
     0
 62
     7
  6
CONTINUOUS
  0
LAYER
  5
14FF
330
2
100
AcDbSymbolTableRecord
100
AcDbLayerTableRecord
  2
AM_6
 70
     0
 62
     2
  6
CONTINUOUS
  0
ENDTAB
  0
TABLE
  2
STYLE
  5
3
330
0
100
AcDbSymbolTable
 70
     5
  0
STYLE
  5
11
330
3
100
AcDbSymbolTableRecord
100
AcDbTextStyleTableRecord
  2
STANDARD
 70
     0
 40
0.0
 41
1.0
 50
0.0
 71
     0
 42
2.5
  3
simplex.shx
  4
EXTFONT.SHX
  0
STYLE
  5
52
330
3
100
AcDbSymbolTableRecord
100
AcDbTextStyleTableRecord
  2

 70
     1
 40
0.0
 41
1.0
 50
0.0
 71
     0
 42
2.5
  3
ltypeshp.shx
  4

  0
STYLE
  5
6B
330
3
100
AcDbSymbolTableRecord
100
AcDbTextStyleTableRecord
  2
ASAMI
 70
     0
 40
0.0
 41
1.0
 50
0.0
 71
     0
 42
2.5
  3
simplex.shx
  4
EXTFONT.SHX
  0
STYLE
  5
262
330
3
100
AcDbSymbolTableRecord
100
AcDbTextStyleTableRecord
  2
ACJISTS
 70
     0
 40
1.0
 41
1.0
 50
0.0
 71
     0
 42
2.5
  3
simplex.shx
  4
bigfont.shx
  0
STYLE
  5
269
330
3
100
AcDbSymbolTableRecord
100
AcDbTextStyleTableRecord
  2
ACJISGDT
 70
     0
 40
0.0
 41
1.0
 50
0.0
 71
     0
 42
2.5
  3
amgdtans.shx
  4

  0
ENDTAB
  0
TABLE
  2
VIEW
  5
6
330
0
100
AcDbSymbolTable
 70
     0
  0
ENDTAB
  0
TABLE
  2
UCS
  5
7
330
0
100
AcDbSymbolTable
 70
     0
  0
ENDTAB
  0
TABLE
  2
APPID
  5
9
330
0
100
AcDbSymbolTable
 70
    13
  0
APPID
  5
12
330
9
100
AcDbSymbolTableRecord
100
AcDbRegAppTableRecord
  2
ACAD
 70
     0
  0
APPID
  5
30
330
9
100
AcDbSymbolTableRecord
100
AcDbRegAppTableRecord
  2
MCAD_NO_VIS
 70
     0
  0
APPID
  5
31
330
9
100
AcDbSymbolTableRecord
100
AcDbRegAppTableRecord
  2
ACAD_TEMP_GRAPHIC
 70
     0
  0
APPID
  5
2C2
330
9
100
AcDbSymbolTableRecord
100
AcDbRegAppTableRecord
  2
GENIUS_GENDTOL_13
 70
     0
  0
APPID
  5
339
330
9
100
AcDbSymbolTableRecord
100
AcDbRegAppTableRecord
  2
GENIUS_GENODEF_13
 70
     0
  0
APPID
  5
33A
330
9
100
AcDbSymbolTableRecord
100
AcDbRegAppTableRecord
  2
GENIUS_GENOBJ-N-RSBK_13
 70
     0
  0
APPID
  5
33B
330
9
100
AcDbSymbolTableRecord
100
AcDbRegAppTableRecord
  2
GENIUS_GENOBJ-N-LIB_13
 70
     0
  0
APPID
  5
33C
330
9
100
AcDbSymbolTableRecord
100
AcDbRegAppTableRecord
  2
GENIUS_GENSCALE_13
 70
     0
  0
APPID
  5
378
330
9
100
AcDbSymbolTableRecord
100
AcDbRegAppTableRecord
  2
GENIUS_GENDIMSH_14
 70
     0
  0
APPID
  5
BE1
330
9
100
AcDbSymbolTableRecord
100
AcDbRegAppTableRecord
  2
GENIUS_GENFIL_13
 70
     0
  0
APPID
  5
BE2
330
9
100
AcDbSymbolTableRecord
100
AcDbRegAppTableRecord
  2
GENIUS_GENOBJ-N-CHA_13
 70
     0
  0
APPID
  5
151B
330
9
100
AcDbSymbolTableRecord
100
AcDbRegAppTableRecord
  2
DCO15
 70
     0
  0
APPID
  5
1860
330
9
100
AcDbSymbolTableRecord
100
AcDbRegAppTableRecord
  2
GENIUS_GENOBJ-N-CEN_13
 70
     0
  0
ENDTAB
  0
TABLE
  2
DIMSTYLE
  5
A
330
0
100
AcDbSymbolTable
 70
     8
  0
DIMSTYLE
105
58
102
{ACAD_REACTORS
330
10F0
330
12D8
330
1A73
330
5553
102
}
330
A
100
AcDbSymbolTableRecord
100
AcDbDimStyleTableRecord
  2
AM_JIS
 70
     0
  3

  4
"
  5
OPEN30
  6

  7

 40
0.5
 41
2.5
 42
1.0
 43
12.0
 44
1.0
 45
0.0
 46
0.0
 47
0.1
 48
0.1
140
3.2
141
0.0
142
0.0
143
0.0393701
144
1.0
145
0.0
146
0.71
147
1.5
 71
     0
 72
     0
 73
     0
 74
     0
 75
     0
 76
     0
 77
     3
 78
     8
170
     0
171
     2
172
     1
173
     0
174
     0
175
     0
176
   256
177
   256
178
     2
270
     2
271
     3
272
     3
273
     2
274
     2
340
6B
275
     0
280
     0
281
     0
282
     0
283
     0
284
     0
285
     0
286
     0
287
     3
288
     0
  0
DIMSTYLE
105
5F
330
A
100
AcDbSymbolTableRecord
100
AcDbDimStyleTableRecord
  2
AM_JIS$3
 70
     0
  3

  4
"
  5
OPEN30
  6

  7

 40
0.5
 41
2.5
 42
1.0
 43
10.0
 44
1.0
 45
0.0
 46
0.0
 47
0.1
 48
0.1
140
3.2
141
0.0
142
0.0
143
0.0393701
144
1.0
145
0.0
146
0.71
147
1.5
 71
     0
 72
     0
 73
     0
 74
     1
 75
     0
 76
     0
 77
     3
 78
     8
170
     0
171
     2
172
     0
173
     0
174
     0
175
     0
176
   256
177
   256
178
     2
270
     2
271
     2
272
     3
273
     2
274
     2
340
6B
275
     0
280
     0
281
     0
282
     0
283
     0
284
     0
285
     0
286
     0
287
     0
288
     1
  0
DIMSTYLE
105
60
330
A
100
AcDbSymbolTableRecord
100
AcDbDimStyleTableRecord
  2
AM_JIS$4
 70
     0
  3

  4
"
  5
OPEN30
  6

  7

 40
0.5
 41
2.5
 42
1.0
 43
10.0
 44
1.0
 45
0.0
 46
0.0
 47
0.1
 48
0.1
140
3.2
141
0.0
142
0.0
143
0.0393701
144
1.0
145
0.0
146
0.71
147
1.5
 71
     0
 72
     0
 73
     0
 74
     1
 75
     0
 76
     0
 77
     3
 78
     8
170
     0
171
     2
172
     0
173
     0
174
     0
175
     0
176
   256
177
   256
178
     2
270
     2
271
     2
272
     3
273
     2
274
     2
340
6B
275
     0
280
     0
281
     0
282
     0
283
     0
284
     0
285
     0
286
     0
287
     0
288
     1
  0
DIMSTYLE
105
61
330
A
100
AcDbSymbolTableRecord
100
AcDbDimStyleTableRecord
  2
AM_JIS$6
 70
     0
  3

  4
"
  5
OPEN30
  6

  7

 40
0.5
 41
2.5
 42
1.0
 43
10.0
 44
1.0
 45
0.0
 46
0.0
 47
0.1
 48
0.1
140
3.2
141
0.0
142
0.0
143
0.0393701
144
1.0
145
0.0
146
0.71
147
1.5
 71
     0
 72
     0
 73
     0
 74
     0
 75
     0
 76
     0
 77
     0
 78
     8
170
     0
171
     2
172
     1
173
     0
174
     0
175
     0
176
   256
177
   256
178
     2
270
     2
271
     2
272
     2
273
     2
274
     2
340
6B
275
     0
280
     0
281
     0
282
     0
283
     0
284
     0
285
     0
286
     0
287
     3
288
     0
  0
DIMSTYLE
105
62
330
A
100
AcDbSymbolTableRecord
100
AcDbDimStyleTableRecord
  2
AM_JIS$7
 70
     0
  3

  4
"
  5
OPEN30
  6

  7

 40
0.5
 41
2.5
 42
1.0
 43
10.0
 44
1.0
 45
0.0
 46
0.0
 47
0.1
 48
0.1
140
3.2
141
0.0
142
0.0
143
0.0393701
144
1.0
145
0.0
146
0.71
147
1.5
 71
     0
 72
     0
 73
     0
 74
     0
 75
     0
 76
     0
 77
     3
 78
     8
170
     0
171
     2
172
     1
173
     0
174
     0
175
     0
176
   256
177
   256
178
     2
270
     2
271
     2
272
     3
273
     2
274
     2
340
6B
275
     0
280
     0
281
     0
282
     0
283
     0
284
     0
285
     0
286
     0
287
     3
288
     0
  0
DIMSTYLE
105
63
330
A
100
AcDbSymbolTableRecord
100
AcDbDimStyleTableRecord
  2
AM_JIS$SF
 70
     0
  3

  4
"
  5
OPEN30
  6

  7

 40
0.5
 41
2.5
 42
1.0
 43
10.0
 44
1.0
 45
0.0
 46
0.0
 47
0.1
 48
0.1
140
3.2
141
0.0
142
0.0
143
0.0393701
144
1.0
145
0.0
146
0.71
147
1.5
 71
     0
 72
     0
 73
     0
 74
     0
 75
     1
 76
     1
 77
     3
 78
     8
170
     0
171
     2
172
     1
173
     0
174
     0
175
     0
176
   256
177
   256
178
     2
270
     2
271
     2
272
     2
273
     2
274
     2
340
6B
275
     0
280
     0
281
     0
282
     0
283
     0
284
     0
285
     0
286
     0
287
     3
288
     0
  0
DIMSTYLE
105
68
330
A
100
AcDbSymbolTableRecord
100
AcDbDimStyleTableRecord
  2
AM_JIS$SH
 70
     0
  3

  4
"
  5

  6
GENAXEH
  7
OPEN30
 40
0.5
 41
2.5
 42
1.0
 43
10.0
 44
1.0
 45
0.0
 46
0.0
 47
0.1
 48
0.1
140
3.2
141
0.0
142
0.0
143
0.0393701
144
2.0
145
0.0
146
0.71
147
1.5
 71
     0
 72
     0
 73
     0
 74
     0
 75
     1
 76
     1
 77
     3
 78
     8
170
     0
171
     2
172
     1
173
     1
174
     0
175
     0
176
   256
177
   256
178
     2
270
     2
271
     2
272
     2
273
     2
274
     2
340
6B
275
     0
280
     0
281
     0
282
     0
283
     0
284
     0
285
     0
286
     0
287
     3
288
     0
  0
DIMSTYLE
105
B34
330
A
100
AcDbSymbolTableRecord
100
AcDbDimStyleTableRecord
  2
AM_JIS$2
 70
     0
  3

  4
"
  5
OPEN30
  6

  7

 40
0.5
 41
2.5
 42
1.0
 43
12.0
 44
1.0
 45
0.0
 46
0.0
 47
0.1
 48
0.1
140
3.2
141
0.0
142
0.0
143
0.0393701
144
1.0
145
0.0
146
0.71
147
1.5
 71
     0
 72
     0
 73
     0
 74
     0
 75
     0
 76
     0
 77
     3
 78
     8
170
     0
171
     2
172
     1
173
     0
174
     0
175
     0
176
   256
177
   256
178
     2
270
     2
271
     3
272
     3
273
     2
274
     2
340
6B
275
     0
280
     0
281
     0
282
     0
283
     0
284
     0
285
     0
286
     0
287
     3
288
     0
  0
ENDTAB
  0
TABLE
  2
BLOCK_RECORD
  5
1
330
0
100
AcDbSymbolTable
 70
     9
  0
BLOCK_RECORD
  5
1F
102
{ACAD_XDICTIONARY
360
74
102
}
330
1
100
AcDbSymbolTableRecord
100
AcDbBlockTableRecord
  2
*MODEL_SPACE
  0
BLOCK_RECORD
  5
101
102
{ACAD_XDICTIONARY
360
5772
102
}
330
1
100
AcDbSymbolTableRecord
100
AcDbBlockTableRecord
  2
*PAPER_SPACE
  0
BLOCK_RECORD
  5
59
330
1
100
AcDbSymbolTableRecord
100
AcDbBlockTableRecord
  2
_OPEN30
  0
BLOCK_RECORD
  5
64
330
1
100
AcDbSymbolTableRecord
100
AcDbBlockTableRecord
  2
GENAXEH
  0
BLOCK_RECORD
  5
10F1
330
1
100
AcDbSymbolTableRecord
100
AcDbBlockTableRecord
  2
*D5
  0
BLOCK_RECORD
  5
12D9
330
1
100
AcDbSymbolTableRecord
100
AcDbBlockTableRecord
  2
*D6
  0
BLOCK_RECORD
  5
1A74
330
1
100
AcDbSymbolTableRecord
100
AcDbBlockTableRecord
  2
*D7
  0
BLOCK_RECORD
  5
5554
330
1
100
AcDbSymbolTableRecord
100
AcDbBlockTableRecord
  2
*D8
  0
ENDTAB
  0
ENDSEC
  0
SECTION
  2
BLOCKS
  0
BLOCK
  5
20
330
1F
100
AcDbEntity
  8
0
100
AcDbBlockBegin
  2
*MODEL_SPACE
 70
     0
 10
0.0
 20
0.0
 30
0.0
  3
*MODEL_SPACE
  1

  0
ENDBLK
  5
21
330
1F
100
AcDbEntity
  8
0
100
AcDbBlockEnd
  0
BLOCK
  5
103
330
101
100
AcDbEntity
 67
     1
  8
0
100
AcDbBlockBegin
  2
*PAPER_SPACE
 70
     0
 10
0.0
 20
0.0
 30
0.0
  3
*PAPER_SPACE
  1

  0
ENDBLK
  5
104
330
101
100
AcDbEntity
 67
     1
  8
0
100
AcDbBlockEnd
  0
BLOCK
  5
5D
330
59
100
AcDbEntity
  8
0
100
AcDbBlockBegin
  2
_OPEN30
 70
     0
 10
0.0
 20
0.0
 30
0.0
  3
_OPEN30
  1

  0
LINE
  5
5A
330
59
100
AcDbEntity
  8
0
 62
     0
100
AcDbLine
 10
-1.0
 20
0.26794919
 30
0.0
 11
0.0
 21
0.0
 31
0.0
  0
LINE
  5
5B
330
59
100
AcDbEntity
  8
0
 62
     0
100
AcDbLine
 10
0.0
 20
0.0
 30
0.0
 11
-1.0
 21
-0.26794919
 31
0.0
  0
LINE
  5
5C
330
59
100
AcDbEntity
  8
0
 62
     0
100
AcDbLine
 10
0.0
 20
0.0
 30
0.0
 11
-1.0
 21
0.0
 31
0.0
  0
ENDBLK
  5
5E
330
59
100
AcDbEntity
  8
0
100
AcDbBlockEnd
  0
BLOCK
  5
66
330
64
100
AcDbEntity
  8
0
100
AcDbBlockBegin
  2
GENAXEH
 70
     0
 10
0.0
 20
0.0
 30
0.0
  3
GENAXEH
  1

  0
LINE
  5
65
330
64
100
AcDbEntity
  8
0
100
AcDbLine
 10
-1.0
 20
0.0
 30
0.0
 11
1.0
 21
0.0
 31
0.0
  0
ENDBLK
  5
67
330
64
100
AcDbEntity
  8
0
100
AcDbBlockEnd
  0
BLOCK
  5
10FB
330
10F1
100
AcDbEntity
  8
0
100
AcDbBlockBegin
  2
*D5
 70
     1
 10
0.0
 20
0.0
 30
0.0
  3
*D5
  1

  0
LINE
  5
5599
330
10F1
100
AcDbEntity
  8
AM_5
100
AcDbLine
 10
-50.0
 20
-3.000000000000008
 30
0.0
 11
-50.0
 21
-16.50000100000001
 31
0.0
  0
LINE
  5
559A
330
10F1
100
AcDbEntity
  8
AM_5
100
AcDbLine
 10
-0.0000000000002718
 20
-2.849999999999997
 30
0.0
 11
-0.0000000000002726
 21
-16.50000100000001
 31
0.0
  0
LINE
  5
559B
330
10F1
100
AcDbEntity
  8
AM_5
100
AcDbLine
 10
-48.75
 20
-16.00000100000001
 30
0.0
 11
-1.250000000000272
 21
-16.00000100000001
 31
0.0
  0
INSERT
  5
559C
330
10F1
100
AcDbEntity
  8
AM_5
100
AcDbBlockReference
  2
_OPEN30
 10
-50.0
 20
-16.00000100000001
 30
0.0
 41
1.25
 42
1.25
 43
1.25
 50
180.0
  0
INSERT
  5
559D
330
10F1
100
AcDbEntity
  8
AM_5
100
AcDbBlockReference
  2
_OPEN30
 10
-0.0000000000002726
 20
-16.00000100000001
 30
0.0
 41
1.25
 42
1.25
 43
1.25
  0
MTEXT
  5
559E
330
10F1
100
AcDbEntity
  8
AM_5
 62
     2
100
AcDbMText
 10
-25.00000000000013
 20
-14.45000100000001
 30
0.0
 40
1.6
 41
0.0
 71
     5
 72
     1
  1
50
  7
ASAMI
1001
ACAD
1000
MTEXTBEGIN
1070
    73
1070
     1
1070
    44
1040
1.0
1070
    74
1070
     0
1000
MTEXTEND
  0
POINT
  5
559F
330
10F1
100
AcDbEntity
  8
DEFPOINTS
 62
     0
100
AcDbPoint
 10
-50.0
 20
-2.500000000000008
 30
0.0
  0
POINT
  5
55A0
330
10F1
100
AcDbEntity
  8
DEFPOINTS
 62
     0
100
AcDbPoint
 10
-0.0000000000002718
 20
-2.349999999999997
 30
0.0
  0
POINT
  5
55A1
330
10F1
100
AcDbEntity
  8
DEFPOINTS
 62
     0
100
AcDbPoint
 10
-0.0000000000002726
 20
-16.00000100000001
 30
0.0
  0
ENDBLK
  5
10FC
330
10F1
100
AcDbEntity
  8
0
100
AcDbBlockEnd
  0
BLOCK
  5
12E5
330
12D9
100
AcDbEntity
  8
0
100
AcDbBlockBegin
  2
*D6
 70
     1
 10
0.0
 20
0.0
 30
0.0
  3
*D6
  1

  0
LINE
  5
55A2
330
12D9
100
AcDbEntity
  8
AM_5
100
AcDbLine
 10
-0.0000000000001333
 20
-2.849999999999997
 30
0.0
 11
-0.0000000000001337
 21
-10.50000100000002
 31
0.0
  0
LINE
  5
55A3
330
12D9
100
AcDbEntity
  8
AM_5
100
AcDbLine
 10
-12.00000000000009
 20
-2.850000000000062
 30
0.0
 11
-12.00000000000009
 21
-10.50000100000002
 31
0.0
  0
LINE
  5
55A4
330
12D9
100
AcDbEntity
  8
AM_5
100
AcDbLine
 10
-1.250000000000133
 20
-10.00000100000002
 30
0.0
 11
-10.75000000000009
 21
-10.00000100000002
 31
0.0
  0
INSERT
  5
55A5
330
12D9
100
AcDbEntity
  8
AM_5
100
AcDbBlockReference
  2
_OPEN30
 10
-0.0000000000001337
 20
-10.00000100000002
 30
0.0
 41
1.25
 42
1.25
 43
1.25
  0
INSERT
  5
55A6
330
12D9
100
AcDbEntity
  8
AM_5
100
AcDbBlockReference
  2
_OPEN30
 10
-12.00000000000009
 20
-10.00000100000002
 30
0.0
 41
1.25
 42
1.25
 43
1.25
 50
180.0
  0
MTEXT
  5
55A7
330
12D9
100
AcDbEntity
  8
AM_5
 62
     2
100
AcDbMText
 10
-6.000000000000112
 20
-8.450001000000026
 30
0.0
 40
1.6
 41
0.0
 71
     5
 72
     1
  1
12
  7
ASAMI
1001
ACAD
1000
MTEXTBEGIN
1070
    73
1070
     1
1070
    44
1040
1.0
1070
    74
1070
     0
1000
MTEXTEND
  0
POINT
  5
55A8
330
12D9
100
AcDbEntity
  8
DEFPOINTS
 62
     0
100
AcDbPoint
 10
-0.0000000000001332
 20
-2.349999999999997
 30
0.0
  0
POINT
  5
55A9
330
12D9
100
AcDbEntity
  8
DEFPOINTS
 62
     0
100
AcDbPoint
 10
-12.00000000000009
 20
-2.350000000000062
 30
0.0
  0
POINT
  5
55AA
330
12D9
100
AcDbEntity
  8
DEFPOINTS
 62
     0
100
AcDbPoint
 10
-12.00000000000009
 20
-10.00000100000002
 30
0.0
  0
ENDBLK
  5
12E6
330
12D9
100
AcDbEntity
  8
0
100
AcDbBlockEnd
  0
BLOCK
  5
1A7F
330
1A74
100
AcDbEntity
  8
0
100
AcDbBlockBegin
  2
*D7
 70
     1
 10
0.0
 20
0.0
 30
0.0
  3
*D7
  1

  0
LINE
  5
544B
330
1A74
100
AcDbEntity
  8
AM_5
100
AcDbLine
 10
-50.00000000000001
 20
2.999999999999993
 30
0.0
 11
-59.00000099999999
 21
2.999999999999996
 31
0.0
  0
LINE
  5
544C
330
1A74
100
AcDbEntity
  8
AM_5
100
AcDbLine
 10
-50.0
 20
-3.000000000000007
 30
0.0
 11
-59.00000099999999
 21
-3.000000000000005
 31
0.0
  0
LINE
  5
544D
330
1A74
100
AcDbEntity
  8
AM_5
100
AcDbLine
 10
-58.50000099999999
 20
4.249999999999995
 30
0.0
 11
-58.50000099999999
 21
5.499999999999995
 31
0.0
  0
LINE
  5
544E
330
1A74
100
AcDbEntity
  8
AM_5
100
AcDbLine
 10
-58.50000099999999
 20
-4.250000000000005
 30
0.0
 11
-58.50000099999999
 21
-5.500000000000005
 31
0.0
  0
LINE
  5
544F
330
1A74
100
AcDbEntity
  8
AM_5
100
AcDbLine
 10
-58.50000099999999
 20
2.999999999999995
 30
0.0
 11
-58.50000099999999
 21
-3.000000000000005
 31
0.0
  0
INSERT
  5
5450
330
1A74
100
AcDbEntity
  8
AM_5
100
AcDbBlockReference
  2
_OPEN30
 10
-58.50000099999999
 20
2.999999999999995
 30
0.0
 41
1.25
 42
1.25
 43
1.25
 50
270.0
  0
INSERT
  5
5451
330
1A74
100
AcDbEntity
  8
AM_5
100
AcDbBlockReference
  2
_OPEN30
 10
-58.50000099999999
 20
-3.000000000000005
 30
0.0
 41
1.25
 42
1.25
 43
1.25
 50
90.0
  0
MTEXT
  5
5452
330
1A74
100
AcDbEntity
  8
AM_5
 62
     2
100
AcDbMText
 10
-60.050001
 20
-0.0000000000000082
 30
0.0
 40
1.6
 41
0.0
 71
     5
 72
     1
  1
%%c6
  7
ASAMI
 11
0.0000000000000001
 21
1.0
 31
0.0
1001
ACAD
1000
MTEXTBEGIN
1070
    73
1070
     1
1070
    44
1040
1.0
1070
    74
1070
     0
1000
MTEXTEND
  0
POINT
  5
5453
330
1A74
100
AcDbEntity
  8
DEFPOINTS
 62
     0
100
AcDbPoint
 10
-49.50000000000001
 20
2.999999999999993
 30
0.0
  0
POINT
  5
5454
330
1A74
100
AcDbEntity
  8
DEFPOINTS
 62
     0
100
AcDbPoint
 10
-49.49999999999999
 20
-3.000000000000007
 30
0.0
  0
POINT
  5
5455
330
1A74
100
AcDbEntity
  8
DEFPOINTS
 62
     0
100
AcDbPoint
 10
-58.50000099999999
 20
-3.000000000000005
 30
0.0
  0
ENDBLK
  5
1A80
330
1A74
100
AcDbEntity
  8
0
100
AcDbBlockEnd
  0
BLOCK
  5
555F
330
5554
100
AcDbEntity
  8
0
100
AcDbBlockBegin
  2
*D8
 70
     1
 10
0.0
 20
0.0
 30
0.0
  3
*D8
  1

  0
LINE
  5
5586
330
5554
100
AcDbEntity
  8
AM_5
100
AcDbLine
 10
0.5
 20
2.35
 30
0.0
 11
9.551050680252128
 21
2.349999999999998
 31
0.0
  0
LINE
  5
5587
330
5554
100
AcDbEntity
  8
AM_5
100
AcDbLine
 10
0.4999999999998384
 20
-2.349999999999997
 30
0.0
 11
9.551050680252128
 21
-2.35
 31
0.0
  0
LINE
  5
5588
330
5554
100
AcDbEntity
  8
AM_5
100
AcDbLine
 10
9.051050680252128
 20
1.099999999999998
 30
0.0
 11
9.051050680252128
 21
-1.099999999999999
 31
0.0
  0
LINE
  5
5589
330
5554
100
AcDbEntity
  8
AM_5
100
AcDbLine
 10
9.051050680252128
 20
-2.35
 30
0.0
 11
9.051050680252126
 21
-9.9
 31
0.0
  0
INSERT
  5
558A
330
5554
100
AcDbEntity
  8
AM_5
100
AcDbBlockReference
  2
_OPEN30
 10
9.051050680252128
 20
2.349999999999998
 30
0.0
 41
1.25
 42
1.25
 43
1.25
 50
90.0
  0
INSERT
  5
558B
330
5554
100
AcDbEntity
  8
AM_5
100
AcDbBlockReference
  2
_OPEN30
 10
9.051050680252128
 20
-2.35
 30
0.0
 41
1.25
 42
1.25
 43
1.25
 50
270.0
  0
MTEXT
  5
558C
330
5554
100
AcDbEntity
  8
AM_5
 62
     2
100
AcDbMText
 10
7.501050680252127
 20
-6.749999999999999
 30
0.0
 40
1.6
 41
0.0
 71
     5
 72
     1
  1
%%c4.7
  7
ASAMI
 11
0.0000000000000001
 21
1.0
 31
0.0
1001
ACAD
1000
MTEXTBEGIN
1070
    73
1070
     1
1070
    44
1040
1.0
1070
    74
1070
     0
1000
MTEXTEND
  0
POINT
  5
558D
330
5554
100
AcDbEntity
  8
DEFPOINTS
 62
     0
100
AcDbPoint
 10
0.0
 20
2.35
 30
0.0
  0
POINT
  5
558E
330
5554
100
AcDbEntity
  8
DEFPOINTS
 62
     0
100
AcDbPoint
 10
-0.0000000000001616
 20
-2.349999999999997
 30
0.0
  0
POINT
  5
558F
330
5554
100
AcDbEntity
  8
DEFPOINTS
 62
     0
100
AcDbPoint
 10
9.051050680252128
 20
-2.35
 30
0.0
  0
ENDBLK
  5
5560
330
5554
100
AcDbEntity
  8
0
100
AcDbBlockEnd
  0
ENDSEC
  0
SECTION
  2
ENTITIES
  0
LINE
  5
C2E
330
1F
100
AcDbEntity
  8
AM_7
  6
AM_ISO08W050X2
100
AcDbLine
 10
2.051049680252134
 20
0.0
 30
0.0
 11
-51.5
 21
-0.0000000000000077
 31
0.0
  0
DIMENSION
  5
10F0
330
1F
100
AcDbEntity
  8
AM_5
100
AcDbDimension
  2
*D5
 10
-0.0000000000002726
 20
-16.00000100000001
 30
0.0
 11
-25.00000000000013
 21
-14.45000100000001
 31
0.0
 70
    32
  1
<>
  3
AM_JIS
100
AcDbAlignedDimension
 13
-50.0
 23
-2.500000000000008
 33
0.0
 14
-0.0000000000002718
 24
-2.349999999999997
 34
0.0
 50
0.0000000000001132
100
AcDbRotatedDimension
1001
GENIUS_GENDTOL_13
1000

1000
h7
1000

1040
0.0
  0
DIMENSION
  5
12D8
330
1F
100
AcDbEntity
  8
AM_5
100
AcDbDimension
  2
*D6
 10
-12.00000000000009
 20
-10.00000100000002
 30
0.0
 11
-6.000000000000112
 21
-8.450001000000026
 31
0.0
 70
    32
  1
<>
  3
AM_JIS
100
AcDbAlignedDimension
 13
-0.0000000000001332
 23
-2.349999999999997
 33
0.0
 14
-12.00000000000009
 24
-2.350000000000062
 34
0.0
 50
0.0000000000001132
100
AcDbRotatedDimension
1001
GENIUS_GENDTOL_13
1000

1000
h7
1000

1040
0.0
  0
TEXT
  5
1500
330
1F
100
AcDbEntity
  8
AM_6
100
AcDbText
 10
-33.21428571428583
 20
-27.25000100000001
 30
0.0
 40
2.5
  1
SSM2047
 72
     4
 11
-25.00000000000012
 21
-26.00000100000001
 31
0.0
100
AcDbText
  0
DIMENSION
  5
1A73
330
1F
100
AcDbEntity
  8
AM_5
100
AcDbDimension
  2
*D7
 10
-58.50000099999999
 20
-3.000000000000005
 30
0.0
 11
-58.50000099999999
 21
-0.0000000000000084
 31
0.0
 70
   160
  1
%%c<>
  3
AM_JIS
100
AcDbAlignedDimension
 13
-49.50000000000001
 23
2.999999999999993
 33
0.0
 14
-49.49999999999999
 24
-3.000000000000007
 34
0.0
 50
270.0
100
AcDbRotatedDimension
1001
GENIUS_GENDTOL_13
1000

1000
h7
1000

1040
0.0
  0
LINE
  5
3D3C
330
1F
100
AcDbEntity
  8
AM_0
100
AcDbLine
 10
-14.81855310340399
 20
2.349999999999924
 30
0.0
 11
-18.07416697507968
 21
2.349999999999853
 31
0.0
  0
LINE
  5
3D3F
330
1F
100
AcDbEntity
  8
AM_0
100
AcDbLine
 10
-18.07416697508021
 20
-2.35
 30
0.0
 11
-12.00000000000009
 21
-2.349999999999993
 31
0.0
  0
LINE
  5
3DAD
330
1F
100
AcDbEntity
  8
AM_0
100
AcDbLine
 10
-50.0
 20
-2.500000000000007
 30
0.0
 11
-50.00000000000001
 21
2.499999999999993
 31
0.0
  0
LINE
  5
3DAF
330
1F
100
AcDbEntity
  8
AM_0
100
AcDbLine
 10
-49.49999999999999
 20
-3.000000000000007
 30
0.0
 11
-20.5
 21
-3.000000000000003
 31
0.0
  0
LINE
  5
3DB0
330
1F
100
AcDbEntity
  8
AM_0
100
AcDbLine
 10
-49.50000000000001
 20
2.999999999999993
 30
0.0
 11
-20.5
 21
3.0
 31
0.0
  0
LINE
  5
3E60
330
1F
100
AcDbEntity
  8
AM_0
100
AcDbLine
 10
-20.5
 20
2.999999999999999
 30
0.0
 11
-18.07416697507968
 21
2.349999999999853
 31
0.0
  0
LINE
  5
3E62
330
1F
100
AcDbEntity
  8
AM_0
100
AcDbLine
 10
-18.07416697508021
 20
-2.35
 30
0.0
 11
-20.49999999999999
 21
-3.000000000000001
 31
0.0
  0
LINE
  5
403B
330
1F
100
AcDbEntity
  8
AM_0
100
AcDbLine
 10
-20.5
 20
-3.000000000000003
 30
0.0
 11
-20.5
 21
3.000000000000001
 31
0.0
  0
LINE
  5
409A
330
1F
100
AcDbEntity
  8
AM_0
100
AcDbLine
 10
-49.50000000000001
 20
2.999999999999993
 30
0.0
 11
-50.00000000000001
 21
2.499999999999993
 31
0.0
1001
GENIUS_GENFIL_13
1070
     0
1040
0.5
1040
0.5
1040
20.0
1040
0.0
1002
{
1002
}
1001
GENIUS_GENODEF_13
1002
{
1000
HIER
1070
     0
1002
}
1002
{
1000
MANEDIT
1070
     0
1002
}
1002
{
1000
NOSEL
1070
     0
1002
}
1002
{
1000
BEHIND
1070
     0
1002
}
1002
{
1000
REACTOR
1002
}
1001
GENIUS_GENOBJ-N-CHA_13
1002
{
1000
OWNER
1000
GEN
1002
}
  0
LINE
  5
409C
330
1F
100
AcDbEntity
  8
AM_0
100
AcDbLine
 10
-50.0
 20
-2.500000000000007
 30
0.0
 11
-49.49999999999999
 21
-3.000000000000007
 31
0.0
1001
GENIUS_GENFIL_13
1070
     0
1040
0.5
1040
0.5
1040
20.0
1040
0.0
1002
{
1002
}
1001
GENIUS_GENODEF_13
1002
{
1000
HIER
1070
     0
1002
}
1002
{
1000
MANEDIT
1070
     0
1002
}
1002
{
1000
NOSEL
1070
     0
1002
}
1002
{
1000
BEHIND
1070
     0
1002
}
1002
{
1000
REACTOR
1002
}
1001
GENIUS_GENOBJ-N-CHA_13
1002
{
1000
OWNER
1000
GEN
1002
}
  0
LINE
  5
409D
330
1F
100
AcDbEntity
  8
AM_0
100
AcDbLine
 10
-49.50000000000001
 20
2.999999999999993
 30
0.0
 11
-49.49999999999999
 21
-3.000000000000007
 31
0.0
  0
LINE
  5
4601
330
1F
100
AcDbEntity
  8
AM_0
100
AcDbLine
 10
-18.07416697507968
 20
2.349999999999853
 30
0.0
 11
-18.07416697508014
 21
-2.35
 31
0.0
  0
DIMENSION
  5
5553
330
1F
100
AcDbEntity
  8
AM_5
100
AcDbDimension
  2
*D8
 10
9.051050680252128
 20
-2.35
 30
0.0
 11
7.501050680252127
 21
-6.749999999999999
 31
0.0
 70
    32
  1
%%c<>
  3
AM_JIS
100
AcDbAlignedDimension
 13
0.0
 23
2.35
 33
0.0
 14
-0.0000000000001616
 24
-2.349999999999997
 34
0.0
 50
90.0
100
AcDbRotatedDimension
1001
GENIUS_GENDTOL_13
1000

1000
h7
1000

1040
0.0
  0
LINE
  5
5561
330
1F
100
AcDbEntity
  8
AM_0
100
AcDbLine
 10
-0.1342559409883748
 20
0.2819999999999853
 30
0.0
 11
0.0
 21
0.4700000000000046
 31
0.0
  0
LINE
  5
5562
330
1F
100
AcDbEntity
  8
AM_0
100
AcDbLine
 10
-0.0420000000000016
 20
-2.224717344082256
 30
0.0
 11
-0.1499999999999986
 21
-1.916763486721237
 31
0.0
  0
LINE
  5
5563
330
1F
100
AcDbEntity
  8
AM_0
100
AcDbLine
 10
-0.1499999999999986
 20
-1.916763486721237
 30
0.0
 11
-0.1499999999999986
 21
-1.891447052632328
 31
0.0
  0
LINE
  5
5564
330
1F
100
AcDbEntity
  8
AM_0
100
AcDbLine
 10
-0.0420000000000016
 20
-2.224717344082256
 30
0.0
 11
-0.0420000000000087
 21
0.1528130397945219
 31
0.0
  0
LINE
  5
5565
330
1F
100
AcDbEntity
  8
AM_0
100
AcDbLine
 10
0.0
 20
0.4700000000000046
 30
0.0
 11
0.0
 21
2.35
 31
0.0
  0
LINE
  5
5566
330
1F
100
AcDbEntity
  8
AM_0
100
AcDbLine
 10
0.0
 20
-2.349999999999997
 30
0.0
 11
0.0
 21
0.0939999999999951
 31
0.0
  0
LINE
  5
5567
330
1F
100
AcDbEntity
  8
AM_0
100
AcDbLine
 10
0.0
 20
-2.349999999999997
 30
0.0
 11
-0.0420000000000016
 21
-2.224717344082256
 31
0.0
  0
LINE
  5
5568
330
1F
100
AcDbEntity
  8
AM_0
100
AcDbLine
 10
-6.429976708201142
 20
-1.873613540545373
 30
0.0
 11
-10.31781906191669
 21
-2.166701444106907
 31
0.0
  0
LINE
  5
5569
330
1F
100
AcDbEntity
  8
AM_0
100
AcDbLine
 10
-7.636701826618939
 20
1.889800697994081
 30
0.0
 11
-0.9426288924087629
 21
1.413973108588197
 31
0.0
  0
LINE
  5
556B
330
1F
100
AcDbEntity
  8
AM_11
100
AcDbLine
 10
-11.99999147263158
 20
-2.349999999999993
 30
0.0
 11
-11.99999147263159
 21
2.349999999999993
 31
0.0
  0
LINE
  5
556D
330
1F
100
AcDbEntity
  8
AM_11
100
AcDbLine
 10
-0.0000000000003055
 20
2.35
 30
0.0
 11
-11.99999147263159
 21
2.349999999999986
 31
0.0
  0
LINE
  5
556E
330
1F
100
AcDbEntity
  8
AM_11
100
AcDbLine
 10
-12.00000000000009
 20
-2.349999999999993
 30
0.0
 11
0.0
 21
-2.349999999999997
 31
0.0
  0
LINE
  5
556F
330
1F
100
AcDbEntity
  8
AM_0
100
AcDbLine
 10
0.0
 20
0.0939999999999951
 30
0.0
 11
-0.9426288924087629
 21
1.413973108588197
 31
0.0
  0
SPLINE
  5
5570
330
1F
100
AcDbEntity
  8
AM_0
100
AcDbSpline
210
0.0
220
0.0
230
1.0
 70
     8
 71
     3
 72
     8
 73
     4
 74
     0
 42
0.0000000001
 43
0.0000000001
 40
6.225830728781539
 40
6.225830728781539
 40
6.225830728781539
 40
6.225830728781539
 40
7.218994763998551
 40
7.218994763998551
 40
7.218994763998551
 40
7.218994763998551
 10
-16.62112315453854
 20
0.3066053258222025
 30
0.0
 10
-16.55573465460969
 20
0.2193795443809032
 30
0.0
 10
-16.41816873557985
 20
0.1150538704180313
 30
0.0
 10
-16.18107189505512
 20
-0.0703666749423927
 30
0.0
  0
SPLINE
  5
5571
330
1F
100
AcDbEntity
  8
AM_0
100
AcDbSpline
210
0.0
220
0.0
230
1.0
 70
     8
 71
     3
 72
     8
 73
     4
 74
     0
 42
0.0000000001
 43
0.0000000001
 40
0.0
 40
0.0
 40
0.0
 40
0.0
 40
2.764560748519282
 40
2.764560748519282
 40
2.764560748519282
 40
2.764560748519282
 10
-11.99998379436929
 20
-2.349999999999996
 30
0.0
 10
-11.63137569456672
 20
-2.349999999999996
 30
0.0
 10
-11.26891905761592
 20
-2.308215814742089
 30
0.0
 10
-10.91143609619769
 20
-2.232647636168625
 30
0.0
  0
SPLINE
  5
5572
330
1F
100
AcDbEntity
  8
AM_0
100
AcDbSpline
210
0.0
220
0.0
230
1.0
 70
     8
 71
     3
 72
     8
 73
     4
 74
     0
 42
0.0000000001
 43
0.0000000001
 40
0.0
 40
0.0
 40
0.0
 40
0.0
 40
2.221495395472776
 40
2.221495395472776
 40
2.221495395472776
 40
2.221495395472776
 10
-11.19603663477702
 20
-2.240565591729628
 30
0.0
 10
-10.89983724871398
 20
-2.240565591729628
 30
0.0
 10
-10.60728615590015
 20
-2.214605777058909
 30
0.0
 10
-10.31781906190998
 20
-2.166701444105786
 30
0.0
  0
SPLINE
  5
5574
330
1F
100
AcDbEntity
  8
AM_0
100
AcDbSpline
210
0.0
220
0.0
230
1.0
 70
     8
 71
     3
 72
     8
 73
     4
 74
     0
 42
0.0000000001
 43
0.0000000001
 40
0.0
 40
0.0
 40
0.0
 40
0.0
 40
14.48999654934396
 40
14.48999654934396
 40
14.48999654934396
 40
14.48999654934396
 10
-10.88
 20
2.350000000000044
 30
0.0
 10
-8.94800046008747
 20
2.350000000000044
 30
0.0
 10
-7.194000230043734
 20
1.175000000000045
 30
0.0
 10
-5.439999999999997
 20
0.0000000000000472
 30
0.0
  0
SPLINE
  5
5575
330
1F
100
AcDbEntity
  8
AM_0
100
AcDbSpline
210
0.0
220
0.0
230
1.0
 70
     8
 71
     3
 72
     8
 73
     4
 74
     0
 42
0.0000000001
 43
0.0000000001
 40
5.297458184749251
 40
5.297458184749251
 40
5.297458184749251
 40
5.297458184749251
 40
7.218994763998551
 40
7.218994763998551
 40
7.218994763998551
 40
7.218994763998551
 10
-13.37438622769106
 20
0.6813167973154403
 30
0.0
 10
-12.81739199816697
 20
0.454593905285727
 30
0.0
 10
-12.34438339983946
 20
0.2098742274439073
 30
0.0
 10
-11.87137480151195
 20
-0.0348454503979377
 30
0.0
  0
SPLINE
  5
5576
330
1F
100
AcDbEntity
  8
AM_0
100
AcDbSpline
210
0.0
220
0.0
230
1.0
 70
     8
 71
     3
 72
     8
 73
     4
 74
     0
 42
0.0000000001
 43
0.0000000001
 40
0.0
 40
0.0
 40
0.0
 40
0.0
 40
3.000656968708724
 40
3.000656968708724
 40
3.000656968708724
 40
3.000656968708724
 10
-10.88
 20
2.349999999999993
 30
0.0
 10
-11.2800875958278
 20
2.349999999999993
 30
0.0
 10
-11.67254185432707
 20
2.299611201483449
 30
0.0
 10
-12.06944862195283
 20
2.2021418370364
 30
0.0
  0
SPLINE
  5
5577
330
1F
100
AcDbEntity
  8
AM_0
100
AcDbSpline
210
0.0
220
0.0
230
1.0
 70
     8
 71
     3
 72
     8
 73
     4
 74
     0
 42
0.0000000001
 43
0.0000000001
 40
0.0
 40
0.0
 40
0.0
 40
0.0
 40
13.29048144950164
 40
13.29048144950164
 40
13.29048144950164
 40
13.29048144950164
 10
-11.19603663477702
 20
-2.240565591729573
 30
0.0
 10
-12.96810082804391
 20
-2.240565591729577
 30
0.0
 10
-14.57458636154951
 20
-1.15546613333593
 30
0.0
 10
-16.18107189505512
 20
-0.0703666749422875
 30
0.0
  0
SPLINE
  5
5578
330
1F
100
AcDbEntity
  8
AM_0
100
AcDbSpline
210
0.0
220
0.0
230
1.0
 70
     8
 71
     3
 72
     8
 73
     4
 74
     0
 42
0.0000000001
 43
0.0000000001
 40
0.0
 40
0.0
 40
0.0
 40
0.0
 40
2.586565323616739
 40
2.586565323616739
 40
2.586565323616739
 40
2.586565323616739
 10
0.0
 20
1.915110262741461
 30
0.0
 10
-0.2213069522011821
 20
1.60431830219097
 30
0.0
 10
-0.6011678018864047
 20
1.470852684554443
 30
0.0
 10
-0.9426288924087629
 20
1.413973108588197
 30
0.0
  0
SPLINE
  5
5579
330
1F
100
AcDbEntity
  8
AM_0
100
AcDbSpline
210
0.0
220
0.0
230
1.0
 70
     8
 71
     3
 72
     8
 73
     4
 74
     0
 42
0.0000000001
 43
0.0000000001
 40
0.0
 40
0.0
 40
0.0
 40
0.0
 40
7.57842115059705
 40
7.57842115059705
 40
7.57842115059705
 40
7.57842115059705
 10
0.0
 20
2.35
 30
0.0
 10
-1.010456153412938
 20
2.35
 30
0.0
 10
-1.972222368198345
 20
2.028590451111719
 30
0.0
 10
-2.910763996225661
 20
1.553871940178219
 30
0.0
  0
SPLINE
  5
557A
330
1F
100
AcDbEntity
  8
AM_0
100
AcDbSpline
210
0.0
220
0.0
230
1.0
 70
     8
 71
     3
 72
     8
 73
     4
 74
     0
 42
0.0000000001
 43
0.0000000001
 40
0.0
 40
0.0
 40
0.0
 40
0.0
 40
2.238610194515266
 40
2.238610194515266
 40
2.238610194515266
 40
2.238610194515266
 10
-6.429976708201142
 20
-1.873613540545373
 30
0.0
 10
-5.477262254255165
 20
-1.855591712182665
 30
0.0
 10
-4.156784058937232
 20
-1.742969383877174
 30
0.0
 10
-2.884566221763506
 20
-1.565433313252392
 30
0.0
  0
SPLINE
  5
557B
330
1F
100
AcDbEntity
  8
AM_0
100
AcDbSpline
210
0.0
220
0.0
230
1.0
 70
     8
 71
     3
 72
     8
 73
     4
 74
     0
 42
0.0000000001
 43
0.0000000001
 40
4.219358800530717
 40
4.219358800530717
 40
4.219358800530717
 40
4.219358800530717
 40
14.36247867694493
 40
14.36247867694493
 40
14.36247867694493
 40
14.36247867694493
 10
-0.1499999999999773
 20
-1.916763486721128
 30
0.0
 10
-1.44843350275606
 20
-1.532645462093742
 30
0.0
 10
-2.693153415182969
 20
-0.7663227310468568
 30
0.0
 10
-3.937873327609885
 20
0.0000000000000254
 30
0.0
  0
SPLINE
  5
557C
330
1F
100
AcDbEntity
  8
AM_0
100
AcDbSpline
210
0.0
220
0.0
230
1.0
 70
     8
 71
     3
 72
     8
 73
     4
 74
     0
 42
0.0000000001
 43
0.0000000001
 40
0.3581103616548037
 40
0.3581103616548037
 40
0.3581103616548037
 40
0.3581103616548037
 40
14.43901837670146
 40
14.43901837670146
 40
14.43901837670146
 40
14.43901837670146
 10
-10.03888343972887
 20
2.277547348740746
 30
0.0
 10
-8.169445530586386
 20
2.22309483378501
 30
0.0
 10
-6.455633008894267
 20
1.111547416892514
 30
0.0
 10
-4.741820487202154
 20
0.0000000000000254
 30
0.0
  0
SPLINE
  5
557D
330
1F
100
AcDbEntity
  8
AM_0
100
AcDbSpline
210
0.0
220
0.0
230
1.0
 70
     8
 71
     3
 72
     8
 73
     4
 74
     0
 42
0.0000000001
 43
0.0000000001
 40
0.7142832446738512
 40
0.7142832446738512
 40
0.7142832446738512
 40
0.7142832446738512
 40
14.36247867694493
 40
14.36247867694493
 40
14.36247867694493
 40
14.36247867694493
 10
-9.093272788988429
 20
2.162280961217411
 30
0.0
 10
-7.287568654142404
 20
2.062269306673493
 30
0.0
 10
-5.612720990876141
 20
1.031134653336755
 30
0.0
 10
-3.937873327609885
 20
0.0000000000000254
 30
0.0
  0
SPLINE
  5
557E
330
1F
100
AcDbEntity
  8
AM_0
100
AcDbSpline
210
0.0
220
0.0
230
1.0
 70
     8
 71
     3
 72
     8
 73
     4
 74
     0
 42
0.0000000001
 43
0.0000000001
 40
0.0
 40
0.0
 40
0.0
 40
0.0
 40
14.48999654934396
 40
14.48999654934396
 40
14.48999654934396
 40
14.48999654934396
 10
0.0
 20
-2.349999999999997
 30
0.0
 10
-1.931999539912524
 20
-2.35
 30
0.0
 10
-3.685999769956261
 20
-1.175000000000002
 30
0.0
 10
-5.439999999999997
 20
-0.0000000000000036
 30
0.0
  0
SPLINE
  5
557F
330
1F
100
AcDbEntity
  8
AM_0
100
AcDbSpline
210
0.0
220
0.0
230
1.0
 70
     8
 71
     3
 72
     8
 73
     4
 74
     0
 42
0.0000000001
 43
0.0000000001
 40
1.870660592686466
 40
1.870660592686466
 40
1.870660592686466
 40
1.870660592686466
 40
14.43901837670146
 40
14.43901837670146
 40
14.43901837670146
 40
14.43901837670146
 10
-0.0419999999999945
 20
-2.224717344082231
 30
0.0
 10
-1.682385836491526
 20
-1.984293287687697
 30
0.0
 10
-3.21210316184684
 20
-0.9921466438438343
 30
0.0
 10
-4.741820487202154
 20
0.0000000000000254
 30
0.0
  0
SPLINE
  5
5580
330
1F
100
AcDbEntity
  8
AM_0
100
AcDbSpline
210
0.0
220
0.0
230
1.0
 70
     8
 71
     3
 72
     8
 73
     4
 74
     0
 42
0.0000000001
 43
0.0000000001
 40
0.0
 40
0.0
 40
0.0
 40
0.0
 40
14.15489169609656
 40
14.15489169609656
 40
14.15489169609656
 40
14.15489169609656
 10
-6.429976708201142
 20
-1.873613540545373
 30
0.0
 10
-8.317295601014013
 20
-1.873613540545373
 30
0.0
 10
-10.09433520126298
 20
-0.9542294954716064
 30
0.0
 10
-11.87137480151195
 20
-0.0348454503978325
 30
0.0
  0
ELLIPSE
  5
5581
330
1F
100
AcDbEntity
  8
AM_0
100
AcDbEllipse
 10
5.682707376953064
 20
0.0098875365029433
 30
0.0
 11
0.0000000000000627
 21
7.112284583258447
 31
0.0
210
0.0
220
0.0
230
1.0
 40
0.8510638297872489
 41
1.489874453283518
 42
1.841418545974807
  0
ELLIPSE
  5
5582
330
1F
100
AcDbEntity
  8
AM_0
100
AcDbEllipse
 10
-14.78983713832054
 20
-0.0038408782981474
 30
0.0
 11
1.577488047043804
 21
2.148709614234503
 31
0.0
210
0.0
220
0.0
230
0.9999999999999998
 40
0.6555849154225903
 41
1.214977287154263
 42
1.888816912723101
  0
ELLIPSE
  5
5583
330
1F
100
AcDbEntity
  8
AM_0
100
AcDbEllipse
 10
-2.271695973188432
 20
37.364468539542
 30
0.0
 11
8.093887160604403
 21
37.5999146373818
 31
0.0
210
0.0
220
0.0
230
0.9999999999999998
 40
0.6979820462659211
 41
2.890317192586874
 42
3.024569422014819
  0
ELLIPSE
  5
5584
330
1F
100
AcDbEntity
  8
AM_0
100
AcDbEllipse
 10
-14.40456695090698
 20
-22.38142234933382
 30
0.0
 11
-0.0000000000001586
 21
24.73620563453523
 31
0.0
210
0.0
220
0.0
230
1.0
 40
0.8510638297872372
 41
-0.439876678591676
 42
0.0196661158540315
  0
ELLIPSE
  5
5585
330
1F
100
AcDbEntity
  8
AM_0
100
AcDbEllipse
 10
-11.66939191894212
 20
5.321273682202711
 30
0.0
 11
0.0000000000000143
 21
7.68110211998898
 31
0.0
210
0.0
220
0.0
230
1.0
 40
0.8510638297872342
 41
2.282147587728569
 42
3.09099949491666
  0
VIEWPORT
  5
110
330
101
100
AcDbEntity
 67
     1
  8
0
100
AcDbViewport
 10
420.5
 20
297.0
 30
0.0
 40
948.9782706766916
 41
628.452
 68
     1
 69
     1
1001
ACAD
1000
MVIEW
1002
{
1070
    16
1010
0.0
1020
0.0
1030
0.0
1010
0.0
1020
0.0
1030
1.0
1040
0.0
1040
628.452
1040
420.5
1040
297.0
1040
50.0
1040
0.0
1040
0.0
1070
     0
1070
   100
1070
     1
1070
     1
1070
     0
1070
     0
1070
     0
1070
     0
1040
0.0
1040
0.0
1040
0.0
1040
10.0
1040
10.0
1040
10.0
1040
10.0
1070
     0
1002
{
1002
}
1002
}
  0
ENDSEC
  0
SECTION
  2
OBJECTS
  0
DICTIONARY
  5
C
330
0
100
AcDbDictionary
  3
ACAD_GROUP
350
D
  3
ACAD_LAYOUT
350
1A
  3
ACAD_MLINESTYLE
350
17
  3
ACAD_PLOTSETTINGS
350
19
  3
ACAD_PLOTSTYLENAME
350
E
  3
ACDBVARIABLEDICTIONARY
350
34
  3
ACMDICTIONARY
350
43
  3
AMG
350
2B
  3
AMGSNAPSETTINGS
350
6E
  3
ASE_INDEX_DICTIONARY
350
151A
  3
DWGPROPS
350
573E
  3
ACDBHEADERROUNDTRIPXREC
350
574A
  0
DICTIONARY
  5
74
330
1F
100
AcDbDictionary
280
     1
  3
ACAD_INDEX
360
5740
  3
ACAD_LAYOUTSELFREF
360
576D
  0
DICTIONARY
  5
5772
330
101
100
AcDbDictionary
280
     1
  3
ACAD_LAYOUTSELFREF
360
5773
  0
DICTIONARY
  5
D
102
{ACAD_REACTORS
330
C
102
}
330
C
100
AcDbDictionary
  0
DICTIONARY
  5
1A
102
{ACAD_REACTORS
330
C
102
}
330
C
100
AcDbDictionary
  0
DICTIONARY
  5
17
102
{ACAD_REACTORS
330
C
102
}
330
C
100
AcDbDictionary
  3
STANDARD
350
18
  0
DICTIONARY
  5
19
102
{ACAD_REACTORS
330
C
102
}
330
C
100
AcDbDictionary
  0
ACDBDICTIONARYWDFLT
  5
E
102
{ACAD_REACTORS
330
C
102
}
330
C
100
AcDbDictionary
281
     1
  3
Normal
350
F
100
AcDbDictionaryWithDefault
340
F
  0
DICTIONARY
  5
34
102
{ACAD_REACTORS
330
C
102
}
330
C
100
AcDbDictionary
  3
INDEXCTL
350
35
  3
SORTENTS
350
B5E
  0
DICTIONARY
  5
43
102
{ACAD_REACTORS
330
C
102
}
330
C
100
AcDbDictionary
  3
ACMSTDDICTIONARY
350
260
  0
DICTIONARY
  5
2B
102
{ACAD_REACTORS
330
C
102
}
330
C
100
AcDbDictionary
  3
ACMGSETTINGS
350
2C
  0
DICTIONARY
  5
6E
102
{ACAD_REACTORS
330
C
102
}
330
C
100
AcDbDictionary
  0
DICTIONARY
  5
151A
102
{ACAD_REACTORS
330
C
102
}
330
C
100
AcDbDictionary
  3
ASEBLOCKHIERARCHYINDEXRECORD
350
151C
1001
DCO15
1040
1471862535.906
  0
XRECORD
  5
573E
102
{ACAD_REACTORS
330
C
102
}
330
C
100
AcDbXrecord
  1
DWGPROPS COOKIE
  2

  3

  4

  6

  7

  8

  9

300
AmdtFileType=82
301
=
302
=
303
=
304
=
305
=
306
=
307
=
308
=
309
=
 40
0.2262228356481482
 41
2452838.430434386
 42
2453045.603254282
  1

 90
        1
  0
DICTIONARY
  5
574A
102
{ACAD_REACTORS
330
C
102
}
330
C
100
AcDbDictionary
  3
TSTACKALIGN
350
574B
  3
TSTACKSIZE
350
574C
  3
HYPERLINKBASE
350
574D
  3
STYLESHEET
350
574E
  3
LAYOUTDICT
350
574F
  3
PLOTSETDICT
350
5750
  3
PLOTSTYLNAMDICT
350
5751
  3
LWETCUNION
350
5752
  3
INSUNITS
350
5753
  3
CEPSNTYPE
350
5754
  3
FINGERPRINTGUID
350
5755
  3
VERSIONGUID
350
5756
  3
PSVPSCALE
350
5757
  3
DIMSTYLEDATA
350
5758
  3
PUCSORTHOREF
350
5759
  3
PUCSORTHOVIEW
350
575A
  3
PUCSBASE
350
575B
  3
PUCSORGTOP
350
575C
  3
PUCSORGBOTTOM
350
575D
  3
PUCSORGLEFT
350
575E
  3
PUCSORGRIGHT
350
575F
  3
PUCSORGFRONT
350
5760
  3
PUCSORGBACK
350
5761
  3
UCSORTHOREF
350
5762
  3
UCSORTHOVIEW
350
5763
  3
UCSBASE
350
5764
  3
UCSORGTOP
350
5765
  3
UCSORGBOTTOM
350
5766
  3
UCSORGLEFT
350
5767
  3
UCSORGRIGHT
350
5768
  3
UCSORGFRONT
350
5769
  3
UCSORGBACK
350
576A
  0
DICTIONARY
  5
5740
102
{ACAD_REACTORS
330
74
102
}
330
74
100
AcDbDictionary
  3
*A1
350
5741
  0
XRECORD
  5
576D
102
{ACAD_REACTORS
330
74
102
}
330
74
100
AcDbXrecord
340
1F
  0
XRECORD
  5
5773
102
{ACAD_REACTORS
330
5772
102
}
330
5772
100
AcDbXrecord
340
101
  0
MLINESTYLE
  5
18
102
{ACAD_REACTORS
330
17
102
}
330
17
100
AcDbMlineStyle
  2
STANDARD
 70
     0
  3

 62
   256
 51
90.0
 52
90.0
 71
     2
 49
0.5
 62
   256
  6
BYLAYER
 49
-0.5
 62
   256
  6
BYLAYER
  0
ACDBPLACEHOLDER
  5
F
102
{ACAD_REACTORS
330
E
102
}
330
E
100
AcDbPlaceHolder
280
     0
  0
DICTIONARYVAR
  5
35
102
{ACAD_REACTORS
330
34
102
}
330
34
100
DictionaryVariables
280
     0
  1
1
  0
DICTIONARYVAR
  5
B5E
102
{ACAD_REACTORS
330
34
102
}
330
34
100
DictionaryVariables
280
     0
  1
96
  0
DICTIONARY
  5
260
102
{ACAD_REACTORS
330
43
102
}
330
43
100
AcDbDictionary
  0
DICTIONARY
  5
2C
102
{ACAD_REACTORS
330
2B
102
}
330
2B
100
AcDbDictionary
  3
DWGSETTINGS
350
2D
  0
XRECORD
  5
151C
102
{ACAD_REACTORS
330
151A
102
}
330
151A
100
AcDbXrecord
330
0
330
0
330
0
330
0
330
0
330
0
330
0
330
0
  0
XRECORD
  5
574B
102
{ACAD_REACTORS
330
574A
102
}
330
574A
100
AcDbXrecord
 90
        1
  0
XRECORD
  5
574C
102
{ACAD_REACTORS
330
574A
102
}
330
574A
100
AcDbXrecord
 90
       70
  0
XRECORD
  5
574D
102
{ACAD_REACTORS
330
574A
102
}
330
574A
100
AcDbXrecord
  1

  0
XRECORD
  5
574E
102
{ACAD_REACTORS
330
574A
102
}
330
574A
100
AcDbXrecord
  1
ASAMI.ctb
  0
XRECORD
  5
574F
102
{ACAD_REACTORS
330
574A
102
}
330
574A
100
AcDbXrecord
340
1A
  0
XRECORD
  5
5750
102
{ACAD_REACTORS
330
574A
102
}
330
574A
100
AcDbXrecord
340
19
  0
XRECORD
  5
5751
102
{ACAD_REACTORS
330
574A
102
}
330
574A
100
AcDbXrecord
340
E
  0
XRECORD
  5
5752
102
{ACAD_REACTORS
330
574A
102
}
330
574A
100
AcDbXrecord
 90
    10781
  0
XRECORD
  5
5753
102
{ACAD_REACTORS
330
574A
102
}
330
574A
100
AcDbXrecord
 90
        4
  0
XRECORD
  5
5754
102
{ACAD_REACTORS
330
574A
102
}
330
574A
100
AcDbXrecord
 90
        0
  0
XRECORD
  5
5755
102
{ACAD_REACTORS
330
574A
102
}
330
574A
100
AcDbXrecord
  1
{AFB28963-8C59-40AE-9337-C84526B81ACE}
  0
XRECORD
  5
5756
102
{ACAD_REACTORS
330
574A
102
}
330
574A
100
AcDbXrecord
  1
{D5401AA7-773E-4A6B-8C24-EE9AEE3162F4}
  0
XRECORD
  5
5757
102
{ACAD_REACTORS
330
574A
102
}
330
574A
100
AcDbXrecord
 40
0.0
  0
XRECORD
  5
5758
102
{ACAD_REACTORS
330
574A
102
}
330
574A
100
AcDbXrecord
1000
DSTYLE
1002
{
1070
    79
 70
     2
1070
   341
340
59
1070
   342
340
59
1070
   371
 70
    -1
1070
   372
 70
    -1
1002
}
  0
XRECORD
  5
5759
102
{ACAD_REACTORS
330
574A
102
}
330
574A
100
AcDbXrecord
340
0
  0
XRECORD
  5
575A
102
{ACAD_REACTORS
330
574A
102
}
330
574A
100
AcDbXrecord
 70
     0
  0
XRECORD
  5
575B
102
{ACAD_REACTORS
330
574A
102
}
330
574A
100
AcDbXrecord
340
0
  0
XRECORD
  5
575C
102
{ACAD_REACTORS
330
574A
102
}
330
574A
100
AcDbXrecord
 10
0.0
 20
0.0
 30
0.0
  0
XRECORD
  5
575D
102
{ACAD_REACTORS
330
574A
102
}
330
574A
100
AcDbXrecord
 10
0.0
 20
0.0
 30
0.0
  0
XRECORD
  5
575E
102
{ACAD_REACTORS
330
574A
102
}
330
574A
100
AcDbXrecord
 10
0.0
 20
0.0
 30
0.0
  0
XRECORD
  5
575F
102
{ACAD_REACTORS
330
574A
102
}
330
574A
100
AcDbXrecord
 10
0.0
 20
0.0
 30
0.0
  0
XRECORD
  5
5760
102
{ACAD_REACTORS
330
574A
102
}
330
574A
100
AcDbXrecord
 10
0.0
 20
0.0
 30
0.0
  0
XRECORD
  5
5761
102
{ACAD_REACTORS
330
574A
102
}
330
574A
100
AcDbXrecord
 10
0.0
 20
0.0
 30
0.0
  0
XRECORD
  5
5762
102
{ACAD_REACTORS
330
574A
102
}
330
574A
100
AcDbXrecord
340
0
  0
XRECORD
  5
5763
102
{ACAD_REACTORS
330
574A
102
}
330
574A
100
AcDbXrecord
 70
     0
  0
XRECORD
  5
5764
102
{ACAD_REACTORS
330
574A
102
}
330
574A
100
AcDbXrecord
340
0
  0
XRECORD
  5
5765
102
{ACAD_REACTORS
330
574A
102
}
330
574A
100
AcDbXrecord
 10
0.0
 20
0.0
 30
0.0
  0
XRECORD
  5
5766
102
{ACAD_REACTORS
330
574A
102
}
330
574A
100
AcDbXrecord
 10
0.0
 20
0.0
 30
0.0
  0
XRECORD
  5
5767
102
{ACAD_REACTORS
330
574A
102
}
330
574A
100
AcDbXrecord
 10
0.0
 20
0.0
 30
0.0
  0
XRECORD
  5
5768
102
{ACAD_REACTORS
330
574A
102
}
330
574A
100
AcDbXrecord
 10
0.0
 20
0.0
 30
0.0
  0
XRECORD
  5
5769
102
{ACAD_REACTORS
330
574A
102
}
330
574A
100
AcDbXrecord
 10
0.0
 20
0.0
 30
0.0
  0
XRECORD
  5
576A
102
{ACAD_REACTORS
330
574A
102
}
330
574A
100
AcDbXrecord
 10
0.0
 20
0.0
 30
0.0
  0
LAYER_INDEX
  5
5741
102
{ACAD_REACTORS
330
5740
102
}
330
5740
100
AcDbIndex
 40
2453151.824878923
100
AcDbLayerIndex
  8
0
360
5742
 90
        0
  8
AM_0
360
5743
 90
       43
  8
AM_11
360
5744
 90
        3
  8
AM_7
360
5745
 90
        1
  8
AM_5
360
5746
 90
        4
  8
Defpoints
360
5747
 90
        0
  8
AM_6
360
5748
 90
        1
  0
XRECORD
  5
2D
102
{ACAD_REACTORS
330
2C
102
}
330
2C
100
AcDbXrecord
  1
VERSION
140
15.0
  1
PRODUCT
  2
AutoCAD Mechanical 2000
  0
IDBUFFER
  5
5742
330
0
100
AcDbIdBuffer
  0
IDBUFFER
  5
5743
330
0
100
AcDbIdBuffer
330
5565
330
5566
330
5567
330
5568
330
5569
330
556F
330
5570
330
5571
330
5572
330
5574
330
5575
330
5576
330
5577
330
5578
330
5579
330
557A
330
557B
330
557C
330
557D
330
557E
330
557F
330
5580
330
5581
330
5582
330
5583
330
5584
330
5585
330
3D3C
330
3D3F
330
3DAD
330
3DAF
330
3DB0
330
3E60
330
3E62
330
403B
330
409A
330
409C
330
409D
330
4601
330
5561
330
5562
330
5563
330
5564
  0
IDBUFFER
  5
5744
330
0
100
AcDbIdBuffer
330
556B
330
556D
330
556E
  0
IDBUFFER
  5
5745
330
0
100
AcDbIdBuffer
330
C2E
  0
IDBUFFER
  5
5746
330
0
100
AcDbIdBuffer
330
10F0
330
12D8
330
1A73
330
5553
  0
IDBUFFER
  5
5747
330
0
100
AcDbIdBuffer
  0
IDBUFFER
  5
5748
330
0
100
AcDbIdBuffer
330
1500
  0
ENDSEC
  0
EOF
