  0
SECTION
  2
HEADER
  9
$ACADVER
  1
AC1014
  9
$ACADMAINTVER
 70
     9
  9
$DWGCODEPAGE
  3
ANSI_932
  9
$INSBASE
 10
0.0
 20
0.0
 30
0.0
  9
$EXTMIN
 10
-60.850001
 20
-28.25000099999996
 30
-0.00000001
  9
$EXTMAX
 10
9.551050680252128
 20
4.000000000000002
 30
0.00000001
  9
$LIMMIN
 10
-64.36162107333377
 20
-32.27695068146948
  9
$LIMMAX
 10
18.38157452220912
 20
20.75029058852245
  9
$ORTHOMODE
 70
     0
  9
$REGENMODE
 70
     1
  9
$FILLMODE
 70
     1
  9
$QTEXTMODE
 70
     0
  9
$MIRRTEXT
 70
     0
  9
$DRAGMODE
 70
     2
  9
$LTSCALE
 40
1.0
  9
$OSMODE
 70
    55
  9
$ATTMODE
 70
     1
  9
$TEXTSIZE
 40
2.5
  9
$TRACEWID
 40
1.0
  9
$TEXTSTYLE
  7
STANDARD
  9
$CLAYER
  8
AM_0
  9
$CELTYPE
  6
BYLAYER
  9
$CECOLOR
 62
   256
  9
$CELTSCALE
 40
1.0
  9
$DELOBJ
 70
     1
  9
$DISPSILH
 70
     0
  9
$DIMSCALE
 40
0.5
  9
$DIMASZ
 40
2.5
  9
$DIMEXO
 40
1.0
  9
$DIMDLI
 40
12.0
  9
$DIMRND
 40
0.0
  9
$DIMDLE
 40
0.0
  9
$DIMEXE
 40
1.0
  9
$DIMTP
 40
0.1
  9
$DIMTM
 40
0.1
  9
$DIMTXT
 40
3.2
  9
$DIMCEN
 40
0.0
  9
$DIMTSZ
 40
0.0
  9
$DIMTOL
 70
     0
  9
$DIMLIM
 70
     0
  9
$DIMTIH
 70
     0
  9
$DIMTOH
 70
     0
  9
$DIMSE1
 70
     0
  9
$DIMSE2
 70
     0
  9
$DIMTAD
 70
     3
  9
$DIMZIN
 70
     8
  9
$DIMBLK
  1
OPEN30
  9
$DIMASO
 70
     1
  9
$DIMSHO
 70
     1
  9
$DIMPOST
  1

  9
$DIMAPOST
  1
"
  9
$DIMALT
 70
     0
  9
$DIMALTD
 70
     2
  9
$DIMALTF
 40
0.0393701
  9
$DIMLFAC
 40
1.0
  9
$DIMTOFL
 70
     1
  9
$DIMTVP
 40
0.0
  9
$DIMTIX
 70
     0
  9
$DIMSOXD
 70
     0
  9
$DIMSAH
 70
     0
  9
$DIMBLK1
  1

  9
$DIMBLK2
  1

  9
$DIMSTYLE
  2
AM_JIS
  9
$DIMCLRD
 70
   256
  9
$DIMCLRE
 70
   256
  9
$DIMCLRT
 70
     2
  9
$DIMTFAC
 40
0.71
  9
$DIMGAP
 40
1.5
  9
$DIMJUST
 70
     0
  9
$DIMSD1
 70
     0
  9
$DIMSD2
 70
     0
  9
$DIMTOLJ
 70
     0
  9
$DIMTZIN
 70
     0
  9
$DIMALTZ
 70
     0
  9
$DIMALTTZ
 70
     0
  9
$DIMFIT
 70
     3
  9
$DIMUPT
 70
     0
  9
$DIMUNIT
 70
     2
  9
$DIMDEC
 70
     3
  9
$DIMTDEC
 70
     3
  9
$DIMALTU
 70
     2
  9
$DIMALTTD
 70
     2
  9
$DIMTXSTY
  7
ASAMI
  9
$DIMAUNIT
 70
     0
  9
$LUNITS
 70
     2
  9
$LUPREC
 70
     2
  9
$SKETCHINC
 40
1.0
  9
$FILLETRAD
 40
2.5
  9
$AUNITS
 70
     0
  9
$AUPREC
 70
     0
  9
$MENU
  1
.
  9
$ELEVATION
 40
0.0
  9
$PELEVATION
 40
0.0
  9
$THICKNESS
 40
0.0
  9
$LIMCHECK
 70
     0
  9
$BLIPMODE
 70
     0
  9
$CHAMFERA
 40
0.5
  9
$CHAMFERB
 40
0.5
  9
$CHAMFERC
 40
20.0
  9
$CHAMFERD
 40
0.0
  9
$SKPOLY
 70
     0
  9
$TDCREATE
 40
2452838.430434386
  9
$TDUPDATE
 40
2453151.808296099
  9
$TDINDWG
 40
0.3326487847
  9
$TDUSRTIMER
 40
0.3326487847
  9
$USRTIMER
 70
     1
  9
$ANGBASE
 50
0.0
  9
$ANGDIR
 70
     0
  9
$PDMODE
 70
     0
  9
$PDSIZE
 40
0.0
  9
$PLINEWID
 40
0.0
  9
$COORDS
 70
     1
  9
$SPLFRAME
 70
     0
  9
$SPLINETYPE
 70
     6
  9
$SPLINESEGS
 70
     8
  9
$ATTDIA
 70
     1
  9
$ATTREQ
 70
     1
  9
$HANDLING
 70
 12289
  9
$HANDSEED
  5
79FA
  9
$SURFTAB1
 70
     6
  9
$SURFTAB2
 70
     6
  9
$SURFTYPE
 70
     6
  9
$SURFU
 70
     6
  9
$SURFV
 70
     6
  9
$UCSNAME
  2

  9
$UCSORG
 10
0.0
 20
0.0
 30
0.0
  9
$UCSXDIR
 10
1.0
 20
0.0
 30
0.0
  9
$UCSYDIR
 10
0.0
 20
1.0
 30
0.0
  9
$PUCSNAME
  2

  9
$PUCSORG
 10
0.0
 20
0.0
 30
0.0
  9
$PUCSXDIR
 10
1.0
 20
0.0
 30
0.0
  9
$PUCSYDIR
 10
0.0
 20
1.0
 30
0.0
  9
$USERI1
 70
     0
  9
$USERI2
 70
     0
  9
$USERI3
 70
     0
  9
$USERI4
 70
     0
  9
$USERI5
 70
     0
  9
$USERR1
 40
0.0
  9
$USERR2
 40
0.0
  9
$USERR3
 40
0.0
  9
$USERR4
 40
0.0
  9
$USERR5
 40
0.0
  9
$WORLDVIEW
 70
     1
  9
$SHADEDGE
 70
     3
  9
$SHADEDIF
 70
    70
  9
$TILEMODE
 70
     1
  9
$MAXACTVP
 70
    64
  9
$PINSBASE
 10
0.0
 20
0.0
 30
0.0
  9
$PLIMCHECK
 70
     0
  9
$PEXTMIN
 10
1.000000000000000E+20
 20
1.000000000000000E+20
 30
1.000000000000000E+20
  9
$PEXTMAX
 10
-1.000000000000000E+20
 20
-1.000000000000000E+20
 30
-1.000000000000000E+20
  9
$PLIMMIN
 10
0.0
 20
0.0
  9
$PLIMMAX
 10
841.0
 20
594.0
  9
$UNITMODE
 70
     0
  9
$VISRETAIN
 70
     1
  9
$PLINEGEN
 70
     0
  9
$PSLTSCALE
 70
     0
  9
$TREEDEPTH
 70
  3020
  9
$PICKSTYLE
 70
     0
  9
$CMLSTYLE
  2
STANDARD
  9
$CMLJUST
 70
     0
  9
$CMLSCALE
 40
20.0
  9
$PROXYGRAPHICS
 70
     1
  9
$MEASUREMENT
 70
     1
  0
ENDSEC
  0
SECTION
  2
CLASSES
  0
CLASS
  1
ACDBDICTIONARYWDFLT
  2
AcDbDictionaryWithDefault
  3
AutoCAD 2000
 90
        0
280
     0
281
     0
  0
CLASS
  1
ACDBPLACEHOLDER
  2
AcDbPlaceHolder
  3
AutoCAD 2000
 90
        0
280
     0
281
     0
  0
CLASS
  1
LAYOUT
  2
AcDbLayout
  3
AutoCAD 2000
 90
        0
280
     0
281
     0
  0
CLASS
  1
AMGSETTINGSOBJ
  2
AmgSettingsObj
  3
"AcadM|Product Description: AutoCAD Mechanical 2000|Company: Autodesk"
 90
        0
280
     0
281
     0
  0
CLASS
  1
ACME_DOCUMENT
  2
AcMeDbDoc
  3
AcMeServices
 90
        0
280
     0
281
     0
  0
CLASS
  1
ACMESCOPE
  2
AcMeScope
  3
AcMeServices
 90
        0
280
     0
281
     0
  0
CLASS
  1
ACMECOMMANDHISTORY
  2
AcMeCommandHistory
  3
AcMeServices
 90
        0
280
     0
281
     0
  0
CLASS
  1
DICTIONARYVAR
  2
AcDbDictionaryVar
  3
AutoCAD 2000
 90
        0
280
     0
281
     0
  0
CLASS
  1
ACIMSYSVARMAN
  2
AcImSysVarManager
  3
AcMeServices
 90
        0
280
     0
281
     0
  0
CLASS
  1
ACIMREALSYSVAR
  2
AcImRealSysVar
  3
AcMeServices
 90
        0
280
     0
281
     0
  0
CLASS
  1
ACIMINTSYSVAR
  2
AcImIntSysVar
  3
AcMeServices
 90
        0
280
     0
281
     0
  0
CLASS
  1
ACMEDRAWINGMAN
  2
AcMeDrawingMan
  3
AcMeServices
 90
        0
280
     0
281
     0
  0
CLASS
  1
ACMEVIEW
  2
AcMeView
  3
AcMeServices
 90
        0
280
     0
281
     0
  0
CLASS
  1
ACDBENTITYCACHE
  2
AcMeEntityCache
  3
AcMeServices
 90
        0
280
     0
281
     0
  0
CLASS
  1
GSMANAGER
  2
AcMeGSManager
  3
AcMeServices
 90
        0
280
     0
281
     0
  0
CLASS
  1
AmdtInternalReactor
  2
AmdtInternalReactor
  3
AcMeServices
 90
        0
280
     0
281
     0
  0
CLASS
  1
ACMESTATEMGR
  2
AcMeStateMgr
  3
AcMeServices
 90
        0
280
     0
281
     0
  0
CLASS
  1
ACME_DATABASE
  2
AcMeDbDatabase
  3
AcMeServices
 90
        0
280
     0
281
     0
  0
CLASS
  1
ACRFINSADJUSTERMGR
  2
AcRfInsAdjusterMgr
  3
AcMeServices
 90
        0
280
     0
281
     0
  0
CLASS
  1
ACMDATADICTIONARY
  2
AcmDataDictionary
  3
"AcmSymBB|Product Description: AutoCAD Mechanical 2000|Company: Autodesk"
 90
        0
280
     0
281
     0
  0
CLASS
  1
ACMDATAENTRYBLOCK
  2
AcmDataEntryBlock
  3
"AcmSymBB|Product Description: AutoCAD Mechanical 2000|Company: Autodesk"
 90
        0
280
     0
281
     0
  0
CLASS
  1
AMGOBJPROPCFG
  2
AmgObjPropCfg
  3
"AmgLay|Product Description: AutoCAD Mechanical 2000|Company: Autodesk"
 90
        1
280
     0
281
     0
  0
CLASS
  1
ACAMGFILTERDAT
  2
AcAmgFilterDat
  3
"AcadM|Product Description: AutoCAD Mechanical 2000|Company: Autodesk"
 90
        0
280
     0
281
     0
  0
CLASS
  1
LAYER_INDEX
  2
AcDbLayerIndex
  3
AutoCAD 2000
 90
        0
280
     0
281
     0
  0
CLASS
  1
IDBUFFER
  2
AcDbIdBuffer
  3
AutoCAD 2000
 90
        0
280
     0
281
     0
  0
CLASS
  1
ACIMSTRSYSVAR
  2
AcImStrSysVar
  3
AcMeServices
 90
        0
280
     0
281
     0
  0
CLASS
  1
ACMSTANDARDJIS
  2
AcmStandardJIS
  3
"AcmSymBB|Product Description: AutoCAD Mechanical 2000|Company: Autodesk"
 90
        0
280
     0
281
     0
  0
CLASS
  1
ACMSURFSTANDARDJIS
  2
AcmSurfTextStdJIS
  3
"AcmSymBB|Product Description: AutoCAD Mechanical 2000|Company: Autodesk"
 90
        0
280
     0
281
     0
  0
CLASS
  1
ACMFCFSTANDARDJIS
  2
AcmFCFStdJIS
  3
"AcmSymBB|Product Description: AutoCAD Mechanical 2000|Company: Autodesk"
 90
        0
280
     0
281
     0
  0
CLASS
  1
ACMWELDSTANDARDJIS
  2
AcmWeldingStdJIS
  3
"AcmSymBB|Product Description: AutoCAD Mechanical 2000|Company: Autodesk"
 90
        0
280
     0
281
     0
  0
CLASS
  1
ACMIDSTANDARDJIS
  2
AcmIdStdJIS
  3
"AcmSymBB|Product Description: AutoCAD Mechanical 2000|Company: Autodesk"
 90
        0
280
     0
281
     0
  0
CLASS
  1
ACMDATUMSTANDARDJIS
  2
AcmDatumStdJIS
  3
"AcmSymBB|Product Description: AutoCAD Mechanical 2000|Company: Autodesk"
 90
        0
280
     0
281
     0
  0
CLASS
  1
ACMBOMSTANDARDJIS
  2
AcmBOMStdJIS
  3
"AcmSymBB|Product Description: AutoCAD Mechanical 2000|Company: Autodesk"
 90
        0
280
     0
281
     0
  0
CLASS
  1
ACMSTANDARDANSI
  2
AcmStandardANSI
  3
"AcmSymBB|Product Description: AutoCAD Mechanical 2000|Company: Autodesk"
 90
        0
280
     0
281
     0
  0
CLASS
  1
ACMSURFSTANDARDANSI
  2
AcmSurfTextStdANSI
  3
"AcmSymBB|Product Description: AutoCAD Mechanical 2000|Company: Autodesk"
 90
        0
280
     0
281
     0
  0
CLASS
  1
ACMFCFSTANDARDANSI
  2
AcmFCFStdANSI
  3
"AcmSymBB|Product Description: AutoCAD Mechanical 2000|Company: Autodesk"
 90
        0
280
     0
281
     0
  0
CLASS
  1
ACMWELDSTANDARDANSI
  2
AcmWeldingStdANSI
  3
"AcmSymBB|Product Description: AutoCAD Mechanical 2000|Company: Autodesk"
 90
        0
280
     0
281
     0
  0
CLASS
  1
ACMIDSTANDARDANSI
  2
AcmIdStdANSI
  3
"AcmSymBB|Product Description: AutoCAD Mechanical 2000|Company: Autodesk"
 90
        0
280
     0
281
     0
  0
CLASS
  1
ACMDATUMSTANDARDANSI
  2
AcmDatumStdANSI
  3
"AcmSymBB|Product Description: AutoCAD Mechanical 2000|Company: Autodesk"
 90
        0
280
     0
281
     0
  0
CLASS
  1
ACMBOMSTANDARDANSI
  2
AcmBOMStdANSI
  3
"AcmSymBB|Product Description: AutoCAD Mechanical 2000|Company: Autodesk"
 90
        0
280
     0
281
     0
  0
CLASS
  1
ACMSTANDARDBSI
  2
AcmStandardBSI
  3
"AcmSymBB|Product Description: AutoCAD Mechanical 2000|Company: Autodesk"
 90
        0
280
     0
281
     0
  0
CLASS
  1
ACMSURFSTANDARDBSI
  2
AcmSurfTextStdBSI
  3
"AcmSymBB|Product Description: AutoCAD Mechanical 2000|Company: Autodesk"
 90
        0
280
     0
281
     0
  0
CLASS
  1
ACMFCFSTANDARDBSI
  2
AcmFCFStdBSI
  3
"AcmSymBB|Product Description: AutoCAD Mechanical 2000|Company: Autodesk"
 90
        0
280
     0
281
     0
  0
CLASS
  1
ACMWELDSTANDARDBSI
  2
AcmWeldingStdBSI
  3
"AcmSymBB|Product Description: AutoCAD Mechanical 2000|Company: Autodesk"
 90
        0
280
     0
281
     0
  0
CLASS
  1
ACMIDSTANDARDBSI
  2
AcmIdStdBSI
  3
"AcmSymBB|Product Description: AutoCAD Mechanical 2000|Company: Autodesk"
 90
        0
280
     0
281
     0
  0
CLASS
  1
ACMDATUMSTANDARDBSI
  2
AcmDatumStdBSI
  3
"AcmSymBB|Product Description: AutoCAD Mechanical 2000|Company: Autodesk"
 90
        0
280
     0
281
     0
  0
CLASS
  1
ACMBOMSTANDARDBSI
  2
AcmBOMStdBSI
  3
"AcmSymBB|Product Description: AutoCAD Mechanical 2000|Company: Autodesk"
 90
        0
280
     0
281
     0
  0
CLASS
  1
LONG_TRANSACTION
  2
AcDbLongTransaction
  3
AutoCAD 2000
 90
        0
280
     0
281
     0
  0
CLASS
  1
LWPOLYLINE
  2
AcDbPolyline
  3
AutoCAD 2000
 90
        0
280
     0
281
     1
  0
CLASS
  1
HATCH
  2
AcDbHatch
  3
AutoCAD 2000
 90
        0
280
     0
281
     1
  0
CLASS
  1
XRECORD
  2
AcDbXrecord
  3
AutoCAD 2000
 90
        0
280
     0
281
     0
  0
ENDSEC
  0
SECTION
  2
TABLES
  0
TABLE
  2
VPORT
  5
8
330
0
100
AcDbSymbolTable
 70
     3
  0
VPORT
  5
79CF
330
8
100
AcDbSymbolTableRecord
100
AcDbViewportTableRecord
  2
*ACTIVE
 70
     0
 10
0.0
 20
0.0
 11
1.0
 21
1.0
 12
-17.9675976997666
 22
-11.42403248085067
 13
0.0
 23
0.0
 14
2.5
 24
2.5
 15
10.0
 25
10.0
 16
0.0
 26
0.0
 36
1.0
 17
0.0
 27
0.0
 37
0.0
 40
70.75018249776015
 41
1.56570841889117
 42
50.0
 43
0.0
 44
0.0
 50
0.0
 51
0.0
 71
     0
 72
   100
 73
     1
 74
     3
 75
     0
 76
     0
 77
     0
 78
     0
  0
ENDTAB
  0
TABLE
  2
LTYPE
  5
5
330
0
100
AcDbSymbolTable
 70
    10
  0
LTYPE
  5
14
330
5
100
AcDbSymbolTableRecord
100
AcDbLinetypeTableRecord
  2
BYBLOCK
 70
     0
  3

 72
    65
 73
     0
 40
0.0
  0
LTYPE
  5
15
330
5
100
AcDbSymbolTableRecord
100
AcDbLinetypeTableRecord
  2
BYLAYER
 70
     0
  3

 72
    65
 73
     0
 40
0.0
  0
LTYPE
  5
16
330
5
100
AcDbSymbolTableRecord
100
AcDbLinetypeTableRecord
  2
CONTINUOUS
 70
     0
  3
Solid line
 72
    65
 73
     0
 40
0.0
  0
LTYPE
  5
4B
330
5
100
AcDbSymbolTableRecord
100
AcDbLinetypeTableRecord
  2
AM_ISO02W050
 70
     0
  3
__ __ __ __ __ __ __ __ __ __ __ __ __ __ __
 72
    65
 73
     2
 40
7.5
 49
6.0
 74
     0
 49
-1.5
 74
     0
  0
LTYPE
  5
4C
330
5
100
AcDbSymbolTableRecord
100
AcDbLinetypeTableRecord
  2
AM_ISO08W050
 70
     0
  3
____ . ____ . ____ . ____ . ____ . ____ . ____
 72
    65
 73
     4
 40
18.0
 49
12.0
 74
     0
 49
-1.5
 74
     0
 49
3.0
 74
     0
 49
-1.5
 74
     0
  0
LTYPE
  5
4D
330
5
100
AcDbSymbolTableRecord
100
AcDbLinetypeTableRecord
  2
AM_ISO09W050
 70
     0
  3
_____ . . _____ . . _____ . . ____ .. ____
 72
    65
 73
     6
 40
22.5
 49
12.0
 74
     0
 49
-1.5
 74
     0
 49
3.0
 74
     0
 49
-1.5
 74
     0
 49
3.0
 74
     0
 49
-1.5
 74
     0
  0
LTYPE
  5
4E
330
5
100
AcDbSymbolTableRecord
100
AcDbLinetypeTableRecord
  2
AMCONSTR
 70
     0
  3
_______________________
 72
    65
 73
     2
 40
9999.0
 49
9999.0
 74
     0
 49
0.0
 74
     0
  0
LTYPE
  5
4F
330
5
100
AcDbSymbolTableRecord
100
AcDbLinetypeTableRecord
  2
AM_ISO02W050X2
 70
     0
  3
 _ _ _ _ _ _ _ _ _ _ _ _
 72
    65
 73
     2
 40
3.75
 49
3.0
 74
     0
 49
-0.75
 74
     0
  0
LTYPE
  5
50
330
5
100
AcDbSymbolTableRecord
100
AcDbLinetypeTableRecord
  2
AM_ISO08W050X2
 70
     0
  3
__ . __ . __ . __ . __ . __
 72
    65
 73
     4
 40
9.0
 49
6.0
 74
     0
 49
-0.75
 74
     0
 49
1.5
 74
     0
 49
-0.75
 74
     0
  0
LTYPE
  5
53
330
5
100
AcDbSymbolTableRecord
100
AcDbLinetypeTableRecord
  2
AMZIGZAG
 70
     0
  3
/\/-/\/-/\/-/\/-/\/-/\/
 72
    65
 73
     2
 40
11.00009999999999
 49
0.0001
 74
     4
 75
   135
340
52
 46
0.04
 50
0.0
 44
0.0
 45
0.0
 49
-11.0
 74
     0
  0
LTYPE
  5
166
330
5
100
AcDbSymbolTableRecord
100
AcDbLinetypeTableRecord
  2
ACJISTGL
 70
     0
  3
_ _ _ _ _
 72
    65
 73
     2
 40
3.0
 49
2.0
 74
     0
 49
-1.0
 74
     0
  0
LTYPE
  5
26A
330
5
100
AcDbSymbolTableRecord
100
AcDbLinetypeTableRecord
  2
ACJISTGB
 70
     0
  3
__ . . __ . .
 72
    65
 73
     6
 40
9.0
 49
4.0
 74
     0
 49
-1.0
 74
     0
 49
1.0
 74
     0
 49
-1.0
 74
     0
 49
1.0
 74
     0
 49
-1.0
 74
     0
  0
ENDTAB
  0
TABLE
  2
LAYER
  5
2
330
0
100
AcDbSymbolTable
 70
     8
  0
LAYER
  5
10
330
2
100
AcDbSymbolTableRecord
100
AcDbLayerTableRecord
  2
0
 70
     0
 62
     7
  6
CONTINUOUS
  0
LAYER
  5
3F9
330
2
100
AcDbSymbolTableRecord
100
AcDbLayerTableRecord
  2
AM_0
 70
     0
 62
     7
  6
CONTINUOUS
  0
LAYER
  5
BDD
330
2
100
AcDbSymbolTableRecord
100
AcDbLayerTableRecord
  2
AM_11
 70
     0
 62
     3
  6
AM_ISO09W050
  0
LAYER
  5
BDE
330
2
100
AcDbSymbolTableRecord
100
AcDbLayerTableRecord
  2
AM_7
 70
     0
 62
     4
  6
AM_ISO08W050
  0
LAYER
  5
BDF
330
2
100
AcDbSymbolTableRecord
100
AcDbLayerTableRecord
  2
AM_5
 70
     0
 62
     3
  6
CONTINUOUS
  0
LAYER
  5
BE0
330
2
100
AcDbSymbolTableRecord
100
AcDbLayerTableRecord
  2
DEFPOINTS
 70
     0
 62
     7
  6
CONTINUOUS
  0
LAYER
  5
14FF
330
2
100
AcDbSymbolTableRecord
100
AcDbLayerTableRecord
  2
AM_6
 70
     0
 62
     2
  6
CONTINUOUS
  0
LAYER
  5
6EFE
330
2
100
AcDbSymbolTableRecord
100
AcDbLayerTableRecord
  2
AM_CL
 70
     0
 62
     1
  6
AMCONSTR
  0
ENDTAB
  0
TABLE
  2
STYLE
  5
3
330
0
100
AcDbSymbolTable
 70
     5
  0
STYLE
  5
11
330
3
100
AcDbSymbolTableRecord
100
AcDbTextStyleTableRecord
  2
STANDARD
 70
     0
 40
0.0
 41
1.0
 50
0.0
 71
     0
 42
2.5
  3
simplex.shx
  4
EXTFONT.SHX
  0
STYLE
  5
52
330
3
100
AcDbSymbolTableRecord
100
AcDbTextStyleTableRecord
  2

 70
     1
 40
0.0
 41
1.0
 50
0.0
 71
     0
 42
2.5
  3
ltypeshp.shx
  4

  0
STYLE
  5
6B
330
3
100
AcDbSymbolTableRecord
100
AcDbTextStyleTableRecord
  2
ASAMI
 70
     0
 40
0.0
 41
1.0
 50
0.0
 71
     0
 42
2.5
  3
simplex.shx
  4
EXTFONT.SHX
  0
STYLE
  5
262
330
3
100
AcDbSymbolTableRecord
100
AcDbTextStyleTableRecord
  2
ACJISTS
 70
     0
 40
1.0
 41
1.0
 50
0.0
 71
     0
 42
2.5
  3
simplex.shx
  4
bigfont.shx
  0
STYLE
  5
269
330
3
100
AcDbSymbolTableRecord
100
AcDbTextStyleTableRecord
  2
ACJISGDT
 70
     0
 40
0.0
 41
1.0
 50
0.0
 71
     0
 42
2.5
  3
amgdtans.shx
  4

  0
ENDTAB
  0
TABLE
  2
VIEW
  5
6
330
0
100
AcDbSymbolTable
 70
     0
  0
ENDTAB
  0
TABLE
  2
UCS
  5
7
330
0
100
AcDbSymbolTable
 70
     0
  0
ENDTAB
  0
TABLE
  2
APPID
  5
9
330
0
100
AcDbSymbolTable
 70
    13
  0
APPID
  5
12
330
9
100
AcDbSymbolTableRecord
100
AcDbRegAppTableRecord
  2
ACAD
 70
     0
  0
APPID
  5
30
330
9
100
AcDbSymbolTableRecord
100
AcDbRegAppTableRecord
  2
MCAD_NO_VIS
 70
     0
  0
APPID
  5
31
330
9
100
AcDbSymbolTableRecord
100
AcDbRegAppTableRecord
  2
ACAD_TEMP_GRAPHIC
 70
     0
  0
APPID
  5
2C2
330
9
100
AcDbSymbolTableRecord
100
AcDbRegAppTableRecord
  2
GENIUS_GENDTOL_13
 70
     0
  0
APPID
  5
339
330
9
100
AcDbSymbolTableRecord
100
AcDbRegAppTableRecord
  2
GENIUS_GENODEF_13
 70
     0
  0
APPID
  5
33A
330
9
100
AcDbSymbolTableRecord
100
AcDbRegAppTableRecord
  2
GENIUS_GENOBJ-N-RSBK_13
 70
     0
  0
APPID
  5
33B
330
9
100
AcDbSymbolTableRecord
100
AcDbRegAppTableRecord
  2
GENIUS_GENOBJ-N-LIB_13
 70
     0
  0
APPID
  5
33C
330
9
100
AcDbSymbolTableRecord
100
AcDbRegAppTableRecord
  2
GENIUS_GENSCALE_13
 70
     0
  0
APPID
  5
378
330
9
100
AcDbSymbolTableRecord
100
AcDbRegAppTableRecord
  2
GENIUS_GENDIMSH_14
 70
     0
  0
APPID
  5
BE1
330
9
100
AcDbSymbolTableRecord
100
AcDbRegAppTableRecord
  2
GENIUS_GENFIL_13
 70
     0
  0
APPID
  5
BE2
330
9
100
AcDbSymbolTableRecord
100
AcDbRegAppTableRecord
  2
GENIUS_GENOBJ-N-CHA_13
 70
     0
  0
APPID
  5
151B
330
9
100
AcDbSymbolTableRecord
100
AcDbRegAppTableRecord
  2
DCO15
 70
     0
  0
APPID
  5
1860
330
9
100
AcDbSymbolTableRecord
100
AcDbRegAppTableRecord
  2
GENIUS_GENOBJ-N-CEN_13
 70
     0
  0
ENDTAB
  0
TABLE
  2
DIMSTYLE
  5
A
330
0
100
AcDbSymbolTable
 70
     8
  0
DIMSTYLE
105
58
102
{ACAD_REACTORS
330
10F0
330
12D8
330
1A73
330
6C1C
102
}
330
A
100
AcDbSymbolTableRecord
100
AcDbDimStyleTableRecord
  2
AM_JIS
 70
     0
  3

  4
"
  5
OPEN30
  6

  7

 40
0.5
 41
2.5
 42
1.0
 43
12.0
 44
1.0
 45
0.0
 46
0.0
 47
0.1
 48
0.1
140
3.2
141
0.0
142
0.0
143
0.0393701
144
1.0
145
0.0
146
0.71
147
1.5
 71
     0
 72
     0
 73
     0
 74
     0
 75
     0
 76
     0
 77
     3
 78
     8
170
     0
171
     2
172
     1
173
     0
174
     0
175
     0
176
   256
177
   256
178
     2
270
     2
271
     3
272
     3
273
     2
274
     2
340
6B
275
     0
280
     0
281
     0
282
     0
283
     0
284
     0
285
     0
286
     0
287
     3
288
     0
  0
DIMSTYLE
105
5F
330
A
100
AcDbSymbolTableRecord
100
AcDbDimStyleTableRecord
  2
AM_JIS$3
 70
     0
  3

  4
"
  5
OPEN30
  6

  7

 40
0.5
 41
2.5
 42
1.0
 43
10.0
 44
1.0
 45
0.0
 46
0.0
 47
0.1
 48
0.1
140
3.2
141
0.0
142
0.0
143
0.0393701
144
1.0
145
0.0
146
0.71
147
1.5
 71
     0
 72
     0
 73
     0
 74
     1
 75
     0
 76
     0
 77
     3
 78
     8
170
     0
171
     2
172
     0
173
     0
174
     0
175
     0
176
   256
177
   256
178
     2
270
     2
271
     2
272
     3
273
     2
274
     2
340
6B
275
     0
280
     0
281
     0
282
     0
283
     0
284
     0
285
     0
286
     0
287
     0
288
     1
  0
DIMSTYLE
105
60
330
A
100
AcDbSymbolTableRecord
100
AcDbDimStyleTableRecord
  2
AM_JIS$4
 70
     0
  3

  4
"
  5
OPEN30
  6

  7

 40
0.5
 41
2.5
 42
1.0
 43
10.0
 44
1.0
 45
0.0
 46
0.0
 47
0.1
 48
0.1
140
3.2
141
0.0
142
0.0
143
0.0393701
144
1.0
145
0.0
146
0.71
147
1.5
 71
     0
 72
     0
 73
     0
 74
     1
 75
     0
 76
     0
 77
     3
 78
     8
170
     0
171
     2
172
     0
173
     0
174
     0
175
     0
176
   256
177
   256
178
     2
270
     2
271
     2
272
     3
273
     2
274
     2
340
6B
275
     0
280
     0
281
     0
282
     0
283
     0
284
     0
285
     0
286
     0
287
     0
288
     1
  0
DIMSTYLE
105
61
330
A
100
AcDbSymbolTableRecord
100
AcDbDimStyleTableRecord
  2
AM_JIS$6
 70
     0
  3

  4
"
  5
OPEN30
  6

  7

 40
0.5
 41
2.5
 42
1.0
 43
10.0
 44
1.0
 45
0.0
 46
0.0
 47
0.1
 48
0.1
140
3.2
141
0.0
142
0.0
143
0.0393701
144
1.0
145
0.0
146
0.71
147
1.5
 71
     0
 72
     0
 73
     0
 74
     0
 75
     0
 76
     0
 77
     0
 78
     8
170
     0
171
     2
172
     1
173
     0
174
     0
175
     0
176
   256
177
   256
178
     2
270
     2
271
     2
272
     2
273
     2
274
     2
340
6B
275
     0
280
     0
281
     0
282
     0
283
     0
284
     0
285
     0
286
     0
287
     3
288
     0
  0
DIMSTYLE
105
62
330
A
100
AcDbSymbolTableRecord
100
AcDbDimStyleTableRecord
  2
AM_JIS$7
 70
     0
  3

  4
"
  5
OPEN30
  6

  7

 40
0.5
 41
2.5
 42
1.0
 43
10.0
 44
1.0
 45
0.0
 46
0.0
 47
0.1
 48
0.1
140
3.2
141
0.0
142
0.0
143
0.0393701
144
1.0
145
0.0
146
0.71
147
1.5
 71
     0
 72
     0
 73
     0
 74
     0
 75
     0
 76
     0
 77
     3
 78
     8
170
     0
171
     2
172
     1
173
     0
174
     0
175
     0
176
   256
177
   256
178
     2
270
     2
271
     2
272
     3
273
     2
274
     2
340
6B
275
     0
280
     0
281
     0
282
     0
283
     0
284
     0
285
     0
286
     0
287
     3
288
     0
  0
DIMSTYLE
105
63
330
A
100
AcDbSymbolTableRecord
100
AcDbDimStyleTableRecord
  2
AM_JIS$SF
 70
     0
  3

  4
"
  5
OPEN30
  6

  7

 40
0.5
 41
2.5
 42
1.0
 43
10.0
 44
1.0
 45
0.0
 46
0.0
 47
0.1
 48
0.1
140
3.2
141
0.0
142
0.0
143
0.0393701
144
1.0
145
0.0
146
0.71
147
1.5
 71
     0
 72
     0
 73
     0
 74
     0
 75
     1
 76
     1
 77
     3
 78
     8
170
     0
171
     2
172
     1
173
     0
174
     0
175
     0
176
   256
177
   256
178
     2
270
     2
271
     2
272
     2
273
     2
274
     2
340
6B
275
     0
280
     0
281
     0
282
     0
283
     0
284
     0
285
     0
286
     0
287
     3
288
     0
  0
DIMSTYLE
105
68
330
A
100
AcDbSymbolTableRecord
100
AcDbDimStyleTableRecord
  2
AM_JIS$SH
 70
     0
  3

  4
"
  5

  6
GENAXEH
  7
OPEN30
 40
0.5
 41
2.5
 42
1.0
 43
10.0
 44
1.0
 45
0.0
 46
0.0
 47
0.1
 48
0.1
140
3.2
141
0.0
142
0.0
143
0.0393701
144
2.0
145
0.0
146
0.71
147
1.5
 71
     0
 72
     0
 73
     0
 74
     0
 75
     1
 76
     1
 77
     3
 78
     8
170
     0
171
     2
172
     1
173
     1
174
     0
175
     0
176
   256
177
   256
178
     2
270
     2
271
     2
272
     2
273
     2
274
     2
340
6B
275
     0
280
     0
281
     0
282
     0
283
     0
284
     0
285
     0
286
     0
287
     3
288
     0
  0
DIMSTYLE
105
B34
330
A
100
AcDbSymbolTableRecord
100
AcDbDimStyleTableRecord
  2
AM_JIS$2
 70
     0
  3

  4
"
  5
OPEN30
  6

  7

 40
0.5
 41
2.5
 42
1.0
 43
12.0
 44
1.0
 45
0.0
 46
0.0
 47
0.1
 48
0.1
140
3.2
141
0.0
142
0.0
143
0.0393701
144
1.0
145
0.0
146
0.71
147
1.5
 71
     0
 72
     0
 73
     0
 74
     0
 75
     0
 76
     0
 77
     3
 78
     8
170
     0
171
     2
172
     1
173
     0
174
     0
175
     0
176
   256
177
   256
178
     2
270
     2
271
     3
272
     3
273
     2
274
     2
340
6B
275
     0
280
     0
281
     0
282
     0
283
     0
284
     0
285
     0
286
     0
287
     3
288
     0
  0
ENDTAB
  0
TABLE
  2
BLOCK_RECORD
  5
1
330
0
100
AcDbSymbolTable
 70
    12
  0
BLOCK_RECORD
  5
1F
102
{ACAD_XDICTIONARY
360
74
102
}
330
1
100
AcDbSymbolTableRecord
100
AcDbBlockTableRecord
  2
*MODEL_SPACE
  0
BLOCK_RECORD
  5
101
102
{ACAD_XDICTIONARY
360
79F8
102
}
330
1
100
AcDbSymbolTableRecord
100
AcDbBlockTableRecord
  2
*PAPER_SPACE
  0
BLOCK_RECORD
  5
59
330
1
100
AcDbSymbolTableRecord
100
AcDbBlockTableRecord
  2
_OPEN30
  0
BLOCK_RECORD
  5
64
330
1
100
AcDbSymbolTableRecord
100
AcDbBlockTableRecord
  2
GENAXEH
  0
BLOCK_RECORD
  5
10F1
330
1
100
AcDbSymbolTableRecord
100
AcDbBlockTableRecord
  2
*D5
  0
BLOCK_RECORD
  5
12D9
330
1
100
AcDbSymbolTableRecord
100
AcDbBlockTableRecord
  2
*D6
  0
BLOCK_RECORD
  5
1A74
330
1
100
AcDbSymbolTableRecord
100
AcDbBlockTableRecord
  2
*D7
  0
BLOCK_RECORD
  5
6C1D
330
1
100
AcDbSymbolTableRecord
100
AcDbBlockTableRecord
  2
*D8
  0
BLOCK_RECORD
  5
6DA5
330
1
100
AcDbSymbolTableRecord
100
AcDbBlockTableRecord
  2
A$C109621F6
  0
BLOCK_RECORD
  5
736D
330
1
100
AcDbSymbolTableRecord
100
AcDbBlockTableRecord
  2
A$C53715888
  0
BLOCK_RECORD
  5
7461
330
1
100
AcDbSymbolTableRecord
100
AcDbBlockTableRecord
  2
A$C621E111D
  0
ENDTAB
  0
ENDSEC
  0
SECTION
  2
BLOCKS
  0
BLOCK
  5
20
330
1F
100
AcDbEntity
  8
0
100
AcDbBlockBegin
  2
*MODEL_SPACE
 70
     0
 10
0.0
 20
0.0
 30
0.0
  3
*MODEL_SPACE
  1

  0
ENDBLK
  5
21
330
1F
100
AcDbEntity
  8
0
100
AcDbBlockEnd
  0
BLOCK
  5
103
330
101
100
AcDbEntity
 67
     1
  8
0
100
AcDbBlockBegin
  2
*PAPER_SPACE
 70
     0
 10
0.0
 20
0.0
 30
0.0
  3
*PAPER_SPACE
  1

  0
ENDBLK
  5
104
330
101
100
AcDbEntity
 67
     1
  8
0
100
AcDbBlockEnd
  0
BLOCK
  5
5D
330
59
100
AcDbEntity
  8
0
100
AcDbBlockBegin
  2
_OPEN30
 70
     0
 10
0.0
 20
0.0
 30
0.0
  3
_OPEN30
  1

  0
LINE
  5
5A
330
59
100
AcDbEntity
  8
0
 62
     0
100
AcDbLine
 10
-1.0
 20
0.26794919
 30
0.0
 11
0.0
 21
0.0
 31
0.0
  0
LINE
  5
5B
330
59
100
AcDbEntity
  8
0
 62
     0
100
AcDbLine
 10
0.0
 20
0.0
 30
0.0
 11
-1.0
 21
-0.26794919
 31
0.0
  0
LINE
  5
5C
330
59
100
AcDbEntity
  8
0
 62
     0
100
AcDbLine
 10
0.0
 20
0.0
 30
0.0
 11
-1.0
 21
0.0
 31
0.0
  0
ENDBLK
  5
5E
330
59
100
AcDbEntity
  8
0
100
AcDbBlockEnd
  0
BLOCK
  5
66
330
64
100
AcDbEntity
  8
0
100
AcDbBlockBegin
  2
GENAXEH
 70
     0
 10
0.0
 20
0.0
 30
0.0
  3
GENAXEH
  1

  0
LINE
  5
65
330
64
100
AcDbEntity
  8
0
100
AcDbLine
 10
-1.0
 20
0.0
 30
0.0
 11
1.0
 21
0.0
 31
0.0
  0
ENDBLK
  5
67
330
64
100
AcDbEntity
  8
0
100
AcDbBlockEnd
  0
BLOCK
  5
10FB
330
10F1
100
AcDbEntity
  8
0
100
AcDbBlockBegin
  2
*D5
 70
     1
 10
0.0
 20
0.0
 30
0.0
  3
*D5
  1

  0
LINE
  5
786A
330
10F1
100
AcDbEntity
  8
AM_5
100
AcDbLine
 10
-50.0
 20
-4.000000000000007
 30
0.0
 11
-50.0
 21
-17.50000099999996
 31
0.0
  0
LINE
  5
786B
330
10F1
100
AcDbEntity
  8
AM_5
100
AcDbLine
 10
-0.0000000000003197
 20
-3.749999999999446
 30
0.0
 11
-0.0000000000003206
 21
-17.50000099999996
 31
0.0
  0
LINE
  5
786C
330
10F1
100
AcDbEntity
  8
AM_5
100
AcDbLine
 10
-48.75
 20
-17.00000099999996
 30
0.0
 11
-1.25000000000032
 21
-17.00000099999996
 31
0.0
  0
INSERT
  5
786D
330
10F1
100
AcDbEntity
  8
AM_5
100
AcDbBlockReference
  2
_OPEN30
 10
-50.0
 20
-17.00000099999996
 30
0.0
 41
1.25
 42
1.25
 43
1.25
 50
180.0
  0
INSERT
  5
786E
330
10F1
100
AcDbEntity
  8
AM_5
100
AcDbBlockReference
  2
_OPEN30
 10
-0.0000000000003206
 20
-17.00000099999996
 30
0.0
 41
1.25
 42
1.25
 43
1.25
  0
MTEXT
  5
786F
330
10F1
100
AcDbEntity
  8
AM_5
 62
     2
100
AcDbMText
 10
-25.00000000000015
 20
-15.45000099999996
 30
0.0
 40
1.6
 41
0.0
 71
     5
 72
     1
  1
50
  7
ASAMI
1001
ACAD
1000
MTEXTBEGIN
1070
    73
1070
     1
1070
    44
1040
1.0
1070
    74
1070
     0
1000
MTEXTEND
  0
POINT
  5
7870
330
10F1
100
AcDbEntity
  8
DEFPOINTS
 62
     0
100
AcDbPoint
 10
-50.0
 20
-3.500000000000007
 30
0.0
  0
POINT
  5
7871
330
10F1
100
AcDbEntity
  8
DEFPOINTS
 62
     0
100
AcDbPoint
 10
-0.0000000000003197
 20
-3.249999999999446
 30
0.0
  0
POINT
  5
7872
330
10F1
100
AcDbEntity
  8
DEFPOINTS
 62
     0
100
AcDbPoint
 10
-0.0000000000003206
 20
-17.00000099999996
 30
0.0
  0
ENDBLK
  5
10FC
330
10F1
100
AcDbEntity
  8
0
100
AcDbBlockEnd
  0
BLOCK
  5
12E5
330
12D9
100
AcDbEntity
  8
0
100
AcDbBlockBegin
  2
*D6
 70
     1
 10
0.0
 20
0.0
 30
0.0
  3
*D6
  1

  0
LINE
  5
734D
330
12D9
100
AcDbEntity
  8
AM_5
100
AcDbLine
 10
-0.0000000000001812
 20
-3.749999999999446
 30
0.0
 11
-0.0000000000001817
 21
-11.50000099999998
 31
0.0
  0
LINE
  5
734E
330
12D9
100
AcDbEntity
  8
AM_5
100
AcDbLine
 10
-11.99999999999999
 20
-3.750000000000008
 30
0.0
 11
-11.99999999999999
 21
-11.50000099999998
 31
0.0
  0
LINE
  5
734F
330
12D9
100
AcDbEntity
  8
AM_5
100
AcDbLine
 10
-1.250000000000181
 20
-11.00000099999998
 30
0.0
 11
-10.74999999999999
 21
-11.00000099999998
 31
0.0
  0
INSERT
  5
7350
330
12D9
100
AcDbEntity
  8
AM_5
100
AcDbBlockReference
  2
_OPEN30
 10
-0.0000000000001816
 20
-11.00000099999998
 30
0.0
 41
1.25
 42
1.25
 43
1.25
  0
INSERT
  5
7351
330
12D9
100
AcDbEntity
  8
AM_5
100
AcDbBlockReference
  2
_OPEN30
 10
-11.99999999999999
 20
-11.00000099999998
 30
0.0
 41
1.25
 42
1.25
 43
1.25
 50
180.0
  0
MTEXT
  5
7352
330
12D9
100
AcDbEntity
  8
AM_5
 62
     2
100
AcDbMText
 10
-6.000000000000089
 20
-9.450000999999986
 30
0.0
 40
1.6
 41
0.0
 71
     5
 72
     1
  1
12
  7
ASAMI
1001
ACAD
1000
MTEXTBEGIN
1070
    73
1070
     1
1070
    44
1040
1.0
1070
    74
1070
     0
1000
MTEXTEND
  0
POINT
  5
7353
330
12D9
100
AcDbEntity
  8
DEFPOINTS
 62
     0
100
AcDbPoint
 10
-0.0000000000001812
 20
-3.249999999999446
 30
0.0
  0
POINT
  5
7354
330
12D9
100
AcDbEntity
  8
DEFPOINTS
 62
     0
100
AcDbPoint
 10
-11.99999999999999
 20
-3.250000000000008
 30
0.0
  0
POINT
  5
7355
330
12D9
100
AcDbEntity
  8
DEFPOINTS
 62
     0
100
AcDbPoint
 10
-11.99999999999999
 20
-11.00000099999998
 30
0.0
  0
ENDBLK
  5
12E6
330
12D9
100
AcDbEntity
  8
0
100
AcDbBlockEnd
  0
BLOCK
  5
1A7F
330
1A74
100
AcDbEntity
  8
0
100
AcDbBlockBegin
  2
*D7
 70
     1
 10
0.0
 20
0.0
 30
0.0
  3
*D7
  1

  0
LINE
  5
6A76
330
1A74
100
AcDbEntity
  8
AM_5
100
AcDbLine
 10
-50.00000000000001
 20
3.999999999999993
 30
0.0
 11
-59.00000099999999
 21
3.999999999999996
 31
0.0
  0
LINE
  5
6A77
330
1A74
100
AcDbEntity
  8
AM_5
100
AcDbLine
 10
-50.0
 20
-4.000000000000007
 30
0.0
 11
-59.00000099999999
 21
-4.000000000000004
 31
0.0
  0
LINE
  5
6A78
330
1A74
100
AcDbEntity
  8
AM_5
100
AcDbLine
 10
-58.50000099999999
 20
2.749999999999996
 30
0.0
 11
-58.50000099999999
 21
-2.750000000000004
 31
0.0
  0
INSERT
  5
6A79
330
1A74
100
AcDbEntity
  8
AM_5
100
AcDbBlockReference
  2
_OPEN30
 10
-58.50000099999999
 20
3.999999999999996
 30
0.0
 41
1.25
 42
1.25
 43
1.25
 50
90.0
  0
INSERT
  5
6A7A
330
1A74
100
AcDbEntity
  8
AM_5
100
AcDbBlockReference
  2
_OPEN30
 10
-58.50000099999999
 20
-4.000000000000004
 30
0.0
 41
1.25
 42
1.25
 43
1.25
 50
270.0
  0
MTEXT
  5
6A7B
330
1A74
100
AcDbEntity
  8
AM_5
 62
     2
100
AcDbMText
 10
-60.050001
 20
-0.0000000000000082
 30
0.0
 40
1.6
 41
0.0
 71
     5
 72
     1
  1
%%c8
  7
ASAMI
 11
0.0000000000000001
 21
1.0
 31
0.0
1001
ACAD
1000
MTEXTBEGIN
1070
    73
1070
     1
1070
    44
1040
1.0
1070
    74
1070
     0
1000
MTEXTEND
  0
POINT
  5
6A7C
330
1A74
100
AcDbEntity
  8
DEFPOINTS
 62
     0
100
AcDbPoint
 10
-49.50000000000001
 20
3.999999999999993
 30
0.0
  0
POINT
  5
6A7D
330
1A74
100
AcDbEntity
  8
DEFPOINTS
 62
     0
100
AcDbPoint
 10
-49.49999999999999
 20
-4.000000000000007
 30
0.0
  0
POINT
  5
6A7E
330
1A74
100
AcDbEntity
  8
DEFPOINTS
 62
     0
100
AcDbPoint
 10
-58.50000099999999
 20
-4.000000000000004
 30
0.0
  0
ENDBLK
  5
1A80
330
1A74
100
AcDbEntity
  8
0
100
AcDbBlockEnd
  0
BLOCK
  5
6C27
330
6C1D
100
AcDbEntity
  8
0
100
AcDbBlockBegin
  2
*D8
 70
     1
 10
0.0
 20
0.0
 30
0.0
  3
*D8
  1

  0
LINE
  5
7360
330
6C1D
100
AcDbEntity
  8
AM_5
100
AcDbLine
 10
0.5
 20
3.249999999999992
 30
0.0
 11
9.551050680252128
 21
3.24999999999999
 31
0.0
  0
LINE
  5
7361
330
6C1D
100
AcDbEntity
  8
AM_5
100
AcDbLine
 10
0.4999999999998633
 20
-3.250000000000007
 30
0.0
 11
9.551050680252128
 21
-3.250000000000009
 31
0.0
  0
LINE
  5
7362
330
6C1D
100
AcDbEntity
  8
AM_5
100
AcDbLine
 10
9.051050680252128
 20
1.99999999999999
 30
0.0
 11
9.051050680252128
 21
-2.000000000000009
 31
0.0
  0
INSERT
  5
7363
330
6C1D
100
AcDbEntity
  8
AM_5
100
AcDbBlockReference
  2
_OPEN30
 10
9.051050680252128
 20
3.24999999999999
 30
0.0
 41
1.25
 42
1.25
 43
1.25
 50
90.0
  0
INSERT
  5
7364
330
6C1D
100
AcDbEntity
  8
AM_5
100
AcDbBlockReference
  2
_OPEN30
 10
9.051050680252128
 20
-3.250000000000009
 30
0.0
 41
1.25
 42
1.25
 43
1.25
 50
270.0
  0
MTEXT
  5
7365
330
6C1D
100
AcDbEntity
  8
AM_5
 62
     2
100
AcDbMText
 10
7.501050680252127
 20
-0.0000000000000079
 30
0.0
 40
1.6
 41
0.0
 71
     5
 72
     1
  1
%%c6.5
  7
ASAMI
 11
0.0000000000000001
 21
1.0
 31
0.0
1001
ACAD
1000
MTEXTBEGIN
1070
    73
1070
     1
1070
    44
1040
1.0
1070
    74
1070
     0
1000
MTEXTEND
  0
POINT
  5
7366
330
6C1D
100
AcDbEntity
  8
DEFPOINTS
 62
     0
100
AcDbPoint
 10
0.0
 20
3.249999999999992
 30
0.0
  0
POINT
  5
7367
330
6C1D
100
AcDbEntity
  8
DEFPOINTS
 62
     0
100
AcDbPoint
 10
-0.0000000000001368
 20
-3.250000000000007
 30
0.0
  0
POINT
  5
7368
330
6C1D
100
AcDbEntity
  8
DEFPOINTS
 62
     0
100
AcDbPoint
 10
9.051050680252128
 20
-3.250000000000009
 30
0.0
  0
ENDBLK
  5
6C28
330
6C1D
100
AcDbEntity
  8
0
100
AcDbBlockEnd
  0
BLOCK
  5
6DC8
330
6DA5
100
AcDbEntity
  8
0
100
AcDbBlockBegin
  2
A$C109621F6
 70
     0
 10
0.0
 20
0.0
 30
0.0
  3
A$C109621F6
  1

  0
SPLINE
  5
6DA6
330
6DA5
100
AcDbEntity
  8
AM_0
100
AcDbSpline
210
0.0
220
0.0
230
1.0
 70
     8
 71
     3
 72
     8
 73
     4
 74
     0
 42
0.0000000001
 43
0.0000000001
 40
0.0
 40
0.0
 40
0.0
 40
0.0
 40
13.97258598406841
 40
13.97258598406841
 40
13.97258598406841
 40
13.97258598406841
 10
16.08730143756773
 20
8.83669542280495
 30
0.0
 10
20.74483009892389
 20
8.83669542280495
 30
0.0
 10
25.1337164211765
 20
6.930622179436397
 30
0.0
 10
29.51914280647148
 20
4.999999964074959
 30
0.0
  0
SPLINE
  5
6DA7
330
6DA5
100
AcDbEntity
  8
AM_0
100
AcDbSpline
210
0.0
220
0.0
230
1.0
 70
     8
 71
     3
 72
     8
 73
     4
 74
     0
 42
0.0000000001
 43
0.0000000001
 40
0.0
 40
0.0
 40
0.0
 40
0.0
 40
2.238610194515266
 40
2.238610194515266
 40
2.238610194515266
 40
2.238610194515266
 10
16.08730143756773
 20
8.83669542280495
 30
0.0
 10
14.62415751937922
 20
8.83669542280495
 30
0.0
 10
13.18752529533893
 20
8.648589441368585
 30
0.0
 10
11.7691834893915
 20
8.330709141207762
 30
0.0
  0
SPLINE
  5
6DA8
330
6DA5
100
AcDbEntity
  8
AM_0
100
AcDbSpline
210
0.0
220
0.0
230
1.0
 70
     8
 71
     3
 72
     8
 73
     4
 74
     0
 42
0.0000000001
 43
0.0000000001
 40
4.219358800530717
 40
4.219358800530717
 40
4.219358800530717
 40
4.219358800530717
 40
14.36247867694493
 40
14.36247867694493
 40
14.36247867694493
 40
14.36247867694493
 10
4.932767934982678
 20
9.078220148588059
 30
0.0
 10
8.178851691872893
 20
8.260947755763822
 30
0.0
 10
11.29065147294016
 20
6.630473859919391
 30
0.0
 10
14.40245125400744
 20
4.999999964074959
 30
0.0
  0
SPLINE
  5
6DA9
330
6DA5
100
AcDbEntity
  8
AM_0
100
AcDbSpline
210
0.0
220
0.0
230
1.0
 70
     8
 71
     3
 72
     8
 73
     4
 74
     0
 42
0.0000000001
 43
0.0000000001
 40
1.870660592686466
 40
1.870660592686466
 40
1.870660592686466
 40
1.870660592686466
 40
14.43901837670146
 40
14.43901837670146
 40
14.43901837670146
 40
14.43901837670146
 10
4.662767934982724
 20
9.733441121696785
 30
0.0
 10
8.763732526211555
 20
9.221900576176494
 30
0.0
 10
12.58802583959985
 20
7.110950270125727
 30
0.0
 10
16.41231915298812
 20
4.999999964074959
 30
0.0
  0
SPLINE
  5
6DAA
330
6DA5
100
AcDbEntity
  8
AM_0
100
AcDbSpline
210
0.0
220
0.0
230
1.0
 70
     8
 71
     3
 72
     8
 73
     4
 74
     2
 42
0.0000000001
 43
0.0000000001
 44
0.0000000001
 12
1.0
 22
0.0
 32
0.0
 40
0.0
 40
0.0
 40
0.0
 40
0.0
 40
14.48999654934396
 40
14.48999654934396
 40
14.48999654934396
 40
14.48999654934396
 10
4.557767934982734
 20
9.999999964075016
 30
0.0
 10
9.387766784764053
 20
9.999999964075016
 30
0.0
 10
13.77276735987339
 20
7.499999964075016
 30
0.0
 10
18.15776793498272
 20
4.999999964075016
 30
0.0
 11
4.557767934982734
 21
9.999999964075016
 31
0.0
 11
18.15776793498272
 21
4.999999964075016
 31
0.0
  0
SPLINE
  5
6DAB
330
6DA5
100
AcDbEntity
  8
AM_0
100
AcDbSpline
210
0.0
220
0.0
230
1.0
 70
     8
 71
     3
 72
     8
 73
     4
 74
     0
 42
0.0000000001
 43
0.0000000001
 40
0.0
 40
0.0
 40
0.0
 40
0.0
 40
5.192508374738713
 40
5.192508374738713
 40
5.192508374738713
 40
5.192508374738713
 10
31.75776793498272
 20
-0.0000000359249839
 30
0.0
 10
33.48860405989558
 20
-0.0000000359249839
 30
0.0
 10
35.16229545621672
 20
0.3210390098662401
 30
0.0
 10
36.93540891384242
 20
0.9266433240410947
 30
0.0
  0
SPLINE
  5
6DAC
330
6DA5
100
AcDbEntity
  8
AM_0
100
AcDbSpline
210
0.0
220
0.0
230
1.0
 70
     8
 71
     3
 72
     8
 73
     4
 74
     0
 42
0.0000000001
 43
0.0000000001
 40
0.7142832446738512
 40
0.7142832446738512
 40
0.7142832446738512
 40
0.7142832446738512
 40
14.36247867694493
 40
14.36247867694493
 40
14.36247867694493
 40
14.36247867694493
 10
27.2909499074538
 20
0.3994021742507243
 30
0.0
 10
22.77668957033873
 20
0.6121929285994839
 30
0.0
 10
18.58957041217308
 20
2.806096446337221
 30
0.0
 10
14.40245125400744
 20
4.999999964074959
 30
0.0
  0
SPLINE
  5
6DAD
330
6DA5
100
AcDbEntity
  8
AM_0
100
AcDbSpline
210
0.0
220
0.0
230
1.0
 70
     8
 71
     3
 72
     8
 73
     4
 74
     0
 42
0.0000000001
 43
0.0000000001
 40
0.0
 40
0.0
 40
0.0
 40
0.0
 40
7.57842115059705
 40
7.57842115059705
 40
7.57842115059705
 40
7.57842115059705
 10
4.557767934982734
 20
-0.0000000359249839
 30
0.0
 10
7.083908318515085
 20
-0.0000000359249839
 30
0.0
 10
9.488323855478597
 20
0.6838500680926245
 30
0.0
 10
11.83467792554688
 20
1.693889453057522
 30
0.0
  0
SPLINE
  5
6DAE
330
6DA5
100
AcDbEntity
  8
AM_0
100
AcDbSpline
210
0.0
220
0.0
230
1.0
 70
     8
 71
     3
 72
     8
 73
     4
 74
     2
 42
0.0000000001
 43
0.0000000001
 44
0.0000000001
 12
0.64170122685631
 22
0.7669547153848829
 32
0.0
 13
0.9900999427831042
 23
0.1403641809753963
 33
0.0
 40
0.0
 40
0.0
 40
0.0
 40
0.0
 40
2.586565323616739
 40
2.586565323616739
 40
2.586565323616739
 40
2.586565323616739
 10
4.557767934982734
 20
0.9252972773910528
 30
0.0
 10
5.111035315485684
 20
1.586556767924014
 30
0.0
 10
6.06068743969875
 20
1.870526167150663
 30
0.0
 10
6.914340166004649
 20
1.991546541546938
 30
0.0
 11
4.557767934982734
 21
0.9252972773910528
 31
0.0
 11
6.914340166004649
 21
1.991546541546938
 31
0.0
  0
SPLINE
  5
6DAF
330
6DA5
100
AcDbEntity
  8
AM_0
100
AcDbSpline
210
0.0
220
0.0
230
1.0
 70
     8
 71
     3
 72
     8
 73
     4
 74
     0
 42
0.0000000001
 43
0.0000000001
 40
0.3581103616548037
 40
0.3581103616548037
 40
0.3581103616548037
 40
0.3581103616548037
 40
14.43901837670146
 40
14.43901837670146
 40
14.43901837670146
 40
14.43901837670146
 10
29.65497653430492
 20
0.15415454122234
 30
0.0
 10
24.98138176144868
 20
0.2700109560217925
 30
0.0
 10
20.6968504572184
 20
2.635005460048375
 30
0.0
 10
16.41231915298812
 20
4.999999964074959
 30
0.0
  0
SPLINE
  5
6DB0
330
6DA5
100
AcDbEntity
  8
AM_0
100
AcDbSpline
210
0.0
220
0.0
230
1.0
 70
     8
 71
     3
 72
     8
 73
     4
 74
     2
 42
0.0000000001
 43
0.0000000001
 44
0.0000000001
 12
-1.0
 22
0.0000000000000001
 32
0.0
 40
0.0
 40
0.0
 40
0.0
 40
0.0
 40
14.48999654934396
 40
14.48999654934396
 40
14.48999654934396
 40
14.48999654934396
 10
31.75776793498272
 20
-0.0000000359250976
 30
0.0
 10
26.9277690852014
 20
-0.000000035925097
 30
0.0
 10
22.54276851009206
 20
2.499999964074902
 30
0.0
 10
18.15776793498272
 20
4.999999964074902
 30
0.0
 11
31.75776793498272
 21
-0.0000000359250976
 31
0.0
 11
18.15776793498272
 21
4.999999964074902
 31
0.0
  0
LINE
  5
6DB1
330
6DA5
100
AcDbEntity
  8
AM_0
100
AcDbLine
 10
23.64952250153007
 20
0.9791474151514307
 30
0.0
 11
6.914340166004649
 21
1.991546541546938
 31
0.0
  0
LINE
  5
6DB2
330
6DA5
100
AcDbEntity
  8
AM_11
100
AcDbLine
 10
4.557767934983502
 20
-0.0000000359249839
 30
0.0
 11
31.7577679349838
 21
-0.0000000359249839
 31
0.0
  0
LINE
  5
6DB3
330
6DA5
100
AcDbEntity
  8
AM_11
100
AcDbLine
 10
24.95776793498345
 20
9.999999964074959
 30
0.0
 11
4.557767934982734
 21
9.999999964075016
 31
0.0
  0
LINE
  5
6DB4
330
6DA5
100
AcDbEntity
  8
AM_7
  6
AM_ISO08W050X2
100
AcDbLine
 10
-0.0000000958722239
 20
4.999999964075016
 30
0.0
 11
45.35776793498269
 21
4.999999964075016
 31
0.0
1001
GENIUS_GENODEF_13
1002
{
1000
HIER
1070
     0
1002
}
1002
{
1000
MANEDIT
1070
     0
1002
}
1002
{
1000
NOSEL
1070
     0
1002
}
1002
{
1000
BEHIND
1070
     0
1002
}
1002
{
1000
REACTOR
1002
}
1001
GENIUS_GENOBJ-N-CEN_13
1002
{
1000
OWNER
1000
GEN
1002
}
  0
LINE
  5
6DB5
330
6DA5
100
AcDbEntity
  8
AM_0
100
AcDbLine
 10
4.662767934982753
 20
9.733441121696841
 30
0.0
 11
4.662767934982753
 21
4.674865836852632
 31
0.0
  0
LINE
  5
6DB6
330
6DA5
100
AcDbEntity
  8
AM_0
100
AcDbLine
 10
4.557767934982734
 20
9.999999964075016
 30
0.0
 11
4.557767934982734
 21
4.799999964075027
 31
0.0
  0
ARC
  5
6DB7
330
6DA5
100
AcDbEntity
  8
AM_0
100
AcDbCircle
 10
-9.649000507399932
 20
4.978962652366647
 30
0.0
 40
15.13252038991184
100
AcDbArc
 50
355.3635181775061
 51
15.50551100147241
  0
LINE
  5
6DB8
330
6DA5
100
AcDbEntity
  8
AM_0
100
AcDbLine
 10
4.557767934982734
 20
3.999999964075016
 30
0.0
 11
4.557767934982734
 21
-0.0000000359249839
 31
0.0
  0
LINE
  5
6DB9
330
6DA5
100
AcDbEntity
  8
AM_0
100
AcDbLine
 10
4.557767934982734
 20
4.799999964075027
 30
0.0
 11
6.914340166004649
 21
1.991546541546938
 31
0.0
  0
LINE
  5
6DBA
330
6DA5
100
AcDbEntity
  8
AM_0
100
AcDbLine
 10
4.893407787453668
 20
4.39999996407505
 30
0.0
 11
4.557767934982734
 21
3.999999964075016
 31
0.0
  0
LINE
  5
6DBB
330
6DA5
100
AcDbEntity
  8
AM_0
100
AcDbLine
 10
4.932767934982734
 20
9.078220148588286
 30
0.0
 11
4.932767934982734
 21
9.024355395207635
 31
0.0
  0
LINE
  5
6DBC
330
6DA5
100
AcDbEntity
  8
AM_0
100
AcDbLine
 10
4.557767934982734
 20
9.999999964075016
 30
0.0
 11
4.662767934982753
 21
9.733441121696841
 31
0.0
  0
LINE
  5
6DBD
330
6DA5
100
AcDbEntity
  8
AM_0
100
AcDbLine
 10
4.662767934982753
 20
9.733441121696841
 30
0.0
 11
4.932767934982734
 21
9.078220148588286
 31
0.0
  0
ARC
  5
6DBE
330
6DA5
100
AcDbEntity
  8
AM_0
100
AcDbCircle
 10
24.59339510176565
 20
-3.052029314961032
 30
0.0
 40
12.57102478484522
100
AcDbArc
 50
56.88979317574567
 51
84.46047001757316
  0
ARC
  5
6DBF
330
6DA5
100
AcDbEntity
  8
AM_0
100
AcDbCircle
 10
24.03937548267134
 20
-2.010809308262111
 30
0.0
 40
12.04587000066505
100
AcDbArc
 50
51.97114977403622
 51
85.62745381403376
  0
ARC
  5
6DC0
330
6DA5
100
AcDbEntity
  8
AM_0
100
AcDbCircle
 10
27.55122987471864
 20
29.32981343008532
 30
0.0
 40
22.19897787233719
100
AcDbArc
 50
258.3742203756455
 51
280.1423169251442
  0
LINE
  5
6DC1
330
6DA5
100
AcDbEntity
  8
AM_0
100
AcDbLine
 10
24.95776793499939
 20
9.999999964073765
 30
0.0
 11
40.02170352808309
 21
9.999999964073765
 31
0.0
  0
LINE
  5
6DC2
330
6DA5
100
AcDbEntity
  8
AM_0
100
AcDbLine
 10
26.55776793498296
 20
7.153076701007876
 30
0.0
 11
26.55776793498296
 21
6.277042167745435
 31
0.0
  0
LINE
  5
6DC3
330
6DA5
100
AcDbEntity
  8
AM_11
100
AcDbLine
 10
26.55776793498296
 20
9.999999964073765
 30
0.0
 11
26.55776793498296
 21
-0.0000000359249839
 31
0.0
  0
LINE
  5
6DC4
330
6DA5
100
AcDbEntity
  8
AM_0
100
AcDbLine
 10
16.08730143756773
 20
8.83669542280495
 30
0.0
 11
25.80690732185661
 21
9.460286706978422
 31
0.0
  0
ARC
  5
6DC5
330
6DA5
100
AcDbEntity
  8
AM_0
100
AcDbCircle
 10
24.82967618688468
 20
4.772801535990538
 30
0.0
 40
5.228767627510293
100
AcDbArc
 50
88.59625606922485
 51
121.7042922611373
  0
ARC
  5
6DC6
330
6DA5
100
AcDbEntity
  8
AM_0
100
AcDbCircle
 10
-9.864109304484458
 20
-75.4921654535666
 30
0.0
 40
89.61043042222311
100
AcDbArc
 50
58.51634849535098
 51
63.92839520486821
  0
LINE
  5
6DC7
330
6DA5
100
AcDbEntity
  8
AM_0
100
AcDbLine
 10
31.7577679349838
 20
-0.0000000359249839
 30
0.0
 11
40.02170352808309
 21
-0.000000035924927
 31
0.0
  0
ENDBLK
  5
6DC9
330
6DA5
100
AcDbEntity
  8
0
100
AcDbBlockEnd
  0
BLOCK
  5
7393
330
736D
100
AcDbEntity
  8
0
100
AcDbBlockBegin
  2
A$C53715888
 70
     0
 10
0.0
 20
0.0
 30
0.0
  3
A$C53715888
  1

  0
ELLIPSE
  5
736E
330
736D
100
AcDbEntity
  8
AM_0
100
AcDbEllipse
 10
26.86647855645514
 20
53.90514248669786
 30
0.0
 11
-0.0000000000061846
 21
55.55846686177877
 31
0.0
210
0.0
220
0.0
230
1.0
 40
0.8797653958944422
 41
2.592099274283089
 42
2.68655730863589
  0
SPLINE
  5
736F
330
736D
100
AcDbEntity
  8
AM_0
100
AcDbSpline
210
0.0
220
0.0
230
1.0
 70
     8
 71
     3
 72
     8
 73
     4
 74
     0
 42
0.0000000001
 43
0.0000000001
 40
0.0
 40
0.0
 40
0.0
 40
0.0
 40
5.192508374738713
 40
5.192508374738713
 40
5.192508374738713
 40
5.192508374738713
 10
4.163636425836713
 20
7.099999927760044
 30
0.0
 10
3.219543994066064
 20
7.099999927760044
 30
0.0
 10
2.306621414254536
 20
6.900955719369487
 30
0.0
 10
1.339468619185964
 20
6.525481044581072
 30
0.0
  0
ELLIPSE
  5
7370
330
736D
100
AcDbEntity
  8
AM_0
100
AcDbEllipse
 10
26.74914648531816
 20
4.013043061019252
 30
0.0
 11
-0.0000000000001344
 21
9.382162641745445
 31
0.0
210
0.0
220
0.0
230
1.0
 40
0.8797653958944188
 41
1.489874453283499
 42
1.841418545974778
  0
ELLIPSE
  5
7371
330
736D
100
AcDbEntity
  8
AM_0
100
AcDbEllipse
 10
7.942595561162917
 20
4.140862953172422
 30
0.0
 11
-0.0000000000000055
 21
3.241835929056382
 31
0.0
210
0.0
220
0.0
230
1.0
 40
0.8797653958944266
 41
3.117092700142877
 42
3.694936940561198
  0
ELLIPSE
  5
7372
330
736D
100
AcDbEntity
  8
AM_0
100
AcDbEllipse
 10
6.458111731435316
 20
-11.08448442116634
 30
0.0
 11
-0.0000000000000119
 21
13.76336628084906
 31
0.0
210
0.0
220
0.0
230
1.0
 40
0.8797653958944305
 41
-0.2029081325562565
 42
0.1770168241245134
  0
ELLIPSE
  5
7373
330
736D
100
AcDbEntity
  8
AM_0
100
AcDbEllipse
 10
8.373668672552014
 20
8.346701676609066
 30
0.0
 11
0.0000000000000246
 21
7.468439400412334
 31
0.0
210
0.0
220
0.0
230
1.0
 40
0.8797653958944275
 41
2.477864006398942
 42
3.065277325949163
  0
ELLIPSE
  5
7374
330
736D
100
AcDbEntity
  8
AM_0
100
AcDbEllipse
 10
8.071476153046027
 20
8.992258080762397
 30
0.0
 11
-0.0000000000000131
 21
7.794035366604041
 31
0.0
210
0.0
220
0.0
230
1.0
 40
0.8797653958944277
 41
2.56371052849026
 42
3.044909616383497
  0
SPLINE
  5
7375
330
736D
100
AcDbEntity
  8
AM_0
100
AcDbSpline
210
0.0
220
0.0
230
1.0
 70
     8
 71
     3
 72
     8
 73
     4
 74
     0
 42
0.0000000001
 43
0.0000000001
 40
0.0
 40
0.0
 40
0.0
 40
0.0
 40
2.586565323616739
 40
2.586565323616739
 40
2.586565323616739
 40
2.586565323616739
 10
19.00000006220034
 20
6.526315593504115
 30
0.0
 10
18.69821785465328
 20
6.116334709373676
 30
0.0
 10
18.1802257869007
 20
5.940273681853156
 30
0.0
 10
17.71459702709748
 20
5.865241049727465
 30
0.0
  0
SPLINE
  5
7376
330
736D
100
AcDbEntity
  8
AM_0
100
AcDbSpline
210
0.0
220
0.0
230
1.0
 70
     8
 71
     3
 72
     8
 73
     4
 74
     0
 42
0.0000000001
 43
0.0000000001
 40
0.0
 40
0.0
 40
0.0
 40
0.0
 40
7.57842115059705
 40
7.57842115059705
 40
7.57842115059705
 40
7.57842115059705
 10
19.00000006220034
 20
7.099999927760059
 30
0.0
 10
17.62210530754633
 20
7.099999927760059
 30
0.0
 10
16.31060592374805
 20
6.676012863269138
 30
0.0
 10
15.03077643098353
 20
6.049788444590902
 30
0.0
  0
SPLINE
  5
7377
330
736D
100
AcDbEntity
  8
AM_0
100
AcDbSpline
210
0.0
220
0.0
230
1.0
 70
     8
 71
     3
 72
     8
 73
     4
 74
     0
 42
0.0000000001
 43
0.0000000001
 40
0.0
 40
0.0
 40
0.0
 40
0.0
 40
14.48999654934396
 40
14.48999654934396
 40
14.48999654934396
 40
14.48999654934396
 10
19.00000006220034
 20
0.8999999277600569
 30
0.0
 10
16.3654552350469
 20
0.8999999277600569
 30
0.0
 10
13.97363673953271
 20
2.449999927760051
 30
0.0
 10
11.58181824401852
 20
3.99999992776005
 30
0.0
  0
SPLINE
  5
7378
330
736D
100
AcDbEntity
  8
AM_0
100
AcDbSpline
210
0.0
220
0.0
230
1.0
 70
     8
 71
     3
 72
     8
 73
     4
 74
     0
 42
0.0000000001
 43
0.0000000001
 40
1.870660592686466
 40
1.870660592686466
 40
1.870660592686466
 40
1.870660592686466
 40
14.43901837670146
 40
14.43901837670146
 40
14.43901837670146
 40
14.43901837670146
 10
18.94272733492762
 20
1.065266410034562
 30
0.0
 10
16.70583755789371
 20
1.382421548257139
 30
0.0
 10
14.61985938695464
 20
2.691210738008614
 30
0.0
 10
12.53388121601558
 20
3.99999992776009
 30
0.0
  0
SPLINE
  5
7379
330
736D
100
AcDbEntity
  8
AM_0
100
AcDbSpline
210
0.0
220
0.0
230
1.0
 70
     8
 71
     3
 72
     8
 73
     4
 74
     0
 42
0.0000000001
 43
0.0000000001
 40
4.219358800530717
 40
4.219358800530717
 40
4.219358800530717
 40
4.219358800530717
 40
14.36247867694493
 40
14.36247867694493
 40
14.36247867694493
 40
14.36247867694493
 10
18.79545460765492
 20
1.471503413361971
 30
0.0
 10
17.02486346753298
 20
1.978212296912993
 30
0.0
 10
15.32751813240538
 20
2.989106112336542
 30
0.0
 10
13.63017279727777
 20
3.99999992776009
 30
0.0
  0
SPLINE
  5
737A
330
736D
100
AcDbEntity
  8
AM_0
100
AcDbSpline
210
0.0
220
0.0
230
1.0
 70
     8
 71
     3
 72
     8
 73
     4
 74
     0
 42
0.0000000001
 43
0.0000000001
 40
0.0
 40
0.0
 40
0.0
 40
0.0
 40
14.48999654934395
 40
14.48999654934395
 40
14.48999654934395
 40
14.48999654934395
 10
4.163636425836713
 20
7.099999927760116
 30
0.0
 10
6.798181252990161
 20
7.099999927760116
 30
0.0
 10
9.189999748504341
 20
5.549999927760118
 30
0.0
 10
11.58181824401852
 20
3.999999927760122
 30
0.0
  0
SPLINE
  5
737B
330
736D
100
AcDbEntity
  8
AM_0
100
AcDbSpline
210
0.0
220
0.0
230
1.0
 70
     8
 71
     3
 72
     8
 73
     4
 74
     0
 42
0.0000000001
 43
0.0000000001
 40
0.3581103616548037
 40
0.3581103616548037
 40
0.3581103616548037
 40
0.3581103616548037
 40
14.43901837670146
 40
14.43901837670146
 40
14.43901837670146
 40
14.43901837670146
 10
5.31061355347915
 20
7.004424089928704
 30
0.0
 10
7.859847065946183
 20
6.932593112753048
 30
0.0
 10
10.19686414098088
 20
5.466296520256567
 30
0.0
 10
12.53388121601558
 20
3.99999992776009
 30
0.0
  0
SPLINE
  5
737C
330
736D
100
AcDbEntity
  8
AM_0
100
AcDbSpline
210
0.0
220
0.0
230
1.0
 70
     8
 71
     3
 72
     8
 73
     4
 74
     0
 42
0.0000000001
 43
0.0000000001
 40
0.7142832446738512
 40
0.7142832446738512
 40
0.7142832446738512
 40
0.7142832446738512
 40
14.36247867694493
 40
14.36247867694493
 40
14.36247867694493
 40
14.36247867694493
 10
6.600082622670669
 20
6.852370557451109
 30
0.0
 10
9.062406442915253
 20
6.72044028975488
 30
0.0
 10
11.34628962009651
 20
5.360220108757483
 30
0.0
 10
13.63017279727777
 20
3.99999992776009
 30
0.0
  0
SPLINE
  5
737D
330
736D
100
AcDbEntity
  8
AM_0
100
AcDbSpline
210
0.0
220
0.0
230
1.0
 70
     8
 71
     3
 72
     8
 73
     4
 74
     0
 42
0.0000000001
 43
0.0000000001
 40
0.0
 40
0.0
 40
0.0
 40
0.0
 40
2.238610194515266
 40
2.238610194515266
 40
2.238610194515266
 40
2.238610194515266
 10
12.71116360624489
 20
1.621248743347493
 30
0.0
 10
13.50924210707499
 20
1.621248743347493
 30
0.0
 10
14.29285968382424
 20
1.73787445183804
 30
0.0
 10
15.06650066888647
 20
1.934960237937754
 30
0.0
  0
SPLINE
  5
737E
330
736D
100
AcDbEntity
  8
AM_0
100
AcDbSpline
210
0.0
220
0.0
230
1.0
 70
     8
 71
     3
 72
     8
 73
     4
 74
     0
 42
0.0000000001
 43
0.0000000001
 40
0.0
 40
0.0
 40
0.0
 40
0.0
 40
13.97258598406841
 40
13.97258598406841
 40
13.97258598406841
 40
13.97258598406841
 10
12.71116360624489
 20
1.621248743347493
 30
0.0
 10
10.17069342732334
 20
1.621248743347493
 30
0.0
 10
7.776755433367384
 20
2.803014154235991
 30
0.0
 10
5.38470467775194
 20
3.999999927760083
 30
0.0
  0
LINE
  5
737F
330
736D
100
AcDbEntity
  8
AM_11
100
AcDbLine
 10
7.000000062200221
 20
0.8999999277600876
 30
0.0
 11
19.00000006220034
 21
0.8999999277600569
 31
0.0
  0
LINE
  5
7380
330
736D
100
AcDbEntity
  8
AM_11
100
AcDbLine
 10
19.00000006219992
 20
7.099999927760059
 30
0.0
 11
7.000000062200221
 21
7.099999927760046
 31
0.0
  0
LINE
  5
7381
330
736D
100
AcDbEntity
  8
AM_0
100
AcDbLine
 10
8.586315753174524
 20
6.492928508092672
 30
0.0
 11
17.71459702709748
 21
5.865241049727465
 31
0.0
  0
LINE
  5
7382
330
736D
100
AcDbEntity
  8
AM_0
100
AcDbLine
 10
7.000000062200228
 20
0.8999999277608225
 30
0.0
 11
2.47272973971161
 21
0.89999992776082
 31
0.0
  0
LINE
  5
7383
330
736D
100
AcDbEntity
  8
AM_0
100
AcDbLine
 10
7.000000062200221
 20
7.099999927760046
 30
0.0
 11
2.472729739709535
 21
7.099999927760043
 31
0.0
  0
LINE
  5
7384
330
736D
100
AcDbEntity
  8
AM_0
100
AcDbLine
 10
2.472729739709539
 20
7.099999927760043
 30
0.0
 11
2.472729739709674
 21
0.89999992776082
 31
0.0
  0
LINE
  5
7385
330
736D
100
AcDbEntity
  8
AM_0
100
AcDbLine
 10
0.0000000622003533
 20
-0.0000000722399438
 30
0.0
 11
0.0000000622003284
 21
7.99999992776006
 31
0.0
  0
LINE
  5
7386
330
736D
100
AcDbEntity
  8
AM_0
100
AcDbLine
 10
2.472729739711606
 20
0.89999992776082
 30
0.0
 11
0.0000000622003533
 21
-0.0000000722399438
 31
0.0
  0
LINE
  5
7387
330
736D
100
AcDbEntity
  8
AM_0
100
AcDbLine
 10
0.0000000622003284
 20
7.99999992776006
 30
0.0
 11
2.472729739709535
 21
7.099999927760045
 31
0.0
  0
LINE
  5
7388
330
736D
100
AcDbEntity
  8
AM_11
100
AcDbLine
 10
7.000000062200221
 20
0.8999999277608225
 30
0.0
 11
7.000000062200221
 21
7.099999927760047
 31
0.0
  0
LINE
  5
7389
330
736D
100
AcDbEntity
  8
AM_0
100
AcDbLine
 10
7.000000062200221
 20
2.665092350861675
 30
0.0
 11
7.000000062200221
 21
3.208233761484387
 31
0.0
  0
LINE
  5
738A
330
736D
100
AcDbEntity
  8
AM_0
100
AcDbLine
 10
12.71116360624489
 20
1.621248743347493
 30
0.0
 11
7.409560396632777
 21
1.234622147159936
 31
0.0
  0
LINE
  5
738B
330
736D
100
AcDbEntity
  8
AM_0
100
AcDbLine
 10
19.00000006220034
 20
0.8999999277600569
 30
0.0
 11
19.00000006220034
 21
4.12399992776005
 31
0.0
  0
LINE
  5
738C
330
736D
100
AcDbEntity
  8
AM_0
100
AcDbLine
 10
18.94272733492761
 20
1.065266410034526
 30
0.0
 11
18.9427273349276
 21
4.201583086637937
 31
0.0
  0
LINE
  5
738D
330
736D
100
AcDbEntity
  8
AM_0
100
AcDbLine
 10
18.94272733492761
 20
1.065266410034526
 30
0.0
 11
18.79545460765489
 21
1.47150341336183
 31
0.0
  0
LINE
  5
738E
330
736D
100
AcDbEntity
  8
AM_0
100
AcDbLine
 10
19.00000006220034
 20
0.8999999277600569
 30
0.0
 11
18.94272733492761
 21
1.065266410034526
 31
0.0
  0
LINE
  5
738F
330
736D
100
AcDbEntity
  8
AM_0
100
AcDbLine
 10
18.79545460765489
 20
1.47150341336183
 30
0.0
 11
18.79545460765489
 21
1.504899560457834
 31
0.0
  0
LINE
  5
7390
330
736D
100
AcDbEntity
  8
AM_0
100
AcDbLine
 10
19.00000006220034
 20
4.619999927760057
 30
0.0
 11
19.00000006220034
 21
7.099999927760059
 31
0.0
  0
LINE
  5
7391
330
736D
100
AcDbEntity
  8
AM_0
100
AcDbLine
 10
19.00000006220034
 20
4.12399992776005
 30
0.0
 11
17.71459702709748
 21
5.865241049727465
 31
0.0
  0
LINE
  5
7392
330
736D
100
AcDbEntity
  8
AM_0
100
AcDbLine
 10
18.81692377903437
 20
4.371999927760035
 30
0.0
 11
19.00000006220034
 21
4.619999927760057
 31
0.0
  0
ENDBLK
  5
7394
330
736D
100
AcDbEntity
  8
0
100
AcDbBlockEnd
  0
BLOCK
  5
7481
330
7461
100
AcDbEntity
  8
0
100
AcDbBlockBegin
  2
A$C621E111D
 70
     0
 10
0.0
 20
0.0
 30
0.0
  3
A$C621E111D
  1

  0
SPLINE
  5
7462
330
7461
100
AcDbEntity
  8
AM_0
100
AcDbSpline
210
0.0
220
0.0
230
1.0
 70
     8
 71
     3
 72
     8
 73
     4
 74
     2
 42
0.0000000001
 43
0.0000000001
 44
0.0000000001
 12
1.0
 22
-0.0000000000000002
 32
0.0
 40
0.0
 40
0.0
 40
0.0
 40
0.0
 40
14.48999654934396
 40
14.48999654934396
 40
14.48999654934396
 40
14.48999654934396
 10
5.177640929546328
 20
10.00000000634037
 30
0.0
 10
10.00763977932764
 20
10.00000000634037
 30
0.0
 10
14.39264035443698
 20
7.50000000634037
 30
0.0
 10
18.77764092954632
 20
5.000000006340371
 30
0.0
 11
5.177640929546328
 21
10.00000000634037
 31
0.0
 11
18.77764092954632
 21
5.000000006340371
 31
0.0
  0
SPLINE
  5
7463
330
7461
100
AcDbEntity
  8
AM_0
100
AcDbSpline
210
0.0
220
0.0
230
1.0
 70
     8
 71
     3
 72
     8
 73
     4
 74
     0
 42
0.0000000001
 43
0.0000000001
 40
0.3581103616548037
 40
0.3581103616548037
 40
0.3581103616548037
 40
0.3581103616548037
 40
14.43901837670146
 40
14.43901837670146
 40
14.43901837670146
 40
14.43901837670146
 10
7.28043233022413
 20
9.845845429192934
 30
0.0
 10
11.95402710308036
 20
9.729989014393481
 30
0.0
 10
16.23855840731065
 20
7.364994510366898
 30
0.0
 10
20.52308971154093
 20
5.000000006340314
 30
0.0
  0
SPLINE
  5
7464
330
7461
100
AcDbEntity
  8
AM_0
100
AcDbSpline
210
0.0
220
0.0
230
1.0
 70
     8
 71
     3
 72
     8
 73
     4
 74
     0
 42
0.0000000001
 43
0.0000000001
 40
0.0
 40
0.0
 40
0.0
 40
0.0
 40
5.192508374738713
 40
5.192508374738713
 40
5.192508374738713
 40
5.192508374738713
 10
5.177640929546328
 20
10.00000000634025
 30
0.0
 10
3.446804804633472
 20
10.00000000634025
 30
0.0
 10
1.773113408312326
 20
9.678960960549034
 30
0.0
 10
-0.0000000493133712
 20
9.073356646374179
 30
0.0
  0
SPLINE
  5
7465
330
7461
100
AcDbEntity
  8
AM_0
100
AcDbSpline
210
0.0
220
0.0
230
1.0
 70
     8
 71
     3
 72
     8
 73
     4
 74
     0
 42
0.0000000001
 43
0.0000000001
 40
0.0
 40
0.0
 40
0.0
 40
0.0
 40
13.97258598406841
 40
13.97258598406841
 40
13.97258598406841
 40
13.97258598406841
 10
20.84810742696132
 20
1.163304547610323
 30
0.0
 10
16.19057876560514
 20
1.163304547610323
 30
0.0
 10
11.80169244335255
 20
3.069377790978876
 30
0.0
 10
7.416266058057573
 20
5.000000006340314
 30
0.0
  0
SPLINE
  5
7466
330
7461
100
AcDbEntity
  8
AM_0
100
AcDbSpline
210
0.0
220
0.0
230
1.0
 70
     8
 71
     3
 72
     8
 73
     4
 74
     2
 42
0.0000000001
 43
0.0000000001
 44
0.0000000001
 12
-0.6417012268563101
 22
-0.7669547153848827
 32
0.0
 13
-0.9900999427831042
 23
-0.1403641809753962
 33
0.0
 40
0.0
 40
0.0
 40
0.0
 40
0.0
 40
2.586565323616739
 40
2.586565323616739
 40
2.586565323616739
 40
2.586565323616739
 10
32.37764092954631
 20
9.074702693024221
 30
0.0
 10
31.82437354904336
 20
8.41344320249126
 30
0.0
 10
30.8747214248303
 20
8.129473803264611
 30
0.0
 10
30.0210686985244
 20
8.008453428868335
 30
0.0
 11
32.37764092954631
 21
9.074702693024221
 31
0.0
 11
30.0210686985244
 21
8.008453428868335
 31
0.0
  0
SPLINE
  5
7467
330
7461
100
AcDbEntity
  8
AM_0
100
AcDbSpline
210
0.0
220
0.0
230
1.0
 70
     8
 71
     3
 72
     8
 73
     4
 74
     0
 42
0.0000000001
 43
0.0000000001
 40
0.0
 40
0.0
 40
0.0
 40
0.0
 40
7.57842115059705
 40
7.57842115059705
 40
7.57842115059705
 40
7.57842115059705
 10
32.37764092954631
 20
10.00000000634025
 30
0.0
 10
29.85150054601396
 20
10.00000000634025
 30
0.0
 10
27.44708500905045
 20
9.316149902322649
 30
0.0
 10
25.10073093898216
 20
8.306110517357751
 30
0.0
  0
SPLINE
  5
7468
330
7461
100
AcDbEntity
  8
AM_0
100
AcDbSpline
210
0.0
220
0.0
230
1.0
 70
     8
 71
     3
 72
     8
 73
     4
 74
     0
 42
0.0000000001
 43
0.0000000001
 40
4.219358800530717
 40
4.219358800530717
 40
4.219358800530717
 40
4.219358800530717
 40
14.36247867694493
 40
14.36247867694493
 40
14.36247867694493
 40
14.36247867694493
 10
32.00264092954637
 20
0.921779821827215
 30
0.0
 10
28.75655717265615
 20
1.739052214651451
 30
0.0
 10
25.64475739158888
 20
3.369526110495883
 30
0.0
 10
22.5329576105216
 20
5.000000006340314
 30
0.0
  0
SPLINE
  5
7469
330
7461
100
AcDbEntity
  8
AM_0
100
AcDbSpline
210
0.0
220
0.0
230
1.0
 70
     8
 71
     3
 72
     8
 73
     4
 74
     0
 42
0.0000000001
 43
0.0000000001
 40
0.7142832446738512
 40
0.7142832446738512
 40
0.7142832446738512
 40
0.7142832446738512
 40
14.36247867694493
 40
14.36247867694493
 40
14.36247867694493
 40
14.36247867694493
 10
9.644458957075244
 20
9.600597796164549
 30
0.0
 10
14.15871929419032
 20
9.38780704181579
 30
0.0
 10
18.34583845235596
 20
7.193903524078052
 30
0.0
 10
22.5329576105216
 20
5.000000006340314
 30
0.0
  0
SPLINE
  5
746A
330
7461
100
AcDbEntity
  8
AM_0
100
AcDbSpline
210
0.0
220
0.0
230
1.0
 70
     8
 71
     3
 72
     8
 73
     4
 74
     2
 42
0.0000000001
 43
0.0000000001
 44
0.0000000001
 12
-1.0
 22
0.0000000000000001
 32
0.0
 40
0.0
 40
0.0
 40
0.0
 40
0.0
 40
14.48999654934396
 40
14.48999654934396
 40
14.48999654934396
 40
14.48999654934396
 10
32.37764092954631
 20
0.0000000063402581
 30
0.0
 10
27.54764207976499
 20
0.0000000063402587
 30
0.0
 10
23.16264150465566
 20
2.500000006340258
 30
0.0
 10
18.77764092954632
 20
5.000000006340258
 30
0.0
 11
32.37764092954631
 21
0.0000000063402581
 31
0.0
 11
18.77764092954632
 21
5.000000006340258
 31
0.0
  0
SPLINE
  5
746B
330
7461
100
AcDbEntity
  8
AM_0
100
AcDbSpline
210
0.0
220
0.0
230
1.0
 70
     8
 71
     3
 72
     8
 73
     4
 74
     0
 42
0.0000000001
 43
0.0000000001
 40
1.870660592686466
 40
1.870660592686466
 40
1.870660592686466
 40
1.870660592686466
 40
14.43901837670146
 40
14.43901837670146
 40
14.43901837670146
 40
14.43901837670146
 10
32.27264092954632
 20
0.2665588487184891
 30
0.0
 10
28.17167633831749
 20
0.7780993942387795
 30
0.0
 10
24.3473830249292
 20
2.889049700289547
 30
0.0
 10
20.52308971154093
 20
5.000000006340314
 30
0.0
  0
SPLINE
  5
746C
330
7461
100
AcDbEntity
  8
AM_0
100
AcDbSpline
210
0.0
220
0.0
230
1.0
 70
     8
 71
     3
 72
     8
 73
     4
 74
     0
 42
0.0000000001
 43
0.0000000001
 40
0.0
 40
0.0
 40
0.0
 40
0.0
 40
2.238610194515266
 40
2.238610194515266
 40
2.238610194515266
 40
2.238610194515266
 10
20.84810742696132
 20
1.163304547610323
 30
0.0
 10
22.31125134514982
 20
1.163304547610323
 30
0.0
 10
23.74788356919012
 20
1.351410529046688
 30
0.0
 10
25.16622537513754
 20
1.669290829207511
 30
0.0
  0
LINE
  5
746D
330
7461
100
AcDbEntity
  8
AM_11
100
AcDbLine
 10
11.97764092954559
 20
0.0000000063403149
 30
0.0
 11
32.37764092954631
 21
0.0000000063402581
 31
0.0
  0
LINE
  5
746E
330
7461
100
AcDbEntity
  8
AM_11
100
AcDbLine
 10
32.37764092954555
 20
10.00000000634025
 30
0.0
 11
5.177640929545248
 21
10.00000000634025
 31
0.0
  0
LINE
  5
746F
330
7461
100
AcDbEntity
  8
AM_0
100
AcDbLine
 10
13.28588636299897
 20
9.020852555263843
 30
0.0
 11
30.0210686985244
 21
8.008453428868335
 31
0.0
  0
LINE
  5
7470
330
7461
100
AcDbEntity
  8
AM_11
100
AcDbLine
 10
10.37764092954608
 20
0.0000000063415087
 30
0.0
 11
10.37764092954609
 21
10.00000000634025
 31
0.0
  0
ARC
  5
7471
330
7461
100
AcDbEntity
  8
AM_0
100
AcDbCircle
 10
46.79951816901351
 20
85.49216542398188
 30
0.0
 40
89.61043042222311
100
AcDbArc
 50
238.516348495351
 51
243.928395204868
  0
ARC
  5
7472
330
7461
100
AcDbEntity
  8
AM_0
100
AcDbCircle
 10
12.8960333818577
 20
12.01080927867739
 30
0.0
 40
12.04587000066505
100
AcDbArc
 50
231.9711497740364
 51
265.6274538140337
  0
ARC
  5
7473
330
7461
100
AcDbEntity
  8
AM_0
100
AcDbCircle
 10
12.3420137627634
 20
13.05202928537631
 30
0.0
 40
12.57102478484522
100
AcDbArc
 50
236.8897931757458
 51
264.4604700175731
  0
ARC
  5
7474
330
7461
100
AcDbEntity
  8
AM_0
100
AcDbCircle
 10
9.384178989810401
 20
-19.32981345967004
 30
0.0
 40
22.19897787233719
100
AcDbArc
 50
78.37422037564547
 51
100.1423169251443
  0
LINE
  5
7475
330
7461
100
AcDbEntity
  8
AM_0
100
AcDbLine
 10
20.84810742696132
 20
1.163304547610323
 30
0.0
 11
11.12850154267243
 21
0.5397132634368518
 31
0.0
  0
ARC
  5
7476
330
7461
100
AcDbEntity
  8
AM_0
100
AcDbCircle
 10
12.10573267764436
 20
5.227198434424742
 30
0.0
 40
5.228767627510293
100
AcDbArc
 50
268.5962560692248
 51
301.704292261137
  0
LINE
  5
7477
330
7461
100
AcDbEntity
  8
AM_0
100
AcDbLine
 10
10.37764092954609
 20
2.846923269407398
 30
0.0
 11
10.37764092954609
 21
3.722957802669839
 31
0.0
  0
LINE
  5
7478
330
7461
100
AcDbEntity
  8
AM_0
100
AcDbLine
 10
32.37764092954631
 20
6.000000006340258
 30
0.0
 11
32.37764092954631
 21
10.00000000634025
 31
0.0
  0
LINE
  5
7479
330
7461
100
AcDbEntity
  8
AM_0
100
AcDbLine
 10
32.37764092954631
 20
5.200000006340246
 30
0.0
 11
30.0210686985244
 21
8.008453428868335
 31
0.0
  0
ARC
  5
747A
330
7461
100
AcDbEntity
  8
AM_0
100
AcDbCircle
 10
46.58440937192898
 20
5.021037318048627
 30
0.0
 40
15.13252038991184
100
AcDbArc
 50
175.3635181775061
 51
195.5055110014724
  0
LINE
  5
747B
330
7461
100
AcDbEntity
  8
AM_0
100
AcDbLine
 10
32.37764092954631
 20
0.0000000063402581
 30
0.0
 11
32.37764092954631
 21
5.200000006340246
 31
0.0
  0
LINE
  5
747C
330
7461
100
AcDbEntity
  8
AM_0
100
AcDbLine
 10
32.2726409295463
 20
0.2665588487184323
 30
0.0
 11
32.2726409295463
 21
5.325134133562642
 31
0.0
  0
LINE
  5
747D
330
7461
100
AcDbEntity
  8
AM_0
100
AcDbLine
 10
32.00264092954631
 20
0.9217798218269876
 30
0.0
 11
32.00264092954631
 21
0.9756445752076388
 31
0.0
  0
LINE
  5
747E
330
7461
100
AcDbEntity
  8
AM_0
100
AcDbLine
 10
32.2726409295463
 20
0.2665588487184323
 30
0.0
 11
32.00264092954631
 21
0.9217798218269876
 31
0.0
  0
LINE
  5
747F
330
7461
100
AcDbEntity
  8
AM_0
100
AcDbLine
 10
32.37764092954631
 20
0.0000000063402581
 30
0.0
 11
32.2726409295463
 21
0.2665588487184323
 31
0.0
  0
LINE
  5
7480
330
7461
100
AcDbEntity
  8
AM_0
100
AcDbLine
 10
32.04200107707538
 20
5.600000006340223
 30
0.0
 11
32.37764092954631
 21
6.000000006340258
 31
0.0
  0
ENDBLK
  5
7482
330
7461
100
AcDbEntity
  8
0
100
AcDbBlockEnd
  0
ENDSEC
  0
SECTION
  2
ENTITIES
  0
LINE
  5
C2E
330
1F
100
AcDbEntity
  8
AM_7
  6
AM_ISO08W050X2
100
AcDbLine
 10
2.051049680252134
 20
0.0
 30
0.0
 11
-51.5
 21
-0.0000000000000077
 31
0.0
  0
DIMENSION
  5
10F0
330
1F
100
AcDbEntity
  8
AM_5
100
AcDbDimension
  2
*D5
 10
-0.0000000000003206
 20
-17.00000099999996
 30
0.0
 11
-25.00000000000015
 21
-15.45000099999996
 31
0.0
 70
    32
  1
<>
  3
AM_JIS
100
AcDbAlignedDimension
 13
-50.0
 23
-3.500000000000007
 33
0.0
 14
-0.0000000000003197
 24
-3.249999999999446
 34
0.0
 50
0.0000000000001132
100
AcDbRotatedDimension
1001
GENIUS_GENDTOL_13
1000

1000
h7
1000

1040
0.0
  0
DIMENSION
  5
12D8
330
1F
100
AcDbEntity
  8
AM_5
100
AcDbDimension
  2
*D6
 10
-11.99999999999999
 20
-11.00000099999998
 30
0.0
 11
-6.000000000000089
 21
-9.450000999999986
 31
0.0
 70
    32
  1
<>
  3
AM_JIS
100
AcDbAlignedDimension
 13
-0.0000000000001812
 23
-3.249999999999446
 33
0.0
 14
-11.99999999999999
 24
-3.250000000000008
 34
0.0
 50
0.0000000000001132
100
AcDbRotatedDimension
1001
GENIUS_GENDTOL_13
1000

1000
h7
1000

1040
0.0
  0
TEXT
  5
1500
330
1F
100
AcDbEntity
  8
AM_6
100
AcDbText
 10
-35.59523809523824
 20
-28.25000099999996
 30
0.0
 40
2.5
  1
SSM2065ZX
 72
     4
 11
-25.00000000000014
 21
-27.00000099999996
 31
0.0
100
AcDbText
  0
DIMENSION
  5
1A73
330
1F
100
AcDbEntity
  8
AM_5
100
AcDbDimension
  2
*D7
 10
-58.50000099999999
 20
-4.000000000000004
 30
0.0
 11
-58.50000099999999
 21
-0.0000000000000084
 31
0.0
 70
   160
  1
%%c<>
  3
AM_JIS
100
AcDbAlignedDimension
 13
-49.50000000000001
 23
3.999999999999993
 33
0.0
 14
-49.49999999999999
 24
-4.000000000000007
 34
0.0
 50
270.0
100
AcDbRotatedDimension
1001
GENIUS_GENDTOL_13
1000

1000
h7
1000

1040
0.0
  0
LINE
  5
67B8
330
1F
100
AcDbEntity
  8
AM_0
100
AcDbLine
 10
-49.50000000000001
 20
3.999999999999993
 30
0.0
 11
-19.00000000000001
 21
4.000000000000002
 31
0.0
  0
LINE
  5
67B9
330
1F
100
AcDbEntity
  8
AM_0
100
AcDbLine
 10
-49.49999999999999
 20
-4.000000000000007
 30
0.0
 11
-18.99999999999998
 21
-4.000000000000001
 31
0.0
  0
LINE
  5
67BC
330
1F
100
AcDbEntity
  8
AM_0
100
AcDbLine
 10
-50.0
 20
-3.500000000000007
 30
0.0
 11
-50.0
 21
3.499999999999993
 31
0.0
  0
LINE
  5
67BD
330
1F
100
AcDbEntity
  8
AM_0
100
AcDbLine
 10
-49.50000000000001
 20
3.999999999999993
 30
0.0
 11
-49.49999999999999
 21
-4.000000000000007
 31
0.0
  0
LINE
  5
6845
330
1F
100
AcDbEntity
  8
AM_0
100
AcDbLine
 10
-18.99999999999998
 20
-4.000000000000001
 30
0.0
 11
-19.00000000000001
 21
4.000000000000002
 31
0.0
  0
LINE
  5
6853
330
1F
100
AcDbEntity
  8
AM_0
100
AcDbLine
 10
-15.34722222222214
 20
3.249999999999988
 30
0.0
 11
-16.939391935409
 21
3.249999999999987
 31
0.0
  0
LINE
  5
6854
330
1F
100
AcDbEntity
  8
AM_0
100
AcDbLine
 10
-11.99999999999999
 20
-3.250000000000009
 30
0.0
 11
-16.93939193540905
 21
-3.250000000000011
 31
0.0
  0
LINE
  5
6855
330
1F
100
AcDbEntity
  8
AM_0
100
AcDbLine
 10
-19.00000000000001
 20
4.000000000000002
 30
0.0
 11
-16.939391935409
 21
3.249999999999987
 31
0.0
  0
LINE
  5
6857
330
1F
100
AcDbEntity
  8
AM_0
100
AcDbLine
 10
-16.93939193540886
 20
-3.24999999999994
 30
0.0
 11
-18.99999999999998
 21
-4.000000000000001
 31
0.0
  0
DIMENSION
  5
6C1C
330
1F
100
AcDbEntity
  8
AM_5
100
AcDbDimension
  2
*D8
 10
9.051050680252128
 20
-3.250000000000009
 30
0.0
 11
7.501050680252127
 21
-0.0000000000000079
 31
0.0
 70
    32
  1
%%c<>
  3
AM_JIS
100
AcDbAlignedDimension
 13
0.0
 23
3.249999999999992
 33
0.0
 14
-0.0000000000001368
 24
-3.250000000000007
 34
0.0
 50
90.0
100
AcDbRotatedDimension
1001
GENIUS_GENDTOL_13
1000

1000
h7
1000

1040
0.0
  0
LINE
  5
744D
330
1F
100
AcDbEntity
  8
AM_0
100
AcDbLine
 10
-16.939391935409
 20
3.249999999999987
 30
0.0
 11
-16.939391935409
 21
3.065640167032147
 31
0.0
  0
LINE
  5
74CD
330
1F
100
AcDbEntity
  8
AM_0
100
AcDbLine
 10
-0.1893801250919474
 20
0.3900000000000858
 30
0.0
 11
0.0
 21
0.6499999999999986
 31
0.0
  0
LINE
  5
74CE
330
1F
100
AcDbEntity
  8
AM_0
100
AcDbLine
 10
0.0
 20
0.1300000000000239
 30
0.0
 11
-1.329663151184175
 21
1.955494724643322
 31
0.0
  0
LINE
  5
74CF
330
1F
100
AcDbEntity
  8
AM_0
100
AcDbLine
 10
-0.2115885416666654
 20
-2.650843119933554
 30
0.0
 11
-0.2115885416666654
 21
-2.615831030236172
 31
0.0
  0
LINE
  5
74D0
330
1F
100
AcDbEntity
  8
AM_0
100
AcDbLine
 10
0.0000000000000031
 20
-3.250000000000007
 30
0.0
 11
-0.0592447916666751
 21
-3.076736752454081
 31
0.0
  0
LINE
  5
74D1
330
1F
100
AcDbEntity
  8
AM_0
100
AcDbLine
 10
-0.0592447916666751
 20
-3.076736752454081
 30
0.0
 11
-0.2115885416666654
 21
-2.650843119933554
 31
0.0
  0
LINE
  5
74D2
330
1F
100
AcDbEntity
  8
AM_0
100
AcDbLine
 10
0.0000000000000031
 20
-3.250000000000007
 30
0.0
 11
0.0
 21
0.1300000000000239
 31
0.0
  0
LINE
  5
74D3
330
1F
100
AcDbEntity
  8
AM_0
100
AcDbLine
 10
-0.0592447916666751
 20
-3.076736752454081
 30
0.0
 11
-0.0592447916666766
 21
0.2113371826946562
 31
0.0
  0
LINE
  5
74D4
330
1F
100
AcDbEntity
  8
AM_0
100
AcDbLine
 10
0.0
 20
0.6499999999999986
 30
0.0
 11
-0.0000000000000015
 21
3.249999999999992
 31
0.0
  0
LINE
  5
74D7
330
1F
100
AcDbEntity
  8
AM_11
100
AcDbLine
 10
-12.0
 20
3.24999999999999
 30
0.0
 11
-11.99999999999999
 21
-3.250000000000009
 31
0.0
  0
LINE
  5
74D8
330
1F
100
AcDbEntity
  8
AM_0
100
AcDbLine
 10
-10.77225735091629
 20
2.613554156800461
 30
0.0
 11
-1.329663151184175
 21
1.955494724643322
 31
0.0
  0
LINE
  5
74D9
330
1F
100
AcDbEntity
  8
AM_0
100
AcDbLine
 10
-7.137780986055027
 20
-2.470358223065071
 30
0.0
 11
-12.62366308506017
 21
-2.899186382887073
 31
0.0
  0
LINE
  5
74DA
330
1F
100
AcDbEntity
  8
AM_11
100
AcDbLine
 10
-11.99999999999999
 20
-3.250000000000009
 30
0.0
 11
0.0000000000000031
 21
-3.250000000000007
 31
0.0
  0
LINE
  5
74DB
330
1F
100
AcDbEntity
  8
AM_11
100
AcDbLine
 10
-0.000000000000515
 20
3.249999999999992
 30
0.0
 11
-12.0
 21
3.24999999999999
 31
0.0
  0
ELLIPSE
  5
74DC
330
1F
100
AcDbEntity
  8
AM_0
100
AcDbEllipse
 10
8.01597177738612
 20
0.0136742526104428
 30
0.0
 11
-0.0000000000000014
 21
9.836138253442726
 31
0.0
210
0.0
220
0.0
230
1.0
 40
0.8680555555555534
 41
1.489874453283513
 42
1.841418545974971
  0
SPLINE
  5
74DD
330
1F
100
AcDbEntity
  8
AM_0
100
AcDbSpline
210
0.0
220
0.0
230
1.0
 70
     8
 71
     3
 72
     8
 73
     4
 74
     0
 42
0.0000000001
 43
0.0000000001
 40
0.0
 40
0.0
 40
0.0
 40
0.0
 40
2.238610194515266
 40
2.238610194515266
 40
2.238610194515266
 40
2.238610194515266
 10
-6.505379146423836
 20
-2.493852048174318
 30
0.0
 10
-5.679820512029277
 20
-2.493852048174318
 30
0.0
 10
-4.869220732839874
 20
-2.371583160240675
 30
0.0
 10
-4.06894106802579
 20
-2.164960965136145
 30
0.0
  0
SPLINE
  5
74DE
330
1F
100
AcDbEntity
  8
AM_0
100
AcDbSpline
210
0.0
220
0.0
230
1.0
 70
     8
 71
     3
 72
     8
 73
     4
 74
     0
 42
0.0000000001
 43
0.0000000001
 40
0.0
 40
0.0
 40
0.0
 40
0.0
 40
9.418497757073525
 40
9.418497757073525
 40
9.418497757073525
 40
9.418497757073525
 10
0.0000000000000031
 20
-3.250000000000007
 30
0.0
 10
-2.725259767671734
 20
-3.250000000000009
 30
0.0
 10
-5.199435439391399
 20
-1.625000000000008
 30
0.0
 10
-7.673611111111061
 20
-0.0000000000000071
 30
0.0
  0
SPLINE
  5
74DF
330
1F
100
AcDbEntity
  8
AM_0
100
AcDbSpline
210
0.0
220
0.0
230
1.0
 70
     8
 71
     3
 72
     8
 73
     4
 74
     0
 42
0.0000000001
 43
0.0000000001
 40
1.870660592686466
 40
1.870660592686466
 40
1.870660592686466
 40
1.870660592686466
 40
14.43901837670146
 40
14.43901837670146
 40
14.43901837670146
 40
14.43901837670146
 10
-0.0592447916666736
 20
-3.076736752454081
 30
0.0
 10
-2.37315710442587
 20
-2.744235397865857
 30
0.0
 10
-4.53096149132034
 20
-1.372117698932932
 30
0.0
 10
-6.688765878214814
 20
0.000000000000135
 30
0.0
  0
SPLINE
  5
74E0
330
1F
100
AcDbEntity
  8
AM_0
100
AcDbSpline
210
0.0
220
0.0
230
1.0
 70
     8
 71
     3
 72
     8
 73
     4
 74
     0
 42
0.0000000001
 43
0.0000000001
 40
4.219358800530717
 40
4.219358800530717
 40
4.219358800530717
 40
4.219358800530717
 40
14.36247867694493
 40
14.36247867694493
 40
14.36247867694493
 40
14.36247867694493
 10
-0.2115885416666654
 20
-2.650843119933405
 30
0.0
 10
-2.043146216995296
 20
-2.119616064597693
 30
0.0
 10
-3.798936024020961
 20
-1.059808032298775
 30
0.0
 10
-5.55472583104688
 20
0.0000000000001421
 30
0.0
  0
SPLINE
  5
74E1
330
1F
100
AcDbEntity
  8
AM_0
100
AcDbSpline
210
0.0
220
0.0
230
1.0
 70
     8
 71
     3
 72
     8
 73
     4
 74
     0
 42
0.0000000001
 43
0.0000000001
 40
0.0
 40
0.0
 40
0.0
 40
0.0
 40
1.68126746035081
 40
1.68126746035081
 40
1.68126746035081
 40
1.68126746035081
 10
-0.0000000000000015
 20
2.648556746344645
 30
0.0
 10
-0.3121734351796042
 20
2.218738077498238
 30
0.0
 10
-0.848001456653958
 20
2.034157968000898
 30
0.0
 10
-1.329663151184175
 20
1.955494724643322
 30
0.0
  0
SPLINE
  5
74E2
330
1F
100
AcDbEntity
  8
AM_0
100
AcDbSpline
210
0.0
220
0.0
230
1.0
 70
     8
 71
     3
 72
     8
 73
     4
 74
     0
 42
0.0000000001
 43
0.0000000001
 40
0.0
 40
0.0
 40
0.0
 40
0.0
 40
7.57842115059705
 40
7.57842115059705
 40
7.57842115059705
 40
7.57842115059705
 10
-0.0000000000000015
 20
3.249999999999992
 30
0.0
 10
-1.42533962612485
 20
3.249999999999992
 30
0.0
 10
-2.78199769819645
 20
2.805497432388655
 30
0.0
 10
-4.105895393981445
 20
2.1489718321614
 30
0.0
  0
ELLIPSE
  5
74E3
330
1F
100
AcDbEntity
  8
AM_0
100
AcDbEllipse
 10
-12.07227398980692
 20
0.1476789782550512
 30
0.0
 11
-0.000000000000005
 21
3.398698957881691
 31
0.0
210
0.0
220
0.0
230
1.0
 40
0.8680555555555546
 41
3.117092700142875
 42
3.694936940561196
  0
ELLIPSE
  5
74E4
330
1F
100
AcDbEntity
  8
AM_0
100
AcDbEllipse
 10
-13.13015894894495
 20
-3.358731732762176
 30
0.0
 11
0.695515279428257
 21
4.70089902282987
 31
0.0
210
0.0
220
0.0
230
1.0
 40
0.6382026249114118
 41
0.7612206884793738
 42
1.285673236827789
  0
ELLIPSE
  5
74E5
330
1F
100
AcDbEntity
  8
AM_0
100
AcDbEllipse
 10
-11.93895566921024
 20
5.23381903137357
 30
0.0
 11
0.0000000000000459
 21
8.171166110149389
 31
0.0
210
0.0
220
0.0
230
1.0
 40
0.8680555555555542
 41
2.563710528490263
 42
3.044909616383506
  0
ELLIPSE
  5
74E6
330
1F
100
AcDbEntity
  8
AM_0
100
AcDbEllipse
 10
-11.62635779385321
 20
4.557026027019276
 30
0.0
 11
0.0000000000000309
 21
7.829815500432283
 31
0.0
210
0.0
220
0.0
230
1.0
 40
0.868055555555555
 41
2.477864006398938
 42
3.065277325949164
  0
SPLINE
  5
74E7
330
1F
100
AcDbEntity
  8
AM_0
100
AcDbSpline
210
0.0
220
0.0
230
1.0
 70
     8
 71
     3
 72
     8
 73
     4
 74
     0
 42
0.0000000001
 43
0.0000000001
 40
0.0
 40
0.0
 40
0.0
 40
0.0
 40
13.97258598406841
 40
13.97258598406841
 40
13.97258598406841
 40
13.97258598406841
 10
-6.505379146423873
 20
-2.493852048174311
 30
0.0
 10
-9.133325005696015
 20
-2.493852048174311
 30
0.0
 10
-11.60969315627257
 20
-1.254904439984748
 30
0.0
 10
-14.08410908547547
 20
0.0000000000001847
 30
0.0
  0
SPLINE
  5
74E8
330
1F
100
AcDbEntity
  8
AM_0
100
AcDbSpline
210
0.0
220
0.0
230
1.0
 70
     8
 71
     3
 72
     8
 73
     4
 74
     0
 42
0.0000000001
 43
0.0000000001
 40
0.7142832446738512
 40
0.7142832446738512
 40
0.7142832446738512
 40
0.7142832446738512
 40
14.36247867694493
 40
14.36247867694493
 40
14.36247867694493
 40
14.36247867694493
 10
-12.82688218932806
 20
2.990388563385785
 30
0.0
 10
-10.27977349217112
 20
2.852074573059091
 30
0.0
 10
-7.917249661608907
 20
1.426037286529563
 30
0.0
 10
-5.554725831046693
 20
0.0000000000000284
 30
0.0
  0
SPLINE
  5
74E9
330
1F
100
AcDbEntity
  8
AM_0
100
AcDbSpline
210
0.0
220
0.0
230
1.0
 70
     8
 71
     3
 72
     8
 73
     4
 74
     0
 42
0.0000000001
 43
0.0000000001
 40
0.0
 40
0.0
 40
0.0
 40
0.0
 40
9.418497757073573
 40
9.418497757073573
 40
9.418497757073573
 40
9.418497757073573
 10
-15.34722222222198
 20
3.250000000000071
 30
0.0
 10
-12.62196245455023
 20
3.25000000000007
 30
0.0
 10
-10.14778678283055
 20
1.62500000000007
 30
0.0
 10
-7.673611111110874
 20
0.0000000000000711
 30
0.0
  0
SPLINE
  5
74EA
330
1F
100
AcDbEntity
  8
AM_0
100
AcDbSpline
210
0.0
220
0.0
230
1.0
 70
     8
 71
     3
 72
     8
 73
     4
 74
     0
 42
0.0000000001
 43
0.0000000001
 40
0.3581103616548037
 40
0.3581103616548037
 40
0.3581103616548037
 40
0.3581103616548037
 40
14.43901837670146
 40
14.43901837670146
 40
14.43901837670146
 40
14.43901837670146
 10
-14.16075137982565
 20
3.14979952485423
 30
0.0
 10
-11.52374044028003
 20
3.074492855234588
 30
0.0
 10
-9.106253159247323
 20
1.537246427617311
 30
0.0
 10
-6.688765878214606
 20
0.0000000000000284
 30
0.0
  0
ELLIPSE
  5
74EB
330
1F
100
AcDbEntity
  8
AM_0
100
AcDbEllipse
 10
8.137343928519058
 20
52.31990752146703
 30
0.0
 11
-0.0000000000120809
 21
58.24677977444591
 31
0.0
210
0.0
220
0.0
230
1.0
 40
0.8680555555555894
 41
2.592099274282992
 42
2.686557308635788
  0
SPLINE
  5
74EC
330
1F
100
AcDbEntity
  8
AM_0
100
AcDbSpline
210
0.0
220
0.0
230
1.0
 70
     8
 71
     3
 72
     8
 73
     4
 74
     0
 42
0.0000000001
 43
0.0000000001
 40
0.0
 40
0.0
 40
0.0
 40
0.0
 40
5.192508374738713
 40
5.192508374738713
 40
5.192508374738713
 40
5.192508374738713
 10
-15.34722222222198
 20
3.25
 30
0.0
 10
-16.32382246631344
 20
3.25
 30
0.0
 10
-17.2681795909738
 20
3.041324620235705
 30
0.0
 10
-18.2686342328633
 20
2.64768181602205
 30
0.0
  0
LINE
  5
74EE
330
1F
100
AcDbEntity
  8
AM_0
100
AcDbLine
 10
-16.93939193540897
 20
1.741772759646082
 30
0.0
 11
-16.93939193540886
 21
-3.250000000000011
 31
0.0
  0
LINE
  5
7865
330
1F
100
AcDbEntity
  8
AM_0
100
AcDbLine
 10
-49.50000000000001
 20
3.999999999999993
 30
0.0
 11
-50.0
 21
3.499999999999993
 31
0.0
1001
GENIUS_GENFIL_13
1070
     0
1040
0.5
1040
0.5
1040
20.0
1040
0.0
1002
{
1002
}
1001
GENIUS_GENODEF_13
1002
{
1000
HIER
1070
     0
1002
}
1002
{
1000
MANEDIT
1070
     0
1002
}
1002
{
1000
NOSEL
1070
     0
1002
}
1002
{
1000
BEHIND
1070
     0
1002
}
1002
{
1000
REACTOR
1002
}
1001
GENIUS_GENOBJ-N-CHA_13
1002
{
1000
OWNER
1000
GEN
1002
}
  0
LINE
  5
7868
330
1F
100
AcDbEntity
  8
AM_0
100
AcDbLine
 10
-49.49999999999999
 20
-4.000000000000007
 30
0.0
 11
-50.0
 21
-3.500000000000007
 31
0.0
1001
GENIUS_GENFIL_13
1070
     0
1040
0.5
1040
0.5
1040
20.0
1040
0.0
1002
{
1002
}
1001
GENIUS_GENODEF_13
1002
{
1000
HIER
1070
     0
1002
}
1002
{
1000
MANEDIT
1070
     0
1002
}
1002
{
1000
NOSEL
1070
     0
1002
}
1002
{
1000
BEHIND
1070
     0
1002
}
1002
{
1000
REACTOR
1002
}
1001
GENIUS_GENOBJ-N-CHA_13
1002
{
1000
OWNER
1000
GEN
1002
}
  0
VIEWPORT
  5
110
330
101
100
AcDbEntity
 67
     1
  8
0
100
AcDbViewport
 10
420.5
 20
297.0
 30
0.0
 40
948.9782706766916
 41
628.452
 68
     1
 69
     1
1001
ACAD
1000
MVIEW
1002
{
1070
    16
1010
0.0
1020
0.0
1030
0.0
1010
0.0
1020
0.0
1030
1.0
1040
0.0
1040
628.452
1040
420.5
1040
297.0
1040
50.0
1040
0.0
1040
0.0
1070
     0
1070
   100
1070
     1
1070
     1
1070
     0
1070
     0
1070
     0
1070
     0
1040
0.0
1040
0.0
1040
0.0
1040
10.0
1040
10.0
1040
10.0
1040
10.0
1070
     0
1002
{
1002
}
1002
}
  0
ENDSEC
  0
SECTION
  2
OBJECTS
  0
DICTIONARY
  5
C
330
0
100
AcDbDictionary
  3
ACAD_GROUP
350
D
  3
ACAD_LAYOUT
350
1A
  3
ACAD_MLINESTYLE
350
17
  3
ACAD_PLOTSETTINGS
350
19
  3
ACAD_PLOTSTYLENAME
350
E
  3
ACDBVARIABLEDICTIONARY
350
34
  3
ACMDICTIONARY
350
43
  3
AMG
350
2B
  3
AMGSNAPSETTINGS
350
6E
  3
ASE_INDEX_DICTIONARY
350
151A
  3
DWGPROPS
350
79C3
  3
ACDBHEADERROUNDTRIPXREC
350
79D0
  0
DICTIONARY
  5
74
330
1F
100
AcDbDictionary
280
     1
  3
ACAD_INDEX
360
79C5
  3
ACAD_LAYOUTSELFREF
360
79F3
  0
DICTIONARY
  5
79F8
330
101
100
AcDbDictionary
280
     1
  3
ACAD_LAYOUTSELFREF
360
79F9
  0
DICTIONARY
  5
D
102
{ACAD_REACTORS
330
C
102
}
330
C
100
AcDbDictionary
  0
DICTIONARY
  5
1A
102
{ACAD_REACTORS
330
C
102
}
330
C
100
AcDbDictionary
  0
DICTIONARY
  5
17
102
{ACAD_REACTORS
330
C
102
}
330
C
100
AcDbDictionary
  3
STANDARD
350
18
  0
DICTIONARY
  5
19
102
{ACAD_REACTORS
330
C
102
}
330
C
100
AcDbDictionary
  0
ACDBDICTIONARYWDFLT
  5
E
102
{ACAD_REACTORS
330
C
102
}
330
C
100
AcDbDictionary
281
     1
  3
Normal
350
F
100
AcDbDictionaryWithDefault
340
F
  0
DICTIONARY
  5
34
102
{ACAD_REACTORS
330
C
102
}
330
C
100
AcDbDictionary
  3
INDEXCTL
350
35
  3
SORTENTS
350
B5E
  0
DICTIONARY
  5
43
102
{ACAD_REACTORS
330
C
102
}
330
C
100
AcDbDictionary
  3
ACMSTDDICTIONARY
350
260
  0
DICTIONARY
  5
2B
102
{ACAD_REACTORS
330
C
102
}
330
C
100
AcDbDictionary
  3
ACMGSETTINGS
350
2C
  0
DICTIONARY
  5
6E
102
{ACAD_REACTORS
330
C
102
}
330
C
100
AcDbDictionary
  0
DICTIONARY
  5
151A
102
{ACAD_REACTORS
330
C
102
}
330
C
100
AcDbDictionary
  3
ASEBLOCKHIERARCHYINDEXRECORD
350
151C
1001
DCO15
1040
1471862535.906
  0
XRECORD
  5
79C3
102
{ACAD_REACTORS
330
C
102
}
330
C
100
AcDbXrecord
  1
DWGPROPS COOKIE
  2

  3

  4

  6

  7

  8

  9

300
AmdtFileType=82
301
=
302
=
303
=
304
=
305
=
306
=
307
=
308
=
309
=
 40
0.3323852893518518
 41
2452838.430434386
 42
2452962.868161412
  1

 90
        1
  0
DICTIONARY
  5
79D0
102
{ACAD_REACTORS
330
C
102
}
330
C
100
AcDbDictionary
  3
TSTACKALIGN
350
79D1
  3
TSTACKSIZE
350
79D2
  3
HYPERLINKBASE
350
79D3
  3
STYLESHEET
350
79D4
  3
LAYOUTDICT
350
79D5
  3
PLOTSETDICT
350
79D6
  3
PLOTSTYLNAMDICT
350
79D7
  3
LWETCUNION
350
79D8
  3
INSUNITS
350
79D9
  3
CEPSNTYPE
350
79DA
  3
FINGERPRINTGUID
350
79DB
  3
VERSIONGUID
350
79DC
  3
PSVPSCALE
350
79DD
  3
DIMSTYLEDATA
350
79DE
  3
PUCSORTHOREF
350
79DF
  3
PUCSORTHOVIEW
350
79E0
  3
PUCSBASE
350
79E1
  3
PUCSORGTOP
350
79E2
  3
PUCSORGBOTTOM
350
79E3
  3
PUCSORGLEFT
350
79E4
  3
PUCSORGRIGHT
350
79E5
  3
PUCSORGFRONT
350
79E6
  3
PUCSORGBACK
350
79E7
  3
UCSORTHOREF
350
79E8
  3
UCSORTHOVIEW
350
79E9
  3
UCSBASE
350
79EA
  3
UCSORGTOP
350
79EB
  3
UCSORGBOTTOM
350
79EC
  3
UCSORGLEFT
350
79ED
  3
UCSORGRIGHT
350
79EE
  3
UCSORGFRONT
350
79EF
  3
UCSORGBACK
350
79F0
  0
DICTIONARY
  5
79C5
102
{ACAD_REACTORS
330
74
102
}
330
74
100
AcDbDictionary
  3
*A1
350
79C6
  0
XRECORD
  5
79F3
102
{ACAD_REACTORS
330
74
102
}
330
74
100
AcDbXrecord
340
1F
  0
XRECORD
  5
79F9
102
{ACAD_REACTORS
330
79F8
102
}
330
79F8
100
AcDbXrecord
340
101
  0
MLINESTYLE
  5
18
102
{ACAD_REACTORS
330
17
102
}
330
17
100
AcDbMlineStyle
  2
STANDARD
 70
     0
  3

 62
   256
 51
90.0
 52
90.0
 71
     2
 49
0.5
 62
   256
  6
BYLAYER
 49
-0.5
 62
   256
  6
BYLAYER
  0
ACDBPLACEHOLDER
  5
F
102
{ACAD_REACTORS
330
E
102
}
330
E
100
AcDbPlaceHolder
280
     0
  0
DICTIONARYVAR
  5
35
102
{ACAD_REACTORS
330
34
102
}
330
34
100
DictionaryVariables
280
     0
  1
1
  0
DICTIONARYVAR
  5
B5E
102
{ACAD_REACTORS
330
34
102
}
330
34
100
DictionaryVariables
280
     0
  1
96
  0
DICTIONARY
  5
260
102
{ACAD_REACTORS
330
43
102
}
330
43
100
AcDbDictionary
  0
DICTIONARY
  5
2C
102
{ACAD_REACTORS
330
2B
102
}
330
2B
100
AcDbDictionary
  3
DWGSETTINGS
350
2D
  0
XRECORD
  5
151C
102
{ACAD_REACTORS
330
151A
102
}
330
151A
100
AcDbXrecord
330
0
330
0
330
0
330
0
330
0
330
0
330
0
330
0
  0
XRECORD
  5
79D1
102
{ACAD_REACTORS
330
79D0
102
}
330
79D0
100
AcDbXrecord
 90
        1
  0
XRECORD
  5
79D2
102
{ACAD_REACTORS
330
79D0
102
}
330
79D0
100
AcDbXrecord
 90
       70
  0
XRECORD
  5
79D3
102
{ACAD_REACTORS
330
79D0
102
}
330
79D0
100
AcDbXrecord
  1

  0
XRECORD
  5
79D4
102
{ACAD_REACTORS
330
79D0
102
}
330
79D0
100
AcDbXrecord
  1
ASAMI.ctb
  0
XRECORD
  5
79D5
102
{ACAD_REACTORS
330
79D0
102
}
330
79D0
100
AcDbXrecord
340
1A
  0
XRECORD
  5
79D6
102
{ACAD_REACTORS
330
79D0
102
}
330
79D0
100
AcDbXrecord
340
19
  0
XRECORD
  5
79D7
102
{ACAD_REACTORS
330
79D0
102
}
330
79D0
100
AcDbXrecord
340
E
  0
XRECORD
  5
79D8
102
{ACAD_REACTORS
330
79D0
102
}
330
79D0
100
AcDbXrecord
 90
    10781
  0
XRECORD
  5
79D9
102
{ACAD_REACTORS
330
79D0
102
}
330
79D0
100
AcDbXrecord
 90
        4
  0
XRECORD
  5
79DA
102
{ACAD_REACTORS
330
79D0
102
}
330
79D0
100
AcDbXrecord
 90
        0
  0
XRECORD
  5
79DB
102
{ACAD_REACTORS
330
79D0
102
}
330
79D0
100
AcDbXrecord
  1
{AFB28963-8C59-40AE-9337-C84526B81ACE}
  0
XRECORD
  5
79DC
102
{ACAD_REACTORS
330
79D0
102
}
330
79D0
100
AcDbXrecord
  1
{9806A883-1759-4EDA-BB51-602FFEF19D94}
  0
XRECORD
  5
79DD
102
{ACAD_REACTORS
330
79D0
102
}
330
79D0
100
AcDbXrecord
 40
0.0
  0
XRECORD
  5
79DE
102
{ACAD_REACTORS
330
79D0
102
}
330
79D0
100
AcDbXrecord
1000
DSTYLE
1002
{
1070
    79
 70
     2
1070
   341
340
59
1070
   342
340
59
1070
   371
 70
    -1
1070
   372
 70
    -1
1002
}
  0
XRECORD
  5
79DF
102
{ACAD_REACTORS
330
79D0
102
}
330
79D0
100
AcDbXrecord
340
0
  0
XRECORD
  5
79E0
102
{ACAD_REACTORS
330
79D0
102
}
330
79D0
100
AcDbXrecord
 70
     0
  0
XRECORD
  5
79E1
102
{ACAD_REACTORS
330
79D0
102
}
330
79D0
100
AcDbXrecord
340
0
  0
XRECORD
  5
79E2
102
{ACAD_REACTORS
330
79D0
102
}
330
79D0
100
AcDbXrecord
 10
0.0
 20
0.0
 30
0.0
  0
XRECORD
  5
79E3
102
{ACAD_REACTORS
330
79D0
102
}
330
79D0
100
AcDbXrecord
 10
0.0
 20
0.0
 30
0.0
  0
XRECORD
  5
79E4
102
{ACAD_REACTORS
330
79D0
102
}
330
79D0
100
AcDbXrecord
 10
0.0
 20
0.0
 30
0.0
  0
XRECORD
  5
79E5
102
{ACAD_REACTORS
330
79D0
102
}
330
79D0
100
AcDbXrecord
 10
0.0
 20
0.0
 30
0.0
  0
XRECORD
  5
79E6
102
{ACAD_REACTORS
330
79D0
102
}
330
79D0
100
AcDbXrecord
 10
0.0
 20
0.0
 30
0.0
  0
XRECORD
  5
79E7
102
{ACAD_REACTORS
330
79D0
102
}
330
79D0
100
AcDbXrecord
 10
0.0
 20
0.0
 30
0.0
  0
XRECORD
  5
79E8
102
{ACAD_REACTORS
330
79D0
102
}
330
79D0
100
AcDbXrecord
340
0
  0
XRECORD
  5
79E9
102
{ACAD_REACTORS
330
79D0
102
}
330
79D0
100
AcDbXrecord
 70
     0
  0
XRECORD
  5
79EA
102
{ACAD_REACTORS
330
79D0
102
}
330
79D0
100
AcDbXrecord
340
0
  0
XRECORD
  5
79EB
102
{ACAD_REACTORS
330
79D0
102
}
330
79D0
100
AcDbXrecord
 10
0.0
 20
0.0
 30
0.0
  0
XRECORD
  5
79EC
102
{ACAD_REACTORS
330
79D0
102
}
330
79D0
100
AcDbXrecord
 10
0.0
 20
0.0
 30
0.0
  0
XRECORD
  5
79ED
102
{ACAD_REACTORS
330
79D0
102
}
330
79D0
100
AcDbXrecord
 10
0.0
 20
0.0
 30
0.0
  0
XRECORD
  5
79EE
102
{ACAD_REACTORS
330
79D0
102
}
330
79D0
100
AcDbXrecord
 10
0.0
 20
0.0
 30
0.0
  0
XRECORD
  5
79EF
102
{ACAD_REACTORS
330
79D0
102
}
330
79D0
100
AcDbXrecord
 10
0.0
 20
0.0
 30
0.0
  0
XRECORD
  5
79F0
102
{ACAD_REACTORS
330
79D0
102
}
330
79D0
100
AcDbXrecord
 10
0.0
 20
0.0
 30
0.0
  0
LAYER_INDEX
  5
79C6
102
{ACAD_REACTORS
330
79C5
102
}
330
79C5
100
AcDbIndex
 40
2453151.808296099
100
AcDbLayerIndex
  8
0
360
79C7
 90
        0
  8
AM_0
360
79C8
 90
       40
  8
AM_11
360
79C9
 90
        3
  8
AM_7
360
79CA
 90
        1
  8
AM_5
360
79CB
 90
        4
  8
Defpoints
360
79CC
 90
        0
  8
AM_6
360
79CD
 90
        1
  8
AM_CL
360
79CE
 90
        0
  0
XRECORD
  5
2D
102
{ACAD_REACTORS
330
2C
102
}
330
2C
100
AcDbXrecord
  1
VERSION
140
15.0
  1
PRODUCT
  2
AutoCAD Mechanical 2000
  0
IDBUFFER
  5
79C7
330
0
100
AcDbIdBuffer
  0
IDBUFFER
  5
79C8
330
0
100
AcDbIdBuffer
330
74D3
330
74D4
330
74D8
330
74D9
330
74DC
330
74DD
330
74DE
330
74DF
330
74E0
330
74E1
330
74E2
330
74E3
330
74E4
330
74E5
330
74E6
330
74E7
330
74E8
330
74E9
330
74EA
330
74EB
330
74EC
330
74EE
330
7865
330
7868
330
67B8
330
67B9
330
67BC
330
67BD
330
6845
330
6853
330
6854
330
6855
330
6857
330
744D
330
74CD
330
74CE
330
74CF
330
74D0
330
74D1
330
74D2
  0
IDBUFFER
  5
79C9
330
0
100
AcDbIdBuffer
330
74D7
330
74DA
330
74DB
  0
IDBUFFER
  5
79CA
330
0
100
AcDbIdBuffer
330
C2E
  0
IDBUFFER
  5
79CB
330
0
100
AcDbIdBuffer
330
10F0
330
12D8
330
1A73
330
6C1C
  0
IDBUFFER
  5
79CC
330
0
100
AcDbIdBuffer
  0
IDBUFFER
  5
79CD
330
0
100
AcDbIdBuffer
330
1500
  0
IDBUFFER
  5
79CE
330
0
100
AcDbIdBuffer
  0
ENDSEC
  0
EOF
