  0
SECTION
  2
HEADER
  9
$ACADVER
  1
AC1014
  9
$ACADMAINTVER
 70
     9
  9
$DWGCODEPAGE
  3
ANSI_932
  9
$INSBASE
 10
0.0
 20
0.0
 30
0.0
  9
$EXTMIN
 10
-65.85000099999999
 20
-28.25000099999996
 30
-0.00000001
  9
$EXTMAX
 10
9.551050680252128
 20
4.23527020275971
 30
0.00000001
  9
$LIMMIN
 10
-69.52919144818565
 20
-36.46000021692123
  9
$LIMMAX
 10
11.63380332817178
 20
14.65537538960143
  9
$ORTHOMODE
 70
     0
  9
$REGENMODE
 70
     1
  9
$FILLMODE
 70
     1
  9
$QTEXTMODE
 70
     0
  9
$MIRRTEXT
 70
     0
  9
$DRAGMODE
 70
     2
  9
$LTSCALE
 40
1.0
  9
$OSMODE
 70
    55
  9
$ATTMODE
 70
     1
  9
$TEXTSIZE
 40
2.5
  9
$TRACEWID
 40
1.0
  9
$TEXTSTYLE
  7
STANDARD
  9
$CLAYER
  8
AM_0
  9
$CELTYPE
  6
BYLAYER
  9
$CECOLOR
 62
   256
  9
$CELTSCALE
 40
1.0
  9
$DELOBJ
 70
     1
  9
$DISPSILH
 70
     0
  9
$DIMSCALE
 40
0.5
  9
$DIMASZ
 40
2.5
  9
$DIMEXO
 40
1.0
  9
$DIMDLI
 40
12.0
  9
$DIMRND
 40
0.0
  9
$DIMDLE
 40
0.0
  9
$DIMEXE
 40
1.0
  9
$DIMTP
 40
0.1
  9
$DIMTM
 40
0.1
  9
$DIMTXT
 40
3.2
  9
$DIMCEN
 40
0.0
  9
$DIMTSZ
 40
0.0
  9
$DIMTOL
 70
     0
  9
$DIMLIM
 70
     0
  9
$DIMTIH
 70
     0
  9
$DIMTOH
 70
     0
  9
$DIMSE1
 70
     0
  9
$DIMSE2
 70
     0
  9
$DIMTAD
 70
     3
  9
$DIMZIN
 70
     8
  9
$DIMBLK
  1
OPEN30
  9
$DIMASO
 70
     1
  9
$DIMSHO
 70
     1
  9
$DIMPOST
  1

  9
$DIMAPOST
  1
"
  9
$DIMALT
 70
     0
  9
$DIMALTD
 70
     2
  9
$DIMALTF
 40
0.0393701
  9
$DIMLFAC
 40
1.0
  9
$DIMTOFL
 70
     1
  9
$DIMTVP
 40
0.0
  9
$DIMTIX
 70
     0
  9
$DIMSOXD
 70
     0
  9
$DIMSAH
 70
     0
  9
$DIMBLK1
  1

  9
$DIMBLK2
  1

  9
$DIMSTYLE
  2
AM_JIS
  9
$DIMCLRD
 70
   256
  9
$DIMCLRE
 70
   256
  9
$DIMCLRT
 70
     2
  9
$DIMTFAC
 40
0.71
  9
$DIMGAP
 40
1.5
  9
$DIMJUST
 70
     0
  9
$DIMSD1
 70
     0
  9
$DIMSD2
 70
     0
  9
$DIMTOLJ
 70
     0
  9
$DIMTZIN
 70
     0
  9
$DIMALTZ
 70
     0
  9
$DIMALTTZ
 70
     0
  9
$DIMFIT
 70
     3
  9
$DIMUPT
 70
     0
  9
$DIMUNIT
 70
     2
  9
$DIMDEC
 70
     3
  9
$DIMTDEC
 70
     3
  9
$DIMALTU
 70
     2
  9
$DIMALTTD
 70
     2
  9
$DIMTXSTY
  7
ASAMI
  9
$DIMAUNIT
 70
     0
  9
$LUNITS
 70
     2
  9
$LUPREC
 70
     2
  9
$SKETCHINC
 40
1.0
  9
$FILLETRAD
 40
2.5
  9
$AUNITS
 70
     0
  9
$AUPREC
 70
     0
  9
$MENU
  1
.
  9
$ELEVATION
 40
0.0
  9
$PELEVATION
 40
0.0
  9
$THICKNESS
 40
0.0
  9
$LIMCHECK
 70
     0
  9
$BLIPMODE
 70
     0
  9
$CHAMFERA
 40
0.5
  9
$CHAMFERB
 40
0.5
  9
$CHAMFERC
 40
20.0
  9
$CHAMFERD
 40
0.0
  9
$SKPOLY
 70
     0
  9
$TDCREATE
 40
2452838.430434386
  9
$TDUPDATE
 40
2453151.831048426
  9
$TDINDWG
 40
0.2993992361
  9
$TDUSRTIMER
 40
0.2993992361
  9
$USRTIMER
 70
     1
  9
$ANGBASE
 50
0.0
  9
$ANGDIR
 70
     0
  9
$PDMODE
 70
     0
  9
$PDSIZE
 40
0.0
  9
$PLINEWID
 40
0.0
  9
$COORDS
 70
     1
  9
$SPLFRAME
 70
     0
  9
$SPLINETYPE
 70
     6
  9
$SPLINESEGS
 70
     8
  9
$ATTDIA
 70
     1
  9
$ATTREQ
 70
     1
  9
$HANDLING
 70
 12289
  9
$HANDSEED
  5
7DB4
  9
$SURFTAB1
 70
     6
  9
$SURFTAB2
 70
     6
  9
$SURFTYPE
 70
     6
  9
$SURFU
 70
     6
  9
$SURFV
 70
     6
  9
$UCSNAME
  2

  9
$UCSORG
 10
0.0
 20
0.0
 30
0.0
  9
$UCSXDIR
 10
1.0
 20
0.0
 30
0.0
  9
$UCSYDIR
 10
0.0
 20
1.0
 30
0.0
  9
$PUCSNAME
  2

  9
$PUCSORG
 10
0.0
 20
0.0
 30
0.0
  9
$PUCSXDIR
 10
1.0
 20
0.0
 30
0.0
  9
$PUCSYDIR
 10
0.0
 20
1.0
 30
0.0
  9
$USERI1
 70
     0
  9
$USERI2
 70
     0
  9
$USERI3
 70
     0
  9
$USERI4
 70
     0
  9
$USERI5
 70
     0
  9
$USERR1
 40
0.0
  9
$USERR2
 40
0.0
  9
$USERR3
 40
0.0
  9
$USERR4
 40
0.0
  9
$USERR5
 40
0.0
  9
$WORLDVIEW
 70
     1
  9
$SHADEDGE
 70
     3
  9
$SHADEDIF
 70
    70
  9
$TILEMODE
 70
     1
  9
$MAXACTVP
 70
    64
  9
$PINSBASE
 10
0.0
 20
0.0
 30
0.0
  9
$PLIMCHECK
 70
     0
  9
$PEXTMIN
 10
1.000000000000000E+20
 20
1.000000000000000E+20
 30
1.000000000000000E+20
  9
$PEXTMAX
 10
-1.000000000000000E+20
 20
-1.000000000000000E+20
 30
-1.000000000000000E+20
  9
$PLIMMIN
 10
0.0
 20
0.0
  9
$PLIMMAX
 10
841.0
 20
594.0
  9
$UNITMODE
 70
     0
  9
$VISRETAIN
 70
     1
  9
$PLINEGEN
 70
     0
  9
$PSLTSCALE
 70
     0
  9
$TREEDEPTH
 70
  3020
  9
$PICKSTYLE
 70
     0
  9
$CMLSTYLE
  2
STANDARD
  9
$CMLJUST
 70
     0
  9
$CMLSCALE
 40
20.0
  9
$PROXYGRAPHICS
 70
     1
  9
$MEASUREMENT
 70
     1
  0
ENDSEC
  0
SECTION
  2
CLASSES
  0
CLASS
  1
ACDBDICTIONARYWDFLT
  2
AcDbDictionaryWithDefault
  3
AutoCAD 2000
 90
        0
280
     0
281
     0
  0
CLASS
  1
ACDBPLACEHOLDER
  2
AcDbPlaceHolder
  3
AutoCAD 2000
 90
        0
280
     0
281
     0
  0
CLASS
  1
LAYOUT
  2
AcDbLayout
  3
AutoCAD 2000
 90
        0
280
     0
281
     0
  0
CLASS
  1
AMGSETTINGSOBJ
  2
AmgSettingsObj
  3
"AcadM|Product Description: AutoCAD Mechanical 2000|Company: Autodesk"
 90
        0
280
     0
281
     0
  0
CLASS
  1
ACME_DOCUMENT
  2
AcMeDbDoc
  3
AcMeServices
 90
        0
280
     0
281
     0
  0
CLASS
  1
ACMESCOPE
  2
AcMeScope
  3
AcMeServices
 90
        0
280
     0
281
     0
  0
CLASS
  1
ACMECOMMANDHISTORY
  2
AcMeCommandHistory
  3
AcMeServices
 90
        0
280
     0
281
     0
  0
CLASS
  1
DICTIONARYVAR
  2
AcDbDictionaryVar
  3
AutoCAD 2000
 90
        0
280
     0
281
     0
  0
CLASS
  1
ACIMSYSVARMAN
  2
AcImSysVarManager
  3
AcMeServices
 90
        0
280
     0
281
     0
  0
CLASS
  1
ACIMREALSYSVAR
  2
AcImRealSysVar
  3
AcMeServices
 90
        0
280
     0
281
     0
  0
CLASS
  1
ACIMINTSYSVAR
  2
AcImIntSysVar
  3
AcMeServices
 90
        0
280
     0
281
     0
  0
CLASS
  1
ACMEDRAWINGMAN
  2
AcMeDrawingMan
  3
AcMeServices
 90
        0
280
     0
281
     0
  0
CLASS
  1
ACMEVIEW
  2
AcMeView
  3
AcMeServices
 90
        0
280
     0
281
     0
  0
CLASS
  1
ACDBENTITYCACHE
  2
AcMeEntityCache
  3
AcMeServices
 90
        0
280
     0
281
     0
  0
CLASS
  1
GSMANAGER
  2
AcMeGSManager
  3
AcMeServices
 90
        0
280
     0
281
     0
  0
CLASS
  1
AmdtInternalReactor
  2
AmdtInternalReactor
  3
AcMeServices
 90
        0
280
     0
281
     0
  0
CLASS
  1
ACMESTATEMGR
  2
AcMeStateMgr
  3
AcMeServices
 90
        0
280
     0
281
     0
  0
CLASS
  1
ACME_DATABASE
  2
AcMeDbDatabase
  3
AcMeServices
 90
        0
280
     0
281
     0
  0
CLASS
  1
ACRFINSADJUSTERMGR
  2
AcRfInsAdjusterMgr
  3
AcMeServices
 90
        0
280
     0
281
     0
  0
CLASS
  1
ACMDATADICTIONARY
  2
AcmDataDictionary
  3
"AcmSymBB|Product Description: AutoCAD Mechanical 2000|Company: Autodesk"
 90
        0
280
     0
281
     0
  0
CLASS
  1
ACMDATAENTRYBLOCK
  2
AcmDataEntryBlock
  3
"AcmSymBB|Product Description: AutoCAD Mechanical 2000|Company: Autodesk"
 90
        0
280
     0
281
     0
  0
CLASS
  1
AMGOBJPROPCFG
  2
AmgObjPropCfg
  3
"AmgLay|Product Description: AutoCAD Mechanical 2000|Company: Autodesk"
 90
        1
280
     0
281
     0
  0
CLASS
  1
ACAMGFILTERDAT
  2
AcAmgFilterDat
  3
"AcadM|Product Description: AutoCAD Mechanical 2000|Company: Autodesk"
 90
        0
280
     0
281
     0
  0
CLASS
  1
LAYER_INDEX
  2
AcDbLayerIndex
  3
AutoCAD 2000
 90
        0
280
     0
281
     0
  0
CLASS
  1
IDBUFFER
  2
AcDbIdBuffer
  3
AutoCAD 2000
 90
        0
280
     0
281
     0
  0
CLASS
  1
ACIMSTRSYSVAR
  2
AcImStrSysVar
  3
AcMeServices
 90
        0
280
     0
281
     0
  0
CLASS
  1
ACMSTANDARDJIS
  2
AcmStandardJIS
  3
"AcmSymBB|Product Description: AutoCAD Mechanical 2000|Company: Autodesk"
 90
        0
280
     0
281
     0
  0
CLASS
  1
ACMSURFSTANDARDJIS
  2
AcmSurfTextStdJIS
  3
"AcmSymBB|Product Description: AutoCAD Mechanical 2000|Company: Autodesk"
 90
        0
280
     0
281
     0
  0
CLASS
  1
ACMFCFSTANDARDJIS
  2
AcmFCFStdJIS
  3
"AcmSymBB|Product Description: AutoCAD Mechanical 2000|Company: Autodesk"
 90
        0
280
     0
281
     0
  0
CLASS
  1
ACMWELDSTANDARDJIS
  2
AcmWeldingStdJIS
  3
"AcmSymBB|Product Description: AutoCAD Mechanical 2000|Company: Autodesk"
 90
        0
280
     0
281
     0
  0
CLASS
  1
ACMIDSTANDARDJIS
  2
AcmIdStdJIS
  3
"AcmSymBB|Product Description: AutoCAD Mechanical 2000|Company: Autodesk"
 90
        0
280
     0
281
     0
  0
CLASS
  1
ACMDATUMSTANDARDJIS
  2
AcmDatumStdJIS
  3
"AcmSymBB|Product Description: AutoCAD Mechanical 2000|Company: Autodesk"
 90
        0
280
     0
281
     0
  0
CLASS
  1
ACMBOMSTANDARDJIS
  2
AcmBOMStdJIS
  3
"AcmSymBB|Product Description: AutoCAD Mechanical 2000|Company: Autodesk"
 90
        0
280
     0
281
     0
  0
CLASS
  1
ACMSTANDARDANSI
  2
AcmStandardANSI
  3
"AcmSymBB|Product Description: AutoCAD Mechanical 2000|Company: Autodesk"
 90
        0
280
     0
281
     0
  0
CLASS
  1
ACMSURFSTANDARDANSI
  2
AcmSurfTextStdANSI
  3
"AcmSymBB|Product Description: AutoCAD Mechanical 2000|Company: Autodesk"
 90
        0
280
     0
281
     0
  0
CLASS
  1
ACMFCFSTANDARDANSI
  2
AcmFCFStdANSI
  3
"AcmSymBB|Product Description: AutoCAD Mechanical 2000|Company: Autodesk"
 90
        0
280
     0
281
     0
  0
CLASS
  1
ACMWELDSTANDARDANSI
  2
AcmWeldingStdANSI
  3
"AcmSymBB|Product Description: AutoCAD Mechanical 2000|Company: Autodesk"
 90
        0
280
     0
281
     0
  0
CLASS
  1
ACMIDSTANDARDANSI
  2
AcmIdStdANSI
  3
"AcmSymBB|Product Description: AutoCAD Mechanical 2000|Company: Autodesk"
 90
        0
280
     0
281
     0
  0
CLASS
  1
ACMDATUMSTANDARDANSI
  2
AcmDatumStdANSI
  3
"AcmSymBB|Product Description: AutoCAD Mechanical 2000|Company: Autodesk"
 90
        0
280
     0
281
     0
  0
CLASS
  1
ACMBOMSTANDARDANSI
  2
AcmBOMStdANSI
  3
"AcmSymBB|Product Description: AutoCAD Mechanical 2000|Company: Autodesk"
 90
        0
280
     0
281
     0
  0
CLASS
  1
ACMSTANDARDBSI
  2
AcmStandardBSI
  3
"AcmSymBB|Product Description: AutoCAD Mechanical 2000|Company: Autodesk"
 90
        0
280
     0
281
     0
  0
CLASS
  1
ACMSURFSTANDARDBSI
  2
AcmSurfTextStdBSI
  3
"AcmSymBB|Product Description: AutoCAD Mechanical 2000|Company: Autodesk"
 90
        0
280
     0
281
     0
  0
CLASS
  1
ACMFCFSTANDARDBSI
  2
AcmFCFStdBSI
  3
"AcmSymBB|Product Description: AutoCAD Mechanical 2000|Company: Autodesk"
 90
        0
280
     0
281
     0
  0
CLASS
  1
ACMWELDSTANDARDBSI
  2
AcmWeldingStdBSI
  3
"AcmSymBB|Product Description: AutoCAD Mechanical 2000|Company: Autodesk"
 90
        0
280
     0
281
     0
  0
CLASS
  1
ACMIDSTANDARDBSI
  2
AcmIdStdBSI
  3
"AcmSymBB|Product Description: AutoCAD Mechanical 2000|Company: Autodesk"
 90
        0
280
     0
281
     0
  0
CLASS
  1
ACMDATUMSTANDARDBSI
  2
AcmDatumStdBSI
  3
"AcmSymBB|Product Description: AutoCAD Mechanical 2000|Company: Autodesk"
 90
        0
280
     0
281
     0
  0
CLASS
  1
ACMBOMSTANDARDBSI
  2
AcmBOMStdBSI
  3
"AcmSymBB|Product Description: AutoCAD Mechanical 2000|Company: Autodesk"
 90
        0
280
     0
281
     0
  0
CLASS
  1
LONG_TRANSACTION
  2
AcDbLongTransaction
  3
AutoCAD 2000
 90
        0
280
     0
281
     0
  0
CLASS
  1
LWPOLYLINE
  2
AcDbPolyline
  3
AutoCAD 2000
 90
        0
280
     0
281
     1
  0
CLASS
  1
HATCH
  2
AcDbHatch
  3
AutoCAD 2000
 90
        0
280
     0
281
     1
  0
CLASS
  1
XRECORD
  2
AcDbXrecord
  3
AutoCAD 2000
 90
        0
280
     0
281
     0
  0
ENDSEC
  0
SECTION
  2
TABLES
  0
TABLE
  2
VPORT
  5
8
330
0
100
AcDbSymbolTable
 70
     3
  0
VPORT
  5
7D89
330
8
100
AcDbSymbolTableRecord
100
AcDbViewportTableRecord
  2
*ACTIVE
 70
     0
 10
0.0
 20
0.0
 11
1.0
 21
1.0
 12
-14.63407374467104
 22
2.58737163003817
 13
0.0
 23
0.0
 14
2.5
 24
2.5
 15
10.0
 25
10.0
 16
0.0
 26
0.0
 36
1.0
 17
0.0
 27
0.0
 37
0.0
 40
102.9537030222976
 41
1.56570841889117
 42
50.0
 43
0.0
 44
0.0
 50
0.0
 51
0.0
 71
     0
 72
   100
 73
     1
 74
     3
 75
     0
 76
     0
 77
     0
 78
     0
  0
ENDTAB
  0
TABLE
  2
LTYPE
  5
5
330
0
100
AcDbSymbolTable
 70
    10
  0
LTYPE
  5
14
330
5
100
AcDbSymbolTableRecord
100
AcDbLinetypeTableRecord
  2
BYBLOCK
 70
     0
  3

 72
    65
 73
     0
 40
0.0
  0
LTYPE
  5
15
330
5
100
AcDbSymbolTableRecord
100
AcDbLinetypeTableRecord
  2
BYLAYER
 70
     0
  3

 72
    65
 73
     0
 40
0.0
  0
LTYPE
  5
16
330
5
100
AcDbSymbolTableRecord
100
AcDbLinetypeTableRecord
  2
CONTINUOUS
 70
     0
  3
Solid line
 72
    65
 73
     0
 40
0.0
  0
LTYPE
  5
4B
330
5
100
AcDbSymbolTableRecord
100
AcDbLinetypeTableRecord
  2
AM_ISO02W050
 70
     0
  3
__ __ __ __ __ __ __ __ __ __ __ __ __ __ __
 72
    65
 73
     2
 40
7.5
 49
6.0
 74
     0
 49
-1.5
 74
     0
  0
LTYPE
  5
4C
330
5
100
AcDbSymbolTableRecord
100
AcDbLinetypeTableRecord
  2
AM_ISO08W050
 70
     0
  3
____ . ____ . ____ . ____ . ____ . ____ . ____
 72
    65
 73
     4
 40
18.0
 49
12.0
 74
     0
 49
-1.5
 74
     0
 49
3.0
 74
     0
 49
-1.5
 74
     0
  0
LTYPE
  5
4D
330
5
100
AcDbSymbolTableRecord
100
AcDbLinetypeTableRecord
  2
AM_ISO09W050
 70
     0
  3
_____ . . _____ . . _____ . . ____ .. ____
 72
    65
 73
     6
 40
22.5
 49
12.0
 74
     0
 49
-1.5
 74
     0
 49
3.0
 74
     0
 49
-1.5
 74
     0
 49
3.0
 74
     0
 49
-1.5
 74
     0
  0
LTYPE
  5
4E
330
5
100
AcDbSymbolTableRecord
100
AcDbLinetypeTableRecord
  2
AMCONSTR
 70
     0
  3
_______________________
 72
    65
 73
     2
 40
9999.0
 49
9999.0
 74
     0
 49
0.0
 74
     0
  0
LTYPE
  5
4F
330
5
100
AcDbSymbolTableRecord
100
AcDbLinetypeTableRecord
  2
AM_ISO02W050X2
 70
     0
  3
 _ _ _ _ _ _ _ _ _ _ _ _
 72
    65
 73
     2
 40
3.75
 49
3.0
 74
     0
 49
-0.75
 74
     0
  0
LTYPE
  5
50
330
5
100
AcDbSymbolTableRecord
100
AcDbLinetypeTableRecord
  2
AM_ISO08W050X2
 70
     0
  3
__ . __ . __ . __ . __ . __
 72
    65
 73
     4
 40
9.0
 49
6.0
 74
     0
 49
-0.75
 74
     0
 49
1.5
 74
     0
 49
-0.75
 74
     0
  0
LTYPE
  5
53
330
5
100
AcDbSymbolTableRecord
100
AcDbLinetypeTableRecord
  2
AMZIGZAG
 70
     0
  3
/\/-/\/-/\/-/\/-/\/-/\/
 72
    65
 73
     2
 40
11.00009999999999
 49
0.0001
 74
     4
 75
   135
340
52
 46
0.04
 50
0.0
 44
0.0
 45
0.0
 49
-11.0
 74
     0
  0
LTYPE
  5
166
330
5
100
AcDbSymbolTableRecord
100
AcDbLinetypeTableRecord
  2
ACJISTGL
 70
     0
  3
_ _ _ _ _
 72
    65
 73
     2
 40
3.0
 49
2.0
 74
     0
 49
-1.0
 74
     0
  0
LTYPE
  5
26A
330
5
100
AcDbSymbolTableRecord
100
AcDbLinetypeTableRecord
  2
ACJISTGB
 70
     0
  3
__ . . __ . .
 72
    65
 73
     6
 40
9.0
 49
4.0
 74
     0
 49
-1.0
 74
     0
 49
1.0
 74
     0
 49
-1.0
 74
     0
 49
1.0
 74
     0
 49
-1.0
 74
     0
  0
ENDTAB
  0
TABLE
  2
LAYER
  5
2
330
0
100
AcDbSymbolTable
 70
     7
  0
LAYER
  5
10
330
2
100
AcDbSymbolTableRecord
100
AcDbLayerTableRecord
  2
0
 70
     0
 62
     7
  6
CONTINUOUS
  0
LAYER
  5
3F9
330
2
100
AcDbSymbolTableRecord
100
AcDbLayerTableRecord
  2
AM_0
 70
     0
 62
     7
  6
CONTINUOUS
  0
LAYER
  5
BDD
330
2
100
AcDbSymbolTableRecord
100
AcDbLayerTableRecord
  2
AM_11
 70
     0
 62
     3
  6
AM_ISO09W050
  0
LAYER
  5
BDE
330
2
100
AcDbSymbolTableRecord
100
AcDbLayerTableRecord
  2
AM_7
 70
     0
 62
     4
  6
AM_ISO08W050
  0
LAYER
  5
BDF
330
2
100
AcDbSymbolTableRecord
100
AcDbLayerTableRecord
  2
AM_5
 70
     0
 62
     3
  6
CONTINUOUS
  0
LAYER
  5
BE0
330
2
100
AcDbSymbolTableRecord
100
AcDbLayerTableRecord
  2
DEFPOINTS
 70
     0
 62
     7
  6
CONTINUOUS
  0
LAYER
  5
14FF
330
2
100
AcDbSymbolTableRecord
100
AcDbLayerTableRecord
  2
AM_6
 70
     0
 62
     2
  6
CONTINUOUS
  0
ENDTAB
  0
TABLE
  2
STYLE
  5
3
330
0
100
AcDbSymbolTable
 70
     5
  0
STYLE
  5
11
330
3
100
AcDbSymbolTableRecord
100
AcDbTextStyleTableRecord
  2
STANDARD
 70
     0
 40
0.0
 41
1.0
 50
0.0
 71
     0
 42
2.5
  3
simplex.shx
  4
EXTFONT.SHX
  0
STYLE
  5
52
330
3
100
AcDbSymbolTableRecord
100
AcDbTextStyleTableRecord
  2

 70
     1
 40
0.0
 41
1.0
 50
0.0
 71
     0
 42
2.5
  3
ltypeshp.shx
  4

  0
STYLE
  5
6B
330
3
100
AcDbSymbolTableRecord
100
AcDbTextStyleTableRecord
  2
ASAMI
 70
     0
 40
0.0
 41
1.0
 50
0.0
 71
     0
 42
2.5
  3
simplex.shx
  4
EXTFONT.SHX
  0
STYLE
  5
262
330
3
100
AcDbSymbolTableRecord
100
AcDbTextStyleTableRecord
  2
ACJISTS
 70
     0
 40
1.0
 41
1.0
 50
0.0
 71
     0
 42
2.5
  3
simplex.shx
  4
bigfont.shx
  0
STYLE
  5
269
330
3
100
AcDbSymbolTableRecord
100
AcDbTextStyleTableRecord
  2
ACJISGDT
 70
     0
 40
0.0
 41
1.0
 50
0.0
 71
     0
 42
2.5
  3
amgdtans.shx
  4

  0
ENDTAB
  0
TABLE
  2
VIEW
  5
6
330
0
100
AcDbSymbolTable
 70
     0
  0
ENDTAB
  0
TABLE
  2
UCS
  5
7
330
0
100
AcDbSymbolTable
 70
     0
  0
ENDTAB
  0
TABLE
  2
APPID
  5
9
330
0
100
AcDbSymbolTable
 70
    13
  0
APPID
  5
12
330
9
100
AcDbSymbolTableRecord
100
AcDbRegAppTableRecord
  2
ACAD
 70
     0
  0
APPID
  5
30
330
9
100
AcDbSymbolTableRecord
100
AcDbRegAppTableRecord
  2
MCAD_NO_VIS
 70
     0
  0
APPID
  5
31
330
9
100
AcDbSymbolTableRecord
100
AcDbRegAppTableRecord
  2
ACAD_TEMP_GRAPHIC
 70
     0
  0
APPID
  5
2C2
330
9
100
AcDbSymbolTableRecord
100
AcDbRegAppTableRecord
  2
GENIUS_GENDTOL_13
 70
     0
  0
APPID
  5
339
330
9
100
AcDbSymbolTableRecord
100
AcDbRegAppTableRecord
  2
GENIUS_GENODEF_13
 70
     0
  0
APPID
  5
33A
330
9
100
AcDbSymbolTableRecord
100
AcDbRegAppTableRecord
  2
GENIUS_GENOBJ-N-RSBK_13
 70
     0
  0
APPID
  5
33B
330
9
100
AcDbSymbolTableRecord
100
AcDbRegAppTableRecord
  2
GENIUS_GENOBJ-N-LIB_13
 70
     0
  0
APPID
  5
33C
330
9
100
AcDbSymbolTableRecord
100
AcDbRegAppTableRecord
  2
GENIUS_GENSCALE_13
 70
     0
  0
APPID
  5
378
330
9
100
AcDbSymbolTableRecord
100
AcDbRegAppTableRecord
  2
GENIUS_GENDIMSH_14
 70
     0
  0
APPID
  5
BE1
330
9
100
AcDbSymbolTableRecord
100
AcDbRegAppTableRecord
  2
GENIUS_GENFIL_13
 70
     0
  0
APPID
  5
BE2
330
9
100
AcDbSymbolTableRecord
100
AcDbRegAppTableRecord
  2
GENIUS_GENOBJ-N-CHA_13
 70
     0
  0
APPID
  5
151B
330
9
100
AcDbSymbolTableRecord
100
AcDbRegAppTableRecord
  2
DCO15
 70
     0
  0
APPID
  5
1860
330
9
100
AcDbSymbolTableRecord
100
AcDbRegAppTableRecord
  2
GENIUS_GENOBJ-N-CEN_13
 70
     0
  0
ENDTAB
  0
TABLE
  2
DIMSTYLE
  5
A
330
0
100
AcDbSymbolTable
 70
     8
  0
DIMSTYLE
105
58
102
{ACAD_REACTORS
330
10F0
330
12D8
330
1A73
330
7B93
102
}
330
A
100
AcDbSymbolTableRecord
100
AcDbDimStyleTableRecord
  2
AM_JIS
 70
     0
  3

  4
"
  5
OPEN30
  6

  7

 40
0.5
 41
2.5
 42
1.0
 43
12.0
 44
1.0
 45
0.0
 46
0.0
 47
0.1
 48
0.1
140
3.2
141
0.0
142
0.0
143
0.0393701
144
1.0
145
0.0
146
0.71
147
1.5
 71
     0
 72
     0
 73
     0
 74
     0
 75
     0
 76
     0
 77
     3
 78
     8
170
     0
171
     2
172
     1
173
     0
174
     0
175
     0
176
   256
177
   256
178
     2
270
     2
271
     3
272
     3
273
     2
274
     2
340
6B
275
     0
280
     0
281
     0
282
     0
283
     0
284
     0
285
     0
286
     0
287
     3
288
     0
  0
DIMSTYLE
105
5F
330
A
100
AcDbSymbolTableRecord
100
AcDbDimStyleTableRecord
  2
AM_JIS$3
 70
     0
  3

  4
"
  5
OPEN30
  6

  7

 40
0.5
 41
2.5
 42
1.0
 43
10.0
 44
1.0
 45
0.0
 46
0.0
 47
0.1
 48
0.1
140
3.2
141
0.0
142
0.0
143
0.0393701
144
1.0
145
0.0
146
0.71
147
1.5
 71
     0
 72
     0
 73
     0
 74
     1
 75
     0
 76
     0
 77
     3
 78
     8
170
     0
171
     2
172
     0
173
     0
174
     0
175
     0
176
   256
177
   256
178
     2
270
     2
271
     2
272
     3
273
     2
274
     2
340
6B
275
     0
280
     0
281
     0
282
     0
283
     0
284
     0
285
     0
286
     0
287
     0
288
     1
  0
DIMSTYLE
105
60
330
A
100
AcDbSymbolTableRecord
100
AcDbDimStyleTableRecord
  2
AM_JIS$4
 70
     0
  3

  4
"
  5
OPEN30
  6

  7

 40
0.5
 41
2.5
 42
1.0
 43
10.0
 44
1.0
 45
0.0
 46
0.0
 47
0.1
 48
0.1
140
3.2
141
0.0
142
0.0
143
0.0393701
144
1.0
145
0.0
146
0.71
147
1.5
 71
     0
 72
     0
 73
     0
 74
     1
 75
     0
 76
     0
 77
     3
 78
     8
170
     0
171
     2
172
     0
173
     0
174
     0
175
     0
176
   256
177
   256
178
     2
270
     2
271
     2
272
     3
273
     2
274
     2
340
6B
275
     0
280
     0
281
     0
282
     0
283
     0
284
     0
285
     0
286
     0
287
     0
288
     1
  0
DIMSTYLE
105
61
330
A
100
AcDbSymbolTableRecord
100
AcDbDimStyleTableRecord
  2
AM_JIS$6
 70
     0
  3

  4
"
  5
OPEN30
  6

  7

 40
0.5
 41
2.5
 42
1.0
 43
10.0
 44
1.0
 45
0.0
 46
0.0
 47
0.1
 48
0.1
140
3.2
141
0.0
142
0.0
143
0.0393701
144
1.0
145
0.0
146
0.71
147
1.5
 71
     0
 72
     0
 73
     0
 74
     0
 75
     0
 76
     0
 77
     0
 78
     8
170
     0
171
     2
172
     1
173
     0
174
     0
175
     0
176
   256
177
   256
178
     2
270
     2
271
     2
272
     2
273
     2
274
     2
340
6B
275
     0
280
     0
281
     0
282
     0
283
     0
284
     0
285
     0
286
     0
287
     3
288
     0
  0
DIMSTYLE
105
62
330
A
100
AcDbSymbolTableRecord
100
AcDbDimStyleTableRecord
  2
AM_JIS$7
 70
     0
  3

  4
"
  5
OPEN30
  6

  7

 40
0.5
 41
2.5
 42
1.0
 43
10.0
 44
1.0
 45
0.0
 46
0.0
 47
0.1
 48
0.1
140
3.2
141
0.0
142
0.0
143
0.0393701
144
1.0
145
0.0
146
0.71
147
1.5
 71
     0
 72
     0
 73
     0
 74
     0
 75
     0
 76
     0
 77
     3
 78
     8
170
     0
171
     2
172
     1
173
     0
174
     0
175
     0
176
   256
177
   256
178
     2
270
     2
271
     2
272
     3
273
     2
274
     2
340
6B
275
     0
280
     0
281
     0
282
     0
283
     0
284
     0
285
     0
286
     0
287
     3
288
     0
  0
DIMSTYLE
105
63
330
A
100
AcDbSymbolTableRecord
100
AcDbDimStyleTableRecord
  2
AM_JIS$SF
 70
     0
  3

  4
"
  5
OPEN30
  6

  7

 40
0.5
 41
2.5
 42
1.0
 43
10.0
 44
1.0
 45
0.0
 46
0.0
 47
0.1
 48
0.1
140
3.2
141
0.0
142
0.0
143
0.0393701
144
1.0
145
0.0
146
0.71
147
1.5
 71
     0
 72
     0
 73
     0
 74
     0
 75
     1
 76
     1
 77
     3
 78
     8
170
     0
171
     2
172
     1
173
     0
174
     0
175
     0
176
   256
177
   256
178
     2
270
     2
271
     2
272
     2
273
     2
274
     2
340
6B
275
     0
280
     0
281
     0
282
     0
283
     0
284
     0
285
     0
286
     0
287
     3
288
     0
  0
DIMSTYLE
105
68
330
A
100
AcDbSymbolTableRecord
100
AcDbDimStyleTableRecord
  2
AM_JIS$SH
 70
     0
  3

  4
"
  5

  6
GENAXEH
  7
OPEN30
 40
0.5
 41
2.5
 42
1.0
 43
10.0
 44
1.0
 45
0.0
 46
0.0
 47
0.1
 48
0.1
140
3.2
141
0.0
142
0.0
143
0.0393701
144
2.0
145
0.0
146
0.71
147
1.5
 71
     0
 72
     0
 73
     0
 74
     0
 75
     1
 76
     1
 77
     3
 78
     8
170
     0
171
     2
172
     1
173
     1
174
     0
175
     0
176
   256
177
   256
178
     2
270
     2
271
     2
272
     2
273
     2
274
     2
340
6B
275
     0
280
     0
281
     0
282
     0
283
     0
284
     0
285
     0
286
     0
287
     3
288
     0
  0
DIMSTYLE
105
B34
330
A
100
AcDbSymbolTableRecord
100
AcDbDimStyleTableRecord
  2
AM_JIS$2
 70
     0
  3

  4
"
  5
OPEN30
  6

  7

 40
0.5
 41
2.5
 42
1.0
 43
12.0
 44
1.0
 45
0.0
 46
0.0
 47
0.1
 48
0.1
140
3.2
141
0.0
142
0.0
143
0.0393701
144
1.0
145
0.0
146
0.71
147
1.5
 71
     0
 72
     0
 73
     0
 74
     0
 75
     0
 76
     0
 77
     3
 78
     8
170
     0
171
     2
172
     1
173
     0
174
     0
175
     0
176
   256
177
   256
178
     2
270
     2
271
     3
272
     3
273
     2
274
     2
340
6B
275
     0
280
     0
281
     0
282
     0
283
     0
284
     0
285
     0
286
     0
287
     3
288
     0
  0
ENDTAB
  0
TABLE
  2
BLOCK_RECORD
  5
1
330
0
100
AcDbSymbolTable
 70
     9
  0
BLOCK_RECORD
  5
1F
102
{ACAD_XDICTIONARY
360
74
102
}
330
1
100
AcDbSymbolTableRecord
100
AcDbBlockTableRecord
  2
*MODEL_SPACE
  0
BLOCK_RECORD
  5
101
102
{ACAD_XDICTIONARY
360
7DB2
102
}
330
1
100
AcDbSymbolTableRecord
100
AcDbBlockTableRecord
  2
*PAPER_SPACE
  0
BLOCK_RECORD
  5
59
330
1
100
AcDbSymbolTableRecord
100
AcDbBlockTableRecord
  2
_OPEN30
  0
BLOCK_RECORD
  5
64
330
1
100
AcDbSymbolTableRecord
100
AcDbBlockTableRecord
  2
GENAXEH
  0
BLOCK_RECORD
  5
10F1
330
1
100
AcDbSymbolTableRecord
100
AcDbBlockTableRecord
  2
*D5
  0
BLOCK_RECORD
  5
12D9
330
1
100
AcDbSymbolTableRecord
100
AcDbBlockTableRecord
  2
*D6
  0
BLOCK_RECORD
  5
1A74
330
1
100
AcDbSymbolTableRecord
100
AcDbBlockTableRecord
  2
*D7
  0
BLOCK_RECORD
  5
7B94
330
1
100
AcDbSymbolTableRecord
100
AcDbBlockTableRecord
  2
*D8
  0
ENDTAB
  0
ENDSEC
  0
SECTION
  2
BLOCKS
  0
BLOCK
  5
20
330
1F
100
AcDbEntity
  8
0
100
AcDbBlockBegin
  2
*MODEL_SPACE
 70
     0
 10
0.0
 20
0.0
 30
0.0
  3
*MODEL_SPACE
  1

  0
ENDBLK
  5
21
330
1F
100
AcDbEntity
  8
0
100
AcDbBlockEnd
  0
BLOCK
  5
103
330
101
100
AcDbEntity
 67
     1
  8
0
100
AcDbBlockBegin
  2
*PAPER_SPACE
 70
     0
 10
0.0
 20
0.0
 30
0.0
  3
*PAPER_SPACE
  1

  0
ENDBLK
  5
104
330
101
100
AcDbEntity
 67
     1
  8
0
100
AcDbBlockEnd
  0
BLOCK
  5
5D
330
59
100
AcDbEntity
  8
0
100
AcDbBlockBegin
  2
_OPEN30
 70
     0
 10
0.0
 20
0.0
 30
0.0
  3
_OPEN30
  1

  0
LINE
  5
5A
330
59
100
AcDbEntity
  8
0
 62
     0
100
AcDbLine
 10
-1.0
 20
0.26794919
 30
0.0
 11
0.0
 21
0.0
 31
0.0
  0
LINE
  5
5B
330
59
100
AcDbEntity
  8
0
 62
     0
100
AcDbLine
 10
0.0
 20
0.0
 30
0.0
 11
-1.0
 21
-0.26794919
 31
0.0
  0
LINE
  5
5C
330
59
100
AcDbEntity
  8
0
 62
     0
100
AcDbLine
 10
0.0
 20
0.0
 30
0.0
 11
-1.0
 21
0.0
 31
0.0
  0
ENDBLK
  5
5E
330
59
100
AcDbEntity
  8
0
100
AcDbBlockEnd
  0
BLOCK
  5
66
330
64
100
AcDbEntity
  8
0
100
AcDbBlockBegin
  2
GENAXEH
 70
     0
 10
0.0
 20
0.0
 30
0.0
  3
GENAXEH
  1

  0
LINE
  5
65
330
64
100
AcDbEntity
  8
0
100
AcDbLine
 10
-1.0
 20
0.0
 30
0.0
 11
1.0
 21
0.0
 31
0.0
  0
ENDBLK
  5
67
330
64
100
AcDbEntity
  8
0
100
AcDbBlockEnd
  0
BLOCK
  5
10FB
330
10F1
100
AcDbEntity
  8
0
100
AcDbBlockBegin
  2
*D5
 70
     1
 10
0.0
 20
0.0
 30
0.0
  3
*D5
  1

  0
LINE
  5
7CBA
330
10F1
100
AcDbEntity
  8
AM_5
100
AcDbLine
 10
-55.0
 20
-4.000000000000012
 30
0.0
 11
-55.0
 21
-17.50000099999996
 31
0.0
  0
LINE
  5
7CBB
330
10F1
100
AcDbEntity
  8
AM_5
100
AcDbLine
 10
-0.0000000000001315
 20
-4.000000000000012
 30
0.0
 11
-0.0000000000001323
 21
-17.50000099999996
 31
0.0
  0
LINE
  5
7CBC
330
10F1
100
AcDbEntity
  8
AM_5
100
AcDbLine
 10
-53.75
 20
-17.00000099999996
 30
0.0
 11
-1.250000000000132
 21
-17.00000099999996
 31
0.0
  0
INSERT
  5
7CBD
330
10F1
100
AcDbEntity
  8
AM_5
100
AcDbBlockReference
  2
_OPEN30
 10
-55.0
 20
-17.00000099999996
 30
0.0
 41
1.25
 42
1.25
 43
1.25
 50
180.0
  0
INSERT
  5
7CBE
330
10F1
100
AcDbEntity
  8
AM_5
100
AcDbBlockReference
  2
_OPEN30
 10
-0.0000000000001323
 20
-17.00000099999996
 30
0.0
 41
1.25
 42
1.25
 43
1.25
  0
MTEXT
  5
7CBF
330
10F1
100
AcDbEntity
  8
AM_5
 62
     2
100
AcDbMText
 10
-27.50000000000006
 20
-15.45000099999996
 30
0.0
 40
1.6
 41
0.0
 71
     5
 72
     1
  1
55
  7
ASAMI
1001
ACAD
1000
MTEXTBEGIN
1070
    73
1070
     1
1070
    44
1040
1.0
1070
    74
1070
     0
1000
MTEXTEND
  0
POINT
  5
7CC0
330
10F1
100
AcDbEntity
  8
DEFPOINTS
 62
     0
100
AcDbPoint
 10
-55.0
 20
-3.500000000000012
 30
0.0
  0
POINT
  5
7CC1
330
10F1
100
AcDbEntity
  8
DEFPOINTS
 62
     0
100
AcDbPoint
 10
-0.0000000000001315
 20
-3.500000000000011
 30
0.0
  0
POINT
  5
7CC2
330
10F1
100
AcDbEntity
  8
DEFPOINTS
 62
     0
100
AcDbPoint
 10
-0.0000000000001323
 20
-17.00000099999996
 30
0.0
  0
ENDBLK
  5
10FC
330
10F1
100
AcDbEntity
  8
0
100
AcDbBlockEnd
  0
BLOCK
  5
12E5
330
12D9
100
AcDbEntity
  8
0
100
AcDbBlockBegin
  2
*D6
 70
     1
 10
0.0
 20
0.0
 30
0.0
  3
*D6
  1

  0
LINE
  5
7BD2
330
12D9
100
AcDbEntity
  8
AM_5
100
AcDbLine
 10
0.0000000000000071
 20
-4.000000000000012
 30
0.0
 11
0.0000000000000066
 21
-11.50000099999998
 31
0.0
  0
LINE
  5
7BD3
330
12D9
100
AcDbEntity
  8
AM_5
100
AcDbLine
 10
-15.00000000000015
 20
-3.999999999999153
 30
0.0
 11
-15.00000000000015
 21
-11.50000099999998
 31
0.0
  0
LINE
  5
7BD4
330
12D9
100
AcDbEntity
  8
AM_5
100
AcDbLine
 10
-1.249999999999993
 20
-11.00000099999998
 30
0.0
 11
-13.75000000000015
 21
-11.00000099999998
 31
0.0
  0
INSERT
  5
7BD5
330
12D9
100
AcDbEntity
  8
AM_5
100
AcDbBlockReference
  2
_OPEN30
 10
0.0000000000000066
 20
-11.00000099999998
 30
0.0
 41
1.25
 42
1.25
 43
1.25
  0
INSERT
  5
7BD6
330
12D9
100
AcDbEntity
  8
AM_5
100
AcDbBlockReference
  2
_OPEN30
 10
-15.00000000000015
 20
-11.00000099999998
 30
0.0
 41
1.25
 42
1.25
 43
1.25
 50
180.0
  0
MTEXT
  5
7BD7
330
12D9
100
AcDbEntity
  8
AM_5
 62
     2
100
AcDbMText
 10
-7.500000000000071
 20
-9.450000999999986
 30
0.0
 40
1.6
 41
0.0
 71
     5
 72
     1
  1
15
  7
ASAMI
1001
ACAD
1000
MTEXTBEGIN
1070
    73
1070
     1
1070
    44
1040
1.0
1070
    74
1070
     0
1000
MTEXTEND
  0
POINT
  5
7BD8
330
12D9
100
AcDbEntity
  8
DEFPOINTS
 62
     0
100
AcDbPoint
 10
0.0000000000000071
 20
-3.500000000000011
 30
0.0
  0
POINT
  5
7BD9
330
12D9
100
AcDbEntity
  8
DEFPOINTS
 62
     0
100
AcDbPoint
 10
-15.00000000000015
 20
-3.499999999999153
 30
0.0
  0
POINT
  5
7BDA
330
12D9
100
AcDbEntity
  8
DEFPOINTS
 62
     0
100
AcDbPoint
 10
-15.00000000000015
 20
-11.00000099999998
 30
0.0
  0
ENDBLK
  5
12E6
330
12D9
100
AcDbEntity
  8
0
100
AcDbBlockEnd
  0
BLOCK
  5
1A7F
330
1A74
100
AcDbEntity
  8
0
100
AcDbBlockBegin
  2
*D7
 70
     1
 10
0.0
 20
0.0
 30
0.0
  3
*D7
  1

  0
LINE
  5
79BB
330
1A74
100
AcDbEntity
  8
AM_5
100
AcDbLine
 10
-55.00000000000001
 20
3.99999999999999
 30
0.0
 11
-64.00000099999999
 21
3.999999999999992
 31
0.0
  0
LINE
  5
79BC
330
1A74
100
AcDbEntity
  8
AM_5
100
AcDbLine
 10
-55.0
 20
-4.000000000000012
 30
0.0
 11
-64.00000099999999
 21
-4.000000000000009
 31
0.0
  0
LINE
  5
79BD
330
1A74
100
AcDbEntity
  8
AM_5
100
AcDbLine
 10
-63.50000099999999
 20
2.749999999999992
 30
0.0
 11
-63.50000099999999
 21
-2.750000000000009
 31
0.0
  0
INSERT
  5
79BE
330
1A74
100
AcDbEntity
  8
AM_5
100
AcDbBlockReference
  2
_OPEN30
 10
-63.50000099999999
 20
3.999999999999992
 30
0.0
 41
1.25
 42
1.25
 43
1.25
 50
90.0
  0
INSERT
  5
79BF
330
1A74
100
AcDbEntity
  8
AM_5
100
AcDbBlockReference
  2
_OPEN30
 10
-63.50000099999999
 20
-4.000000000000009
 30
0.0
 41
1.25
 42
1.25
 43
1.25
 50
270.0
  0
MTEXT
  5
79C0
330
1A74
100
AcDbEntity
  8
AM_5
 62
     2
100
AcDbMText
 10
-65.050001
 20
-0.0000000000000073
 30
0.0
 40
1.6
 41
0.0
 71
     5
 72
     1
  1
%%c8
  7
ASAMI
 11
0.0000000000000001
 21
1.0
 31
0.0
1001
ACAD
1000
MTEXTBEGIN
1070
    73
1070
     1
1070
    44
1040
1.0
1070
    74
1070
     0
1000
MTEXTEND
  0
POINT
  5
79C1
330
1A74
100
AcDbEntity
  8
DEFPOINTS
 62
     0
100
AcDbPoint
 10
-54.50000000000001
 20
3.999999999999989
 30
0.0
  0
POINT
  5
79C2
330
1A74
100
AcDbEntity
  8
DEFPOINTS
 62
     0
100
AcDbPoint
 10
-54.49999999999999
 20
-4.000000000000012
 30
0.0
  0
POINT
  5
79C3
330
1A74
100
AcDbEntity
  8
DEFPOINTS
 62
     0
100
AcDbPoint
 10
-63.50000099999999
 20
-4.000000000000009
 30
0.0
  0
ENDBLK
  5
1A80
330
1A74
100
AcDbEntity
  8
0
100
AcDbBlockEnd
  0
BLOCK
  5
7B9E
330
7B94
100
AcDbEntity
  8
0
100
AcDbBlockBegin
  2
*D8
 70
     1
 10
0.0
 20
0.0
 30
0.0
  3
*D8
  1

  0
LINE
  5
7BB7
330
7B94
100
AcDbEntity
  8
AM_5
100
AcDbLine
 10
0.4999999999999929
 20
3.499999999999989
 30
0.0
 11
9.551050680252128
 21
3.499999999999987
 31
0.0
  0
LINE
  5
7BB8
330
7B94
100
AcDbEntity
  8
AM_5
100
AcDbLine
 10
0.5000000000000071
 20
-3.500000000000011
 30
0.0
 11
9.551050680252128
 21
-3.500000000000014
 31
0.0
  0
LINE
  5
7BB9
330
7B94
100
AcDbEntity
  8
AM_5
100
AcDbLine
 10
9.051050680252128
 20
2.249999999999987
 30
0.0
 11
9.051050680252128
 21
-2.250000000000014
 31
0.0
  0
INSERT
  5
7BBA
330
7B94
100
AcDbEntity
  8
AM_5
100
AcDbBlockReference
  2
_OPEN30
 10
9.051050680252128
 20
3.499999999999987
 30
0.0
 41
1.25
 42
1.25
 43
1.25
 50
90.0
  0
INSERT
  5
7BBB
330
7B94
100
AcDbEntity
  8
AM_5
100
AcDbBlockReference
  2
_OPEN30
 10
9.051050680252128
 20
-3.500000000000014
 30
0.0
 41
1.25
 42
1.25
 43
1.25
 50
270.0
  0
MTEXT
  5
7BBC
330
7B94
100
AcDbEntity
  8
AM_5
 62
     2
100
AcDbMText
 10
7.501050680252127
 20
-0.0000000000000119
 30
0.0
 40
1.6
 41
0.0
 71
     5
 72
     1
  1
%%c7
  7
ASAMI
 11
0.0000000000000001
 21
1.0
 31
0.0
1001
ACAD
1000
MTEXTBEGIN
1070
    73
1070
     1
1070
    44
1040
1.0
1070
    74
1070
     0
1000
MTEXTEND
  0
POINT
  5
7BBD
330
7B94
100
AcDbEntity
  8
DEFPOINTS
 62
     0
100
AcDbPoint
 10
-0.0000000000000071
 20
3.499999999999989
 30
0.0
  0
POINT
  5
7BBE
330
7B94
100
AcDbEntity
  8
DEFPOINTS
 62
     0
100
AcDbPoint
 10
0.0000000000000071
 20
-3.500000000000011
 30
0.0
  0
POINT
  5
7BBF
330
7B94
100
AcDbEntity
  8
DEFPOINTS
 62
     0
100
AcDbPoint
 10
9.051050680252128
 20
-3.500000000000014
 30
0.0
  0
ENDBLK
  5
7B9F
330
7B94
100
AcDbEntity
  8
0
100
AcDbBlockEnd
  0
ENDSEC
  0
SECTION
  2
ENTITIES
  0
LINE
  5
C2E
330
1F
100
AcDbEntity
  8
AM_7
  6
AM_ISO08W050X2
100
AcDbLine
 10
2.051049680252134
 20
0.0
 30
0.0
 11
-56.5
 21
-0.0000000000000117
 31
0.0
  0
DIMENSION
  5
10F0
330
1F
100
AcDbEntity
  8
AM_5
100
AcDbDimension
  2
*D5
 10
-0.0000000000001323
 20
-17.00000099999996
 30
0.0
 11
-27.50000000000006
 21
-15.45000099999996
 31
0.0
 70
    32
  1
<>
  3
AM_JIS
100
AcDbAlignedDimension
 13
-55.0
 23
-3.500000000000012
 33
0.0
 14
-0.0000000000001315
 24
-3.500000000000011
 34
0.0
 50
0.0000000000001132
100
AcDbRotatedDimension
1001
GENIUS_GENDTOL_13
1000

1000
h7
1000

1040
0.0
  0
DIMENSION
  5
12D8
330
1F
100
AcDbEntity
  8
AM_5
100
AcDbDimension
  2
*D6
 10
-15.00000000000015
 20
-11.00000099999998
 30
0.0
 11
-7.500000000000071
 21
-9.450000999999986
 31
0.0
 70
    32
  1
<>
  3
AM_JIS
100
AcDbAlignedDimension
 13
0.0000000000000071
 23
-3.500000000000011
 33
0.0
 14
-15.00000000000015
 24
-3.499999999999153
 34
0.0
 50
0.0000000000001132
100
AcDbRotatedDimension
1001
GENIUS_GENDTOL_13
1000

1000
h7
1000

1040
0.0
  0
TEXT
  5
1500
330
1F
100
AcDbEntity
  8
AM_6
100
AcDbText
 10
-35.71428571428578
 20
-28.25000099999996
 30
0.0
 40
2.5
  1
SSM2070
 72
     4
 11
-27.50000000000007
 21
-27.00000099999996
 31
0.0
100
AcDbText
  0
DIMENSION
  5
1A73
330
1F
100
AcDbEntity
  8
AM_5
100
AcDbDimension
  2
*D7
 10
-63.50000099999999
 20
-4.000000000000009
 30
0.0
 11
-63.50000099999999
 21
-0.0000000000000075
 31
0.0
 70
   160
  1
%%c<>
  3
AM_JIS
100
AcDbAlignedDimension
 13
-54.50000000000001
 23
3.999999999999989
 33
0.0
 14
-54.49999999999999
 24
-4.000000000000012
 34
0.0
 50
270.0
100
AcDbRotatedDimension
1001
GENIUS_GENDTOL_13
1000

1000
h7
1000

1040
0.0
  0
LINE
  5
67B8
330
1F
100
AcDbEntity
  8
AM_0
100
AcDbLine
 10
-54.50000000000001
 20
3.999999999999989
 30
0.0
 11
-25.00000000000002
 21
4.0
 31
0.0
  0
LINE
  5
67B9
330
1F
100
AcDbEntity
  8
AM_0
100
AcDbLine
 10
-54.49999999999999
 20
-4.000000000000012
 30
0.0
 11
-25.0
 21
-4.000000000000004
 31
0.0
  0
LINE
  5
67BA
330
1F
100
AcDbEntity
  8
AM_0
100
AcDbLine
 10
-54.50000000000001
 20
3.999999999999989
 30
0.0
 11
-55.00000000000001
 21
3.333333333333322
 31
0.0
1001
GENIUS_GENFIL_13
1070
     0
1040
0.5
1040
0.5
1040
20.0
1040
0.0
1002
{
1002
}
1001
GENIUS_GENODEF_13
1002
{
1000
HIER
1070
     0
1002
}
1002
{
1000
MANEDIT
1070
     0
1002
}
1002
{
1000
NOSEL
1070
     0
1002
}
1002
{
1000
BEHIND
1070
     0
1002
}
1002
{
1000
REACTOR
1002
}
1001
GENIUS_GENOBJ-N-CHA_13
1002
{
1000
OWNER
1000
GEN
1002
}
  0
LINE
  5
67BC
330
1F
100
AcDbEntity
  8
AM_0
100
AcDbLine
 10
-55.0
 20
-3.500000000000012
 30
0.0
 11
-55.0
 21
3.499999999999989
 31
0.0
  0
LINE
  5
67BD
330
1F
100
AcDbEntity
  8
AM_0
100
AcDbLine
 10
-54.50000000000001
 20
3.999999999999989
 30
0.0
 11
-54.49999999999999
 21
-4.000000000000012
 31
0.0
  0
LINE
  5
6845
330
1F
100
AcDbEntity
  8
AM_0
100
AcDbLine
 10
-24.99999999999999
 20
-4.000000000000002
 30
0.0
 11
-25.00000000000001
 21
4.000000000000001
 31
0.0
  0
LINE
  5
6855
330
1F
100
AcDbEntity
  8
AM_0
100
AcDbLine
 10
-25.00000000000001
 20
4.000000000000001
 30
0.0
 11
-23.62626129027261
 21
3.499999999999971
 31
0.0
  0
LINE
  5
6857
330
1F
100
AcDbEntity
  8
AM_0
100
AcDbLine
 10
-23.62626129027244
 20
-3.499999999999914
 30
0.0
 11
-24.99999999999999
 21
-4.000000000000002
 31
0.0
  0
LINE
  5
744D
330
1F
100
AcDbEntity
  8
AM_0
100
AcDbLine
 10
-23.62626129027261
 20
3.499999999999972
 30
0.0
 11
-23.62626129027245
 21
-3.499999999999916
 31
0.0
  0
LINE
  5
7841
330
1F
100
AcDbEntity
  8
AM_0
100
AcDbLine
 10
-18.54545454545511
 20
3.499999999999975
 30
0.0
 11
-23.62626129027261
 21
3.499999999999971
 31
0.0
  0
LINE
  5
7842
330
1F
100
AcDbEntity
  8
AM_0
100
AcDbLine
 10
-14.99999999978167
 20
-3.499999999994484
 30
0.0
 11
-23.62626129027038
 21
-3.49999999999916
 31
0.0
  0
LINE
  5
7B8B
330
1F
100
AcDbEntity
  8
AM_0
100
AcDbLine
 10
-0.2288453539574533
 20
0.4199999999999632
 30
0.0
 11
0.0
 21
0.6999999999999888
 31
0.0
  0
LINE
  5
7B8C
330
1F
100
AcDbEntity
  8
AM_0
100
AcDbLine
 10
0.0
 20
0.6999999999999888
 30
0.0
 11
-0.0000000000000071
 21
3.499999999999989
 31
0.0
  0
LINE
  5
7B8D
330
1F
100
AcDbEntity
  8
AM_0
100
AcDbLine
 10
-0.255681818181813
 20
-2.854754129159304
 30
0.0
 11
-0.255681818181813
 21
-2.817048801792845
 31
0.0
  0
LINE
  5
7B8E
330
1F
100
AcDbEntity
  8
AM_0
100
AcDbLine
 10
-0.071590909090915
 20
-3.313408810335285
 30
0.0
 11
-0.255681818181813
 21
-2.854754129159304
 31
0.0
  0
LINE
  5
7B8F
330
1F
100
AcDbEntity
  8
AM_0
100
AcDbLine
 10
-0.071590909090915
 20
-3.313408810335285
 30
0.0
 11
-0.0715909090909222
 21
0.2275938890556552
 31
0.0
  0
LINE
  5
7B90
330
1F
100
AcDbEntity
  8
AM_0
100
AcDbLine
 10
0.0
 20
0.1399999999999827
 30
0.0
 11
-1.606753793878581
 21
2.105917395769641
 31
0.0
  0
LINE
  5
7B91
330
1F
100
AcDbEntity
  8
AM_0
100
AcDbLine
 10
0.0000000000000071
 20
-3.500000000000011
 30
0.0
 11
0.0
 21
0.1399999999999827
 31
0.0
  0
LINE
  5
7B92
330
1F
100
AcDbEntity
  8
AM_0
100
AcDbLine
 10
0.0000000000000071
 20
-3.500000000000011
 30
0.0
 11
-0.071590909090915
 21
-3.313408810335285
 31
0.0
  0
DIMENSION
  5
7B93
330
1F
100
AcDbEntity
  8
AM_5
100
AcDbDimension
  2
*D8
 10
9.051050680252128
 20
-3.500000000000014
 30
0.0
 11
7.501050680252127
 21
-0.0000000000000119
 31
0.0
 70
    32
  1
%%c<>
  3
AM_JIS
100
AcDbAlignedDimension
 13
-0.0000000000000071
 23
3.499999999999989
 33
0.0
 14
0.0000000000000071
 24
-3.500000000000011
 34
0.0
 50
90.0
100
AcDbRotatedDimension
1001
GENIUS_GENDTOL_13
1000

1000
h7
1000

1040
0.0
  0
ELLIPSE
  5
7BA0
330
1F
100
AcDbEntity
  8
AM_0
100
AcDbEllipse
 10
9.686433028897276
 20
0.0147261181958551
 30
0.0
 11
-0.0000000000000068
 21
10.59276427293837
 31
0.0
210
0.0
220
0.0
230
1.0
 40
0.9740259740259652
 41
1.489874453283513
 42
1.841418545974789
  0
SPLINE
  5
7BA1
330
1F
100
AcDbEntity
  8
AM_0
100
AcDbSpline
210
0.0
220
0.0
230
1.0
 70
     8
 71
     3
 72
     8
 73
     4
 74
     0
 42
0.0000000001
 43
0.0000000001
 40
0.0
 40
0.0
 40
0.0
 40
0.0
 40
2.238610194515266
 40
2.238610194515266
 40
2.238610194515266
 40
2.238610194515266
 10
-7.861045569944309
 20
-2.685686821110961
 30
0.0
 10
-6.863447443906693
 20
-2.685686821110961
 30
0.0
 10
-5.883925472970126
 20
-2.554012634105512
 30
0.0
 10
-4.916874241642339
 20
-2.331496423992932
 30
0.0
  0
SPLINE
  5
7BA2
330
1F
100
AcDbEntity
  8
AM_0
100
AcDbSpline
210
0.0
220
0.0
230
1.0
 70
     8
 71
     3
 72
     8
 73
     4
 74
     0
 42
0.0000000001
 43
0.0000000001
 40
4.219358800530717
 40
4.219358800530717
 40
4.219358800530717
 40
4.219358800530717
 40
14.36247867694493
 40
14.36247867694493
 40
14.36247867694493
 40
14.36247867694493
 10
-0.2556818181817775
 20
-2.854754129159146
 30
0.0
 10
-2.468920743334194
 20
-2.282663454182173
 30
0.0
 10
-4.590602412243704
 20
-1.141331727091075
 30
0.0
 10
-6.712284081153214
 20
0.0000000000000301
 30
0.0
  0
SPLINE
  5
7BA3
330
1F
100
AcDbEntity
  8
AM_0
100
AcDbSpline
210
0.0
220
0.0
230
1.0
 70
     8
 71
     3
 72
     8
 73
     4
 74
     0
 42
0.0000000001
 43
0.0000000001
 40
1.870660592686466
 40
1.870660592686466
 40
1.870660592686466
 40
1.870660592686466
 40
14.43901837670146
 40
14.43901837670146
 40
14.43901837670146
 40
14.43901837670146
 10
-0.0715909090908937
 20
-3.313408810335247
 30
0.0
 10
-2.867703130383283
 20
-2.955330428471046
 30
0.0
 10
-5.475175844057119
 20
-1.477665214235512
 30
0.0
 10
-8.082648557730941
 20
0.0000000000000301
 30
0.0
  0
SPLINE
  5
7BA4
330
1F
100
AcDbEntity
  8
AM_0
100
AcDbSpline
210
0.0
220
0.0
230
1.0
 70
     8
 71
     3
 72
     8
 73
     4
 74
     0
 42
0.0000000001
 43
0.0000000001
 40
0.0
 40
0.0
 40
0.0
 40
0.0
 40
7.57842115059705
 40
7.57842115059705
 40
7.57842115059705
 40
7.57842115059705
 10
-0.0000000000000071
 20
3.499999999999989
 30
0.0
 10
-1.722368443317513
 20
3.499999999999981
 30
0.0
 10
-3.361742673065364
 20
3.021304927187662
 30
0.0
 10
-4.961529539021015
 20
2.314277357712228
 30
0.0
  0
SPLINE
  5
7BA5
330
1F
100
AcDbEntity
  8
AM_0
100
AcDbSpline
210
0.0
220
0.0
230
1.0
 70
     8
 71
     3
 72
     8
 73
     4
 74
     0
 42
0.0000000001
 43
0.0000000001
 40
0.0
 40
0.0
 40
0.0
 40
0.0
 40
2.586565323616742
 40
2.586565323616742
 40
2.586565323616742
 40
2.586565323616742
 10
-0.0000000000000071
 20
2.852291880678764
 30
0.0
 10
-0.3772277594338362
 20
2.389410237305696
 30
0.0
 10
-1.024717844124559
 20
2.190631657847033
 30
0.0
 10
-1.606753793878581
 20
2.105917395769641
 30
0.0
  0
LINE
  5
7BA7
330
1F
100
AcDbEntity
  8
AM_11
100
AcDbLine
 10
-15.00000000000015
 20
-3.499999999999153
 30
0.0
 11
-15.00000000000016
 21
3.499999999999974
 31
0.0
  0
ELLIPSE
  5
7BA8
330
1F
100
AcDbEntity
  8
AM_0
100
AcDbEllipse
 10
-14.54849389355924
 20
4.907566490635972
 30
0.0
 11
-0.000000000000036
 21
8.432109000465542
 31
0.0
210
0.0
220
0.0
230
1.0
 40
0.9740259740259704
 41
2.477864006398931
 42
3.065277325949156
  0
ELLIPSE
  5
7BA9
330
1F
100
AcDbEntity
  8
AM_0
100
AcDbEllipse
 10
-14.92623454294172
 20
5.636420495325219
 30
0.0
 11
-0.0000000000006663
 21
8.799717349391659
 31
0.0
210
0.0
220
0.0
230
1.0
 40
0.97402597402598
 41
2.563710528490188
 42
3.044909616383424
  0
ELLIPSE
  5
7BAA
330
1F
100
AcDbEntity
  8
AM_0
100
AcDbEllipse
 10
-16.66468684953662
 20
-2.128830377711234
 30
0.0
 11
1.874499126114832
 21
3.755912357240863
 31
0.0
210
0.0
220
0.0
230
1.0
 40
0.6876737395128322
 41
1.136802441714031
 42
1.801913969094067
  0
ELLIPSE
  5
7BAB
330
1F
100
AcDbEntity
  8
AM_0
100
AcDbEllipse
 10
-15.0873352827956
 20
0.1590388996591138
 30
0.0
 11
0.0000000000008118
 21
3.660137339257201
 31
0.0
210
0.0
220
0.0
230
1.0
 40
0.9740259740259936
 41
3.117092700143105
 42
3.694936940561412
  0
ELLIPSE
  5
7BAC
330
1F
100
AcDbEntity
  8
AM_0
100
AcDbEllipse
 10
9.833098117818501
 20
56.34451579234912
 30
0.0
 11
0.0000000000633374
 21
62.7273012955552
 31
0.0
210
0.0
220
0.0
230
1.0
 40
0.9740259740259416
 41
2.592099274284205
 42
2.686557308637015
  0
SPLINE
  5
7BAD
330
1F
100
AcDbEntity
  8
AM_0
100
AcDbSpline
210
0.0
220
0.0
230
1.0
 70
     8
 71
     3
 72
     8
 73
     4
 74
     0
 42
0.0000000001
 43
0.0000000001
 40
0.0
 40
0.0
 40
0.0
 40
0.0
 40
5.192508374738713
 40
5.192508374738713
 40
5.192508374738713
 40
5.192508374738713
 10
-18.54545454545453
 20
3.499999999999974
 30
0.0
 10
-19.72557008516785
 20
3.499999999999974
 30
0.0
 10
-20.86672330993226
 20
3.275272667946115
 30
0.0
 10
-22.07566430376797
 20
2.851349648023718
 30
0.0
  0
LINE
  5
7BAE
330
1F
100
AcDbEntity
  8
AM_11
100
AcDbLine
 10
-15.00000000000014
 20
-3.49999999999998
 30
0.0
 11
0.0000000000000071
 21
-3.500000000000011
 31
0.0
  0
LINE
  5
7BAF
330
1F
100
AcDbEntity
  8
AM_11
100
AcDbLine
 10
-0.0000000000005258
 20
3.499999999999989
 30
0.0
 11
-15.00000000000016
 21
3.499999999999977
 31
0.0
  0
LINE
  5
7BB0
330
1F
100
AcDbEntity
  8
AM_0
100
AcDbLine
 10
-7.861045569944309
 20
-2.685686821110961
 30
0.0
 11
-15.75362923845829
 21
-3.122200720032406
 31
0.0
  0
LINE
  5
7BB1
330
1F
100
AcDbEntity
  8
AM_0
100
AcDbLine
 10
-13.01710538628228
 20
2.814596784246488
 30
0.0
 11
-1.606753793878581
 21
2.105917395769641
 31
0.0
  0
SPLINE
  5
7BB2
330
1F
100
AcDbEntity
  8
AM_0
100
AcDbSpline
210
0.0
220
0.0
230
1.0
 70
     8
 71
     3
 72
     8
 73
     4
 74
     0
 42
0.0000000001
 43
0.0000000001
 40
0.0
 40
0.0
 40
0.0
 40
0.0
 40
14.48999654934396
 40
14.48999654934396
 40
14.48999654934396
 40
14.48999654934396
 10
0.0000000000000071
 20
-3.500000000000011
 30
0.0
 10
-3.293181033941806
 20
-3.500000000000011
 30
0.0
 10
-6.282954153334536
 20
-1.750000000000013
 30
0.0
 10
-9.272727272727266
 20
-0.0000000000000151
 30
0.0
  0
SPLINE
  5
7BB3
330
1F
100
AcDbEntity
  8
AM_0
100
AcDbSpline
210
0.0
220
0.0
230
1.0
 70
     8
 71
     3
 72
     8
 73
     4
 74
     0
 42
0.0000000001
 43
0.0000000001
 40
0.0
 40
0.0
 40
0.0
 40
0.0
 40
13.97258598406841
 40
13.97258598406841
 40
13.97258598406841
 40
13.97258598406841
 10
-7.861045569944309
 20
-2.685686821110961
 30
0.0
 10
-11.03663329359624
 20
-2.685686821110976
 30
0.0
 10
-14.02905578604119
 20
-1.351435550752992
 30
0.0
 10
-17.0191192305605
 20
0.0000000000000151
 30
0.0
  0
SPLINE
  5
7BB4
330
1F
100
AcDbEntity
  8
AM_0
100
AcDbSpline
210
0.0
220
0.0
230
1.0
 70
     8
 71
     3
 72
     8
 73
     4
 74
     0
 42
0.0000000001
 43
0.0000000001
 40
0.7142832446738512
 40
0.7142832446738512
 40
0.7142832446738512
 40
0.7142832446738512
 40
14.36247867694493
 40
14.36247867694493
 40
14.36247867694493
 40
14.36247867694493
 10
-15.4998967994121
 20
3.220418452876981
 30
0.0
 10
-12.42199202410636
 20
3.071464924832855
 30
0.0
 10
-9.567138052629793
 20
1.535732462416435
 30
0.0
 10
-6.712284081153214
 20
0.0000000000000301
 30
0.0
  0
SPLINE
  5
7BB5
330
1F
100
AcDbEntity
  8
AM_0
100
AcDbSpline
210
0.0
220
0.0
230
1.0
 70
     8
 71
     3
 72
     8
 73
     4
 74
     0
 42
0.0000000001
 43
0.0000000001
 40
0.3581103616548037
 40
0.3581103616548037
 40
0.3581103616548037
 40
0.3581103616548037
 40
14.43901837670146
 40
14.43901837670146
 40
14.43901837670146
 40
14.43901837670146
 10
-17.11173313590149
 20
3.392091795996845
 30
0.0
 10
-13.92519124531769
 20
3.31099230563724
 30
0.0
 10
-11.00391990152431
 20
1.655496152818631
 30
0.0
 10
-8.082648557730941
 20
0.0000000000000301
 30
0.0
  0
SPLINE
  5
7BB6
330
1F
100
AcDbEntity
  8
AM_0
100
AcDbSpline
210
0.0
220
0.0
230
1.0
 70
     8
 71
     3
 72
     8
 73
     4
 74
     0
 42
0.0000000001
 43
0.0000000001
 40
0.0
 40
0.0
 40
0.0
 40
0.0
 40
14.48999654934396
 40
14.48999654934396
 40
14.48999654934396
 40
14.48999654934396
 10
-18.54545454545453
 20
3.500000000000057
 30
0.0
 10
-15.25227351151273
 20
3.500000000000057
 30
0.0
 10
-12.26250039212001
 20
1.750000000000051
 30
0.0
 10
-9.272727272727266
 20
0.0000000000000678
 30
0.0
  0
LINE
  5
7CB5
330
1F
100
AcDbEntity
  8
AM_0
100
AcDbLine
 10
-55.0
 20
3.499999999999989
 30
0.0
 11
-54.50000000000001
 21
3.999999999999989
 31
0.0
1001
GENIUS_GENFIL_13
1070
     0
1040
0.5
1040
0.5
1040
20.0
1040
0.0
1002
{
1002
}
1001
GENIUS_GENODEF_13
1002
{
1000
HIER
1070
     0
1002
}
1002
{
1000
MANEDIT
1070
     0
1002
}
1002
{
1000
NOSEL
1070
     0
1002
}
1002
{
1000
BEHIND
1070
     0
1002
}
1002
{
1000
REACTOR
1002
}
1001
GENIUS_GENOBJ-N-CHA_13
1002
{
1000
OWNER
1000
GEN
1002
}
  0
LINE
  5
7CB8
330
1F
100
AcDbEntity
  8
AM_0
100
AcDbLine
 10
-55.0
 20
-3.500000000000012
 30
0.0
 11
-54.49999999999999
 21
-4.000000000000012
 31
0.0
1001
GENIUS_GENFIL_13
1070
     0
1040
0.5
1040
0.5
1040
20.0
1040
0.0
1002
{
1002
}
1001
GENIUS_GENODEF_13
1002
{
1000
HIER
1070
     0
1002
}
1002
{
1000
MANEDIT
1070
     0
1002
}
1002
{
1000
NOSEL
1070
     0
1002
}
1002
{
1000
BEHIND
1070
     0
1002
}
1002
{
1000
REACTOR
1002
}
1001
GENIUS_GENOBJ-N-CHA_13
1002
{
1000
OWNER
1000
GEN
1002
}
  0
VIEWPORT
  5
110
330
101
100
AcDbEntity
 67
     1
  8
0
100
AcDbViewport
 10
420.5
 20
297.0
 30
0.0
 40
948.9782706766916
 41
628.452
 68
     1
 69
     1
1001
ACAD
1000
MVIEW
1002
{
1070
    16
1010
0.0
1020
0.0
1030
0.0
1010
0.0
1020
0.0
1030
1.0
1040
0.0
1040
628.452
1040
420.5
1040
297.0
1040
50.0
1040
0.0
1040
0.0
1070
     0
1070
   100
1070
     1
1070
     1
1070
     0
1070
     0
1070
     0
1070
     0
1040
0.0
1040
0.0
1040
0.0
1040
10.0
1040
10.0
1040
10.0
1040
10.0
1070
     0
1002
{
1002
}
1002
}
  0
ENDSEC
  0
SECTION
  2
OBJECTS
  0
DICTIONARY
  5
C
330
0
100
AcDbDictionary
  3
ACAD_GROUP
350
D
  3
ACAD_LAYOUT
350
1A
  3
ACAD_MLINESTYLE
350
17
  3
ACAD_PLOTSETTINGS
350
19
  3
ACAD_PLOTSTYLENAME
350
E
  3
ACDBVARIABLEDICTIONARY
350
34
  3
ACMDICTIONARY
350
43
  3
AMG
350
2B
  3
AMGSNAPSETTINGS
350
6E
  3
ASE_INDEX_DICTIONARY
350
151A
  3
DWGPROPS
350
7D7E
  3
ACDBHEADERROUNDTRIPXREC
350
7D8A
  0
DICTIONARY
  5
74
330
1F
100
AcDbDictionary
280
     1
  3
ACAD_INDEX
360
7D80
  3
ACAD_LAYOUTSELFREF
360
7DAD
  0
DICTIONARY
  5
7DB2
330
101
100
AcDbDictionary
280
     1
  3
ACAD_LAYOUTSELFREF
360
7DB3
  0
DICTIONARY
  5
D
102
{ACAD_REACTORS
330
C
102
}
330
C
100
AcDbDictionary
  0
DICTIONARY
  5
1A
102
{ACAD_REACTORS
330
C
102
}
330
C
100
AcDbDictionary
  0
DICTIONARY
  5
17
102
{ACAD_REACTORS
330
C
102
}
330
C
100
AcDbDictionary
  3
STANDARD
350
18
  0
DICTIONARY
  5
19
102
{ACAD_REACTORS
330
C
102
}
330
C
100
AcDbDictionary
  0
ACDBDICTIONARYWDFLT
  5
E
102
{ACAD_REACTORS
330
C
102
}
330
C
100
AcDbDictionary
281
     1
  3
Normal
350
F
100
AcDbDictionaryWithDefault
340
F
  0
DICTIONARY
  5
34
102
{ACAD_REACTORS
330
C
102
}
330
C
100
AcDbDictionary
  3
INDEXCTL
350
35
  3
SORTENTS
350
B5E
  0
DICTIONARY
  5
43
102
{ACAD_REACTORS
330
C
102
}
330
C
100
AcDbDictionary
  3
ACMSTDDICTIONARY
350
260
  0
DICTIONARY
  5
2B
102
{ACAD_REACTORS
330
C
102
}
330
C
100
AcDbDictionary
  3
ACMGSETTINGS
350
2C
  0
DICTIONARY
  5
6E
102
{ACAD_REACTORS
330
C
102
}
330
C
100
AcDbDictionary
  0
DICTIONARY
  5
151A
102
{ACAD_REACTORS
330
C
102
}
330
C
100
AcDbDictionary
  3
ASEBLOCKHIERARCHYINDEXRECORD
350
151C
1001
DCO15
1040
1471862535.906
  0
XRECORD
  5
7D7E
102
{ACAD_REACTORS
330
C
102
}
330
C
100
AcDbXrecord
  1
DWGPROPS COOKIE
  2

  3

  4

  6

  7

  8

  9

300
AmdtFileType=82
301
=
302
=
303
=
304
=
305
=
306
=
307
=
308
=
309
=
 40
0.2991625
 41
2452838.430434386
 42
2453045.603820717
  1

 90
        1
  0
DICTIONARY
  5
7D8A
102
{ACAD_REACTORS
330
C
102
}
330
C
100
AcDbDictionary
  3
TSTACKALIGN
350
7D8B
  3
TSTACKSIZE
350
7D8C
  3
HYPERLINKBASE
350
7D8D
  3
STYLESHEET
350
7D8E
  3
LAYOUTDICT
350
7D8F
  3
PLOTSETDICT
350
7D90
  3
PLOTSTYLNAMDICT
350
7D91
  3
LWETCUNION
350
7D92
  3
INSUNITS
350
7D93
  3
CEPSNTYPE
350
7D94
  3
FINGERPRINTGUID
350
7D95
  3
VERSIONGUID
350
7D96
  3
PSVPSCALE
350
7D97
  3
DIMSTYLEDATA
350
7D98
  3
PUCSORTHOREF
350
7D99
  3
PUCSORTHOVIEW
350
7D9A
  3
PUCSBASE
350
7D9B
  3
PUCSORGTOP
350
7D9C
  3
PUCSORGBOTTOM
350
7D9D
  3
PUCSORGLEFT
350
7D9E
  3
PUCSORGRIGHT
350
7D9F
  3
PUCSORGFRONT
350
7DA0
  3
PUCSORGBACK
350
7DA1
  3
UCSORTHOREF
350
7DA2
  3
UCSORTHOVIEW
350
7DA3
  3
UCSBASE
350
7DA4
  3
UCSORGTOP
350
7DA5
  3
UCSORGBOTTOM
350
7DA6
  3
UCSORGLEFT
350
7DA7
  3
UCSORGRIGHT
350
7DA8
  3
UCSORGFRONT
350
7DA9
  3
UCSORGBACK
350
7DAA
  0
DICTIONARY
  5
7D80
102
{ACAD_REACTORS
330
74
102
}
330
74
100
AcDbDictionary
  3
*A1
350
7D81
  0
XRECORD
  5
7DAD
102
{ACAD_REACTORS
330
74
102
}
330
74
100
AcDbXrecord
340
1F
  0
XRECORD
  5
7DB3
102
{ACAD_REACTORS
330
7DB2
102
}
330
7DB2
100
AcDbXrecord
340
101
  0
MLINESTYLE
  5
18
102
{ACAD_REACTORS
330
17
102
}
330
17
100
AcDbMlineStyle
  2
STANDARD
 70
     0
  3

 62
   256
 51
90.0
 52
90.0
 71
     2
 49
0.5
 62
   256
  6
BYLAYER
 49
-0.5
 62
   256
  6
BYLAYER
  0
ACDBPLACEHOLDER
  5
F
102
{ACAD_REACTORS
330
E
102
}
330
E
100
AcDbPlaceHolder
280
     0
  0
DICTIONARYVAR
  5
35
102
{ACAD_REACTORS
330
34
102
}
330
34
100
DictionaryVariables
280
     0
  1
1
  0
DICTIONARYVAR
  5
B5E
102
{ACAD_REACTORS
330
34
102
}
330
34
100
DictionaryVariables
280
     0
  1
96
  0
DICTIONARY
  5
260
102
{ACAD_REACTORS
330
43
102
}
330
43
100
AcDbDictionary
  0
DICTIONARY
  5
2C
102
{ACAD_REACTORS
330
2B
102
}
330
2B
100
AcDbDictionary
  3
DWGSETTINGS
350
2D
  0
XRECORD
  5
151C
102
{ACAD_REACTORS
330
151A
102
}
330
151A
100
AcDbXrecord
330
0
330
0
330
0
330
0
330
0
330
0
330
0
330
0
  0
XRECORD
  5
7D8B
102
{ACAD_REACTORS
330
7D8A
102
}
330
7D8A
100
AcDbXrecord
 90
        1
  0
XRECORD
  5
7D8C
102
{ACAD_REACTORS
330
7D8A
102
}
330
7D8A
100
AcDbXrecord
 90
       70
  0
XRECORD
  5
7D8D
102
{ACAD_REACTORS
330
7D8A
102
}
330
7D8A
100
AcDbXrecord
  1

  0
XRECORD
  5
7D8E
102
{ACAD_REACTORS
330
7D8A
102
}
330
7D8A
100
AcDbXrecord
  1
ASAMI.ctb
  0
XRECORD
  5
7D8F
102
{ACAD_REACTORS
330
7D8A
102
}
330
7D8A
100
AcDbXrecord
340
1A
  0
XRECORD
  5
7D90
102
{ACAD_REACTORS
330
7D8A
102
}
330
7D8A
100
AcDbXrecord
340
19
  0
XRECORD
  5
7D91
102
{ACAD_REACTORS
330
7D8A
102
}
330
7D8A
100
AcDbXrecord
340
E
  0
XRECORD
  5
7D92
102
{ACAD_REACTORS
330
7D8A
102
}
330
7D8A
100
AcDbXrecord
 90
    10781
  0
XRECORD
  5
7D93
102
{ACAD_REACTORS
330
7D8A
102
}
330
7D8A
100
AcDbXrecord
 90
        4
  0
XRECORD
  5
7D94
102
{ACAD_REACTORS
330
7D8A
102
}
330
7D8A
100
AcDbXrecord
 90
        0
  0
XRECORD
  5
7D95
102
{ACAD_REACTORS
330
7D8A
102
}
330
7D8A
100
AcDbXrecord
  1
{AFB28963-8C59-40AE-9337-C84526B81ACE}
  0
XRECORD
  5
7D96
102
{ACAD_REACTORS
330
7D8A
102
}
330
7D8A
100
AcDbXrecord
  1
{F9870A2E-BAC4-4061-8AAD-AA638E7BD192}
  0
XRECORD
  5
7D97
102
{ACAD_REACTORS
330
7D8A
102
}
330
7D8A
100
AcDbXrecord
 40
0.0
  0
XRECORD
  5
7D98
102
{ACAD_REACTORS
330
7D8A
102
}
330
7D8A
100
AcDbXrecord
1000
DSTYLE
1002
{
1070
    79
 70
     2
1070
   341
340
59
1070
   342
340
59
1070
   371
 70
    -1
1070
   372
 70
    -1
1002
}
  0
XRECORD
  5
7D99
102
{ACAD_REACTORS
330
7D8A
102
}
330
7D8A
100
AcDbXrecord
340
0
  0
XRECORD
  5
7D9A
102
{ACAD_REACTORS
330
7D8A
102
}
330
7D8A
100
AcDbXrecord
 70
     0
  0
XRECORD
  5
7D9B
102
{ACAD_REACTORS
330
7D8A
102
}
330
7D8A
100
AcDbXrecord
340
0
  0
XRECORD
  5
7D9C
102
{ACAD_REACTORS
330
7D8A
102
}
330
7D8A
100
AcDbXrecord
 10
0.0
 20
0.0
 30
0.0
  0
XRECORD
  5
7D9D
102
{ACAD_REACTORS
330
7D8A
102
}
330
7D8A
100
AcDbXrecord
 10
0.0
 20
0.0
 30
0.0
  0
XRECORD
  5
7D9E
102
{ACAD_REACTORS
330
7D8A
102
}
330
7D8A
100
AcDbXrecord
 10
0.0
 20
0.0
 30
0.0
  0
XRECORD
  5
7D9F
102
{ACAD_REACTORS
330
7D8A
102
}
330
7D8A
100
AcDbXrecord
 10
0.0
 20
0.0
 30
0.0
  0
XRECORD
  5
7DA0
102
{ACAD_REACTORS
330
7D8A
102
}
330
7D8A
100
AcDbXrecord
 10
0.0
 20
0.0
 30
0.0
  0
XRECORD
  5
7DA1
102
{ACAD_REACTORS
330
7D8A
102
}
330
7D8A
100
AcDbXrecord
 10
0.0
 20
0.0
 30
0.0
  0
XRECORD
  5
7DA2
102
{ACAD_REACTORS
330
7D8A
102
}
330
7D8A
100
AcDbXrecord
340
0
  0
XRECORD
  5
7DA3
102
{ACAD_REACTORS
330
7D8A
102
}
330
7D8A
100
AcDbXrecord
 70
     0
  0
XRECORD
  5
7DA4
102
{ACAD_REACTORS
330
7D8A
102
}
330
7D8A
100
AcDbXrecord
340
0
  0
XRECORD
  5
7DA5
102
{ACAD_REACTORS
330
7D8A
102
}
330
7D8A
100
AcDbXrecord
 10
0.0
 20
0.0
 30
0.0
  0
XRECORD
  5
7DA6
102
{ACAD_REACTORS
330
7D8A
102
}
330
7D8A
100
AcDbXrecord
 10
0.0
 20
0.0
 30
0.0
  0
XRECORD
  5
7DA7
102
{ACAD_REACTORS
330
7D8A
102
}
330
7D8A
100
AcDbXrecord
 10
0.0
 20
0.0
 30
0.0
  0
XRECORD
  5
7DA8
102
{ACAD_REACTORS
330
7D8A
102
}
330
7D8A
100
AcDbXrecord
 10
0.0
 20
0.0
 30
0.0
  0
XRECORD
  5
7DA9
102
{ACAD_REACTORS
330
7D8A
102
}
330
7D8A
100
AcDbXrecord
 10
0.0
 20
0.0
 30
0.0
  0
XRECORD
  5
7DAA
102
{ACAD_REACTORS
330
7D8A
102
}
330
7D8A
100
AcDbXrecord
 10
0.0
 20
0.0
 30
0.0
  0
LAYER_INDEX
  5
7D81
102
{ACAD_REACTORS
330
7D80
102
}
330
7D80
100
AcDbIndex
 40
2453151.831048426
100
AcDbLayerIndex
  8
0
360
7D82
 90
        0
  8
AM_0
360
7D83
 90
       40
  8
AM_11
360
7D84
 90
        3
  8
AM_7
360
7D85
 90
        1
  8
AM_5
360
7D86
 90
        4
  8
Defpoints
360
7D87
 90
        0
  8
AM_6
360
7D88
 90
        1
  0
XRECORD
  5
2D
102
{ACAD_REACTORS
330
2C
102
}
330
2C
100
AcDbXrecord
  1
VERSION
140
15.0
  1
PRODUCT
  2
AutoCAD Mechanical 2000
  0
IDBUFFER
  5
7D82
330
0
100
AcDbIdBuffer
  0
IDBUFFER
  5
7D83
330
0
100
AcDbIdBuffer
330
7B90
330
7B91
330
7B92
330
7BA0
330
7BA1
330
7BA2
330
7BA3
330
7BA4
330
7BA5
330
7BA8
330
7BA9
330
7BAA
330
7BAB
330
7BAC
330
7BAD
330
7BB0
330
7BB1
330
7BB2
330
7BB3
330
7BB4
330
7BB5
330
7BB6
330
7CB5
330
7CB8
330
67B8
330
67B9
330
67BA
330
67BC
330
67BD
330
6845
330
6855
330
6857
330
744D
330
7841
330
7842
330
7B8B
330
7B8C
330
7B8D
330
7B8E
330
7B8F
  0
IDBUFFER
  5
7D84
330
0
100
AcDbIdBuffer
330
7BA7
330
7BAE
330
7BAF
  0
IDBUFFER
  5
7D85
330
0
100
AcDbIdBuffer
330
C2E
  0
IDBUFFER
  5
7D86
330
0
100
AcDbIdBuffer
330
10F0
330
12D8
330
1A73
330
7B93
  0
IDBUFFER
  5
7D87
330
0
100
AcDbIdBuffer
  0
IDBUFFER
  5
7D88
330
0
100
AcDbIdBuffer
330
1500
  0
ENDSEC
  0
EOF
