  0
SECTION
  2
HEADER
  9
$ACADVER
  1
AC1014
  9
$ACADMAINTVER
 70
     9
  9
$DWGCODEPAGE
  3
ANSI_932
  9
$INSBASE
 10
0.0
 20
0.0
 30
0.0
  9
$EXTMIN
 10
-67.79533765525615
 20
-28.25000100000008
 30
-0.00000001
  9
$EXTMAX
 10
12.05776903085495
 20
4.632714758141158
 30
0.00000001
  9
$LIMMIN
 10
-75.10522170394779
 20
-37.66825644379588
  9
$LIMMAX
 10
22.2596387310752
 20
11.70483774030134
  9
$ORTHOMODE
 70
     0
  9
$REGENMODE
 70
     1
  9
$FILLMODE
 70
     1
  9
$QTEXTMODE
 70
     0
  9
$MIRRTEXT
 70
     0
  9
$DRAGMODE
 70
     2
  9
$LTSCALE
 40
1.0
  9
$OSMODE
 70
    55
  9
$ATTMODE
 70
     1
  9
$TEXTSIZE
 40
2.5
  9
$TRACEWID
 40
1.0
  9
$TEXTSTYLE
  7
STANDARD
  9
$CLAYER
  8
AM_0
  9
$CELTYPE
  6
BYLAYER
  9
$CECOLOR
 62
   256
  9
$CELTSCALE
 40
1.0
  9
$DELOBJ
 70
     1
  9
$DISPSILH
 70
     0
  9
$DIMSCALE
 40
0.5
  9
$DIMASZ
 40
2.5
  9
$DIMEXO
 40
1.0
  9
$DIMDLI
 40
12.0
  9
$DIMRND
 40
0.0
  9
$DIMDLE
 40
0.0
  9
$DIMEXE
 40
1.0
  9
$DIMTP
 40
0.1
  9
$DIMTM
 40
0.1
  9
$DIMTXT
 40
3.2
  9
$DIMCEN
 40
0.0
  9
$DIMTSZ
 40
0.0
  9
$DIMTOL
 70
     0
  9
$DIMLIM
 70
     0
  9
$DIMTIH
 70
     0
  9
$DIMTOH
 70
     0
  9
$DIMSE1
 70
     0
  9
$DIMSE2
 70
     0
  9
$DIMTAD
 70
     3
  9
$DIMZIN
 70
     8
  9
$DIMBLK
  1
OPEN30
  9
$DIMASO
 70
     1
  9
$DIMSHO
 70
     1
  9
$DIMPOST
  1

  9
$DIMAPOST
  1
"
  9
$DIMALT
 70
     0
  9
$DIMALTD
 70
     2
  9
$DIMALTF
 40
0.0393701
  9
$DIMLFAC
 40
1.0
  9
$DIMTOFL
 70
     1
  9
$DIMTVP
 40
0.0
  9
$DIMTIX
 70
     0
  9
$DIMSOXD
 70
     0
  9
$DIMSAH
 70
     0
  9
$DIMBLK1
  1

  9
$DIMBLK2
  1

  9
$DIMSTYLE
  2
AM_JIS
  9
$DIMCLRD
 70
   256
  9
$DIMCLRE
 70
   256
  9
$DIMCLRT
 70
     2
  9
$DIMTFAC
 40
0.71
  9
$DIMGAP
 40
1.5
  9
$DIMJUST
 70
     0
  9
$DIMSD1
 70
     0
  9
$DIMSD2
 70
     0
  9
$DIMTOLJ
 70
     0
  9
$DIMTZIN
 70
     0
  9
$DIMALTZ
 70
     0
  9
$DIMALTTZ
 70
     0
  9
$DIMFIT
 70
     3
  9
$DIMUPT
 70
     0
  9
$DIMUNIT
 70
     2
  9
$DIMDEC
 70
     3
  9
$DIMTDEC
 70
     3
  9
$DIMALTU
 70
     2
  9
$DIMALTTD
 70
     2
  9
$DIMTXSTY
  7
ASAMI
  9
$DIMAUNIT
 70
     0
  9
$LUNITS
 70
     2
  9
$LUPREC
 70
     2
  9
$SKETCHINC
 40
1.0
  9
$FILLETRAD
 40
2.5
  9
$AUNITS
 70
     0
  9
$AUPREC
 70
     0
  9
$MENU
  1
.
  9
$ELEVATION
 40
0.0
  9
$PELEVATION
 40
0.0
  9
$THICKNESS
 40
0.0
  9
$LIMCHECK
 70
     0
  9
$BLIPMODE
 70
     0
  9
$CHAMFERA
 40
0.5
  9
$CHAMFERB
 40
0.5
  9
$CHAMFERC
 40
20.0
  9
$CHAMFERD
 40
0.0
  9
$SKPOLY
 70
     0
  9
$TDCREATE
 40
2452809.557180439
  9
$TDUPDATE
 40
2453151.803474652
  9
$TDINDWG
 40
0.0333167824
  9
$TDUSRTIMER
 40
0.0333167824
  9
$USRTIMER
 70
     1
  9
$ANGBASE
 50
0.0
  9
$ANGDIR
 70
     0
  9
$PDMODE
 70
     0
  9
$PDSIZE
 40
0.0
  9
$PLINEWID
 40
0.0
  9
$COORDS
 70
     1
  9
$SPLFRAME
 70
     0
  9
$SPLINETYPE
 70
     6
  9
$SPLINESEGS
 70
     8
  9
$ATTDIA
 70
     1
  9
$ATTREQ
 70
     1
  9
$HANDLING
 70
 12289
  9
$HANDSEED
  5
15E1
  9
$SURFTAB1
 70
     6
  9
$SURFTAB2
 70
     6
  9
$SURFTYPE
 70
     6
  9
$SURFU
 70
     6
  9
$SURFV
 70
     6
  9
$UCSNAME
  2

  9
$UCSORG
 10
0.0
 20
-0.0000000000000009
 30
0.0
  9
$UCSXDIR
 10
1.0
 20
0.0
 30
0.0
  9
$UCSYDIR
 10
0.0
 20
1.0
 30
0.0
  9
$PUCSNAME
  2

  9
$PUCSORG
 10
0.0
 20
0.0
 30
0.0
  9
$PUCSXDIR
 10
1.0
 20
0.0
 30
0.0
  9
$PUCSYDIR
 10
0.0
 20
1.0
 30
0.0
  9
$USERI1
 70
     0
  9
$USERI2
 70
     0
  9
$USERI3
 70
     0
  9
$USERI4
 70
     0
  9
$USERI5
 70
     0
  9
$USERR1
 40
0.0
  9
$USERR2
 40
0.0
  9
$USERR3
 40
0.0
  9
$USERR4
 40
0.0
  9
$USERR5
 40
0.0
  9
$WORLDVIEW
 70
     1
  9
$SHADEDGE
 70
     3
  9
$SHADEDIF
 70
    70
  9
$TILEMODE
 70
     1
  9
$MAXACTVP
 70
    64
  9
$PINSBASE
 10
0.0
 20
0.0
 30
0.0
  9
$PLIMCHECK
 70
     0
  9
$PEXTMIN
 10
1.000000000000000E+20
 20
1.000000000000000E+20
 30
1.000000000000000E+20
  9
$PEXTMAX
 10
-1.000000000000000E+20
 20
-1.000000000000000E+20
 30
-1.000000000000000E+20
  9
$PLIMMIN
 10
0.0
 20
0.0
  9
$PLIMMAX
 10
841.0
 20
594.0
  9
$UNITMODE
 70
     0
  9
$VISRETAIN
 70
     1
  9
$PLINEGEN
 70
     0
  9
$PSLTSCALE
 70
     0
  9
$TREEDEPTH
 70
  3020
  9
$PICKSTYLE
 70
     0
  9
$CMLSTYLE
  2
STANDARD
  9
$CMLJUST
 70
     0
  9
$CMLSCALE
 40
20.0
  9
$PROXYGRAPHICS
 70
     1
  9
$MEASUREMENT
 70
     1
  0
ENDSEC
  0
SECTION
  2
CLASSES
  0
CLASS
  1
ACDBDICTIONARYWDFLT
  2
AcDbDictionaryWithDefault
  3
AutoCAD 2000
 90
        0
280
     0
281
     0
  0
CLASS
  1
ACDBPLACEHOLDER
  2
AcDbPlaceHolder
  3
AutoCAD 2000
 90
        0
280
     0
281
     0
  0
CLASS
  1
LAYOUT
  2
AcDbLayout
  3
AutoCAD 2000
 90
        0
280
     0
281
     0
  0
CLASS
  1
AMGSETTINGSOBJ
  2
AmgSettingsObj
  3
"AcadM|Product Description: AutoCAD Mechanical 2000|Company: Autodesk"
 90
        0
280
     0
281
     0
  0
CLASS
  1
ACME_DOCUMENT
  2
AcMeDbDoc
  3
AcMeServices
 90
        0
280
     0
281
     0
  0
CLASS
  1
ACMESCOPE
  2
AcMeScope
  3
AcMeServices
 90
        0
280
     0
281
     0
  0
CLASS
  1
ACMECOMMANDHISTORY
  2
AcMeCommandHistory
  3
AcMeServices
 90
        0
280
     0
281
     0
  0
CLASS
  1
DICTIONARYVAR
  2
AcDbDictionaryVar
  3
AutoCAD 2000
 90
        0
280
     0
281
     0
  0
CLASS
  1
ACIMSYSVARMAN
  2
AcImSysVarManager
  3
AcMeServices
 90
        0
280
     0
281
     0
  0
CLASS
  1
ACIMREALSYSVAR
  2
AcImRealSysVar
  3
AcMeServices
 90
        0
280
     0
281
     0
  0
CLASS
  1
ACIMINTSYSVAR
  2
AcImIntSysVar
  3
AcMeServices
 90
        0
280
     0
281
     0
  0
CLASS
  1
ACMEDRAWINGMAN
  2
AcMeDrawingMan
  3
AcMeServices
 90
        0
280
     0
281
     0
  0
CLASS
  1
ACMEVIEW
  2
AcMeView
  3
AcMeServices
 90
        0
280
     0
281
     0
  0
CLASS
  1
ACDBENTITYCACHE
  2
AcMeEntityCache
  3
AcMeServices
 90
        0
280
     0
281
     0
  0
CLASS
  1
GSMANAGER
  2
AcMeGSManager
  3
AcMeServices
 90
        0
280
     0
281
     0
  0
CLASS
  1
AmdtInternalReactor
  2
AmdtInternalReactor
  3
AcMeServices
 90
        0
280
     0
281
     0
  0
CLASS
  1
ACMESTATEMGR
  2
AcMeStateMgr
  3
AcMeServices
 90
        0
280
     0
281
     0
  0
CLASS
  1
ACME_DATABASE
  2
AcMeDbDatabase
  3
AcMeServices
 90
        0
280
     0
281
     0
  0
CLASS
  1
ACRFINSADJUSTERMGR
  2
AcRfInsAdjusterMgr
  3
AcMeServices
 90
        0
280
     0
281
     0
  0
CLASS
  1
ACMDATADICTIONARY
  2
AcmDataDictionary
  3
"AcmSymBB|Product Description: AutoCAD Mechanical 2000|Company: Autodesk"
 90
        0
280
     0
281
     0
  0
CLASS
  1
ACMDATAENTRYBLOCK
  2
AcmDataEntryBlock
  3
"AcmSymBB|Product Description: AutoCAD Mechanical 2000|Company: Autodesk"
 90
        0
280
     0
281
     0
  0
CLASS
  1
AMGOBJPROPCFG
  2
AmgObjPropCfg
  3
"AmgLay|Product Description: AutoCAD Mechanical 2000|Company: Autodesk"
 90
        1
280
     0
281
     0
  0
CLASS
  1
ACAMGFILTERDAT
  2
AcAmgFilterDat
  3
"AcadM|Product Description: AutoCAD Mechanical 2000|Company: Autodesk"
 90
        0
280
     0
281
     0
  0
CLASS
  1
LAYER_INDEX
  2
AcDbLayerIndex
  3
AutoCAD 2000
 90
        0
280
     0
281
     0
  0
CLASS
  1
IDBUFFER
  2
AcDbIdBuffer
  3
AutoCAD 2000
 90
        0
280
     0
281
     0
  0
CLASS
  1
ACIMSTRSYSVAR
  2
AcImStrSysVar
  3
AcMeServices
 90
        0
280
     0
281
     0
  0
CLASS
  1
ACMSTANDARDJIS
  2
AcmStandardJIS
  3
"AcmSymBB|Product Description: AutoCAD Mechanical 2000|Company: Autodesk"
 90
        0
280
     0
281
     0
  0
CLASS
  1
ACMSURFSTANDARDJIS
  2
AcmSurfTextStdJIS
  3
"AcmSymBB|Product Description: AutoCAD Mechanical 2000|Company: Autodesk"
 90
        0
280
     0
281
     0
  0
CLASS
  1
ACMFCFSTANDARDJIS
  2
AcmFCFStdJIS
  3
"AcmSymBB|Product Description: AutoCAD Mechanical 2000|Company: Autodesk"
 90
        0
280
     0
281
     0
  0
CLASS
  1
ACMWELDSTANDARDJIS
  2
AcmWeldingStdJIS
  3
"AcmSymBB|Product Description: AutoCAD Mechanical 2000|Company: Autodesk"
 90
        0
280
     0
281
     0
  0
CLASS
  1
ACMIDSTANDARDJIS
  2
AcmIdStdJIS
  3
"AcmSymBB|Product Description: AutoCAD Mechanical 2000|Company: Autodesk"
 90
        0
280
     0
281
     0
  0
CLASS
  1
ACMDATUMSTANDARDJIS
  2
AcmDatumStdJIS
  3
"AcmSymBB|Product Description: AutoCAD Mechanical 2000|Company: Autodesk"
 90
        0
280
     0
281
     0
  0
CLASS
  1
ACMBOMSTANDARDJIS
  2
AcmBOMStdJIS
  3
"AcmSymBB|Product Description: AutoCAD Mechanical 2000|Company: Autodesk"
 90
        0
280
     0
281
     0
  0
CLASS
  1
ACMSTANDARDANSI
  2
AcmStandardANSI
  3
"AcmSymBB|Product Description: AutoCAD Mechanical 2000|Company: Autodesk"
 90
        0
280
     0
281
     0
  0
CLASS
  1
ACMSURFSTANDARDANSI
  2
AcmSurfTextStdANSI
  3
"AcmSymBB|Product Description: AutoCAD Mechanical 2000|Company: Autodesk"
 90
        0
280
     0
281
     0
  0
CLASS
  1
ACMFCFSTANDARDANSI
  2
AcmFCFStdANSI
  3
"AcmSymBB|Product Description: AutoCAD Mechanical 2000|Company: Autodesk"
 90
        0
280
     0
281
     0
  0
CLASS
  1
ACMWELDSTANDARDANSI
  2
AcmWeldingStdANSI
  3
"AcmSymBB|Product Description: AutoCAD Mechanical 2000|Company: Autodesk"
 90
        0
280
     0
281
     0
  0
CLASS
  1
ACMIDSTANDARDANSI
  2
AcmIdStdANSI
  3
"AcmSymBB|Product Description: AutoCAD Mechanical 2000|Company: Autodesk"
 90
        0
280
     0
281
     0
  0
CLASS
  1
ACMDATUMSTANDARDANSI
  2
AcmDatumStdANSI
  3
"AcmSymBB|Product Description: AutoCAD Mechanical 2000|Company: Autodesk"
 90
        0
280
     0
281
     0
  0
CLASS
  1
ACMBOMSTANDARDANSI
  2
AcmBOMStdANSI
  3
"AcmSymBB|Product Description: AutoCAD Mechanical 2000|Company: Autodesk"
 90
        0
280
     0
281
     0
  0
CLASS
  1
ACMSTANDARDBSI
  2
AcmStandardBSI
  3
"AcmSymBB|Product Description: AutoCAD Mechanical 2000|Company: Autodesk"
 90
        0
280
     0
281
     0
  0
CLASS
  1
ACMSURFSTANDARDBSI
  2
AcmSurfTextStdBSI
  3
"AcmSymBB|Product Description: AutoCAD Mechanical 2000|Company: Autodesk"
 90
        0
280
     0
281
     0
  0
CLASS
  1
ACMFCFSTANDARDBSI
  2
AcmFCFStdBSI
  3
"AcmSymBB|Product Description: AutoCAD Mechanical 2000|Company: Autodesk"
 90
        0
280
     0
281
     0
  0
CLASS
  1
ACMWELDSTANDARDBSI
  2
AcmWeldingStdBSI
  3
"AcmSymBB|Product Description: AutoCAD Mechanical 2000|Company: Autodesk"
 90
        0
280
     0
281
     0
  0
CLASS
  1
ACMIDSTANDARDBSI
  2
AcmIdStdBSI
  3
"AcmSymBB|Product Description: AutoCAD Mechanical 2000|Company: Autodesk"
 90
        0
280
     0
281
     0
  0
CLASS
  1
ACMDATUMSTANDARDBSI
  2
AcmDatumStdBSI
  3
"AcmSymBB|Product Description: AutoCAD Mechanical 2000|Company: Autodesk"
 90
        0
280
     0
281
     0
  0
CLASS
  1
ACMBOMSTANDARDBSI
  2
AcmBOMStdBSI
  3
"AcmSymBB|Product Description: AutoCAD Mechanical 2000|Company: Autodesk"
 90
        0
280
     0
281
     0
  0
CLASS
  1
LONG_TRANSACTION
  2
AcDbLongTransaction
  3
AutoCAD 2000
 90
        0
280
     0
281
     0
  0
CLASS
  1
LWPOLYLINE
  2
AcDbPolyline
  3
AutoCAD 2000
 90
        0
280
     0
281
     1
  0
CLASS
  1
HATCH
  2
AcDbHatch
  3
AutoCAD 2000
 90
        0
280
     0
281
     1
  0
CLASS
  1
XRECORD
  2
AcDbXrecord
  3
AutoCAD 2000
 90
        0
280
     0
281
     0
  0
ENDSEC
  0
SECTION
  2
TABLES
  0
TABLE
  2
VPORT
  5
8
330
0
100
AcDbSymbolTable
 70
     3
  0
VPORT
  5
15B0
330
8
100
AcDbSymbolTableRecord
100
AcDbViewportTableRecord
  2
*ACTIVE
 70
     0
 10
0.0
 20
0.0
 11
1.0
 21
1.0
 12
-20.85387669217428
 22
-0.75320850490521
 13
0.0
 23
0.0
 14
2.5
 24
2.5
 15
10.0
 25
10.0
 16
0.0
 26
0.0
 36
1.0
 17
0.0
 27
0.0
 37
0.0
 40
69.9011238693208
 41
1.56570841889117
 42
50.0
 43
0.0
 44
0.0
 50
0.0
 51
0.0
 71
     0
 72
   100
 73
     1
 74
     3
 75
     0
 76
     0
 77
     0
 78
     0
  0
ENDTAB
  0
TABLE
  2
LTYPE
  5
5
330
0
100
AcDbSymbolTable
 70
    10
  0
LTYPE
  5
14
330
5
100
AcDbSymbolTableRecord
100
AcDbLinetypeTableRecord
  2
BYBLOCK
 70
     0
  3

 72
    65
 73
     0
 40
0.0
  0
LTYPE
  5
15
330
5
100
AcDbSymbolTableRecord
100
AcDbLinetypeTableRecord
  2
BYLAYER
 70
     0
  3

 72
    65
 73
     0
 40
0.0
  0
LTYPE
  5
16
330
5
100
AcDbSymbolTableRecord
100
AcDbLinetypeTableRecord
  2
CONTINUOUS
 70
     0
  3
Solid line
 72
    65
 73
     0
 40
0.0
  0
LTYPE
  5
4B
330
5
100
AcDbSymbolTableRecord
100
AcDbLinetypeTableRecord
  2
AM_ISO02W050
 70
     0
  3
__ __ __ __ __ __ __ __ __ __ __ __ __ __ __
 72
    65
 73
     2
 40
7.5
 49
6.0
 74
     0
 49
-1.5
 74
     0
  0
LTYPE
  5
4C
330
5
100
AcDbSymbolTableRecord
100
AcDbLinetypeTableRecord
  2
AM_ISO08W050
 70
     0
  3
____ . ____ . ____ . ____ . ____ . ____ . ____
 72
    65
 73
     4
 40
18.0
 49
12.0
 74
     0
 49
-1.5
 74
     0
 49
3.0
 74
     0
 49
-1.5
 74
     0
  0
LTYPE
  5
4D
330
5
100
AcDbSymbolTableRecord
100
AcDbLinetypeTableRecord
  2
AM_ISO09W050
 70
     0
  3
_____ . . _____ . . _____ . . ____ .. ____
 72
    65
 73
     6
 40
22.5
 49
12.0
 74
     0
 49
-1.5
 74
     0
 49
3.0
 74
     0
 49
-1.5
 74
     0
 49
3.0
 74
     0
 49
-1.5
 74
     0
  0
LTYPE
  5
4E
330
5
100
AcDbSymbolTableRecord
100
AcDbLinetypeTableRecord
  2
AMCONSTR
 70
     0
  3
_______________________
 72
    65
 73
     2
 40
9999.0
 49
9999.0
 74
     0
 49
0.0
 74
     0
  0
LTYPE
  5
4F
330
5
100
AcDbSymbolTableRecord
100
AcDbLinetypeTableRecord
  2
AM_ISO02W050X2
 70
     0
  3
 _ _ _ _ _ _ _ _ _ _ _ _
 72
    65
 73
     2
 40
3.75
 49
3.0
 74
     0
 49
-0.75
 74
     0
  0
LTYPE
  5
50
330
5
100
AcDbSymbolTableRecord
100
AcDbLinetypeTableRecord
  2
AM_ISO08W050X2
 70
     0
  3
__ . __ . __ . __ . __ . __
 72
    65
 73
     4
 40
9.0
 49
6.0
 74
     0
 49
-0.75
 74
     0
 49
1.5
 74
     0
 49
-0.75
 74
     0
  0
LTYPE
  5
53
330
5
100
AcDbSymbolTableRecord
100
AcDbLinetypeTableRecord
  2
AMZIGZAG
 70
     0
  3
/\/-/\/-/\/-/\/-/\/-/\/
 72
    65
 73
     2
 40
11.00009999999999
 49
0.0001
 74
     4
 75
   135
340
52
 46
0.04
 50
0.0
 44
0.0
 45
0.0
 49
-11.0
 74
     0
  0
LTYPE
  5
166
330
5
100
AcDbSymbolTableRecord
100
AcDbLinetypeTableRecord
  2
ACJISTGL
 70
     0
  3
_ _ _ _ _
 72
    65
 73
     2
 40
3.0
 49
2.0
 74
     0
 49
-1.0
 74
     0
  0
LTYPE
  5
26A
330
5
100
AcDbSymbolTableRecord
100
AcDbLinetypeTableRecord
  2
ACJISTGB
 70
     0
  3
__ . . __ . .
 72
    65
 73
     6
 40
9.0
 49
4.0
 74
     0
 49
-1.0
 74
     0
 49
1.0
 74
     0
 49
-1.0
 74
     0
 49
1.0
 74
     0
 49
-1.0
 74
     0
  0
ENDTAB
  0
TABLE
  2
LAYER
  5
2
330
0
100
AcDbSymbolTable
 70
     7
  0
LAYER
  5
10
330
2
100
AcDbSymbolTableRecord
100
AcDbLayerTableRecord
  2
0
 70
     0
 62
     7
  6
CONTINUOUS
  0
LAYER
  5
3F9
330
2
100
AcDbSymbolTableRecord
100
AcDbLayerTableRecord
  2
AM_0
 70
     0
 62
     7
  6
CONTINUOUS
  0
LAYER
  5
BA4
330
2
100
AcDbSymbolTableRecord
100
AcDbLayerTableRecord
  2
AM_11
 70
     0
 62
     3
  6
AM_ISO09W050
  0
LAYER
  5
BA5
330
2
100
AcDbSymbolTableRecord
100
AcDbLayerTableRecord
  2
AM_7
 70
     0
 62
     4
  6
AM_ISO08W050
  0
LAYER
  5
D5B
330
2
100
AcDbSymbolTableRecord
100
AcDbLayerTableRecord
  2
AM_5
 70
     0
 62
     3
  6
CONTINUOUS
  0
LAYER
  5
D5D
330
2
100
AcDbSymbolTableRecord
100
AcDbLayerTableRecord
  2
DEFPOINTS
 70
     0
 62
     7
  6
CONTINUOUS
  0
LAYER
  5
F1B
330
2
100
AcDbSymbolTableRecord
100
AcDbLayerTableRecord
  2
AM_6
 70
     0
 62
     2
  6
CONTINUOUS
  0
ENDTAB
  0
TABLE
  2
STYLE
  5
3
330
0
100
AcDbSymbolTable
 70
     5
  0
STYLE
  5
11
330
3
100
AcDbSymbolTableRecord
100
AcDbTextStyleTableRecord
  2
STANDARD
 70
     0
 40
0.0
 41
1.0
 50
0.0
 71
     0
 42
2.5
  3
simplex.shx
  4
EXTFONT.SHX
  0
STYLE
  5
52
330
3
100
AcDbSymbolTableRecord
100
AcDbTextStyleTableRecord
  2

 70
     1
 40
0.0
 41
1.0
 50
0.0
 71
     0
 42
2.5
  3
ltypeshp.shx
  4

  0
STYLE
  5
6B
330
3
100
AcDbSymbolTableRecord
100
AcDbTextStyleTableRecord
  2
ASAMI
 70
     0
 40
0.0
 41
1.0
 50
0.0
 71
     0
 42
2.5
  3
simplex.shx
  4
EXTFONT.SHX
  0
STYLE
  5
262
330
3
100
AcDbSymbolTableRecord
100
AcDbTextStyleTableRecord
  2
ACJISTS
 70
     0
 40
1.0
 41
1.0
 50
0.0
 71
     0
 42
2.5
  3
simplex.shx
  4
bigfont.shx
  0
STYLE
  5
269
330
3
100
AcDbSymbolTableRecord
100
AcDbTextStyleTableRecord
  2
ACJISGDT
 70
     0
 40
0.0
 41
1.0
 50
0.0
 71
     0
 42
2.5
  3
amgdtans.shx
  4

  0
ENDTAB
  0
TABLE
  2
VIEW
  5
6
330
0
100
AcDbSymbolTable
 70
     0
  0
ENDTAB
  0
TABLE
  2
UCS
  5
7
330
0
100
AcDbSymbolTable
 70
     0
  0
ENDTAB
  0
TABLE
  2
APPID
  5
9
330
0
100
AcDbSymbolTable
 70
    12
  0
APPID
  5
12
330
9
100
AcDbSymbolTableRecord
100
AcDbRegAppTableRecord
  2
ACAD
 70
     0
  0
APPID
  5
30
330
9
100
AcDbSymbolTableRecord
100
AcDbRegAppTableRecord
  2
MCAD_NO_VIS
 70
     0
  0
APPID
  5
31
330
9
100
AcDbSymbolTableRecord
100
AcDbRegAppTableRecord
  2
ACAD_TEMP_GRAPHIC
 70
     0
  0
APPID
  5
2C2
330
9
100
AcDbSymbolTableRecord
100
AcDbRegAppTableRecord
  2
GENIUS_GENDTOL_13
 70
     0
  0
APPID
  5
339
330
9
100
AcDbSymbolTableRecord
100
AcDbRegAppTableRecord
  2
GENIUS_GENODEF_13
 70
     0
  0
APPID
  5
33A
330
9
100
AcDbSymbolTableRecord
100
AcDbRegAppTableRecord
  2
GENIUS_GENOBJ-N-RSBK_13
 70
     0
  0
APPID
  5
33B
330
9
100
AcDbSymbolTableRecord
100
AcDbRegAppTableRecord
  2
GENIUS_GENOBJ-N-LIB_13
 70
     0
  0
APPID
  5
33C
330
9
100
AcDbSymbolTableRecord
100
AcDbRegAppTableRecord
  2
GENIUS_GENSCALE_13
 70
     0
  0
APPID
  5
378
330
9
100
AcDbSymbolTableRecord
100
AcDbRegAppTableRecord
  2
GENIUS_GENDIMSH_14
 70
     0
  0
APPID
  5
BA6
330
9
100
AcDbSymbolTableRecord
100
AcDbRegAppTableRecord
  2
GENIUS_GENOBJ-N-CEN_13
 70
     0
  0
APPID
  5
D49
330
9
100
AcDbSymbolTableRecord
100
AcDbRegAppTableRecord
  2
GENIUS_GENFIL_13
 70
     0
  0
APPID
  5
D4A
330
9
100
AcDbSymbolTableRecord
100
AcDbRegAppTableRecord
  2
GENIUS_GENOBJ-N-CHA_13
 70
     0
  0
ENDTAB
  0
TABLE
  2
DIMSTYLE
  5
A
330
0
100
AcDbSymbolTable
 70
     8
  0
DIMSTYLE
105
58
102
{ACAD_REACTORS
330
11BC
330
11D1
330
1237
330
129E
102
}
330
A
100
AcDbSymbolTableRecord
100
AcDbDimStyleTableRecord
  2
AM_JIS
 70
     0
  3

  4
"
  5
OPEN30
  6

  7

 40
0.5
 41
2.5
 42
1.0
 43
12.0
 44
1.0
 45
0.0
 46
0.0
 47
0.1
 48
0.1
140
3.2
141
0.0
142
0.0
143
0.0393701
144
1.0
145
0.0
146
0.71
147
1.5
 71
     0
 72
     0
 73
     0
 74
     0
 75
     0
 76
     0
 77
     3
 78
     8
170
     0
171
     2
172
     1
173
     0
174
     0
175
     0
176
   256
177
   256
178
     2
270
     2
271
     3
272
     3
273
     2
274
     2
340
6B
275
     0
280
     0
281
     0
282
     0
283
     0
284
     0
285
     0
286
     0
287
     3
288
     0
  0
DIMSTYLE
105
5F
330
A
100
AcDbSymbolTableRecord
100
AcDbDimStyleTableRecord
  2
AM_JIS$3
 70
     0
  3

  4
"
  5
OPEN30
  6

  7

 40
0.5
 41
2.5
 42
1.0
 43
10.0
 44
1.0
 45
0.0
 46
0.0
 47
0.1
 48
0.1
140
3.2
141
0.0
142
0.0
143
0.0393701
144
1.0
145
0.0
146
0.71
147
1.5
 71
     0
 72
     0
 73
     0
 74
     1
 75
     0
 76
     0
 77
     3
 78
     8
170
     0
171
     2
172
     0
173
     0
174
     0
175
     0
176
   256
177
   256
178
     2
270
     2
271
     2
272
     3
273
     2
274
     2
340
6B
275
     0
280
     0
281
     0
282
     0
283
     0
284
     0
285
     0
286
     0
287
     0
288
     1
  0
DIMSTYLE
105
60
102
{ACAD_REACTORS
330
151F
102
}
330
A
100
AcDbSymbolTableRecord
100
AcDbDimStyleTableRecord
  2
AM_JIS$4
 70
     0
  3

  4
"
  5
OPEN30
  6

  7

 40
0.5
 41
2.5
 42
1.0
 43
10.0
 44
1.0
 45
0.0
 46
0.0
 47
0.1
 48
0.1
140
3.2
141
0.0
142
0.0
143
0.0393701
144
1.0
145
0.0
146
0.71
147
1.5
 71
     0
 72
     0
 73
     0
 74
     1
 75
     0
 76
     0
 77
     3
 78
     8
170
     0
171
     2
172
     0
173
     0
174
     0
175
     0
176
   256
177
   256
178
     2
270
     2
271
     2
272
     3
273
     2
274
     2
340
6B
275
     0
280
     0
281
     0
282
     0
283
     0
284
     0
285
     0
286
     0
287
     0
288
     1
  0
DIMSTYLE
105
61
330
A
100
AcDbSymbolTableRecord
100
AcDbDimStyleTableRecord
  2
AM_JIS$6
 70
     0
  3

  4
"
  5
OPEN30
  6

  7

 40
0.5
 41
2.5
 42
1.0
 43
10.0
 44
1.0
 45
0.0
 46
0.0
 47
0.1
 48
0.1
140
3.2
141
0.0
142
0.0
143
0.0393701
144
1.0
145
0.0
146
0.71
147
1.5
 71
     0
 72
     0
 73
     0
 74
     0
 75
     0
 76
     0
 77
     0
 78
     8
170
     0
171
     2
172
     1
173
     0
174
     0
175
     0
176
   256
177
   256
178
     2
270
     2
271
     2
272
     2
273
     2
274
     2
340
6B
275
     0
280
     0
281
     0
282
     0
283
     0
284
     0
285
     0
286
     0
287
     3
288
     0
  0
DIMSTYLE
105
62
330
A
100
AcDbSymbolTableRecord
100
AcDbDimStyleTableRecord
  2
AM_JIS$7
 70
     0
  3

  4
"
  5
OPEN30
  6

  7

 40
0.5
 41
2.5
 42
1.0
 43
10.0
 44
1.0
 45
0.0
 46
0.0
 47
0.1
 48
0.1
140
3.2
141
0.0
142
0.0
143
0.0393701
144
1.0
145
0.0
146
0.71
147
1.5
 71
     0
 72
     0
 73
     0
 74
     0
 75
     0
 76
     0
 77
     3
 78
     8
170
     0
171
     2
172
     1
173
     0
174
     0
175
     0
176
   256
177
   256
178
     2
270
     2
271
     2
272
     3
273
     2
274
     2
340
6B
275
     0
280
     0
281
     0
282
     0
283
     0
284
     0
285
     0
286
     0
287
     3
288
     0
  0
DIMSTYLE
105
63
330
A
100
AcDbSymbolTableRecord
100
AcDbDimStyleTableRecord
  2
AM_JIS$SF
 70
     0
  3

  4
"
  5
OPEN30
  6

  7

 40
0.5
 41
2.5
 42
1.0
 43
10.0
 44
1.0
 45
0.0
 46
0.0
 47
0.1
 48
0.1
140
3.2
141
0.0
142
0.0
143
0.0393701
144
1.0
145
0.0
146
0.71
147
1.5
 71
     0
 72
     0
 73
     0
 74
     0
 75
     1
 76
     1
 77
     3
 78
     8
170
     0
171
     2
172
     1
173
     0
174
     0
175
     0
176
   256
177
   256
178
     2
270
     2
271
     2
272
     2
273
     2
274
     2
340
6B
275
     0
280
     0
281
     0
282
     0
283
     0
284
     0
285
     0
286
     0
287
     3
288
     0
  0
DIMSTYLE
105
68
330
A
100
AcDbSymbolTableRecord
100
AcDbDimStyleTableRecord
  2
AM_JIS$SH
 70
     0
  3

  4
"
  5

  6
GENAXEH
  7
OPEN30
 40
0.5
 41
2.5
 42
1.0
 43
10.0
 44
1.0
 45
0.0
 46
0.0
 47
0.1
 48
0.1
140
3.2
141
0.0
142
0.0
143
0.0393701
144
2.0
145
0.0
146
0.71
147
1.5
 71
     0
 72
     0
 73
     0
 74
     0
 75
     1
 76
     1
 77
     3
 78
     8
170
     0
171
     2
172
     1
173
     1
174
     0
175
     0
176
   256
177
   256
178
     2
270
     2
271
     2
272
     2
273
     2
274
     2
340
6B
275
     0
280
     0
281
     0
282
     0
283
     0
284
     0
285
     0
286
     0
287
     3
288
     0
  0
DIMSTYLE
105
B34
330
A
100
AcDbSymbolTableRecord
100
AcDbDimStyleTableRecord
  2
AM_JIS$2
 70
     0
  3

  4
"
  5
OPEN30
  6

  7

 40
0.5
 41
2.5
 42
1.0
 43
12.0
 44
1.0
 45
0.0
 46
0.0
 47
0.1
 48
0.1
140
3.2
141
0.0
142
0.0
143
0.0393701
144
1.0
145
0.0
146
0.71
147
1.5
 71
     0
 72
     0
 73
     0
 74
     0
 75
     0
 76
     0
 77
     3
 78
     8
170
     0
171
     2
172
     1
173
     0
174
     0
175
     0
176
   256
177
   256
178
     2
270
     2
271
     3
272
     3
273
     2
274
     2
340
6B
275
     0
280
     0
281
     0
282
     0
283
     0
284
     0
285
     0
286
     0
287
     3
288
     0
  0
ENDTAB
  0
TABLE
  2
BLOCK_RECORD
  5
1
330
0
100
AcDbSymbolTable
 70
    10
  0
BLOCK_RECORD
  5
1F
102
{ACAD_XDICTIONARY
360
74
102
}
330
1
100
AcDbSymbolTableRecord
100
AcDbBlockTableRecord
  2
*MODEL_SPACE
  0
BLOCK_RECORD
  5
101
102
{ACAD_XDICTIONARY
360
15D9
102
}
330
1
100
AcDbSymbolTableRecord
100
AcDbBlockTableRecord
  2
*PAPER_SPACE
  0
BLOCK_RECORD
  5
59
330
1
100
AcDbSymbolTableRecord
100
AcDbBlockTableRecord
  2
_OPEN30
  0
BLOCK_RECORD
  5
64
330
1
100
AcDbSymbolTableRecord
100
AcDbBlockTableRecord
  2
GENAXEH
  0
BLOCK_RECORD
  5
11BD
330
1
100
AcDbSymbolTableRecord
100
AcDbBlockTableRecord
  2
*D5
  0
BLOCK_RECORD
  5
11D2
330
1
100
AcDbSymbolTableRecord
100
AcDbBlockTableRecord
  2
*D6
  0
BLOCK_RECORD
  5
1238
330
1
100
AcDbSymbolTableRecord
100
AcDbBlockTableRecord
  2
*D7
  0
BLOCK_RECORD
  5
129F
330
1
100
AcDbSymbolTableRecord
100
AcDbBlockTableRecord
  2
*D8
  0
BLOCK_RECORD
  5
1520
330
1
100
AcDbSymbolTableRecord
100
AcDbBlockTableRecord
  2
*D9
  0
ENDTAB
  0
ENDSEC
  0
SECTION
  2
BLOCKS
  0
BLOCK
  5
20
330
1F
100
AcDbEntity
  8
0
100
AcDbBlockBegin
  2
*MODEL_SPACE
 70
     0
 10
0.0
 20
0.0
 30
0.0
  3
*MODEL_SPACE
  1

  0
ENDBLK
  5
21
330
1F
100
AcDbEntity
  8
0
100
AcDbBlockEnd
  0
BLOCK
  5
103
330
101
100
AcDbEntity
 67
     1
  8
0
100
AcDbBlockBegin
  2
*PAPER_SPACE
 70
     0
 10
0.0
 20
0.0
 30
0.0
  3
*PAPER_SPACE
  1

  0
ENDBLK
  5
104
330
101
100
AcDbEntity
 67
     1
  8
0
100
AcDbBlockEnd
  0
BLOCK
  5
5D
330
59
100
AcDbEntity
  8
0
100
AcDbBlockBegin
  2
_OPEN30
 70
     0
 10
0.0
 20
0.0
 30
0.0
  3
_OPEN30
  1

  0
LINE
  5
5A
330
59
100
AcDbEntity
  8
0
 62
     0
100
AcDbLine
 10
-1.0
 20
0.26794919
 30
0.0
 11
0.0
 21
0.0
 31
0.0
  0
LINE
  5
5B
330
59
100
AcDbEntity
  8
0
 62
     0
100
AcDbLine
 10
0.0
 20
0.0
 30
0.0
 11
-1.0
 21
-0.26794919
 31
0.0
  0
LINE
  5
5C
330
59
100
AcDbEntity
  8
0
 62
     0
100
AcDbLine
 10
0.0
 20
0.0
 30
0.0
 11
-1.0
 21
0.0
 31
0.0
  0
ENDBLK
  5
5E
330
59
100
AcDbEntity
  8
0
100
AcDbBlockEnd
  0
BLOCK
  5
66
330
64
100
AcDbEntity
  8
0
100
AcDbBlockBegin
  2
GENAXEH
 70
     0
 10
0.0
 20
0.0
 30
0.0
  3
GENAXEH
  1

  0
LINE
  5
65
330
64
100
AcDbEntity
  8
0
100
AcDbLine
 10
-1.0
 20
0.0
 30
0.0
 11
1.0
 21
0.0
 31
0.0
  0
ENDBLK
  5
67
330
64
100
AcDbEntity
  8
0
100
AcDbBlockEnd
  0
BLOCK
  5
11C7
330
11BD
100
AcDbEntity
  8
0
100
AcDbBlockBegin
  2
*D5
 70
     1
 10
0.0
 20
0.0
 30
0.0
  3
*D5
  1

  0
LINE
  5
13BD
330
11BD
100
AcDbEntity
  8
AM_5
100
AcDbLine
 10
-15.0
 20
-4.5
 30
0.0
 11
-15.0
 21
-11.50000099999999
 31
0.0
  0
LINE
  5
13BE
330
11BD
100
AcDbEntity
  8
AM_5
100
AcDbLine
 10
0.0
 20
-4.5
 30
0.0
 11
-0.0000000000000005
 21
-11.50000099999999
 31
0.0
  0
LINE
  5
13BF
330
11BD
100
AcDbEntity
  8
AM_5
100
AcDbLine
 10
-13.75
 20
-11.00000099999999
 30
0.0
 11
-1.25
 21
-11.00000099999999
 31
0.0
  0
INSERT
  5
13C0
330
11BD
100
AcDbEntity
  8
AM_5
100
AcDbBlockReference
  2
_OPEN30
 10
-15.0
 20
-11.00000099999999
 30
0.0
 41
1.25
 42
1.25
 43
1.25
 50
180.0
  0
INSERT
  5
13C1
330
11BD
100
AcDbEntity
  8
AM_5
100
AcDbBlockReference
  2
_OPEN30
 10
-0.0000000000000004
 20
-11.00000099999999
 30
0.0
 41
1.25
 42
1.25
 43
1.25
  0
MTEXT
  5
13C2
330
11BD
100
AcDbEntity
  8
AM_5
 62
     2
100
AcDbMText
 10
-7.5
 20
-9.450000999999989
 30
0.0
 40
1.6
 41
0.0
 71
     5
 72
     1
  1
15
  7
ASAMI
1001
ACAD
1000
MTEXTBEGIN
1070
    73
1070
     1
1070
    44
1040
1.0
1070
    74
1070
     0
1000
MTEXTEND
  0
POINT
  5
13C3
330
11BD
100
AcDbEntity
  8
DEFPOINTS
 62
     0
100
AcDbPoint
 10
-15.0
 20
-3.999999999999999
 30
0.0
  0
POINT
  5
13C4
330
11BD
100
AcDbEntity
  8
DEFPOINTS
 62
     0
100
AcDbPoint
 10
0.0
 20
-3.999999999999999
 30
0.0
  0
POINT
  5
13C5
330
11BD
100
AcDbEntity
  8
DEFPOINTS
 62
     0
100
AcDbPoint
 10
-0.0000000000000004
 20
-11.00000099999999
 30
0.0
  0
ENDBLK
  5
11C8
330
11BD
100
AcDbEntity
  8
0
100
AcDbBlockEnd
  0
BLOCK
  5
11DE
330
11D2
100
AcDbEntity
  8
0
100
AcDbBlockBegin
  2
*D6
 70
     1
 10
0.0
 20
0.0
 30
0.0
  3
*D6
  1

  0
LINE
  5
13C6
330
11D2
100
AcDbEntity
  8
AM_5
100
AcDbLine
 10
0.5
 20
-3.999999999999999
 30
0.0
 11
12.05776903085495
 21
-4.000000000000002
 31
0.0
  0
LINE
  5
13C7
330
11D2
100
AcDbEntity
  8
AM_5
100
AcDbLine
 10
0.5
 20
3.999999999999999
 30
0.0
 11
12.05776903085495
 21
3.999999999999995
 31
0.0
  0
LINE
  5
13C8
330
11D2
100
AcDbEntity
  8
AM_5
100
AcDbLine
 10
11.55776903085495
 20
-2.750000000000002
 30
0.0
 11
11.55776903085495
 21
2.749999999999995
 31
0.0
  0
INSERT
  5
13C9
330
11D2
100
AcDbEntity
  8
AM_5
100
AcDbBlockReference
  2
_OPEN30
 10
11.55776903085495
 20
-4.000000000000002
 30
0.0
 41
1.25
 42
1.25
 43
1.25
 50
270.0
  0
INSERT
  5
13CA
330
11D2
100
AcDbEntity
  8
AM_5
100
AcDbBlockReference
  2
_OPEN30
 10
11.55776903085495
 20
3.999999999999995
 30
0.0
 41
1.25
 42
1.25
 43
1.25
 50
90.0
  0
MTEXT
  5
13CB
330
11D2
100
AcDbEntity
  8
AM_5
 62
     2
100
AcDbMText
 10
10.00776903085495
 20
-0.0000000000000014
 30
0.0
 40
1.6
 41
0.0
 71
     5
 72
     1
  1
%%c8
  7
ASAMI
 11
0.0000000000000001
 21
1.0
 31
0.0
1001
ACAD
1000
MTEXTBEGIN
1070
    73
1070
     1
1070
    44
1040
1.0
1070
    74
1070
     0
1000
MTEXTEND
  0
POINT
  5
13CC
330
11D2
100
AcDbEntity
  8
DEFPOINTS
 62
     0
100
AcDbPoint
 10
0.0
 20
-3.999999999999999
 30
0.0
  0
POINT
  5
13CD
330
11D2
100
AcDbEntity
  8
DEFPOINTS
 62
     0
100
AcDbPoint
 10
0.0
 20
3.999999999999999
 30
0.0
  0
POINT
  5
13CE
330
11D2
100
AcDbEntity
  8
DEFPOINTS
 62
     0
100
AcDbPoint
 10
11.55776903085495
 20
3.999999999999995
 30
0.0
  0
ENDBLK
  5
11DF
330
11D2
100
AcDbEntity
  8
0
100
AcDbBlockEnd
  0
BLOCK
  5
1242
330
1238
100
AcDbEntity
  8
0
100
AcDbBlockBegin
  2
*D7
 70
     1
 10
0.0
 20
0.0
 30
0.0
  3
*D7
  1

  0
LINE
  5
13FF
330
1238
100
AcDbEntity
  8
AM_5
100
AcDbLine
 10
0.0
 20
-4.5
 30
0.0
 11
-0.0000000000000008
 21
-17.50000100000007
 31
0.0
  0
LINE
  5
1400
330
1238
100
AcDbEntity
  8
AM_5
100
AcDbLine
 10
-55.0
 20
-3.531578947368438
 30
0.0
 11
-55.0
 21
-17.50000100000007
 31
0.0
  0
LINE
  5
1401
330
1238
100
AcDbEntity
  8
AM_5
100
AcDbLine
 10
-1.25
 20
-17.00000100000007
 30
0.0
 11
-53.75
 21
-17.00000100000007
 31
0.0
  0
INSERT
  5
1402
330
1238
100
AcDbEntity
  8
AM_5
100
AcDbBlockReference
  2
_OPEN30
 10
-0.0000000000000008
 20
-17.00000100000007
 30
0.0
 41
1.25
 42
1.25
 43
1.25
  0
INSERT
  5
1403
330
1238
100
AcDbEntity
  8
AM_5
100
AcDbBlockReference
  2
_OPEN30
 10
-55.0
 20
-17.00000100000007
 30
0.0
 41
1.25
 42
1.25
 43
1.25
 50
180.0
  0
MTEXT
  5
1404
330
1238
100
AcDbEntity
  8
AM_5
 62
     2
100
AcDbMText
 10
-27.5
 20
-15.45000100000007
 30
0.0
 40
1.6
 41
0.0
 71
     5
 72
     1
  1
55
  7
ASAMI
1001
ACAD
1000
MTEXTBEGIN
1070
    73
1070
     1
1070
    44
1040
1.0
1070
    74
1070
     0
1000
MTEXTEND
  0
POINT
  5
1405
330
1238
100
AcDbEntity
  8
DEFPOINTS
 62
     0
100
AcDbPoint
 10
0.0
 20
-3.999999999999999
 30
0.0
  0
POINT
  5
1406
330
1238
100
AcDbEntity
  8
DEFPOINTS
 62
     0
100
AcDbPoint
 10
-55.0
 20
-3.031578947368438
 30
0.0
  0
POINT
  5
1407
330
1238
100
AcDbEntity
  8
DEFPOINTS
 62
     0
100
AcDbPoint
 10
-55.0
 20
-17.00000100000007
 30
0.0
  0
ENDBLK
  5
1243
330
1238
100
AcDbEntity
  8
0
100
AcDbBlockEnd
  0
BLOCK
  5
12AB
330
129F
100
AcDbEntity
  8
0
100
AcDbBlockBegin
  2
*D8
 70
     1
 10
0.0
 20
0.0
 30
0.0
  3
*D8
  1

  0
LINE
  5
13F4
330
129F
100
AcDbEntity
  8
AM_5
100
AcDbLine
 10
-55.0
 20
-4.000000000000021
 30
0.0
 11
-65.94533765525615
 21
-4.000000000000018
 31
0.0
  0
LINE
  5
13F5
330
129F
100
AcDbEntity
  8
AM_5
100
AcDbLine
 10
-55.0
 20
3.999999999999978
 30
0.0
 11
-65.94533765525615
 21
3.999999999999981
 31
0.0
  0
LINE
  5
13F6
330
129F
100
AcDbEntity
  8
AM_5
100
AcDbLine
 10
-65.44533765525615
 20
-2.750000000000018
 30
0.0
 11
-65.44533765525615
 21
2.749999999999981
 31
0.0
  0
INSERT
  5
13F7
330
129F
100
AcDbEntity
  8
AM_5
100
AcDbBlockReference
  2
_OPEN30
 10
-65.44533765525615
 20
-4.000000000000018
 30
0.0
 41
1.25
 42
1.25
 43
1.25
 50
270.0
  0
INSERT
  5
13F8
330
129F
100
AcDbEntity
  8
AM_5
100
AcDbBlockReference
  2
_OPEN30
 10
-65.44533765525615
 20
3.999999999999981
 30
0.0
 41
1.25
 42
1.25
 43
1.25
 50
90.0
  0
MTEXT
  5
13F9
330
129F
100
AcDbEntity
  8
AM_5
 62
     2
100
AcDbMText
 10
-66.99533765525615
 20
-0.0000000000000287
 30
0.0
 40
1.6
 41
0.0
 71
     5
 72
     1
  1
%%c8
  7
ASAMI
 11
0.0000000000000001
 21
1.0
 31
0.0
1001
ACAD
1000
MTEXTBEGIN
1070
    73
1070
     1
1070
    44
1040
1.0
1070
    74
1070
     0
1000
MTEXTEND
  0
POINT
  5
13FA
330
129F
100
AcDbEntity
  8
DEFPOINTS
 62
     0
100
AcDbPoint
 10
-54.5
 20
-4.000000000000021
 30
0.0
  0
POINT
  5
13FB
330
129F
100
AcDbEntity
  8
DEFPOINTS
 62
     0
100
AcDbPoint
 10
-54.5
 20
3.999999999999978
 30
0.0
  0
POINT
  5
13FC
330
129F
100
AcDbEntity
  8
DEFPOINTS
 62
     0
100
AcDbPoint
 10
-65.44533765525615
 20
3.999999999999981
 30
0.0
  0
ENDBLK
  5
12AC
330
129F
100
AcDbEntity
  8
0
100
AcDbBlockEnd
  0
BLOCK
  5
1527
330
1520
100
AcDbEntity
  8
0
100
AcDbBlockBegin
  2
*D9
 70
     1
 10
0.0
 20
0.0
 30
0.0
  3
*D9
  1

  0
LINE
  5
15DB
330
1520
100
AcDbEntity
  8
AM_5
100
AcDbLine
 10
3.817860987670745
 20
-8.051921579814912
 30
0.0
 11
0.5528235447980019
 21
-4.628262582853032
 31
0.0
  0
MTEXT
  5
15DC
330
1520
100
AcDbEntity
  8
AM_5
 62
     2
100
AcDbMText
 10
3.738374141310507
 20
-5.722664356820804
 30
0.0
 40
1.6
 41
0.0
 71
     5
 72
     1
  1
R1
  7
ASAMI
 11
0.6901437976882497
 21
-0.7236722590457924
 31
0.0
  0
LINE
  5
15DD
330
1520
100
AcDbEntity
  8
AM_5
100
AcDbLine
 10
-1.000000000000561
 20
-2.999999999999998
 30
0.0
 11
-0.3098562023123101
 21
-3.723672259045791
 31
0.0
  0
INSERT
  5
15DE
330
1520
100
AcDbEntity
  8
AM_5
100
AcDbBlockReference
  2
_OPEN30
 10
-0.3098562023123101
 20
-3.723672259045791
 30
0.0
 41
1.25
 42
1.25
 43
1.25
 50
133.6414927783152
  0
POINT
  5
15DF
330
1520
100
AcDbEntity
  8
DEFPOINTS
 62
     0
100
AcDbPoint
 10
-0.3098562023123101
 20
-3.723672259045791
 30
0.0
  0
POINT
  5
15E0
330
1520
100
AcDbEntity
  8
DEFPOINTS
 62
     0
100
AcDbPoint
 10
-1.000000000000561
 20
-2.999999999999998
 30
0.0
  0
ENDBLK
  5
1528
330
1520
100
AcDbEntity
  8
0
100
AcDbBlockEnd
  0
ENDSEC
  0
SECTION
  2
ENTITIES
  0
TEXT
  5
F1C
330
1F
100
AcDbEntity
  8
AM_6
100
AcDbText
 10
-43.03571428571427
 20
-28.25000100000007
 30
0.0
 40
2.5
  1
SSM2080ZX-R10
 72
     4
 11
-27.5
 21
-27.00000100000007
 31
0.0
100
AcDbText
  0
LINE
  5
11AB
330
1F
100
AcDbEntity
  8
AM_0
100
AcDbLine
 10
-0.2796998770590875
 20
0.4799999999999726
 30
0.0
 11
0.0
 21
0.7999999999999999
 31
0.0
  0
LINE
  5
11AC
330
1F
100
AcDbEntity
  8
AM_0
100
AcDbLine
 10
0.0
 20
0.1599999999999907
 30
0.0
 11
-1.963810192518238
 21
2.406762738022461
 31
0.0
  0
LINE
  5
11AD
330
1F
100
AcDbEntity
  8
AM_0
100
AcDbLine
 10
0.0
 20
0.7999999999999999
 30
0.0
 11
0.0
 21
2.999999999999999
 31
0.0
  0
SPLINE
  5
11AE
330
1F
100
AcDbEntity
  8
AM_0
100
AcDbSpline
210
0.0
220
0.0
230
1.0
 70
     8
 71
     3
 72
     8
 73
     4
 74
     0
 42
0.0000000001
 43
0.0000000001
 40
0.0
 40
0.0
 40
0.0
 40
0.0
 40
7.57842115059705
 40
7.57842115059705
 40
7.57842115059705
 40
7.57842115059705
 10
-1.000000000000559
 20
3.999999999999999
 30
0.0
 10
-2.105116986276958
 20
3.999999999999999
 30
0.0
 10
-4.108796600413219
 20
3.452919916785912
 30
0.0
 10
-6.064091658803458
 20
2.644888408813994
 30
0.0
  0
SPLINE
  5
11AF
330
1F
100
AcDbEntity
  8
AM_0
100
AcDbSpline
210
0.0
220
0.0
230
1.0
 70
     8
 71
     3
 72
     8
 73
     4
 74
     0
 42
0.0000000001
 43
0.0000000001
 40
0.0493744984737458
 40
0.0493744984737458
 40
0.0493744984737458
 40
0.0493744984737458
 40
2.586565323616714
 40
2.586565323616714
 40
2.586565323616714
 40
2.586565323616714
 10
-0.0267612994707693
 20
3.229796500824282
 30
0.0
 10
-0.491239908749568
 20
2.722129029184818
 30
0.0
 10
-1.266012278406052
 20
2.50173092792899
 30
0.0
 10
-1.963810192518238
 20
2.406762738022461
 30
0.0
  0
SPLINE
  5
11B1
330
1F
100
AcDbEntity
  8
AM_0
100
AcDbSpline
210
0.0
220
0.0
230
1.0
 70
     8
 71
     3
 72
     8
 73
     4
 74
     0
 42
0.0000000001
 43
0.0000000001
 40
9.565970618773828
 40
9.565970618773828
 40
9.565970618773828
 40
9.565970618773828
 40
14.48999654934396
 40
14.48999654934396
 40
14.48999654934396
 40
14.48999654934396
 10
-15.07318963402887
 20
1.960449712111835
 30
0.0
 10
-13.8168692982862
 20
1.359289745529553
 30
0.0
 10
-12.57510131580976
 20
0.6796448727648224
 30
0.0
 10
-11.33333333333332
 20
0.0000000000000908
 30
0.0
  0
SPLINE
  5
11B2
330
1F
100
AcDbEntity
  8
AM_0
100
AcDbSpline
210
0.0
220
0.0
230
1.0
 70
     8
 71
     3
 72
     8
 73
     4
 74
     0
 42
0.0000000001
 43
0.0000000001
 40
0.7142832446738512
 40
0.7142832446738512
 40
0.7142832446738512
 40
0.7142832446738512
 40
14.36247867694493
 40
14.36247867694493
 40
14.36247867694493
 40
14.36247867694493
 10
-19.52080574429224
 20
3.999999999999999
 30
0.0
 10
-15.18243469613
 20
3.510245628380425
 30
0.0
 10
-11.69316873099196
 20
1.755122814190235
 30
0.0
 10
-8.203902765853925
 20
0.0000000000000453
 30
0.0
  0
SPLINE
  5
11B3
330
1F
100
AcDbEntity
  8
AM_0
100
AcDbSpline
210
0.0
220
0.0
230
1.0
 70
     8
 71
     3
 72
     8
 73
     4
 74
     0
 42
0.0000000001
 43
0.0000000001
 40
8.272333545127423
 40
8.272333545127423
 40
8.272333545127423
 40
8.272333545127423
 40
14.43901837670146
 40
14.43901837670146
 40
14.43901837670146
 40
14.43901837670146
 10
-15.0
 20
2.461265071486368
 30
0.0
 10
-13.00611872437232
 20
1.657185825704163
 30
0.0
 10
-11.44245570302174
 20
0.8285929128521045
 30
0.0
 10
-9.878792681671177
 20
0.0000000000000453
 30
0.0
  0
LINE
  5
11B4
330
1F
100
AcDbEntity
  8
AM_11
100
AcDbLine
 10
-0.0000000000006395
 20
3.999999999999999
 30
0.0
 11
-15.0
 21
3.999999999999999
 31
0.0
  0
LINE
  5
11B5
330
1F
100
AcDbEntity
  8
AM_0
100
AcDbLine
 10
-15.65296533995517
 20
3.201766514923087
 30
0.0
 11
-1.963810192518238
 21
2.406762738022461
 31
0.0
  0
LINE
  5
11B6
330
1F
100
AcDbEntity
  8
AM_0
100
AcDbLine
 10
-0.3125
 20
-3.262576147610616
 30
0.0
 11
-0.3125
 21
-3.219484344906095
 31
0.0
  0
LINE
  5
11B7
330
1F
100
AcDbEntity
  8
AM_0
100
AcDbLine
 10
-0.180759906065402
 20
-3.573450667877465
 30
0.0
 11
-0.3125
 21
-3.262576147610616
 31
0.0
  0
SPLINE
  5
11B8
330
1F
100
AcDbEntity
  8
AM_0
100
AcDbSpline
210
0.0
220
0.0
230
1.0
 70
     8
 71
     3
 72
     8
 73
     4
 74
     0
 42
0.0000000001
 43
0.0000000001
 40
0.0
 40
0.0
 40
0.0
 40
0.0
 40
4.451443990518192
 40
4.451443990518192
 40
4.451443990518192
 40
4.451443990518192
 10
-19.53723609918725
 20
-3.999999999999999
 30
0.0
 10
-18.30072387959885
 20
-3.69395560304224
 30
0.0
 10
-17.09472990071027
 20
-3.516534731398041
 30
0.0
 10
-15.90979547212273
 20
-3.216682039138867
 30
0.0
  0
SPLINE
  5
11B9
330
1F
100
AcDbEntity
  8
AM_0
100
AcDbSpline
210
0.0
220
0.0
230
1.0
 70
     8
 71
     3
 72
     8
 73
     4
 74
     0
 42
0.0000000001
 43
0.0000000001
 40
10.41626210699319
 40
10.41626210699319
 40
10.41626210699319
 40
10.41626210699319
 40
16.31352008734984
 40
16.31352008734984
 40
16.31352008734984
 40
16.31352008734984
 10
-15.56686579530241
 20
-3.196766245552839
 30
0.0
 10
-17.22156094783175
 20
-2.653172608609418
 30
0.0
 10
-19.09890058615727
 20
-2.128142766599876
 30
0.0
 10
-21.48742387910736
 20
-0.7390083445626261
 30
0.0
  0
LINE
  5
11BA
330
1F
100
AcDbEntity
  8
AM_0
100
AcDbLine
 10
-15.90979547212278
 20
-3.216682039138867
 30
0.0
 11
-6.159955569045179
 21
-2.650455748060953
 31
0.0
  0
LINE
  5
11BB
330
1F
100
AcDbEntity
  8
AM_11
100
AcDbLine
 10
-15.0
 20
-3.999999999999999
 30
0.0
 11
0.0
 21
-3.999999999999999
 31
0.0
  0
DIMENSION
  5
11BC
330
1F
100
AcDbEntity
  8
AM_5
100
AcDbDimension
  2
*D5
 10
-0.0000000000000004
 20
-11.00000099999999
 30
0.0
 11
-7.5
 21
-9.450000999999989
 31
0.0
 70
    32
  1
<>
  3
AM_JIS
100
AcDbAlignedDimension
 13
-15.0
 23
-3.999999999999999
 33
0.0
 14
0.0
 24
-3.999999999999999
 34
0.0
 50
0.0000000000001087
100
AcDbRotatedDimension
1001
GENIUS_GENDTOL_13
1000

1000
h7
1000

1040
0.0
  0
SPLINE
  5
11C9
330
1F
100
AcDbEntity
  8
AM_0
100
AcDbSpline
210
0.0
220
0.0
230
1.0
 70
     8
 71
     3
 72
     8
 73
     4
 74
     0
 42
0.0000000001
 43
0.0000000001
 40
4.219358800530717
 40
4.219358800530717
 40
4.219358800530717
 40
4.219358800530717
 40
14.36247867694493
 40
14.36247867694493
 40
14.36247867694493
 40
14.36247867694493
 10
-0.3124999999999289
 20
-3.262576147610434
 30
0.0
 10
-3.017569797408465
 20
-2.608758233351045
 30
0.0
 10
-5.610736281631195
 20
-1.304379116675499
 30
0.0
 10
-8.203902765853925
 20
0.0000000000000453
 30
0.0
  0
SPLINE
  5
11CA
330
1F
100
AcDbEntity
  8
AM_0
100
AcDbSpline
210
0.0
220
0.0
230
1.0
 70
     8
 71
     3
 72
     8
 73
     4
 74
     0
 42
0.0000000001
 43
0.0000000001
 40
2.184209922202043
 40
2.184209922202043
 40
2.184209922202043
 40
2.184209922202043
 40
14.43901837670146
 40
14.43901837670146
 40
14.43901837670146
 40
14.43901837670146
 10
-0.3428453119406536
 20
-3.753755740250702
 30
0.0
 10
-3.663981535195229
 20
-3.293259737149806
 30
0.0
 10
-6.771387108433201
 20
-1.64662986857488
 30
0.0
 10
-9.878792681671177
 20
0.0000000000000453
 30
0.0
  0
SPLINE
  5
11CB
330
1F
100
AcDbEntity
  8
AM_0
100
AcDbSpline
210
0.0
220
0.0
230
1.0
 70
     8
 71
     3
 72
     8
 73
     4
 74
     0
 42
0.0000000001
 43
0.0000000001
 40
0.0
 40
0.0
 40
0.0
 40
0.0
 40
14.48999654934396
 40
14.48999654934396
 40
14.48999654934396
 40
14.48999654934396
 10
-1.00000000000056
 20
-3.999999999999998
 30
0.0
 10
-4.024999041484432
 20
-3.999999999999998
 30
0.0
 10
-7.67916618740888
 20
-1.999999999999999
 30
0.0
 10
-11.33333333333332
 20
-0.0000000000000002
 30
0.0
  0
LINE
  5
11CC
330
1F
100
AcDbEntity
  8
AM_0
100
AcDbLine
 10
-0.0874999999999915
 20
-3.409076704297568
 30
0.0
 11
-0.0874999999999915
 21
0.260107301777907
 31
0.0
  0
LINE
  5
11CD
330
1F
100
AcDbEntity
  8
AM_0
100
AcDbLine
 10
-0.0000000000005602
 20
-2.999999999999998
 30
0.0
 11
0.0
 21
0.1599999999999907
 31
0.0
  0
ELLIPSE
  5
11CE
330
1F
100
AcDbEntity
  8
AM_0
100
AcDbEllipse
 10
11.83897370198555
 20
0.0168298493666951
 30
0.0
 11
12.61043365825986
 21
0.0000000000001492
 31
0.0
210
0.0
220
0.0
230
1.0
 40
0.9599999999999978
 41
3.060670780078396
 42
3.412214872769676
  0
LINE
  5
11CF
330
1F
100
AcDbEntity
  8
AM_11
100
AcDbLine
 10
-15.0
 20
-3.999999999999999
 30
0.0
 11
-15.0
 21
3.999999999999999
 31
0.0
  0
SPLINE
  5
11D0
330
1F
100
AcDbEntity
  8
AM_0
100
AcDbSpline
210
0.0
220
0.0
230
1.0
 70
     8
 71
     3
 72
     8
 73
     4
 74
     0
 42
0.0000000001
 43
0.0000000001
 40
9.767058667766182
 40
9.767058667766182
 40
9.767058667766182
 40
9.767058667766182
 40
16.31352008734984
 40
16.31352008734984
 40
16.31352008734984
 40
16.31352008734984
 10
-15.07318963402873
 20
1.960449712112198
 30
0.0
 10
-16.73544789439463
 20
1.347586842414079
 30
0.0
 10
-19.13275573982875
 20
0.9462818047162951
 30
0.0
 10
-21.48742387910736
 20
-0.7390083445626261
 30
0.0
  0
DIMENSION
  5
11D1
330
1F
100
AcDbEntity
  8
AM_5
100
AcDbDimension
  2
*D6
 10
11.55776903085495
 20
3.999999999999995
 30
0.0
 11
11.55776903085495
 21
-0.0000000000000016
 31
0.0
 70
   160
  1
%%c<>
  3
AM_JIS
100
AcDbAlignedDimension
 13
0.0
 23
-3.999999999999999
 33
0.0
 14
0.0
 24
3.999999999999999
 34
0.0
 50
90.00000000000003
100
AcDbRotatedDimension
1001
GENIUS_GENDTOL_13
1000

1000
h7
1000

1040
0.0
  0
LINE
  5
1222
330
1F
100
AcDbEntity
  8
AM_0
100
AcDbLine
 10
-55.0
 20
3.599999999999978
 30
0.0
 11
-54.5
 21
3.999999999999978
 31
0.0
1001
GENIUS_GENFIL_13
1070
     0
1040
0.5
1040
0.5
1040
20.0
1040
0.0
1002
{
1002
}
1001
GENIUS_GENODEF_13
1002
{
1000
HIER
1070
     0
1002
}
1002
{
1000
MANEDIT
1070
     0
1002
}
1002
{
1000
NOSEL
1070
     0
1002
}
1002
{
1000
BEHIND
1070
     0
1002
}
1002
{
1000
REACTOR
1002
}
1001
GENIUS_GENOBJ-N-CHA_13
1002
{
1000
OWNER
1000
GEN
1002
}
  0
LINE
  5
1223
330
1F
100
AcDbEntity
  8
AM_0
100
AcDbLine
 10
-55.0
 20
-3.600000000000021
 30
0.0
 11
-54.5
 21
-4.000000000000021
 31
0.0
1001
GENIUS_GENFIL_13
1070
     0
1040
0.5
1040
0.5
1040
20.0
1040
0.0
1002
{
1002
}
1001
GENIUS_GENODEF_13
1002
{
1000
HIER
1070
     0
1002
}
1002
{
1000
MANEDIT
1070
     0
1002
}
1002
{
1000
NOSEL
1070
     0
1002
}
1002
{
1000
BEHIND
1070
     0
1002
}
1002
{
1000
REACTOR
1002
}
1001
GENIUS_GENOBJ-N-CHA_13
1002
{
1000
OWNER
1000
GEN
1002
}
  0
LINE
  5
1224
330
1F
100
AcDbEntity
  8
AM_0
100
AcDbLine
 10
-54.5
 20
3.999999999999978
 30
0.0
 11
-54.5
 21
-4.000000000000021
 31
0.0
  0
LINE
  5
1225
330
1F
100
AcDbEntity
  8
AM_0
100
AcDbLine
 10
-55.0
 20
-3.600000000000021
 30
0.0
 11
-55.0
 21
3.599999999999978
 31
0.0
  0
LINE
  5
1234
330
1F
100
AcDbEntity
  8
AM_0
100
AcDbLine
 10
-19.53723609918724
 20
-3.999999999999997
 30
0.0
 11
-54.5
 21
-4.000000000000021
 31
0.0
  0
LINE
  5
1235
330
1F
100
AcDbEntity
  8
AM_0
100
AcDbLine
 10
-19.52080574429228
 20
4.000000000000002
 30
0.0
 11
-54.5
 21
3.999999999999978
 31
0.0
  0
LINE
  5
1236
330
1F
100
AcDbEntity
  8
AM_7
  6
AM_ISO08W050X2
100
AcDbLine
 10
4.557768030854958
 20
-0.0000000000000003
 30
0.0
 11
-58.44533665525616
 21
-0.0000000000000086
 31
0.0
1001
GENIUS_GENODEF_13
1002
{
1000
HIER
1070
     0
1002
}
1002
{
1000
MANEDIT
1070
     0
1002
}
1002
{
1000
NOSEL
1070
     0
1002
}
1002
{
1000
BEHIND
1070
     0
1002
}
1002
{
1000
REACTOR
1002
}
1001
GENIUS_GENOBJ-N-CEN_13
1002
{
1000
OWNER
1000
GEN
1002
}
  0
DIMENSION
  5
1237
330
1F
100
AcDbEntity
  8
AM_5
100
AcDbDimension
  2
*D7
 10
-55.0
 20
-17.00000100000007
 30
0.0
 11
-27.5
 21
-15.45000100000007
 31
0.0
 70
    32
  1
<>
  3
AM_JIS
100
AcDbAlignedDimension
 13
0.0
 23
-3.999999999999999
 33
0.0
 14
-55.0
 24
-3.031578947368438
 34
0.0
 50
0.0000000000000763
100
AcDbRotatedDimension
1001
GENIUS_GENDTOL_13
1000

1000
h7
1000

1040
0.0
  0
DIMENSION
  5
129E
330
1F
100
AcDbEntity
  8
AM_5
100
AcDbDimension
  2
*D8
 10
-65.44533765525615
 20
3.999999999999981
 30
0.0
 11
-66.99533765525615
 21
-0.0000000000000287
 31
0.0
 70
    32
  1
%%c<>
  3
AM_JIS
100
AcDbAlignedDimension
 13
-54.5
 23
-4.000000000000021
 33
0.0
 14
-54.5
 24
3.999999999999978
 34
0.0
 50
270.0000000000001
100
AcDbRotatedDimension
1001
GENIUS_GENDTOL_13
1000

1000
h7
1000

1040
0.0
  0
LINE
  5
1409
330
1F
100
AcDbEntity
  8
AM_11
100
AcDbLine
 10
-0.0000000000006395
 20
3.999999999999999
 30
0.0
 11
0.0
 21
-3.999999999999999
 31
0.0
  0
ARC
  5
1509
330
1F
100
AcDbEntity
  8
AM_0
100
AcDbCircle
 10
-1.000000000000559
 20
2.999999999999999
 30
0.0
 40
1.0
100
AcDbArc
 50
0.0
 51
90.0
  0
ARC
  5
150A
330
1F
100
AcDbEntity
  8
AM_0
100
AcDbCircle
 10
-1.00000000000056
 20
-2.999999999999998
 30
0.0
 40
1.0
100
AcDbArc
 50
270.0
 51
0.0
  0
DIMENSION
  5
151F
330
1F
100
AcDbEntity
  8
AM_5
100
AcDbDimension
  2
*D9
 10
-1.000000000000561
 20
-2.999999999999998
 30
0.0
 11
3.738374141310507
 21
-5.722664356820804
 31
0.0
 70
    36
  1
<>
  3
AM_JIS$4
100
AcDbRadialDimension
 15
-0.3098562023123101
 25
-3.723672259045791
 35
0.0
 40
0.0
1001
GENIUS_GENDTOL_13
1000

1000
h7
1000

1040
0.0
1001
ACAD
1000
DSTYLE
1002
{
1070
   287
1070
     3
1070
   271
1070
     3
1070
   288
1070
     1
1070
   289
1070
     3
1070
   172
1070
     1
1070
    74
1070
     0
1002
}
  0
LINE
  5
1594
330
1F
100
AcDbEntity
  8
AM_0
100
AcDbLine
 10
-15.0
 20
1.925331765069156
 30
0.0
 11
-15.0
 21
2.99719837790358
 31
0.0
  0
VIEWPORT
  5
110
330
101
100
AcDbEntity
 67
     1
  8
0
100
AcDbViewport
 10
420.5
 20
297.0
 30
0.0
 40
948.9782706766916
 41
628.452
 68
     1
 69
     1
1001
ACAD
1000
MVIEW
1002
{
1070
    16
1010
0.0
1020
0.0
1030
0.0
1010
0.0
1020
0.0
1030
1.0
1040
0.0
1040
628.452
1040
420.5
1040
297.0
1040
50.0
1040
0.0
1040
0.0
1070
     0
1070
   100
1070
     1
1070
     1
1070
     0
1070
     0
1070
     0
1070
     0
1040
0.0
1040
0.0
1040
0.0
1040
10.0
1040
10.0
1040
10.0
1040
10.0
1070
     0
1002
{
1002
}
1002
}
  0
ENDSEC
  0
SECTION
  2
OBJECTS
  0
DICTIONARY
  5
C
330
0
100
AcDbDictionary
  3
ACAD_GROUP
350
D
  3
ACAD_LAYOUT
350
1A
  3
ACAD_MLINESTYLE
350
17
  3
ACAD_PLOTSETTINGS
350
19
  3
ACAD_PLOTSTYLENAME
350
E
  3
ACDBVARIABLEDICTIONARY
350
34
  3
ACMDICTIONARY
350
43
  3
AMG
350
2B
  3
AMGSNAPSETTINGS
350
6E
  3
DWGPROPS
350
15A5
  3
ACDBHEADERROUNDTRIPXREC
350
15B1
  0
DICTIONARY
  5
74
330
1F
100
AcDbDictionary
280
     1
  3
ACAD_INDEX
360
15A7
  3
ACAD_LAYOUTSELFREF
360
15D4
  0
DICTIONARY
  5
15D9
330
101
100
AcDbDictionary
280
     1
  3
ACAD_LAYOUTSELFREF
360
15DA
  0
DICTIONARY
  5
D
102
{ACAD_REACTORS
330
C
102
}
330
C
100
AcDbDictionary
  0
DICTIONARY
  5
1A
102
{ACAD_REACTORS
330
C
102
}
330
C
100
AcDbDictionary
  0
DICTIONARY
  5
17
102
{ACAD_REACTORS
330
C
102
}
330
C
100
AcDbDictionary
  3
STANDARD
350
18
  0
DICTIONARY
  5
19
102
{ACAD_REACTORS
330
C
102
}
330
C
100
AcDbDictionary
  0
ACDBDICTIONARYWDFLT
  5
E
102
{ACAD_REACTORS
330
C
102
}
330
C
100
AcDbDictionary
281
     1
  3
Normal
350
F
100
AcDbDictionaryWithDefault
340
F
  0
DICTIONARY
  5
34
102
{ACAD_REACTORS
330
C
102
}
330
C
100
AcDbDictionary
  3
INDEXCTL
350
35
  3
SORTENTS
350
B5E
  0
DICTIONARY
  5
43
102
{ACAD_REACTORS
330
C
102
}
330
C
100
AcDbDictionary
  3
ACMSTDDICTIONARY
350
260
  0
DICTIONARY
  5
2B
102
{ACAD_REACTORS
330
C
102
}
330
C
100
AcDbDictionary
  3
ACMGSETTINGS
350
2C
  0
DICTIONARY
  5
6E
102
{ACAD_REACTORS
330
C
102
}
330
C
100
AcDbDictionary
  0
XRECORD
  5
15A5
102
{ACAD_REACTORS
330
C
102
}
330
C
100
AcDbXrecord
  1
DWGPROPS COOKIE
  2

  3

  4

  6

  7

  8

  9

300
AmdtFileType=82
301
=
302
=
303
=
304
=
305
=
306
=
307
=
308
=
309
=
 40
0.0331015740740741
 41
2452809.557180439
 42
2452962.987552118
  1

 90
        1
  0
DICTIONARY
  5
15B1
102
{ACAD_REACTORS
330
C
102
}
330
C
100
AcDbDictionary
  3
TSTACKALIGN
350
15B2
  3
TSTACKSIZE
350
15B3
  3
HYPERLINKBASE
350
15B4
  3
STYLESHEET
350
15B5
  3
LAYOUTDICT
350
15B6
  3
PLOTSETDICT
350
15B7
  3
PLOTSTYLNAMDICT
350
15B8
  3
LWETCUNION
350
15B9
  3
INSUNITS
350
15BA
  3
CEPSNTYPE
350
15BB
  3
FINGERPRINTGUID
350
15BC
  3
VERSIONGUID
350
15BD
  3
PSVPSCALE
350
15BE
  3
DIMSTYLEDATA
350
15BF
  3
PUCSORTHOREF
350
15C0
  3
PUCSORTHOVIEW
350
15C1
  3
PUCSBASE
350
15C2
  3
PUCSORGTOP
350
15C3
  3
PUCSORGBOTTOM
350
15C4
  3
PUCSORGLEFT
350
15C5
  3
PUCSORGRIGHT
350
15C6
  3
PUCSORGFRONT
350
15C7
  3
PUCSORGBACK
350
15C8
  3
UCSORTHOREF
350
15C9
  3
UCSORTHOVIEW
350
15CA
  3
UCSBASE
350
15CB
  3
UCSORGTOP
350
15CC
  3
UCSORGBOTTOM
350
15CD
  3
UCSORGLEFT
350
15CE
  3
UCSORGRIGHT
350
15CF
  3
UCSORGFRONT
350
15D0
  3
UCSORGBACK
350
15D1
  0
DICTIONARY
  5
15A7
102
{ACAD_REACTORS
330
74
102
}
330
74
100
AcDbDictionary
  3
*A1
350
15A8
  0
XRECORD
  5
15D4
102
{ACAD_REACTORS
330
74
102
}
330
74
100
AcDbXrecord
340
1F
  0
XRECORD
  5
15DA
102
{ACAD_REACTORS
330
15D9
102
}
330
15D9
100
AcDbXrecord
340
101
  0
MLINESTYLE
  5
18
102
{ACAD_REACTORS
330
17
102
}
330
17
100
AcDbMlineStyle
  2
STANDARD
 70
     0
  3

 62
   256
 51
90.0
 52
90.0
 71
     2
 49
0.5
 62
   256
  6
BYLAYER
 49
-0.5
 62
   256
  6
BYLAYER
  0
ACDBPLACEHOLDER
  5
F
102
{ACAD_REACTORS
330
E
102
}
330
E
100
AcDbPlaceHolder
280
     0
  0
DICTIONARYVAR
  5
35
102
{ACAD_REACTORS
330
34
102
}
330
34
100
DictionaryVariables
280
     0
  1
1
  0
DICTIONARYVAR
  5
B5E
102
{ACAD_REACTORS
330
34
102
}
330
34
100
DictionaryVariables
280
     0
  1
96
  0
DICTIONARY
  5
260
102
{ACAD_REACTORS
330
43
102
}
330
43
100
AcDbDictionary
  0
DICTIONARY
  5
2C
102
{ACAD_REACTORS
330
2B
102
}
330
2B
100
AcDbDictionary
  3
DWGSETTINGS
350
2D
  0
XRECORD
  5
15B2
102
{ACAD_REACTORS
330
15B1
102
}
330
15B1
100
AcDbXrecord
 90
        1
  0
XRECORD
  5
15B3
102
{ACAD_REACTORS
330
15B1
102
}
330
15B1
100
AcDbXrecord
 90
       70
  0
XRECORD
  5
15B4
102
{ACAD_REACTORS
330
15B1
102
}
330
15B1
100
AcDbXrecord
  1

  0
XRECORD
  5
15B5
102
{ACAD_REACTORS
330
15B1
102
}
330
15B1
100
AcDbXrecord
  1
ASAMI.ctb
  0
XRECORD
  5
15B6
102
{ACAD_REACTORS
330
15B1
102
}
330
15B1
100
AcDbXrecord
340
1A
  0
XRECORD
  5
15B7
102
{ACAD_REACTORS
330
15B1
102
}
330
15B1
100
AcDbXrecord
340
19
  0
XRECORD
  5
15B8
102
{ACAD_REACTORS
330
15B1
102
}
330
15B1
100
AcDbXrecord
340
E
  0
XRECORD
  5
15B9
102
{ACAD_REACTORS
330
15B1
102
}
330
15B1
100
AcDbXrecord
 90
    10781
  0
XRECORD
  5
15BA
102
{ACAD_REACTORS
330
15B1
102
}
330
15B1
100
AcDbXrecord
 90
        4
  0
XRECORD
  5
15BB
102
{ACAD_REACTORS
330
15B1
102
}
330
15B1
100
AcDbXrecord
 90
        0
  0
XRECORD
  5
15BC
102
{ACAD_REACTORS
330
15B1
102
}
330
15B1
100
AcDbXrecord
  1
{AFB28963-8C59-40AE-9337-C84526B81ACE}
  0
XRECORD
  5
15BD
102
{ACAD_REACTORS
330
15B1
102
}
330
15B1
100
AcDbXrecord
  1
{B04818C9-7D52-486A-8B64-8888E6F81177}
  0
XRECORD
  5
15BE
102
{ACAD_REACTORS
330
15B1
102
}
330
15B1
100
AcDbXrecord
 40
0.0
  0
XRECORD
  5
15BF
102
{ACAD_REACTORS
330
15B1
102
}
330
15B1
100
AcDbXrecord
1000
DSTYLE
1002
{
1070
    79
 70
     2
1070
   341
340
59
1070
   342
340
59
1070
   371
 70
    -1
1070
   372
 70
    -1
1002
}
  0
XRECORD
  5
15C0
102
{ACAD_REACTORS
330
15B1
102
}
330
15B1
100
AcDbXrecord
340
0
  0
XRECORD
  5
15C1
102
{ACAD_REACTORS
330
15B1
102
}
330
15B1
100
AcDbXrecord
 70
     0
  0
XRECORD
  5
15C2
102
{ACAD_REACTORS
330
15B1
102
}
330
15B1
100
AcDbXrecord
340
0
  0
XRECORD
  5
15C3
102
{ACAD_REACTORS
330
15B1
102
}
330
15B1
100
AcDbXrecord
 10
0.0
 20
0.0
 30
0.0
  0
XRECORD
  5
15C4
102
{ACAD_REACTORS
330
15B1
102
}
330
15B1
100
AcDbXrecord
 10
0.0
 20
0.0
 30
0.0
  0
XRECORD
  5
15C5
102
{ACAD_REACTORS
330
15B1
102
}
330
15B1
100
AcDbXrecord
 10
0.0
 20
0.0
 30
0.0
  0
XRECORD
  5
15C6
102
{ACAD_REACTORS
330
15B1
102
}
330
15B1
100
AcDbXrecord
 10
0.0
 20
0.0
 30
0.0
  0
XRECORD
  5
15C7
102
{ACAD_REACTORS
330
15B1
102
}
330
15B1
100
AcDbXrecord
 10
0.0
 20
0.0
 30
0.0
  0
XRECORD
  5
15C8
102
{ACAD_REACTORS
330
15B1
102
}
330
15B1
100
AcDbXrecord
 10
0.0
 20
0.0
 30
0.0
  0
XRECORD
  5
15C9
102
{ACAD_REACTORS
330
15B1
102
}
330
15B1
100
AcDbXrecord
340
0
  0
XRECORD
  5
15CA
102
{ACAD_REACTORS
330
15B1
102
}
330
15B1
100
AcDbXrecord
 70
     0
  0
XRECORD
  5
15CB
102
{ACAD_REACTORS
330
15B1
102
}
330
15B1
100
AcDbXrecord
340
0
  0
XRECORD
  5
15CC
102
{ACAD_REACTORS
330
15B1
102
}
330
15B1
100
AcDbXrecord
 10
0.0
 20
0.0
 30
0.0
  0
XRECORD
  5
15CD
102
{ACAD_REACTORS
330
15B1
102
}
330
15B1
100
AcDbXrecord
 10
0.0
 20
0.0
 30
0.0
  0
XRECORD
  5
15CE
102
{ACAD_REACTORS
330
15B1
102
}
330
15B1
100
AcDbXrecord
 10
0.0
 20
0.0
 30
0.0
  0
XRECORD
  5
15CF
102
{ACAD_REACTORS
330
15B1
102
}
330
15B1
100
AcDbXrecord
 10
0.0
 20
0.0
 30
0.0
  0
XRECORD
  5
15D0
102
{ACAD_REACTORS
330
15B1
102
}
330
15B1
100
AcDbXrecord
 10
0.0
 20
0.0
 30
0.0
  0
XRECORD
  5
15D1
102
{ACAD_REACTORS
330
15B1
102
}
330
15B1
100
AcDbXrecord
 10
0.0
 20
0.0
 30
0.0
  0
LAYER_INDEX
  5
15A8
102
{ACAD_REACTORS
330
15A7
102
}
330
15A7
100
AcDbIndex
 40
2453151.803474652
100
AcDbLayerIndex
  8
0
360
15A9
 90
        0
  8
AM_0
360
15AA
 90
       30
  8
AM_11
360
15AB
 90
        4
  8
AM_7
360
15AC
 90
        1
  8
AM_5
360
15AD
 90
        5
  8
Defpoints
360
15AE
 90
        0
  8
AM_6
360
15AF
 90
        1
  0
XRECORD
  5
2D
102
{ACAD_REACTORS
330
2C
102
}
330
2C
100
AcDbXrecord
  1
VERSION
140
15.0
  1
PRODUCT
  2
AutoCAD Mechanical 2000
  0
IDBUFFER
  5
15A9
330
0
100
AcDbIdBuffer
  0
IDBUFFER
  5
15AA
330
0
100
AcDbIdBuffer
330
11CB
330
11CC
330
11CD
330
11CE
330
11D0
330
1222
330
1223
330
1224
330
1225
330
1234
330
1235
330
1509
330
150A
330
1594
330
11AB
330
11AC
330
11AD
330
11AE
330
11AF
330
11B1
330
11B2
330
11B3
330
11B5
330
11B6
330
11B7
330
11B8
330
11B9
330
11BA
330
11C9
330
11CA
  0
IDBUFFER
  5
15AB
330
0
100
AcDbIdBuffer
330
11B4
330
11BB
330
11CF
330
1409
  0
IDBUFFER
  5
15AC
330
0
100
AcDbIdBuffer
330
1236
  0
IDBUFFER
  5
15AD
330
0
100
AcDbIdBuffer
330
11BC
330
11D1
330
1237
330
129E
330
151F
  0
IDBUFFER
  5
15AE
330
0
100
AcDbIdBuffer
  0
IDBUFFER
  5
15AF
330
0
100
AcDbIdBuffer
330
F1C
  0
ENDSEC
  0
EOF
