  0
SECTION
  2
HEADER
  9
$ACADVER
  1
AC1014
  9
$ACADMAINTVER
 70
     9
  9
$DWGCODEPAGE
  3
ANSI_932
  9
$INSBASE
 10
0.0
 20
0.0
 30
0.0
  9
$EXTMIN
 10
-75.85000099999999
 20
-29.25000099999996
 30
-0.00000001
  9
$EXTMAX
 10
9.551050680252144
 20
5.313929747500359
 30
0.00000001
  9
$LIMMIN
 10
-80.04803485721049
 20
-36.90878374865133
  9
$LIMMAX
 10
14.4975693768261
 20
18.67041602407721
  9
$ORTHOMODE
 70
     0
  9
$REGENMODE
 70
     1
  9
$FILLMODE
 70
     1
  9
$QTEXTMODE
 70
     0
  9
$MIRRTEXT
 70
     0
  9
$DRAGMODE
 70
     2
  9
$LTSCALE
 40
1.0
  9
$OSMODE
 70
    55
  9
$ATTMODE
 70
     1
  9
$TEXTSIZE
 40
2.5
  9
$TRACEWID
 40
1.0
  9
$TEXTSTYLE
  7
STANDARD
  9
$CLAYER
  8
AM_0
  9
$CELTYPE
  6
BYLAYER
  9
$CECOLOR
 62
   256
  9
$CELTSCALE
 40
1.0
  9
$DELOBJ
 70
     1
  9
$DISPSILH
 70
     0
  9
$DIMSCALE
 40
0.5
  9
$DIMASZ
 40
2.5
  9
$DIMEXO
 40
1.0
  9
$DIMDLI
 40
12.0
  9
$DIMRND
 40
0.0
  9
$DIMDLE
 40
0.0
  9
$DIMEXE
 40
1.0
  9
$DIMTP
 40
0.1
  9
$DIMTM
 40
0.1
  9
$DIMTXT
 40
3.2
  9
$DIMCEN
 40
0.0
  9
$DIMTSZ
 40
0.0
  9
$DIMTOL
 70
     0
  9
$DIMLIM
 70
     0
  9
$DIMTIH
 70
     0
  9
$DIMTOH
 70
     0
  9
$DIMSE1
 70
     0
  9
$DIMSE2
 70
     0
  9
$DIMTAD
 70
     3
  9
$DIMZIN
 70
     8
  9
$DIMBLK
  1
OPEN30
  9
$DIMASO
 70
     1
  9
$DIMSHO
 70
     1
  9
$DIMPOST
  1

  9
$DIMAPOST
  1
"
  9
$DIMALT
 70
     0
  9
$DIMALTD
 70
     2
  9
$DIMALTF
 40
0.0393701
  9
$DIMLFAC
 40
1.0
  9
$DIMTOFL
 70
     1
  9
$DIMTVP
 40
0.0
  9
$DIMTIX
 70
     0
  9
$DIMSOXD
 70
     0
  9
$DIMSAH
 70
     0
  9
$DIMBLK1
  1

  9
$DIMBLK2
  1

  9
$DIMSTYLE
  2
AM_JIS
  9
$DIMCLRD
 70
   256
  9
$DIMCLRE
 70
   256
  9
$DIMCLRT
 70
     2
  9
$DIMTFAC
 40
0.71
  9
$DIMGAP
 40
1.5
  9
$DIMJUST
 70
     0
  9
$DIMSD1
 70
     0
  9
$DIMSD2
 70
     0
  9
$DIMTOLJ
 70
     0
  9
$DIMTZIN
 70
     0
  9
$DIMALTZ
 70
     0
  9
$DIMALTTZ
 70
     0
  9
$DIMFIT
 70
     3
  9
$DIMUPT
 70
     0
  9
$DIMUNIT
 70
     2
  9
$DIMDEC
 70
     3
  9
$DIMTDEC
 70
     3
  9
$DIMALTU
 70
     2
  9
$DIMALTTD
 70
     2
  9
$DIMTXSTY
  7
ASAMI
  9
$DIMAUNIT
 70
     0
  9
$LUNITS
 70
     2
  9
$LUPREC
 70
     2
  9
$SKETCHINC
 40
1.0
  9
$FILLETRAD
 40
2.5
  9
$AUNITS
 70
     0
  9
$AUPREC
 70
     0
  9
$MENU
  1
.
  9
$ELEVATION
 40
0.0
  9
$PELEVATION
 40
0.0
  9
$THICKNESS
 40
0.0
  9
$LIMCHECK
 70
     0
  9
$BLIPMODE
 70
     0
  9
$CHAMFERA
 40
0.5
  9
$CHAMFERB
 40
0.5
  9
$CHAMFERC
 40
20.0
  9
$CHAMFERD
 40
0.0
  9
$SKPOLY
 70
     0
  9
$TDCREATE
 40
2452838.430434386
  9
$TDUPDATE
 40
2453151.838381875
  9
$TDINDWG
 40
0.3591447685
  9
$TDUSRTIMER
 40
0.3591447685
  9
$USRTIMER
 70
     1
  9
$ANGBASE
 50
0.0
  9
$ANGDIR
 70
     0
  9
$PDMODE
 70
     0
  9
$PDSIZE
 40
0.0
  9
$PLINEWID
 40
0.0
  9
$COORDS
 70
     1
  9
$SPLFRAME
 70
     0
  9
$SPLINETYPE
 70
     6
  9
$SPLINESEGS
 70
     8
  9
$ATTDIA
 70
     1
  9
$ATTREQ
 70
     1
  9
$HANDLING
 70
 12289
  9
$HANDSEED
  5
9E95
  9
$SURFTAB1
 70
     6
  9
$SURFTAB2
 70
     6
  9
$SURFTYPE
 70
     6
  9
$SURFU
 70
     6
  9
$SURFV
 70
     6
  9
$UCSNAME
  2

  9
$UCSORG
 10
0.0
 20
0.0
 30
0.0
  9
$UCSXDIR
 10
1.0
 20
0.0
 30
0.0
  9
$UCSYDIR
 10
0.0
 20
1.0
 30
0.0
  9
$PUCSNAME
  2

  9
$PUCSORG
 10
0.0
 20
0.0
 30
0.0
  9
$PUCSXDIR
 10
1.0
 20
0.0
 30
0.0
  9
$PUCSYDIR
 10
0.0
 20
1.0
 30
0.0
  9
$USERI1
 70
     0
  9
$USERI2
 70
     0
  9
$USERI3
 70
     0
  9
$USERI4
 70
     0
  9
$USERI5
 70
     0
  9
$USERR1
 40
0.0
  9
$USERR2
 40
0.0
  9
$USERR3
 40
0.0
  9
$USERR4
 40
0.0
  9
$USERR5
 40
0.0
  9
$WORLDVIEW
 70
     1
  9
$SHADEDGE
 70
     3
  9
$SHADEDIF
 70
    70
  9
$TILEMODE
 70
     1
  9
$MAXACTVP
 70
    64
  9
$PINSBASE
 10
0.0
 20
0.0
 30
0.0
  9
$PLIMCHECK
 70
     0
  9
$PEXTMIN
 10
1.000000000000000E+20
 20
1.000000000000000E+20
 30
1.000000000000000E+20
  9
$PEXTMAX
 10
-1.000000000000000E+20
 20
-1.000000000000000E+20
 30
-1.000000000000000E+20
  9
$PLIMMIN
 10
0.0
 20
0.0
  9
$PLIMMAX
 10
841.0
 20
594.0
  9
$UNITMODE
 70
     0
  9
$VISRETAIN
 70
     1
  9
$PLINEGEN
 70
     0
  9
$PSLTSCALE
 70
     0
  9
$TREEDEPTH
 70
  3020
  9
$PICKSTYLE
 70
     0
  9
$CMLSTYLE
  2
STANDARD
  9
$CMLJUST
 70
     0
  9
$CMLSCALE
 40
20.0
  9
$PROXYGRAPHICS
 70
     1
  9
$MEASUREMENT
 70
     1
  0
ENDSEC
  0
SECTION
  2
CLASSES
  0
CLASS
  1
ACDBDICTIONARYWDFLT
  2
AcDbDictionaryWithDefault
  3
AutoCAD 2000
 90
        0
280
     0
281
     0
  0
CLASS
  1
ACDBPLACEHOLDER
  2
AcDbPlaceHolder
  3
AutoCAD 2000
 90
        0
280
     0
281
     0
  0
CLASS
  1
LAYOUT
  2
AcDbLayout
  3
AutoCAD 2000
 90
        0
280
     0
281
     0
  0
CLASS
  1
AMGSETTINGSOBJ
  2
AmgSettingsObj
  3
"AcadM|Product Description: AutoCAD Mechanical 2000|Company: Autodesk"
 90
        0
280
     0
281
     0
  0
CLASS
  1
ACME_DOCUMENT
  2
AcMeDbDoc
  3
AcMeServices
 90
        0
280
     0
281
     0
  0
CLASS
  1
ACMESCOPE
  2
AcMeScope
  3
AcMeServices
 90
        0
280
     0
281
     0
  0
CLASS
  1
ACMECOMMANDHISTORY
  2
AcMeCommandHistory
  3
AcMeServices
 90
        0
280
     0
281
     0
  0
CLASS
  1
DICTIONARYVAR
  2
AcDbDictionaryVar
  3
AutoCAD 2000
 90
        0
280
     0
281
     0
  0
CLASS
  1
ACIMSYSVARMAN
  2
AcImSysVarManager
  3
AcMeServices
 90
        0
280
     0
281
     0
  0
CLASS
  1
ACIMREALSYSVAR
  2
AcImRealSysVar
  3
AcMeServices
 90
        0
280
     0
281
     0
  0
CLASS
  1
ACIMINTSYSVAR
  2
AcImIntSysVar
  3
AcMeServices
 90
        0
280
     0
281
     0
  0
CLASS
  1
ACMEDRAWINGMAN
  2
AcMeDrawingMan
  3
AcMeServices
 90
        0
280
     0
281
     0
  0
CLASS
  1
ACMEVIEW
  2
AcMeView
  3
AcMeServices
 90
        0
280
     0
281
     0
  0
CLASS
  1
ACDBENTITYCACHE
  2
AcMeEntityCache
  3
AcMeServices
 90
        0
280
     0
281
     0
  0
CLASS
  1
GSMANAGER
  2
AcMeGSManager
  3
AcMeServices
 90
        0
280
     0
281
     0
  0
CLASS
  1
AmdtInternalReactor
  2
AmdtInternalReactor
  3
AcMeServices
 90
        0
280
     0
281
     0
  0
CLASS
  1
ACMESTATEMGR
  2
AcMeStateMgr
  3
AcMeServices
 90
        0
280
     0
281
     0
  0
CLASS
  1
ACME_DATABASE
  2
AcMeDbDatabase
  3
AcMeServices
 90
        0
280
     0
281
     0
  0
CLASS
  1
ACRFINSADJUSTERMGR
  2
AcRfInsAdjusterMgr
  3
AcMeServices
 90
        0
280
     0
281
     0
  0
CLASS
  1
ACMDATADICTIONARY
  2
AcmDataDictionary
  3
"AcmSymBB|Product Description: AutoCAD Mechanical 2000|Company: Autodesk"
 90
        0
280
     0
281
     0
  0
CLASS
  1
ACMDATAENTRYBLOCK
  2
AcmDataEntryBlock
  3
"AcmSymBB|Product Description: AutoCAD Mechanical 2000|Company: Autodesk"
 90
        0
280
     0
281
     0
  0
CLASS
  1
AMGOBJPROPCFG
  2
AmgObjPropCfg
  3
"AmgLay|Product Description: AutoCAD Mechanical 2000|Company: Autodesk"
 90
        1
280
     0
281
     0
  0
CLASS
  1
ACAMGFILTERDAT
  2
AcAmgFilterDat
  3
"AcadM|Product Description: AutoCAD Mechanical 2000|Company: Autodesk"
 90
        0
280
     0
281
     0
  0
CLASS
  1
LAYER_INDEX
  2
AcDbLayerIndex
  3
AutoCAD 2000
 90
        0
280
     0
281
     0
  0
CLASS
  1
IDBUFFER
  2
AcDbIdBuffer
  3
AutoCAD 2000
 90
        0
280
     0
281
     0
  0
CLASS
  1
ACIMSTRSYSVAR
  2
AcImStrSysVar
  3
AcMeServices
 90
        0
280
     0
281
     0
  0
CLASS
  1
ACMSTANDARDJIS
  2
AcmStandardJIS
  3
"AcmSymBB|Product Description: AutoCAD Mechanical 2000|Company: Autodesk"
 90
        0
280
     0
281
     0
  0
CLASS
  1
ACMSURFSTANDARDJIS
  2
AcmSurfTextStdJIS
  3
"AcmSymBB|Product Description: AutoCAD Mechanical 2000|Company: Autodesk"
 90
        0
280
     0
281
     0
  0
CLASS
  1
ACMFCFSTANDARDJIS
  2
AcmFCFStdJIS
  3
"AcmSymBB|Product Description: AutoCAD Mechanical 2000|Company: Autodesk"
 90
        0
280
     0
281
     0
  0
CLASS
  1
ACMWELDSTANDARDJIS
  2
AcmWeldingStdJIS
  3
"AcmSymBB|Product Description: AutoCAD Mechanical 2000|Company: Autodesk"
 90
        0
280
     0
281
     0
  0
CLASS
  1
ACMIDSTANDARDJIS
  2
AcmIdStdJIS
  3
"AcmSymBB|Product Description: AutoCAD Mechanical 2000|Company: Autodesk"
 90
        0
280
     0
281
     0
  0
CLASS
  1
ACMDATUMSTANDARDJIS
  2
AcmDatumStdJIS
  3
"AcmSymBB|Product Description: AutoCAD Mechanical 2000|Company: Autodesk"
 90
        0
280
     0
281
     0
  0
CLASS
  1
ACMBOMSTANDARDJIS
  2
AcmBOMStdJIS
  3
"AcmSymBB|Product Description: AutoCAD Mechanical 2000|Company: Autodesk"
 90
        0
280
     0
281
     0
  0
CLASS
  1
ACMSTANDARDANSI
  2
AcmStandardANSI
  3
"AcmSymBB|Product Description: AutoCAD Mechanical 2000|Company: Autodesk"
 90
        0
280
     0
281
     0
  0
CLASS
  1
ACMSURFSTANDARDANSI
  2
AcmSurfTextStdANSI
  3
"AcmSymBB|Product Description: AutoCAD Mechanical 2000|Company: Autodesk"
 90
        0
280
     0
281
     0
  0
CLASS
  1
ACMFCFSTANDARDANSI
  2
AcmFCFStdANSI
  3
"AcmSymBB|Product Description: AutoCAD Mechanical 2000|Company: Autodesk"
 90
        0
280
     0
281
     0
  0
CLASS
  1
ACMWELDSTANDARDANSI
  2
AcmWeldingStdANSI
  3
"AcmSymBB|Product Description: AutoCAD Mechanical 2000|Company: Autodesk"
 90
        0
280
     0
281
     0
  0
CLASS
  1
ACMIDSTANDARDANSI
  2
AcmIdStdANSI
  3
"AcmSymBB|Product Description: AutoCAD Mechanical 2000|Company: Autodesk"
 90
        0
280
     0
281
     0
  0
CLASS
  1
ACMDATUMSTANDARDANSI
  2
AcmDatumStdANSI
  3
"AcmSymBB|Product Description: AutoCAD Mechanical 2000|Company: Autodesk"
 90
        0
280
     0
281
     0
  0
CLASS
  1
ACMBOMSTANDARDANSI
  2
AcmBOMStdANSI
  3
"AcmSymBB|Product Description: AutoCAD Mechanical 2000|Company: Autodesk"
 90
        0
280
     0
281
     0
  0
CLASS
  1
ACMSTANDARDBSI
  2
AcmStandardBSI
  3
"AcmSymBB|Product Description: AutoCAD Mechanical 2000|Company: Autodesk"
 90
        0
280
     0
281
     0
  0
CLASS
  1
ACMSURFSTANDARDBSI
  2
AcmSurfTextStdBSI
  3
"AcmSymBB|Product Description: AutoCAD Mechanical 2000|Company: Autodesk"
 90
        0
280
     0
281
     0
  0
CLASS
  1
ACMFCFSTANDARDBSI
  2
AcmFCFStdBSI
  3
"AcmSymBB|Product Description: AutoCAD Mechanical 2000|Company: Autodesk"
 90
        0
280
     0
281
     0
  0
CLASS
  1
ACMWELDSTANDARDBSI
  2
AcmWeldingStdBSI
  3
"AcmSymBB|Product Description: AutoCAD Mechanical 2000|Company: Autodesk"
 90
        0
280
     0
281
     0
  0
CLASS
  1
ACMIDSTANDARDBSI
  2
AcmIdStdBSI
  3
"AcmSymBB|Product Description: AutoCAD Mechanical 2000|Company: Autodesk"
 90
        0
280
     0
281
     0
  0
CLASS
  1
ACMDATUMSTANDARDBSI
  2
AcmDatumStdBSI
  3
"AcmSymBB|Product Description: AutoCAD Mechanical 2000|Company: Autodesk"
 90
        0
280
     0
281
     0
  0
CLASS
  1
ACMBOMSTANDARDBSI
  2
AcmBOMStdBSI
  3
"AcmSymBB|Product Description: AutoCAD Mechanical 2000|Company: Autodesk"
 90
        0
280
     0
281
     0
  0
CLASS
  1
LONG_TRANSACTION
  2
AcDbLongTransaction
  3
AutoCAD 2000
 90
        0
280
     0
281
     0
  0
CLASS
  1
LWPOLYLINE
  2
AcDbPolyline
  3
AutoCAD 2000
 90
        0
280
     0
281
     1
  0
CLASS
  1
HATCH
  2
AcDbHatch
  3
AutoCAD 2000
 90
        0
280
     0
281
     1
  0
CLASS
  1
XRECORD
  2
AcDbXrecord
  3
AutoCAD 2000
 90
        0
280
     0
281
     0
  0
ENDSEC
  0
SECTION
  2
TABLES
  0
TABLE
  2
VPORT
  5
8
330
0
100
AcDbSymbolTable
 70
     3
  0
VPORT
  5
9E6A
330
8
100
AcDbSymbolTableRecord
100
AcDbViewportTableRecord
  2
*ACTIVE
 70
     0
 10
0.0
 20
0.0
 11
1.0
 21
1.0
 12
-33.52678147553006
 22
-8.934120839050926
 13
0.0
 23
0.0
 14
2.5
 24
2.5
 15
10.0
 25
10.0
 16
0.0
 26
0.0
 36
1.0
 17
0.0
 27
0.0
 37
0.0
 40
66.05976857191393
 41
1.56570841889117
 42
50.0
 43
0.0
 44
0.0
 50
0.0
 51
0.0
 71
     0
 72
   100
 73
     1
 74
     3
 75
     0
 76
     0
 77
     0
 78
     0
  0
ENDTAB
  0
TABLE
  2
LTYPE
  5
5
330
0
100
AcDbSymbolTable
 70
    10
  0
LTYPE
  5
14
330
5
100
AcDbSymbolTableRecord
100
AcDbLinetypeTableRecord
  2
BYBLOCK
 70
     0
  3

 72
    65
 73
     0
 40
0.0
  0
LTYPE
  5
15
330
5
100
AcDbSymbolTableRecord
100
AcDbLinetypeTableRecord
  2
BYLAYER
 70
     0
  3

 72
    65
 73
     0
 40
0.0
  0
LTYPE
  5
16
330
5
100
AcDbSymbolTableRecord
100
AcDbLinetypeTableRecord
  2
CONTINUOUS
 70
     0
  3
Solid line
 72
    65
 73
     0
 40
0.0
  0
LTYPE
  5
4B
330
5
100
AcDbSymbolTableRecord
100
AcDbLinetypeTableRecord
  2
AM_ISO02W050
 70
     0
  3
__ __ __ __ __ __ __ __ __ __ __ __ __ __ __
 72
    65
 73
     2
 40
7.5
 49
6.0
 74
     0
 49
-1.5
 74
     0
  0
LTYPE
  5
4C
330
5
100
AcDbSymbolTableRecord
100
AcDbLinetypeTableRecord
  2
AM_ISO08W050
 70
     0
  3
____ . ____ . ____ . ____ . ____ . ____ . ____
 72
    65
 73
     4
 40
18.0
 49
12.0
 74
     0
 49
-1.5
 74
     0
 49
3.0
 74
     0
 49
-1.5
 74
     0
  0
LTYPE
  5
4D
330
5
100
AcDbSymbolTableRecord
100
AcDbLinetypeTableRecord
  2
AM_ISO09W050
 70
     0
  3
_____ . . _____ . . _____ . . ____ .. ____
 72
    65
 73
     6
 40
22.5
 49
12.0
 74
     0
 49
-1.5
 74
     0
 49
3.0
 74
     0
 49
-1.5
 74
     0
 49
3.0
 74
     0
 49
-1.5
 74
     0
  0
LTYPE
  5
4E
330
5
100
AcDbSymbolTableRecord
100
AcDbLinetypeTableRecord
  2
AMCONSTR
 70
     0
  3
_______________________
 72
    65
 73
     2
 40
9999.0
 49
9999.0
 74
     0
 49
0.0
 74
     0
  0
LTYPE
  5
4F
330
5
100
AcDbSymbolTableRecord
100
AcDbLinetypeTableRecord
  2
AM_ISO02W050X2
 70
     0
  3
 _ _ _ _ _ _ _ _ _ _ _ _
 72
    65
 73
     2
 40
3.75
 49
3.0
 74
     0
 49
-0.75
 74
     0
  0
LTYPE
  5
50
330
5
100
AcDbSymbolTableRecord
100
AcDbLinetypeTableRecord
  2
AM_ISO08W050X2
 70
     0
  3
__ . __ . __ . __ . __ . __
 72
    65
 73
     4
 40
9.0
 49
6.0
 74
     0
 49
-0.75
 74
     0
 49
1.5
 74
     0
 49
-0.75
 74
     0
  0
LTYPE
  5
53
330
5
100
AcDbSymbolTableRecord
100
AcDbLinetypeTableRecord
  2
AMZIGZAG
 70
     0
  3
/\/-/\/-/\/-/\/-/\/-/\/
 72
    65
 73
     2
 40
11.00009999999999
 49
0.0001
 74
     4
 75
   135
340
52
 46
0.04
 50
0.0
 44
0.0
 45
0.0
 49
-11.0
 74
     0
  0
LTYPE
  5
166
330
5
100
AcDbSymbolTableRecord
100
AcDbLinetypeTableRecord
  2
ACJISTGL
 70
     0
  3
_ _ _ _ _
 72
    65
 73
     2
 40
3.0
 49
2.0
 74
     0
 49
-1.0
 74
     0
  0
LTYPE
  5
26A
330
5
100
AcDbSymbolTableRecord
100
AcDbLinetypeTableRecord
  2
ACJISTGB
 70
     0
  3
__ . . __ . .
 72
    65
 73
     6
 40
9.0
 49
4.0
 74
     0
 49
-1.0
 74
     0
 49
1.0
 74
     0
 49
-1.0
 74
     0
 49
1.0
 74
     0
 49
-1.0
 74
     0
  0
ENDTAB
  0
TABLE
  2
LAYER
  5
2
330
0
100
AcDbSymbolTable
 70
     7
  0
LAYER
  5
10
330
2
100
AcDbSymbolTableRecord
100
AcDbLayerTableRecord
  2
0
 70
     0
 62
     7
  6
CONTINUOUS
  0
LAYER
  5
3F9
330
2
100
AcDbSymbolTableRecord
100
AcDbLayerTableRecord
  2
AM_0
 70
     0
 62
     7
  6
CONTINUOUS
  0
LAYER
  5
BDD
330
2
100
AcDbSymbolTableRecord
100
AcDbLayerTableRecord
  2
AM_11
 70
     0
 62
     3
  6
AM_ISO09W050
  0
LAYER
  5
BDE
330
2
100
AcDbSymbolTableRecord
100
AcDbLayerTableRecord
  2
AM_7
 70
     0
 62
     4
  6
AM_ISO08W050
  0
LAYER
  5
BDF
330
2
100
AcDbSymbolTableRecord
100
AcDbLayerTableRecord
  2
AM_5
 70
     0
 62
     3
  6
CONTINUOUS
  0
LAYER
  5
BE0
330
2
100
AcDbSymbolTableRecord
100
AcDbLayerTableRecord
  2
DEFPOINTS
 70
     0
 62
     7
  6
CONTINUOUS
  0
LAYER
  5
14FF
330
2
100
AcDbSymbolTableRecord
100
AcDbLayerTableRecord
  2
AM_6
 70
     0
 62
     2
  6
CONTINUOUS
  0
ENDTAB
  0
TABLE
  2
STYLE
  5
3
330
0
100
AcDbSymbolTable
 70
     5
  0
STYLE
  5
11
330
3
100
AcDbSymbolTableRecord
100
AcDbTextStyleTableRecord
  2
STANDARD
 70
     0
 40
0.0
 41
1.0
 50
0.0
 71
     0
 42
2.5
  3
simplex.shx
  4
EXTFONT.SHX
  0
STYLE
  5
52
330
3
100
AcDbSymbolTableRecord
100
AcDbTextStyleTableRecord
  2

 70
     1
 40
0.0
 41
1.0
 50
0.0
 71
     0
 42
2.5
  3
ltypeshp.shx
  4

  0
STYLE
  5
6B
330
3
100
AcDbSymbolTableRecord
100
AcDbTextStyleTableRecord
  2
ASAMI
 70
     0
 40
0.0
 41
1.0
 50
0.0
 71
     0
 42
2.5
  3
simplex.shx
  4
EXTFONT.SHX
  0
STYLE
  5
262
330
3
100
AcDbSymbolTableRecord
100
AcDbTextStyleTableRecord
  2
ACJISTS
 70
     0
 40
1.0
 41
1.0
 50
0.0
 71
     0
 42
2.5
  3
simplex.shx
  4
bigfont.shx
  0
STYLE
  5
269
330
3
100
AcDbSymbolTableRecord
100
AcDbTextStyleTableRecord
  2
ACJISGDT
 70
     0
 40
0.0
 41
1.0
 50
0.0
 71
     0
 42
2.5
  3
amgdtans.shx
  4

  0
ENDTAB
  0
TABLE
  2
VIEW
  5
6
330
0
100
AcDbSymbolTable
 70
     0
  0
ENDTAB
  0
TABLE
  2
UCS
  5
7
330
0
100
AcDbSymbolTable
 70
     0
  0
ENDTAB
  0
TABLE
  2
APPID
  5
9
330
0
100
AcDbSymbolTable
 70
    13
  0
APPID
  5
12
330
9
100
AcDbSymbolTableRecord
100
AcDbRegAppTableRecord
  2
ACAD
 70
     0
  0
APPID
  5
30
330
9
100
AcDbSymbolTableRecord
100
AcDbRegAppTableRecord
  2
MCAD_NO_VIS
 70
     0
  0
APPID
  5
31
330
9
100
AcDbSymbolTableRecord
100
AcDbRegAppTableRecord
  2
ACAD_TEMP_GRAPHIC
 70
     0
  0
APPID
  5
2C2
330
9
100
AcDbSymbolTableRecord
100
AcDbRegAppTableRecord
  2
GENIUS_GENDTOL_13
 70
     0
  0
APPID
  5
339
330
9
100
AcDbSymbolTableRecord
100
AcDbRegAppTableRecord
  2
GENIUS_GENODEF_13
 70
     0
  0
APPID
  5
33A
330
9
100
AcDbSymbolTableRecord
100
AcDbRegAppTableRecord
  2
GENIUS_GENOBJ-N-RSBK_13
 70
     0
  0
APPID
  5
33B
330
9
100
AcDbSymbolTableRecord
100
AcDbRegAppTableRecord
  2
GENIUS_GENOBJ-N-LIB_13
 70
     0
  0
APPID
  5
33C
330
9
100
AcDbSymbolTableRecord
100
AcDbRegAppTableRecord
  2
GENIUS_GENSCALE_13
 70
     0
  0
APPID
  5
378
330
9
100
AcDbSymbolTableRecord
100
AcDbRegAppTableRecord
  2
GENIUS_GENDIMSH_14
 70
     0
  0
APPID
  5
BE1
330
9
100
AcDbSymbolTableRecord
100
AcDbRegAppTableRecord
  2
GENIUS_GENFIL_13
 70
     0
  0
APPID
  5
BE2
330
9
100
AcDbSymbolTableRecord
100
AcDbRegAppTableRecord
  2
GENIUS_GENOBJ-N-CHA_13
 70
     0
  0
APPID
  5
151B
330
9
100
AcDbSymbolTableRecord
100
AcDbRegAppTableRecord
  2
DCO15
 70
     0
  0
APPID
  5
1860
330
9
100
AcDbSymbolTableRecord
100
AcDbRegAppTableRecord
  2
GENIUS_GENOBJ-N-CEN_13
 70
     0
  0
ENDTAB
  0
TABLE
  2
DIMSTYLE
  5
A
330
0
100
AcDbSymbolTable
 70
     8
  0
DIMSTYLE
105
58
102
{ACAD_REACTORS
330
10F0
330
12D8
330
1A73
330
9D49
102
}
330
A
100
AcDbSymbolTableRecord
100
AcDbDimStyleTableRecord
  2
AM_JIS
 70
     0
  3

  4
"
  5
OPEN30
  6

  7

 40
0.5
 41
2.5
 42
1.0
 43
12.0
 44
1.0
 45
0.0
 46
0.0
 47
0.1
 48
0.1
140
3.2
141
0.0
142
0.0
143
0.0393701
144
1.0
145
0.0
146
0.71
147
1.5
 71
     0
 72
     0
 73
     0
 74
     0
 75
     0
 76
     0
 77
     3
 78
     8
170
     0
171
     2
172
     1
173
     0
174
     0
175
     0
176
   256
177
   256
178
     2
270
     2
271
     3
272
     3
273
     2
274
     2
340
6B
275
     0
280
     0
281
     0
282
     0
283
     0
284
     0
285
     0
286
     0
287
     3
288
     0
  0
DIMSTYLE
105
5F
330
A
100
AcDbSymbolTableRecord
100
AcDbDimStyleTableRecord
  2
AM_JIS$3
 70
     0
  3

  4
"
  5
OPEN30
  6

  7

 40
0.5
 41
2.5
 42
1.0
 43
10.0
 44
1.0
 45
0.0
 46
0.0
 47
0.1
 48
0.1
140
3.2
141
0.0
142
0.0
143
0.0393701
144
1.0
145
0.0
146
0.71
147
1.5
 71
     0
 72
     0
 73
     0
 74
     1
 75
     0
 76
     0
 77
     3
 78
     8
170
     0
171
     2
172
     0
173
     0
174
     0
175
     0
176
   256
177
   256
178
     2
270
     2
271
     2
272
     3
273
     2
274
     2
340
6B
275
     0
280
     0
281
     0
282
     0
283
     0
284
     0
285
     0
286
     0
287
     0
288
     1
  0
DIMSTYLE
105
60
330
A
100
AcDbSymbolTableRecord
100
AcDbDimStyleTableRecord
  2
AM_JIS$4
 70
     0
  3

  4
"
  5
OPEN30
  6

  7

 40
0.5
 41
2.5
 42
1.0
 43
10.0
 44
1.0
 45
0.0
 46
0.0
 47
0.1
 48
0.1
140
3.2
141
0.0
142
0.0
143
0.0393701
144
1.0
145
0.0
146
0.71
147
1.5
 71
     0
 72
     0
 73
     0
 74
     1
 75
     0
 76
     0
 77
     3
 78
     8
170
     0
171
     2
172
     0
173
     0
174
     0
175
     0
176
   256
177
   256
178
     2
270
     2
271
     2
272
     3
273
     2
274
     2
340
6B
275
     0
280
     0
281
     0
282
     0
283
     0
284
     0
285
     0
286
     0
287
     0
288
     1
  0
DIMSTYLE
105
61
330
A
100
AcDbSymbolTableRecord
100
AcDbDimStyleTableRecord
  2
AM_JIS$6
 70
     0
  3

  4
"
  5
OPEN30
  6

  7

 40
0.5
 41
2.5
 42
1.0
 43
10.0
 44
1.0
 45
0.0
 46
0.0
 47
0.1
 48
0.1
140
3.2
141
0.0
142
0.0
143
0.0393701
144
1.0
145
0.0
146
0.71
147
1.5
 71
     0
 72
     0
 73
     0
 74
     0
 75
     0
 76
     0
 77
     0
 78
     8
170
     0
171
     2
172
     1
173
     0
174
     0
175
     0
176
   256
177
   256
178
     2
270
     2
271
     2
272
     2
273
     2
274
     2
340
6B
275
     0
280
     0
281
     0
282
     0
283
     0
284
     0
285
     0
286
     0
287
     3
288
     0
  0
DIMSTYLE
105
62
330
A
100
AcDbSymbolTableRecord
100
AcDbDimStyleTableRecord
  2
AM_JIS$7
 70
     0
  3

  4
"
  5
OPEN30
  6

  7

 40
0.5
 41
2.5
 42
1.0
 43
10.0
 44
1.0
 45
0.0
 46
0.0
 47
0.1
 48
0.1
140
3.2
141
0.0
142
0.0
143
0.0393701
144
1.0
145
0.0
146
0.71
147
1.5
 71
     0
 72
     0
 73
     0
 74
     0
 75
     0
 76
     0
 77
     3
 78
     8
170
     0
171
     2
172
     1
173
     0
174
     0
175
     0
176
   256
177
   256
178
     2
270
     2
271
     2
272
     3
273
     2
274
     2
340
6B
275
     0
280
     0
281
     0
282
     0
283
     0
284
     0
285
     0
286
     0
287
     3
288
     0
  0
DIMSTYLE
105
63
330
A
100
AcDbSymbolTableRecord
100
AcDbDimStyleTableRecord
  2
AM_JIS$SF
 70
     0
  3

  4
"
  5
OPEN30
  6

  7

 40
0.5
 41
2.5
 42
1.0
 43
10.0
 44
1.0
 45
0.0
 46
0.0
 47
0.1
 48
0.1
140
3.2
141
0.0
142
0.0
143
0.0393701
144
1.0
145
0.0
146
0.71
147
1.5
 71
     0
 72
     0
 73
     0
 74
     0
 75
     1
 76
     1
 77
     3
 78
     8
170
     0
171
     2
172
     1
173
     0
174
     0
175
     0
176
   256
177
   256
178
     2
270
     2
271
     2
272
     2
273
     2
274
     2
340
6B
275
     0
280
     0
281
     0
282
     0
283
     0
284
     0
285
     0
286
     0
287
     3
288
     0
  0
DIMSTYLE
105
68
330
A
100
AcDbSymbolTableRecord
100
AcDbDimStyleTableRecord
  2
AM_JIS$SH
 70
     0
  3

  4
"
  5

  6
GENAXEH
  7
OPEN30
 40
0.5
 41
2.5
 42
1.0
 43
10.0
 44
1.0
 45
0.0
 46
0.0
 47
0.1
 48
0.1
140
3.2
141
0.0
142
0.0
143
0.0393701
144
2.0
145
0.0
146
0.71
147
1.5
 71
     0
 72
     0
 73
     0
 74
     0
 75
     1
 76
     1
 77
     3
 78
     8
170
     0
171
     2
172
     1
173
     1
174
     0
175
     0
176
   256
177
   256
178
     2
270
     2
271
     2
272
     2
273
     2
274
     2
340
6B
275
     0
280
     0
281
     0
282
     0
283
     0
284
     0
285
     0
286
     0
287
     3
288
     0
  0
DIMSTYLE
105
B34
330
A
100
AcDbSymbolTableRecord
100
AcDbDimStyleTableRecord
  2
AM_JIS$2
 70
     0
  3

  4
"
  5
OPEN30
  6

  7

 40
0.5
 41
2.5
 42
1.0
 43
12.0
 44
1.0
 45
0.0
 46
0.0
 47
0.1
 48
0.1
140
3.2
141
0.0
142
0.0
143
0.0393701
144
1.0
145
0.0
146
0.71
147
1.5
 71
     0
 72
     0
 73
     0
 74
     0
 75
     0
 76
     0
 77
     3
 78
     8
170
     0
171
     2
172
     1
173
     0
174
     0
175
     0
176
   256
177
   256
178
     2
270
     2
271
     3
272
     3
273
     2
274
     2
340
6B
275
     0
280
     0
281
     0
282
     0
283
     0
284
     0
285
     0
286
     0
287
     3
288
     0
  0
ENDTAB
  0
TABLE
  2
BLOCK_RECORD
  5
1
330
0
100
AcDbSymbolTable
 70
     9
  0
BLOCK_RECORD
  5
1F
102
{ACAD_XDICTIONARY
360
74
102
}
330
1
100
AcDbSymbolTableRecord
100
AcDbBlockTableRecord
  2
*MODEL_SPACE
  0
BLOCK_RECORD
  5
101
102
{ACAD_XDICTIONARY
360
9E93
102
}
330
1
100
AcDbSymbolTableRecord
100
AcDbBlockTableRecord
  2
*PAPER_SPACE
  0
BLOCK_RECORD
  5
59
330
1
100
AcDbSymbolTableRecord
100
AcDbBlockTableRecord
  2
_OPEN30
  0
BLOCK_RECORD
  5
64
330
1
100
AcDbSymbolTableRecord
100
AcDbBlockTableRecord
  2
GENAXEH
  0
BLOCK_RECORD
  5
10F1
330
1
100
AcDbSymbolTableRecord
100
AcDbBlockTableRecord
  2
*D5
  0
BLOCK_RECORD
  5
12D9
330
1
100
AcDbSymbolTableRecord
100
AcDbBlockTableRecord
  2
*D6
  0
BLOCK_RECORD
  5
1A74
330
1
100
AcDbSymbolTableRecord
100
AcDbBlockTableRecord
  2
*D7
  0
BLOCK_RECORD
  5
9D4A
330
1
100
AcDbSymbolTableRecord
100
AcDbBlockTableRecord
  2
*D8
  0
ENDTAB
  0
ENDSEC
  0
SECTION
  2
BLOCKS
  0
BLOCK
  5
20
330
1F
100
AcDbEntity
  8
0
100
AcDbBlockBegin
  2
*MODEL_SPACE
 70
     0
 10
0.0
 20
0.0
 30
0.0
  3
*MODEL_SPACE
  1

  0
ENDBLK
  5
21
330
1F
100
AcDbEntity
  8
0
100
AcDbBlockEnd
  0
BLOCK
  5
103
330
101
100
AcDbEntity
 67
     1
  8
0
100
AcDbBlockBegin
  2
*PAPER_SPACE
 70
     0
 10
0.0
 20
0.0
 30
0.0
  3
*PAPER_SPACE
  1

  0
ENDBLK
  5
104
330
101
100
AcDbEntity
 67
     1
  8
0
100
AcDbBlockEnd
  0
BLOCK
  5
5D
330
59
100
AcDbEntity
  8
0
100
AcDbBlockBegin
  2
_OPEN30
 70
     0
 10
0.0
 20
0.0
 30
0.0
  3
_OPEN30
  1

  0
LINE
  5
5A
330
59
100
AcDbEntity
  8
0
 62
     0
100
AcDbLine
 10
-1.0
 20
0.26794919
 30
0.0
 11
0.0
 21
0.0
 31
0.0
  0
LINE
  5
5B
330
59
100
AcDbEntity
  8
0
 62
     0
100
AcDbLine
 10
0.0
 20
0.0
 30
0.0
 11
-1.0
 21
-0.26794919
 31
0.0
  0
LINE
  5
5C
330
59
100
AcDbEntity
  8
0
 62
     0
100
AcDbLine
 10
0.0
 20
0.0
 30
0.0
 11
-1.0
 21
0.0
 31
0.0
  0
ENDBLK
  5
5E
330
59
100
AcDbEntity
  8
0
100
AcDbBlockEnd
  0
BLOCK
  5
66
330
64
100
AcDbEntity
  8
0
100
AcDbBlockBegin
  2
GENAXEH
 70
     0
 10
0.0
 20
0.0
 30
0.0
  3
GENAXEH
  1

  0
LINE
  5
65
330
64
100
AcDbEntity
  8
0
100
AcDbLine
 10
-1.0
 20
0.0
 30
0.0
 11
1.0
 21
0.0
 31
0.0
  0
ENDBLK
  5
67
330
64
100
AcDbEntity
  8
0
100
AcDbBlockEnd
  0
BLOCK
  5
10FB
330
10F1
100
AcDbEntity
  8
0
100
AcDbBlockBegin
  2
*D5
 70
     1
 10
0.0
 20
0.0
 30
0.0
  3
*D5
  1

  0
LINE
  5
9DAC
330
10F1
100
AcDbEntity
  8
AM_5
100
AcDbLine
 10
-65.0
 20
-5.000000000000021
 30
0.0
 11
-65.0
 21
-18.50000099999995
 31
0.0
  0
LINE
  5
9DAD
330
10F1
100
AcDbEntity
  8
AM_5
100
AcDbLine
 10
-0.0000000000012019
 20
-5.400000000000006
 30
0.0
 11
-0.0000000000012027
 21
-18.50000099999995
 31
0.0
  0
LINE
  5
9DAE
330
10F1
100
AcDbEntity
  8
AM_5
100
AcDbLine
 10
-63.75
 20
-18.00000099999995
 30
0.0
 11
-1.250000000001202
 21
-18.00000099999995
 31
0.0
  0
INSERT
  5
9DAF
330
10F1
100
AcDbEntity
  8
AM_5
100
AcDbBlockReference
  2
_OPEN30
 10
-65.0
 20
-18.00000099999995
 30
0.0
 41
1.25
 42
1.25
 43
1.25
 50
180.0
  0
INSERT
  5
9DB0
330
10F1
100
AcDbEntity
  8
AM_5
100
AcDbBlockReference
  2
_OPEN30
 10
-0.0000000000012027
 20
-18.00000099999995
 30
0.0
 41
1.25
 42
1.25
 43
1.25
  0
MTEXT
  5
9DB1
330
10F1
100
AcDbEntity
  8
AM_5
 62
     2
100
AcDbMText
 10
-32.5000000000006
 20
-16.45000099999995
 30
0.0
 40
1.6
 41
0.0
 71
     5
 72
     1
  1
65
  7
ASAMI
1001
ACAD
1000
MTEXTBEGIN
1070
    73
1070
     1
1070
    44
1040
1.0
1070
    74
1070
     0
1000
MTEXTEND
  0
POINT
  5
9DB2
330
10F1
100
AcDbEntity
  8
DEFPOINTS
 62
     0
100
AcDbPoint
 10
-65.0
 20
-4.500000000000021
 30
0.0
  0
POINT
  5
9DB3
330
10F1
100
AcDbEntity
  8
DEFPOINTS
 62
     0
100
AcDbPoint
 10
-0.0000000000012019
 20
-4.900000000000006
 30
0.0
  0
POINT
  5
9DB4
330
10F1
100
AcDbEntity
  8
DEFPOINTS
 62
     0
100
AcDbPoint
 10
-0.0000000000012027
 20
-18.00000099999995
 30
0.0
  0
ENDBLK
  5
10FC
330
10F1
100
AcDbEntity
  8
0
100
AcDbBlockEnd
  0
BLOCK
  5
12E5
330
12D9
100
AcDbEntity
  8
0
100
AcDbBlockBegin
  2
*D6
 70
     1
 10
0.0
 20
0.0
 30
0.0
  3
*D6
  1

  0
LINE
  5
9D87
330
12D9
100
AcDbEntity
  8
AM_5
100
AcDbLine
 10
0.0000000000000064
 20
-5.400000000000006
 30
0.0
 11
0.000000000000006
 21
-12.50000099999998
 31
0.0
  0
LINE
  5
9D88
330
12D9
100
AcDbEntity
  8
AM_5
100
AcDbLine
 10
-18.0
 20
-5.400000000000014
 30
0.0
 11
-18.0
 21
-12.50000099999998
 31
0.0
  0
LINE
  5
9D89
330
12D9
100
AcDbEntity
  8
AM_5
100
AcDbLine
 10
-1.249999999999994
 20
-12.00000099999998
 30
0.0
 11
-16.75
 21
-12.00000099999998
 31
0.0
  0
INSERT
  5
9D8A
330
12D9
100
AcDbEntity
  8
AM_5
100
AcDbBlockReference
  2
_OPEN30
 10
0.000000000000006
 20
-12.00000099999998
 30
0.0
 41
1.25
 42
1.25
 43
1.25
  0
INSERT
  5
9D8B
330
12D9
100
AcDbEntity
  8
AM_5
100
AcDbBlockReference
  2
_OPEN30
 10
-18.0
 20
-12.00000099999998
 30
0.0
 41
1.25
 42
1.25
 43
1.25
 50
180.0
  0
MTEXT
  5
9D8C
330
12D9
100
AcDbEntity
  8
AM_5
 62
     2
100
AcDbMText
 10
-8.999999999999996
 20
-10.45000099999998
 30
0.0
 40
1.6
 41
0.0
 71
     5
 72
     1
  1
18
  7
ASAMI
1001
ACAD
1000
MTEXTBEGIN
1070
    73
1070
     1
1070
    44
1040
1.0
1070
    74
1070
     0
1000
MTEXTEND
  0
POINT
  5
9D8D
330
12D9
100
AcDbEntity
  8
DEFPOINTS
 62
     0
100
AcDbPoint
 10
0.0000000000000064
 20
-4.900000000000006
 30
0.0
  0
POINT
  5
9D8E
330
12D9
100
AcDbEntity
  8
DEFPOINTS
 62
     0
100
AcDbPoint
 10
-18.0
 20
-4.900000000000014
 30
0.0
  0
POINT
  5
9D8F
330
12D9
100
AcDbEntity
  8
DEFPOINTS
 62
     0
100
AcDbPoint
 10
-18.0
 20
-12.00000099999998
 30
0.0
  0
ENDBLK
  5
12E6
330
12D9
100
AcDbEntity
  8
0
100
AcDbBlockEnd
  0
BLOCK
  5
1A7F
330
1A74
100
AcDbEntity
  8
0
100
AcDbBlockBegin
  2
*D7
 70
     1
 10
0.0
 20
0.0
 30
0.0
  3
*D7
  1

  0
LINE
  5
965B
330
1A74
100
AcDbEntity
  8
AM_5
100
AcDbLine
 10
-65.00000000000001
 20
4.999999999999981
 30
0.0
 11
-74.00000099999999
 21
4.999999999999984
 31
0.0
  0
LINE
  5
965C
330
1A74
100
AcDbEntity
  8
AM_5
100
AcDbLine
 10
-65.0
 20
-5.00000000000002
 30
0.0
 11
-74.00000099999999
 21
-5.000000000000016
 31
0.0
  0
LINE
  5
965D
330
1A74
100
AcDbEntity
  8
AM_5
100
AcDbLine
 10
-73.50000099999999
 20
3.749999999999984
 30
0.0
 11
-73.50000099999999
 21
-3.750000000000017
 31
0.0
  0
INSERT
  5
965E
330
1A74
100
AcDbEntity
  8
AM_5
100
AcDbBlockReference
  2
_OPEN30
 10
-73.50000099999999
 20
4.999999999999984
 30
0.0
 41
1.25
 42
1.25
 43
1.25
 50
90.0
  0
INSERT
  5
965F
330
1A74
100
AcDbEntity
  8
AM_5
100
AcDbBlockReference
  2
_OPEN30
 10
-73.50000099999999
 20
-5.000000000000017
 30
0.0
 41
1.25
 42
1.25
 43
1.25
 50
270.0
  0
MTEXT
  5
9660
330
1A74
100
AcDbEntity
  8
AM_5
 62
     2
100
AcDbMText
 10
-75.050001
 20
-0.0000000000000151
 30
0.0
 40
1.6
 41
0.0
 71
     5
 72
     1
  1
%%c10
  7
ASAMI
 11
0.0000000000000001
 21
1.0
 31
0.0
1001
ACAD
1000
MTEXTBEGIN
1070
    73
1070
     1
1070
    44
1040
1.0
1070
    74
1070
     0
1000
MTEXTEND
  0
POINT
  5
9661
330
1A74
100
AcDbEntity
  8
DEFPOINTS
 62
     0
100
AcDbPoint
 10
-64.50000000000001
 20
4.999999999999981
 30
0.0
  0
POINT
  5
9662
330
1A74
100
AcDbEntity
  8
DEFPOINTS
 62
     0
100
AcDbPoint
 10
-64.5
 20
-5.00000000000002
 30
0.0
  0
POINT
  5
9663
330
1A74
100
AcDbEntity
  8
DEFPOINTS
 62
     0
100
AcDbPoint
 10
-73.50000099999999
 20
-5.000000000000017
 30
0.0
  0
ENDBLK
  5
1A80
330
1A74
100
AcDbEntity
  8
0
100
AcDbBlockEnd
  0
BLOCK
  5
9D54
330
9D4A
100
AcDbEntity
  8
0
100
AcDbBlockBegin
  2
*D8
 70
     1
 10
0.0
 20
0.0
 30
0.0
  3
*D8
  1

  0
LINE
  5
9D6C
330
9D4A
100
AcDbEntity
  8
AM_5
100
AcDbLine
 10
0.4999999999999928
 20
4.899999999999997
 30
0.0
 11
9.551050680252144
 21
4.899999999999995
 31
0.0
  0
LINE
  5
9D6D
330
9D4A
100
AcDbEntity
  8
AM_5
100
AcDbLine
 10
0.5000000000000004
 20
-4.900000000000005
 30
0.0
 11
9.55105068025214
 21
-4.900000000000008
 31
0.0
  0
LINE
  5
9D6E
330
9D4A
100
AcDbEntity
  8
AM_5
100
AcDbLine
 10
9.051050680252142
 20
3.649999999999994
 30
0.0
 11
9.051050680252142
 21
-3.650000000000008
 31
0.0
  0
INSERT
  5
9D6F
330
9D4A
100
AcDbEntity
  8
AM_5
100
AcDbBlockReference
  2
_OPEN30
 10
9.051050680252144
 20
4.899999999999995
 30
0.0
 41
1.25
 42
1.25
 43
1.25
 50
90.0
  0
INSERT
  5
9D70
330
9D4A
100
AcDbEntity
  8
AM_5
100
AcDbBlockReference
  2
_OPEN30
 10
9.05105068025214
 20
-4.900000000000008
 30
0.0
 41
1.25
 42
1.25
 43
1.25
 50
270.0
  0
MTEXT
  5
9D71
330
9D4A
100
AcDbEntity
  8
AM_5
 62
     2
100
AcDbMText
 10
7.501050680252141
 20
-0.0000000000000052
 30
0.0
 40
1.6
 41
0.0
 71
     5
 72
     1
  1
%%c9.8
  7
ASAMI
 11
0.0000000000000001
 21
1.0
 31
0.0
1001
ACAD
1000
MTEXTBEGIN
1070
    73
1070
     1
1070
    44
1040
1.0
1070
    74
1070
     0
1000
MTEXTEND
  0
POINT
  5
9D72
330
9D4A
100
AcDbEntity
  8
DEFPOINTS
 62
     0
100
AcDbPoint
 10
-0.0000000000000074
 20
4.899999999999997
 30
0.0
  0
POINT
  5
9D73
330
9D4A
100
AcDbEntity
  8
DEFPOINTS
 62
     0
100
AcDbPoint
 10
0.0000000000000004
 20
-4.900000000000005
 30
0.0
  0
POINT
  5
9D74
330
9D4A
100
AcDbEntity
  8
DEFPOINTS
 62
     0
100
AcDbPoint
 10
9.05105068025214
 20
-4.900000000000008
 30
0.0
  0
ENDBLK
  5
9D55
330
9D4A
100
AcDbEntity
  8
0
100
AcDbBlockEnd
  0
ENDSEC
  0
SECTION
  2
ENTITIES
  0
LINE
  5
C2E
330
1F
100
AcDbEntity
  8
AM_7
  6
AM_ISO08W050X2
100
AcDbLine
 10
2.051049680252134
 20
0.0
 30
0.0
 11
-66.5
 21
-0.0000000000000194
 31
0.0
  0
DIMENSION
  5
10F0
330
1F
100
AcDbEntity
  8
AM_5
100
AcDbDimension
  2
*D5
 10
-0.0000000000012027
 20
-18.00000099999995
 30
0.0
 11
-32.5000000000006
 21
-16.45000099999995
 31
0.0
 70
    32
  1
<>
  3
AM_JIS
100
AcDbAlignedDimension
 13
-65.0
 23
-4.500000000000021
 33
0.0
 14
-0.0000000000012019
 24
-4.900000000000006
 34
0.0
 50
0.0000000000001132
100
AcDbRotatedDimension
1001
GENIUS_GENDTOL_13
1000

1000
h7
1000

1040
0.0
  0
DIMENSION
  5
12D8
330
1F
100
AcDbEntity
  8
AM_5
100
AcDbDimension
  2
*D6
 10
-18.0
 20
-12.00000099999998
 30
0.0
 11
-8.999999999999996
 21
-10.45000099999998
 31
0.0
 70
    32
  1
<>
  3
AM_JIS
100
AcDbAlignedDimension
 13
0.0000000000000064
 23
-4.900000000000006
 33
0.0
 14
-18.0
 24
-4.900000000000014
 34
0.0
 50
0.0000000000001132
100
AcDbRotatedDimension
1001
GENIUS_GENDTOL_13
1000

1000
h7
1000

1040
0.0
  0
TEXT
  5
1500
330
1F
100
AcDbEntity
  8
AM_6
100
AcDbText
 10
-40.7142857142863
 20
-29.25000099999995
 30
0.0
 40
2.5
  1
SSM2098
 72
     4
 11
-32.50000000000059
 21
-28.00000099999995
 31
0.0
100
AcDbText
  0
DIMENSION
  5
1A73
330
1F
100
AcDbEntity
  8
AM_5
100
AcDbDimension
  2
*D7
 10
-73.50000099999999
 20
-5.000000000000017
 30
0.0
 11
-73.50000099999999
 21
-0.0000000000000153
 31
0.0
 70
   160
  1
%%c<>
  3
AM_JIS
100
AcDbAlignedDimension
 13
-64.50000000000001
 23
4.999999999999981
 33
0.0
 14
-64.5
 24
-5.00000000000002
 34
0.0
 50
270.0
100
AcDbRotatedDimension
1001
GENIUS_GENDTOL_13
1000

1000
h7
1000

1040
0.0
  0
LINE
  5
87DC
330
1F
100
AcDbEntity
  8
AM_0
100
AcDbLine
 10
-65.0
 20
-4.500000000000021
 30
0.0
 11
-65.00000000000003
 21
4.49999999999998
 31
0.0
  0
LINE
  5
87DD
330
1F
100
AcDbEntity
  8
AM_0
100
AcDbLine
 10
-64.50000000000001
 20
4.999999999999981
 30
0.0
 11
-64.5
 21
-5.00000000000002
 31
0.0
  0
LINE
  5
87DE
330
1F
100
AcDbEntity
  8
AM_0
100
AcDbLine
 10
-64.50000000000002
 20
4.99999999999998
 30
0.0
 11
-29.50000000000002
 21
5.0
 31
0.0
  0
LINE
  5
87DF
330
1F
100
AcDbEntity
  8
AM_0
100
AcDbLine
 10
-64.5
 20
-5.000000000000021
 30
0.0
 11
-29.49999999999999
 21
-5.000000000000004
 31
0.0
  0
LINE
  5
8802
330
1F
100
AcDbEntity
  8
AM_0
100
AcDbLine
 10
-29.49999999999999
 20
-5.000000000000004
 30
0.0
 11
-29.50000000000002
 21
5.000000000000001
 31
0.0
  0
LINE
  5
888A
330
1F
100
AcDbEntity
  8
AM_0
100
AcDbLine
 10
-29.50000000000002
 20
5.000000000000001
 30
0.0
 11
-29.22525225805454
 21
4.899999999999995
 31
0.0
  0
LINE
  5
888C
330
1F
100
AcDbEntity
  8
AM_0
100
AcDbLine
 10
-29.22525225805456
 20
-4.900000000000016
 30
0.0
 11
-29.49999999999999
 21
-5.000000000000005
 31
0.0
  0
LINE
  5
8891
330
1F
100
AcDbEntity
  8
AM_0
100
AcDbLine
 10
-29.22525225805454
 20
4.899999999999994
 30
0.0
 11
-22.33191700368551
 21
4.899999999999995
 31
0.0
  0
LINE
  5
8892
330
1F
100
AcDbEntity
  8
AM_0
100
AcDbLine
 10
-29.22525225805451
 20
-4.900000000000001
 30
0.0
 11
-18.98634824378488
 21
-4.900000000000014
 31
0.0
  0
LINE
  5
96F8
330
1F
100
AcDbEntity
  8
AM_0
100
AcDbLine
 10
-29.22525225805453
 20
4.899999999999991
 30
0.0
 11
-29.22525225805455
 21
-4.900000000000014
 31
0.0
  0
LINE
  5
9D41
330
1F
100
AcDbEntity
  8
AM_0
100
AcDbLine
 10
-0.3222142583718237
 20
0.5880000000001275
 30
0.0
 11
-0.0000000000000004
 21
0.9799999999999972
 31
0.0
  0
LINE
  5
9D42
330
1F
100
AcDbEntity
  8
AM_0
100
AcDbLine
 10
-0.0000000000000004
 20
0.19600000000004
 30
0.0
 11
-2.262309341780936
 21
2.948284354077615
 31
0.0
  0
LINE
  5
9D43
330
1F
100
AcDbEntity
  8
AM_0
100
AcDbLine
 10
0.0000000000000064
 20
-4.900000000000004
 30
0.0
 11
-0.1008000000000111
 21
-4.638772334469226
 31
0.0
  0
LINE
  5
9D44
330
1F
100
AcDbEntity
  8
AM_0
100
AcDbLine
 10
-0.3599999999999937
 20
-3.996655780822898
 30
0.0
 11
-0.3599999999999937
 21
-3.943868322509915
 31
0.0
  0
LINE
  5
9D45
330
1F
100
AcDbEntity
  8
AM_0
100
AcDbLine
 10
-0.1008000000000111
 20
-4.638772334469226
 30
0.0
 11
-0.3599999999999937
 21
-3.996655780822898
 31
0.0
  0
LINE
  5
9D46
330
1F
100
AcDbEntity
  8
AM_0
100
AcDbLine
 10
0.0000000000000064
 20
-4.900000000000004
 30
0.0
 11
-0.0000000000000004
 21
0.19600000000004
 31
0.0
  0
LINE
  5
9D47
330
1F
100
AcDbEntity
  8
AM_0
100
AcDbLine
 10
-0.1008000000000111
 20
-4.638772334469226
 30
0.0
 11
-0.1008000000000179
 21
0.3186314446780973
 31
0.0
  0
LINE
  5
9D48
330
1F
100
AcDbEntity
  8
AM_0
100
AcDbLine
 10
-0.0000000000000004
 20
0.9799999999999972
 30
0.0
 11
-0.0000000000000072
 21
4.899999999999994
 31
0.0
  0
DIMENSION
  5
9D49
330
1F
100
AcDbEntity
  8
AM_5
100
AcDbDimension
  2
*D8
 10
9.05105068025214
 20
-4.900000000000008
 30
0.0
 11
7.501050680252141
 21
-0.0000000000000052
 31
0.0
 70
    32
  1
%%c<>
  3
AM_JIS
100
AcDbAlignedDimension
 13
-0.0000000000000074
 23
4.899999999999997
 33
0.0
 14
0.0000000000000004
 24
-4.900000000000005
 34
0.0
 50
90.00000000000005
100
AcDbRotatedDimension
1001
GENIUS_GENDTOL_13
1000

1000
h7
1000

1040
0.0
  0
LINE
  5
9D56
330
1F
100
AcDbEntity
  8
AM_0
100
AcDbLine
 10
-18.25489118742096
 20
2.910159639285797
 30
0.0
 11
-18.00000000000003
 21
2.102163720947481
 31
0.0
  0
LINE
  5
9D57
330
1F
100
AcDbEntity
  8
AM_0
100
AcDbLine
 10
-18.25489118742096
 20
2.910159639285797
 30
0.0
 11
-18.0
 21
3.613098727166228
 31
0.0
  0
LINE
  5
9D58
330
1F
100
AcDbEntity
  8
AM_11
100
AcDbLine
 10
-18.00000000000001
 20
4.899999999999979
 30
0.0
 11
-18.0
 21
-4.900000000000015
 31
0.0
  0
LINE
  5
9D59
330
1F
100
AcDbEntity
  8
AM_0
100
AcDbLine
 10
-20.25934079063628
 20
4.152070076874979
 30
0.0
 11
-2.262309341780936
 21
2.948284354077615
 31
0.0
  0
LINE
  5
9D5A
330
1F
100
AcDbEntity
  8
AM_11
100
AcDbLine
 10
-18.0
 20
-4.900000000000022
 30
0.0
 11
0.0000000000000064
 21
-4.900000000000004
 31
0.0
  0
LINE
  5
9D5B
330
1F
100
AcDbEntity
  8
AM_11
100
AcDbLine
 10
-0.0000000000008804
 20
4.899999999999994
 30
0.0
 11
-18.0
 21
4.899999999999997
 31
0.0
  0
ELLIPSE
  5
9D5C
330
1F
100
AcDbEntity
  8
AM_0
100
AcDbEllipse
 10
13.63849770468747
 20
0.0206165654742043
 30
0.0
 11
0.0000000000000147
 21
14.82986998211354
 31
0.0
210
0.0
220
0.0
230
1.0
 40
0.9795918367346978
 41
1.489874453283513
 42
1.841418545974974
  0
ELLIPSE
  5
9D5D
330
1F
100
AcDbEntity
  8
AM_0
100
AcDbEllipse
 10
-7.704747306605525
 20
-31.42329679304897
 30
0.0
 11
0.0000000000023388
 21
35.13418672890791
 31
0.0
210
0.0
220
0.0
230
1.0
 40
0.9795918367346953
 41
0.3037822040536975
 42
0.5892146392257432
  0
SPLINE
  5
9D5E
330
1F
100
AcDbEntity
  8
AM_0
100
AcDbSpline
210
0.0
220
0.0
230
1.0
 70
     8
 71
     3
 72
     8
 73
     4
 74
     0
 42
0.0000000001
 43
0.0000000001
 40
4.451443990518355
 40
4.451443990518355
 40
4.451443990518355
 40
4.451443990518355
 40
14.36247867694493
 40
14.36247867694493
 40
14.36247867694493
 40
14.36247867694493
 10
-20.25934079063628
 20
4.152070076874979
 30
0.0
 10
-15.28884519822641
 20
3.122607218142267
 30
0.0
 10
-12.36987059224513
 20
1.561303609071213
 30
0.0
 10
-9.450895986263642
 20
0.0000000000002104
 30
0.0
  0
SPLINE
  5
9D5F
330
1F
100
AcDbEntity
  8
AM_0
100
AcDbSpline
210
0.0
220
0.0
230
1.0
 70
     8
 71
     3
 72
     8
 73
     4
 74
     0
 42
0.0000000001
 43
0.0000000001
 40
0.0
 40
0.0
 40
0.0
 40
0.0
 40
7.57842115059705
 40
7.57842115059705
 40
7.57842115059705
 40
7.57842115059705
 10
-0.0000000000000072
 20
4.899999999999994
 30
0.0
 10
-2.425094768190763
 20
4.899999999999986
 30
0.0
 10
-4.733333683676034
 20
4.229826898062898
 30
0.0
 10
-6.985833590941481
 20
3.239988300797187
 30
0.0
  0
SPLINE
  5
9D60
330
1F
100
AcDbEntity
  8
AM_0
100
AcDbSpline
210
0.0
220
0.0
230
1.0
 70
     8
 71
     3
 72
     8
 73
     4
 74
     0
 42
0.0000000001
 43
0.0000000001
 40
10.71027982889745
 40
10.71027982889745
 40
10.71027982889745
 40
10.71027982889745
 40
14.43901837670146
 40
14.43901837670146
 40
14.43901837670146
 40
14.43901837670146
 10
-18.25489118742096
 20
2.910159639285797
 30
0.0
 10
-14.93313895376692
 20
2.154374287514055
 30
0.0
 10
-12.46956463421063
 20
0.6137443153400485
 30
0.0
 10
-11.38036916928511
 20
0.0000000000002104
 30
0.0
  0
SPLINE
  5
9D61
330
1F
100
AcDbEntity
  8
AM_0
100
AcDbSpline
210
0.0
220
0.0
230
1.0
 70
     8
 71
     3
 72
    11
 73
     7
 74
     0
 42
0.0000000001
 43
0.0000000001
 40
0.0
 40
0.0
 40
0.0
 40
0.0
 40
1.037570098098892
 40
2.540764468635414
 40
4.350499259578718
 40
5.367188341151578
 40
5.367188341151578
 40
5.367188341151578
 40
5.367188341151578
 10
-13.05599999999952
 20
-0.0000000000000145
 30
0.0
 10
-13.35639402431687
 20
0.1756766868343297
 30
0.0
 10
-14.0919881446316
 20
0.6058674611194843
 30
0.0
 10
-15.43796610005857
 20
1.163282077706401
 30
0.0
 10
-16.76995455270109
 20
1.734186631388204
 30
0.0
 10
-17.67440879262064
 20
2.005353183326628
 30
0.0
 10
-18.0
 20
2.10216372094747
 30
0.0
  0
SPLINE
  5
9D62
330
1F
100
AcDbEntity
  8
AM_0
100
AcDbSpline
210
0.0
220
0.0
230
1.0
 70
     8
 71
     3
 72
     8
 73
     4
 74
     0
 42
0.0000000001
 43
0.0000000001
 40
0.0
 40
0.0
 40
0.0
 40
0.0
 40
13.91039668737013
 40
13.91039668737013
 40
13.91039668737013
 40
13.91039668737013
 10
0.0000000000000064
 20
-4.900000000000006
 30
0.0
 10
-4.636798895790036
 20
-4.90000000000001
 30
0.0
 10
-8.846399447894974
 20
-2.45000000000001
 30
0.0
 10
-13.05599999999991
 20
-0.0000000000000109
 30
0.0
  0
SPLINE
  5
9D63
330
1F
100
AcDbEntity
  8
AM_0
100
AcDbSpline
210
0.0
220
0.0
230
1.0
 70
     8
 71
     3
 72
     8
 73
     4
 74
     0
 42
0.0000000001
 43
0.0000000001
 40
1.870660592686466
 40
1.870660592686466
 40
1.870660592686466
 40
1.870660592686466
 40
14.43901837670146
 40
14.43901837670146
 40
14.43901837670146
 40
14.43901837670146
 10
-0.100800000000011
 20
-4.638772334469228
 30
0.0
 10
-4.037726007579469
 20
-4.13746259985929
 30
0.0
 10
-7.709047588432295
 20
-2.068731299929653
 30
0.0
 10
-11.38036916928511
 20
0.0000000000002104
 30
0.0
  0
SPLINE
  5
9D64
330
1F
100
AcDbEntity
  8
AM_0
100
AcDbSpline
210
0.0
220
0.0
230
1.0
 70
     8
 71
     3
 72
     8
 73
     4
 74
     0
 42
0.0000000001
 43
0.0000000001
 40
4.219358800530717
 40
4.219358800530717
 40
4.219358800530717
 40
4.219358800530717
 40
14.36247867694493
 40
14.36247867694493
 40
14.36247867694493
 40
14.36247867694493
 10
-0.3599999999999937
 20
-3.996655780822676
 30
0.0
 10
-3.476240406614517
 20
-3.195728835854986
 30
0.0
 10
-6.463568196438864
 20
-1.59786441792739
 30
0.0
 10
-9.450895986263642
 20
0.0000000000002104
 30
0.0
  0
SPLINE
  5
9D65
330
1F
100
AcDbEntity
  8
AM_0
100
AcDbSpline
210
0.0
220
0.0
230
1.0
 70
     8
 71
     3
 72
     8
 73
     4
 74
     0
 42
0.0000000001
 43
0.0000000001
 40
0.0
 40
0.0
 40
0.0
 40
0.0
 40
2.483102710671974
 40
2.483102710671974
 40
2.483102710671974
 40
2.483102710671974
 10
-0.0000000000000072
 20
3.993208632950391
 30
0.0
 10
-0.5311366852828183
 20
3.345174332228114
 30
0.0
 10
-1.442802724527304
 20
3.06688432098596
 30
0.0
 10
-2.262309341780935
 20
2.948284354077615
 30
0.0
  0
ELLIPSE
  5
9D66
330
1F
100
AcDbEntity
  8
AM_0
100
AcDbEllipse
 10
-28.3911546539161
 20
-42.96765655558882
 30
0.0
 11
53.68130805089165
 21
0.0000000000010284
 31
0.0
210
0.0
220
0.0
230
1.0
 40
0.8974358974359208
 41
1.335202070543211
 42
1.457769200636253
  0
ELLIPSE
  5
9D67
330
1F
100
AcDbEntity
  8
AM_0
100
AcDbEllipse
 10
-14.59263184791835
 20
14.75907181845991
 30
0.0
 11
22.52654358671424
 21
0.0000000000001314
 31
0.0
210
0.0
220
0.0
230
1.0
 40
0.8974358974358983
 41
4.138060701929243
 42
4.404371243983322
  0
ELLIPSE
  5
9D68
330
1F
100
AcDbEntity
  8
AM_0
100
AcDbEllipse
 10
-17.79958299105317
 20
11.83045307405996
 30
0.0
 11
-18.07029275991197
 21
0.0089862203795693
 31
0.0
210
0.0
220
0.0
230
1.0
 40
0.8973380193518604
 41
1.047904571959605
 42
1.560151373557012
  0
ELLIPSE
  5
9D69
330
1F
100
AcDbEntity
  8
AM_0
100
AcDbEllipse
 10
-19.00830865204889
 20
1.245396159224097
 30
0.0
 11
6.847762361868627
 21
0.0000000000000202
 31
0.0
210
0.0
220
0.0
230
1.0
 40
0.8974358974358983
 41
4.352168791927677
 42
4.715595932485349
  0
ELLIPSE
  5
9D6A
330
1F
100
AcDbEntity
  8
AM_0
100
AcDbEllipse
 10
-18.95198496848183
 20
1.26398448817685
 30
0.0
 11
-6.848636174449493
 21
0.0199675423400835
 31
0.0
210
0.0
220
0.0
230
0.9999999999999998
 40
0.9000405011305847
 41
1.568402894699557
 42
2.008386834276957
  0
ELLIPSE
  5
9D6B
330
1F
100
AcDbEntity
  8
AM_0
100
AcDbEllipse
 10
-19.13640642419345
 20
41.32663586900485
 30
0.0
 11
-16.71066531590024
 21
42.72366064561513
 31
0.0
210
0.0
220
0.0
230
1.0
 40
0.9726601905321796
 41
2.784628065037024
 42
3.022781975531196
  0
LINE
  5
9DA7
330
1F
100
AcDbEntity
  8
AM_0
100
AcDbLine
 10
-64.50000000000002
 20
4.99999999999998
 30
0.0
 11
-65.00000000000003
 21
4.49999999999998
 31
0.0
1001
GENIUS_GENFIL_13
1070
     0
1040
0.5
1040
0.5
1040
20.0
1040
0.0
1002
{
1002
}
1001
GENIUS_GENODEF_13
1002
{
1000
HIER
1070
     0
1002
}
1002
{
1000
MANEDIT
1070
     0
1002
}
1002
{
1000
NOSEL
1070
     0
1002
}
1002
{
1000
BEHIND
1070
     0
1002
}
1002
{
1000
REACTOR
1002
}
1001
GENIUS_GENOBJ-N-CHA_13
1002
{
1000
OWNER
1000
GEN
1002
}
  0
LINE
  5
9DAA
330
1F
100
AcDbEntity
  8
AM_0
100
AcDbLine
 10
-65.0
 20
-4.500000000000021
 30
0.0
 11
-64.5
 21
-5.000000000000021
 31
0.0
1001
GENIUS_GENFIL_13
1070
     0
1040
0.5
1040
0.5
1040
20.0
1040
0.0
1002
{
1002
}
1001
GENIUS_GENODEF_13
1002
{
1000
HIER
1070
     0
1002
}
1002
{
1000
MANEDIT
1070
     0
1002
}
1002
{
1000
NOSEL
1070
     0
1002
}
1002
{
1000
BEHIND
1070
     0
1002
}
1002
{
1000
REACTOR
1002
}
1001
GENIUS_GENOBJ-N-CHA_13
1002
{
1000
OWNER
1000
GEN
1002
}
  0
VIEWPORT
  5
110
330
101
100
AcDbEntity
 67
     1
  8
0
100
AcDbViewport
 10
420.5
 20
297.0
 30
0.0
 40
948.9782706766916
 41
628.452
 68
     1
 69
     1
1001
ACAD
1000
MVIEW
1002
{
1070
    16
1010
0.0
1020
0.0
1030
0.0
1010
0.0
1020
0.0
1030
1.0
1040
0.0
1040
628.452
1040
420.5
1040
297.0
1040
50.0
1040
0.0
1040
0.0
1070
     0
1070
   100
1070
     1
1070
     1
1070
     0
1070
     0
1070
     0
1070
     0
1040
0.0
1040
0.0
1040
0.0
1040
10.0
1040
10.0
1040
10.0
1040
10.0
1070
     0
1002
{
1002
}
1002
}
  0
ENDSEC
  0
SECTION
  2
OBJECTS
  0
DICTIONARY
  5
C
330
0
100
AcDbDictionary
  3
ACAD_GROUP
350
D
  3
ACAD_LAYOUT
350
1A
  3
ACAD_MLINESTYLE
350
17
  3
ACAD_PLOTSETTINGS
350
19
  3
ACAD_PLOTSTYLENAME
350
E
  3
ACDBVARIABLEDICTIONARY
350
34
  3
ACMDICTIONARY
350
43
  3
AMG
350
2B
  3
AMGSNAPSETTINGS
350
6E
  3
ASE_INDEX_DICTIONARY
350
151A
  3
DWGPROPS
350
9E5F
  3
ACDBHEADERROUNDTRIPXREC
350
9E6B
  0
DICTIONARY
  5
74
330
1F
100
AcDbDictionary
280
     1
  3
ACAD_INDEX
360
9E61
  3
ACAD_LAYOUTSELFREF
360
9E8E
  0
DICTIONARY
  5
9E93
330
101
100
AcDbDictionary
280
     1
  3
ACAD_LAYOUTSELFREF
360
9E94
  0
DICTIONARY
  5
D
102
{ACAD_REACTORS
330
C
102
}
330
C
100
AcDbDictionary
  0
DICTIONARY
  5
1A
102
{ACAD_REACTORS
330
C
102
}
330
C
100
AcDbDictionary
  0
DICTIONARY
  5
17
102
{ACAD_REACTORS
330
C
102
}
330
C
100
AcDbDictionary
  3
STANDARD
350
18
  0
DICTIONARY
  5
19
102
{ACAD_REACTORS
330
C
102
}
330
C
100
AcDbDictionary
  0
ACDBDICTIONARYWDFLT
  5
E
102
{ACAD_REACTORS
330
C
102
}
330
C
100
AcDbDictionary
281
     1
  3
Normal
350
F
100
AcDbDictionaryWithDefault
340
F
  0
DICTIONARY
  5
34
102
{ACAD_REACTORS
330
C
102
}
330
C
100
AcDbDictionary
  3
INDEXCTL
350
35
  3
SORTENTS
350
B5E
  0
DICTIONARY
  5
43
102
{ACAD_REACTORS
330
C
102
}
330
C
100
AcDbDictionary
  3
ACMSTDDICTIONARY
350
260
  0
DICTIONARY
  5
2B
102
{ACAD_REACTORS
330
C
102
}
330
C
100
AcDbDictionary
  3
ACMGSETTINGS
350
2C
  0
DICTIONARY
  5
6E
102
{ACAD_REACTORS
330
C
102
}
330
C
100
AcDbDictionary
  0
DICTIONARY
  5
151A
102
{ACAD_REACTORS
330
C
102
}
330
C
100
AcDbDictionary
  3
ASEBLOCKHIERARCHYINDEXRECORD
350
151C
1001
DCO15
1040
1471862535.906
  0
XRECORD
  5
9E5F
102
{ACAD_REACTORS
330
C
102
}
330
C
100
AcDbXrecord
  1
DWGPROPS COOKIE
  2

  3

  4

  6

  7

  8

  9

300
AmdtFileType=82
301
=
302
=
303
=
304
=
305
=
306
=
307
=
308
=
309
=
 40
0.3589031597222222
 41
2452838.430434386
 42
2452845.389481516
  1

 90
        1
  0
DICTIONARY
  5
9E6B
102
{ACAD_REACTORS
330
C
102
}
330
C
100
AcDbDictionary
  3
TSTACKALIGN
350
9E6C
  3
TSTACKSIZE
350
9E6D
  3
HYPERLINKBASE
350
9E6E
  3
STYLESHEET
350
9E6F
  3
LAYOUTDICT
350
9E70
  3
PLOTSETDICT
350
9E71
  3
PLOTSTYLNAMDICT
350
9E72
  3
LWETCUNION
350
9E73
  3
INSUNITS
350
9E74
  3
CEPSNTYPE
350
9E75
  3
FINGERPRINTGUID
350
9E76
  3
VERSIONGUID
350
9E77
  3
PSVPSCALE
350
9E78
  3
DIMSTYLEDATA
350
9E79
  3
PUCSORTHOREF
350
9E7A
  3
PUCSORTHOVIEW
350
9E7B
  3
PUCSBASE
350
9E7C
  3
PUCSORGTOP
350
9E7D
  3
PUCSORGBOTTOM
350
9E7E
  3
PUCSORGLEFT
350
9E7F
  3
PUCSORGRIGHT
350
9E80
  3
PUCSORGFRONT
350
9E81
  3
PUCSORGBACK
350
9E82
  3
UCSORTHOREF
350
9E83
  3
UCSORTHOVIEW
350
9E84
  3
UCSBASE
350
9E85
  3
UCSORGTOP
350
9E86
  3
UCSORGBOTTOM
350
9E87
  3
UCSORGLEFT
350
9E88
  3
UCSORGRIGHT
350
9E89
  3
UCSORGFRONT
350
9E8A
  3
UCSORGBACK
350
9E8B
  0
DICTIONARY
  5
9E61
102
{ACAD_REACTORS
330
74
102
}
330
74
100
AcDbDictionary
  3
*A1
350
9E62
  0
XRECORD
  5
9E8E
102
{ACAD_REACTORS
330
74
102
}
330
74
100
AcDbXrecord
340
1F
  0
XRECORD
  5
9E94
102
{ACAD_REACTORS
330
9E93
102
}
330
9E93
100
AcDbXrecord
340
101
  0
MLINESTYLE
  5
18
102
{ACAD_REACTORS
330
17
102
}
330
17
100
AcDbMlineStyle
  2
STANDARD
 70
     0
  3

 62
   256
 51
90.0
 52
90.0
 71
     2
 49
0.5
 62
   256
  6
BYLAYER
 49
-0.5
 62
   256
  6
BYLAYER
  0
ACDBPLACEHOLDER
  5
F
102
{ACAD_REACTORS
330
E
102
}
330
E
100
AcDbPlaceHolder
280
     0
  0
DICTIONARYVAR
  5
35
102
{ACAD_REACTORS
330
34
102
}
330
34
100
DictionaryVariables
280
     0
  1
1
  0
DICTIONARYVAR
  5
B5E
102
{ACAD_REACTORS
330
34
102
}
330
34
100
DictionaryVariables
280
     0
  1
96
  0
DICTIONARY
  5
260
102
{ACAD_REACTORS
330
43
102
}
330
43
100
AcDbDictionary
  0
DICTIONARY
  5
2C
102
{ACAD_REACTORS
330
2B
102
}
330
2B
100
AcDbDictionary
  3
DWGSETTINGS
350
2D
  0
XRECORD
  5
151C
102
{ACAD_REACTORS
330
151A
102
}
330
151A
100
AcDbXrecord
330
0
330
0
330
0
330
0
330
0
330
0
330
0
330
0
  0
XRECORD
  5
9E6C
102
{ACAD_REACTORS
330
9E6B
102
}
330
9E6B
100
AcDbXrecord
 90
        1
  0
XRECORD
  5
9E6D
102
{ACAD_REACTORS
330
9E6B
102
}
330
9E6B
100
AcDbXrecord
 90
       70
  0
XRECORD
  5
9E6E
102
{ACAD_REACTORS
330
9E6B
102
}
330
9E6B
100
AcDbXrecord
  1

  0
XRECORD
  5
9E6F
102
{ACAD_REACTORS
330
9E6B
102
}
330
9E6B
100
AcDbXrecord
  1
ASAMI.ctb
  0
XRECORD
  5
9E70
102
{ACAD_REACTORS
330
9E6B
102
}
330
9E6B
100
AcDbXrecord
340
1A
  0
XRECORD
  5
9E71
102
{ACAD_REACTORS
330
9E6B
102
}
330
9E6B
100
AcDbXrecord
340
19
  0
XRECORD
  5
9E72
102
{ACAD_REACTORS
330
9E6B
102
}
330
9E6B
100
AcDbXrecord
340
E
  0
XRECORD
  5
9E73
102
{ACAD_REACTORS
330
9E6B
102
}
330
9E6B
100
AcDbXrecord
 90
    10781
  0
XRECORD
  5
9E74
102
{ACAD_REACTORS
330
9E6B
102
}
330
9E6B
100
AcDbXrecord
 90
        4
  0
XRECORD
  5
9E75
102
{ACAD_REACTORS
330
9E6B
102
}
330
9E6B
100
AcDbXrecord
 90
        0
  0
XRECORD
  5
9E76
102
{ACAD_REACTORS
330
9E6B
102
}
330
9E6B
100
AcDbXrecord
  1
{AFB28963-8C59-40AE-9337-C84526B81ACE}
  0
XRECORD
  5
9E77
102
{ACAD_REACTORS
330
9E6B
102
}
330
9E6B
100
AcDbXrecord
  1
{14062739-9530-4BCE-BE00-273948EFF6E0}
  0
XRECORD
  5
9E78
102
{ACAD_REACTORS
330
9E6B
102
}
330
9E6B
100
AcDbXrecord
 40
0.0
  0
XRECORD
  5
9E79
102
{ACAD_REACTORS
330
9E6B
102
}
330
9E6B
100
AcDbXrecord
1000
DSTYLE
1002
{
1070
    79
 70
     2
1070
   341
340
59
1070
   342
340
59
1070
   371
 70
    -1
1070
   372
 70
    -1
1002
}
  0
XRECORD
  5
9E7A
102
{ACAD_REACTORS
330
9E6B
102
}
330
9E6B
100
AcDbXrecord
340
0
  0
XRECORD
  5
9E7B
102
{ACAD_REACTORS
330
9E6B
102
}
330
9E6B
100
AcDbXrecord
 70
     0
  0
XRECORD
  5
9E7C
102
{ACAD_REACTORS
330
9E6B
102
}
330
9E6B
100
AcDbXrecord
340
0
  0
XRECORD
  5
9E7D
102
{ACAD_REACTORS
330
9E6B
102
}
330
9E6B
100
AcDbXrecord
 10
0.0
 20
0.0
 30
0.0
  0
XRECORD
  5
9E7E
102
{ACAD_REACTORS
330
9E6B
102
}
330
9E6B
100
AcDbXrecord
 10
0.0
 20
0.0
 30
0.0
  0
XRECORD
  5
9E7F
102
{ACAD_REACTORS
330
9E6B
102
}
330
9E6B
100
AcDbXrecord
 10
0.0
 20
0.0
 30
0.0
  0
XRECORD
  5
9E80
102
{ACAD_REACTORS
330
9E6B
102
}
330
9E6B
100
AcDbXrecord
 10
0.0
 20
0.0
 30
0.0
  0
XRECORD
  5
9E81
102
{ACAD_REACTORS
330
9E6B
102
}
330
9E6B
100
AcDbXrecord
 10
0.0
 20
0.0
 30
0.0
  0
XRECORD
  5
9E82
102
{ACAD_REACTORS
330
9E6B
102
}
330
9E6B
100
AcDbXrecord
 10
0.0
 20
0.0
 30
0.0
  0
XRECORD
  5
9E83
102
{ACAD_REACTORS
330
9E6B
102
}
330
9E6B
100
AcDbXrecord
340
0
  0
XRECORD
  5
9E84
102
{ACAD_REACTORS
330
9E6B
102
}
330
9E6B
100
AcDbXrecord
 70
     0
  0
XRECORD
  5
9E85
102
{ACAD_REACTORS
330
9E6B
102
}
330
9E6B
100
AcDbXrecord
340
0
  0
XRECORD
  5
9E86
102
{ACAD_REACTORS
330
9E6B
102
}
330
9E6B
100
AcDbXrecord
 10
0.0
 20
0.0
 30
0.0
  0
XRECORD
  5
9E87
102
{ACAD_REACTORS
330
9E6B
102
}
330
9E6B
100
AcDbXrecord
 10
0.0
 20
0.0
 30
0.0
  0
XRECORD
  5
9E88
102
{ACAD_REACTORS
330
9E6B
102
}
330
9E6B
100
AcDbXrecord
 10
0.0
 20
0.0
 30
0.0
  0
XRECORD
  5
9E89
102
{ACAD_REACTORS
330
9E6B
102
}
330
9E6B
100
AcDbXrecord
 10
0.0
 20
0.0
 30
0.0
  0
XRECORD
  5
9E8A
102
{ACAD_REACTORS
330
9E6B
102
}
330
9E6B
100
AcDbXrecord
 10
0.0
 20
0.0
 30
0.0
  0
XRECORD
  5
9E8B
102
{ACAD_REACTORS
330
9E6B
102
}
330
9E6B
100
AcDbXrecord
 10
0.0
 20
0.0
 30
0.0
  0
LAYER_INDEX
  5
9E62
102
{ACAD_REACTORS
330
9E61
102
}
330
9E61
100
AcDbIndex
 40
2453151.838381875
100
AcDbLayerIndex
  8
0
360
9E63
 90
        0
  8
AM_0
360
9E64
 90
       39
  8
AM_11
360
9E65
 90
        3
  8
AM_7
360
9E66
 90
        1
  8
AM_5
360
9E67
 90
        4
  8
Defpoints
360
9E68
 90
        0
  8
AM_6
360
9E69
 90
        1
  0
XRECORD
  5
2D
102
{ACAD_REACTORS
330
2C
102
}
330
2C
100
AcDbXrecord
  1
VERSION
140
15.0
  1
PRODUCT
  2
AutoCAD Mechanical 2000
  0
IDBUFFER
  5
9E63
330
0
100
AcDbIdBuffer
  0
IDBUFFER
  5
9E64
330
0
100
AcDbIdBuffer
330
9D47
330
9D48
330
9D56
330
9D57
330
9D59
330
9D5C
330
9D5D
330
9D5E
330
9D5F
330
9D60
330
9D61
330
9D62
330
9D63
330
9D64
330
9D65
330
9D66
330
9D67
330
9D68
330
9D69
330
9D6A
330
9D6B
330
9DA7
330
9DAA
330
87DC
330
87DD
330
87DE
330
87DF
330
8802
330
888A
330
888C
330
8891
330
8892
330
96F8
330
9D41
330
9D42
330
9D43
330
9D44
330
9D45
330
9D46
  0
IDBUFFER
  5
9E65
330
0
100
AcDbIdBuffer
330
9D58
330
9D5A
330
9D5B
  0
IDBUFFER
  5
9E66
330
0
100
AcDbIdBuffer
330
C2E
  0
IDBUFFER
  5
9E67
330
0
100
AcDbIdBuffer
330
10F0
330
12D8
330
1A73
330
9D49
  0
IDBUFFER
  5
9E68
330
0
100
AcDbIdBuffer
  0
IDBUFFER
  5
9E69
330
0
100
AcDbIdBuffer
330
1500
  0
ENDSEC
  0
EOF
