  0
SECTION
  2
HEADER
  9
$ACADVER
  1
AC1014
  9
$ACADMAINTVER
 70
     9
  9
$DWGCODEPAGE
  3
ANSI_932
  9
$INSBASE
 10
0.0
 20
0.0
 30
0.0
  9
$EXTMIN
 10
-80.85000099999998
 20
-30.25000099999994
 30
-0.00000001
  9
$EXTMAX
 10
9.551050680252144
 20
6.505730163621718
 30
0.00000001
  9
$LIMMIN
 10
-82.57659022646658
 20
-35.93449212410041
  9
$LIMMAX
 10
15.71603625346006
 20
25.06706814172577
  9
$ORTHOMODE
 70
     0
  9
$REGENMODE
 70
     1
  9
$FILLMODE
 70
     1
  9
$QTEXTMODE
 70
     0
  9
$MIRRTEXT
 70
     0
  9
$DRAGMODE
 70
     2
  9
$LTSCALE
 40
1.0
  9
$OSMODE
 70
    55
  9
$ATTMODE
 70
     1
  9
$TEXTSIZE
 40
2.5
  9
$TRACEWID
 40
1.0
  9
$TEXTSTYLE
  7
STANDARD
  9
$CLAYER
  8
AM_0
  9
$CELTYPE
  6
BYLAYER
  9
$CECOLOR
 62
   256
  9
$CELTSCALE
 40
1.0
  9
$DELOBJ
 70
     1
  9
$DISPSILH
 70
     0
  9
$DIMSCALE
 40
0.5
  9
$DIMASZ
 40
2.5
  9
$DIMEXO
 40
1.0
  9
$DIMDLI
 40
12.0
  9
$DIMRND
 40
0.0
  9
$DIMDLE
 40
0.0
  9
$DIMEXE
 40
1.0
  9
$DIMTP
 40
0.1
  9
$DIMTM
 40
0.1
  9
$DIMTXT
 40
3.2
  9
$DIMCEN
 40
0.0
  9
$DIMTSZ
 40
0.0
  9
$DIMTOL
 70
     0
  9
$DIMLIM
 70
     0
  9
$DIMTIH
 70
     0
  9
$DIMTOH
 70
     0
  9
$DIMSE1
 70
     0
  9
$DIMSE2
 70
     0
  9
$DIMTAD
 70
     3
  9
$DIMZIN
 70
     8
  9
$DIMBLK
  1
OPEN30
  9
$DIMASO
 70
     1
  9
$DIMSHO
 70
     1
  9
$DIMPOST
  1

  9
$DIMAPOST
  1
"
  9
$DIMALT
 70
     0
  9
$DIMALTD
 70
     2
  9
$DIMALTF
 40
0.0393701
  9
$DIMLFAC
 40
1.0
  9
$DIMTOFL
 70
     1
  9
$DIMTVP
 40
0.0
  9
$DIMTIX
 70
     0
  9
$DIMSOXD
 70
     0
  9
$DIMSAH
 70
     0
  9
$DIMBLK1
  1

  9
$DIMBLK2
  1

  9
$DIMSTYLE
  2
AM_JIS
  9
$DIMCLRD
 70
   256
  9
$DIMCLRE
 70
   256
  9
$DIMCLRT
 70
     2
  9
$DIMTFAC
 40
0.71
  9
$DIMGAP
 40
1.5
  9
$DIMJUST
 70
     0
  9
$DIMSD1
 70
     0
  9
$DIMSD2
 70
     0
  9
$DIMTOLJ
 70
     0
  9
$DIMTZIN
 70
     0
  9
$DIMALTZ
 70
     0
  9
$DIMALTTZ
 70
     0
  9
$DIMFIT
 70
     3
  9
$DIMUPT
 70
     0
  9
$DIMUNIT
 70
     2
  9
$DIMDEC
 70
     3
  9
$DIMTDEC
 70
     3
  9
$DIMALTU
 70
     2
  9
$DIMALTTD
 70
     2
  9
$DIMTXSTY
  7
ASAMI
  9
$DIMAUNIT
 70
     0
  9
$LUNITS
 70
     2
  9
$LUPREC
 70
     2
  9
$SKETCHINC
 40
1.0
  9
$FILLETRAD
 40
2.5
  9
$AUNITS
 70
     0
  9
$AUPREC
 70
     0
  9
$MENU
  1
.
  9
$ELEVATION
 40
0.0
  9
$PELEVATION
 40
0.0
  9
$THICKNESS
 40
0.0
  9
$LIMCHECK
 70
     0
  9
$BLIPMODE
 70
     0
  9
$CHAMFERA
 40
0.5
  9
$CHAMFERB
 40
0.5
  9
$CHAMFERC
 40
20.0
  9
$CHAMFERD
 40
0.0
  9
$SKPOLY
 70
     0
  9
$TDCREATE
 40
2452838.430434386
  9
$TDUPDATE
 40
2453151.840036458
  9
$TDINDWG
 40
0.3791660995
  9
$TDUSRTIMER
 40
0.3791660995
  9
$USRTIMER
 70
     1
  9
$ANGBASE
 50
0.0
  9
$ANGDIR
 70
     0
  9
$PDMODE
 70
     0
  9
$PDSIZE
 40
0.0
  9
$PLINEWID
 40
0.0
  9
$COORDS
 70
     1
  9
$SPLFRAME
 70
     0
  9
$SPLINETYPE
 70
     6
  9
$SPLINESEGS
 70
     8
  9
$ATTDIA
 70
     1
  9
$ATTREQ
 70
     1
  9
$HANDLING
 70
 12289
  9
$HANDSEED
  5
A4FD
  9
$SURFTAB1
 70
     6
  9
$SURFTAB2
 70
     6
  9
$SURFTYPE
 70
     6
  9
$SURFU
 70
     6
  9
$SURFV
 70
     6
  9
$UCSNAME
  2

  9
$UCSORG
 10
0.0
 20
0.0
 30
0.0
  9
$UCSXDIR
 10
1.0
 20
0.0
 30
0.0
  9
$UCSYDIR
 10
0.0
 20
1.0
 30
0.0
  9
$PUCSNAME
  2

  9
$PUCSORG
 10
0.0
 20
0.0
 30
0.0
  9
$PUCSXDIR
 10
1.0
 20
0.0
 30
0.0
  9
$PUCSYDIR
 10
0.0
 20
1.0
 30
0.0
  9
$USERI1
 70
     0
  9
$USERI2
 70
     0
  9
$USERI3
 70
     0
  9
$USERI4
 70
     0
  9
$USERI5
 70
     0
  9
$USERR1
 40
0.0
  9
$USERR2
 40
0.0
  9
$USERR3
 40
0.0
  9
$USERR4
 40
0.0
  9
$USERR5
 40
0.0
  9
$WORLDVIEW
 70
     1
  9
$SHADEDGE
 70
     3
  9
$SHADEDIF
 70
    70
  9
$TILEMODE
 70
     1
  9
$MAXACTVP
 70
    64
  9
$PINSBASE
 10
0.0
 20
0.0
 30
0.0
  9
$PLIMCHECK
 70
     0
  9
$PEXTMIN
 10
1.000000000000000E+20
 20
1.000000000000000E+20
 30
1.000000000000000E+20
  9
$PEXTMAX
 10
-1.000000000000000E+20
 20
-1.000000000000000E+20
 30
-1.000000000000000E+20
  9
$PLIMMIN
 10
0.0
 20
0.0
  9
$PLIMMAX
 10
841.0
 20
594.0
  9
$UNITMODE
 70
     0
  9
$VISRETAIN
 70
     1
  9
$PLINEGEN
 70
     0
  9
$PSLTSCALE
 70
     0
  9
$TREEDEPTH
 70
  3020
  9
$PICKSTYLE
 70
     0
  9
$CMLSTYLE
  2
STANDARD
  9
$CMLJUST
 70
     0
  9
$CMLSCALE
 40
20.0
  9
$PROXYGRAPHICS
 70
     1
  9
$MEASUREMENT
 70
     1
  0
ENDSEC
  0
SECTION
  2
CLASSES
  0
CLASS
  1
ACDBDICTIONARYWDFLT
  2
AcDbDictionaryWithDefault
  3
AutoCAD 2000
 90
        0
280
     0
281
     0
  0
CLASS
  1
ACDBPLACEHOLDER
  2
AcDbPlaceHolder
  3
AutoCAD 2000
 90
        0
280
     0
281
     0
  0
CLASS
  1
LAYOUT
  2
AcDbLayout
  3
AutoCAD 2000
 90
        0
280
     0
281
     0
  0
CLASS
  1
AMGSETTINGSOBJ
  2
AmgSettingsObj
  3
"AcadM|Product Description: AutoCAD Mechanical 2000|Company: Autodesk"
 90
        0
280
     0
281
     0
  0
CLASS
  1
ACME_DOCUMENT
  2
AcMeDbDoc
  3
AcMeServices
 90
        0
280
     0
281
     0
  0
CLASS
  1
ACMESCOPE
  2
AcMeScope
  3
AcMeServices
 90
        0
280
     0
281
     0
  0
CLASS
  1
ACMECOMMANDHISTORY
  2
AcMeCommandHistory
  3
AcMeServices
 90
        0
280
     0
281
     0
  0
CLASS
  1
DICTIONARYVAR
  2
AcDbDictionaryVar
  3
AutoCAD 2000
 90
        0
280
     0
281
     0
  0
CLASS
  1
ACIMSYSVARMAN
  2
AcImSysVarManager
  3
AcMeServices
 90
        0
280
     0
281
     0
  0
CLASS
  1
ACIMREALSYSVAR
  2
AcImRealSysVar
  3
AcMeServices
 90
        0
280
     0
281
     0
  0
CLASS
  1
ACIMINTSYSVAR
  2
AcImIntSysVar
  3
AcMeServices
 90
        0
280
     0
281
     0
  0
CLASS
  1
ACMEDRAWINGMAN
  2
AcMeDrawingMan
  3
AcMeServices
 90
        0
280
     0
281
     0
  0
CLASS
  1
ACMEVIEW
  2
AcMeView
  3
AcMeServices
 90
        0
280
     0
281
     0
  0
CLASS
  1
ACDBENTITYCACHE
  2
AcMeEntityCache
  3
AcMeServices
 90
        0
280
     0
281
     0
  0
CLASS
  1
GSMANAGER
  2
AcMeGSManager
  3
AcMeServices
 90
        0
280
     0
281
     0
  0
CLASS
  1
AmdtInternalReactor
  2
AmdtInternalReactor
  3
AcMeServices
 90
        0
280
     0
281
     0
  0
CLASS
  1
ACMESTATEMGR
  2
AcMeStateMgr
  3
AcMeServices
 90
        0
280
     0
281
     0
  0
CLASS
  1
ACME_DATABASE
  2
AcMeDbDatabase
  3
AcMeServices
 90
        0
280
     0
281
     0
  0
CLASS
  1
ACRFINSADJUSTERMGR
  2
AcRfInsAdjusterMgr
  3
AcMeServices
 90
        0
280
     0
281
     0
  0
CLASS
  1
ACMDATADICTIONARY
  2
AcmDataDictionary
  3
"AcmSymBB|Product Description: AutoCAD Mechanical 2000|Company: Autodesk"
 90
        0
280
     0
281
     0
  0
CLASS
  1
ACMDATAENTRYBLOCK
  2
AcmDataEntryBlock
  3
"AcmSymBB|Product Description: AutoCAD Mechanical 2000|Company: Autodesk"
 90
        0
280
     0
281
     0
  0
CLASS
  1
AMGOBJPROPCFG
  2
AmgObjPropCfg
  3
"AmgLay|Product Description: AutoCAD Mechanical 2000|Company: Autodesk"
 90
        1
280
     0
281
     0
  0
CLASS
  1
ACAMGFILTERDAT
  2
AcAmgFilterDat
  3
"AcadM|Product Description: AutoCAD Mechanical 2000|Company: Autodesk"
 90
        0
280
     0
281
     0
  0
CLASS
  1
LAYER_INDEX
  2
AcDbLayerIndex
  3
AutoCAD 2000
 90
        0
280
     0
281
     0
  0
CLASS
  1
IDBUFFER
  2
AcDbIdBuffer
  3
AutoCAD 2000
 90
        0
280
     0
281
     0
  0
CLASS
  1
ACIMSTRSYSVAR
  2
AcImStrSysVar
  3
AcMeServices
 90
        0
280
     0
281
     0
  0
CLASS
  1
ACMSTANDARDJIS
  2
AcmStandardJIS
  3
"AcmSymBB|Product Description: AutoCAD Mechanical 2000|Company: Autodesk"
 90
        0
280
     0
281
     0
  0
CLASS
  1
ACMSURFSTANDARDJIS
  2
AcmSurfTextStdJIS
  3
"AcmSymBB|Product Description: AutoCAD Mechanical 2000|Company: Autodesk"
 90
        0
280
     0
281
     0
  0
CLASS
  1
ACMFCFSTANDARDJIS
  2
AcmFCFStdJIS
  3
"AcmSymBB|Product Description: AutoCAD Mechanical 2000|Company: Autodesk"
 90
        0
280
     0
281
     0
  0
CLASS
  1
ACMWELDSTANDARDJIS
  2
AcmWeldingStdJIS
  3
"AcmSymBB|Product Description: AutoCAD Mechanical 2000|Company: Autodesk"
 90
        0
280
     0
281
     0
  0
CLASS
  1
ACMIDSTANDARDJIS
  2
AcmIdStdJIS
  3
"AcmSymBB|Product Description: AutoCAD Mechanical 2000|Company: Autodesk"
 90
        0
280
     0
281
     0
  0
CLASS
  1
ACMDATUMSTANDARDJIS
  2
AcmDatumStdJIS
  3
"AcmSymBB|Product Description: AutoCAD Mechanical 2000|Company: Autodesk"
 90
        0
280
     0
281
     0
  0
CLASS
  1
ACMBOMSTANDARDJIS
  2
AcmBOMStdJIS
  3
"AcmSymBB|Product Description: AutoCAD Mechanical 2000|Company: Autodesk"
 90
        0
280
     0
281
     0
  0
CLASS
  1
ACMSTANDARDANSI
  2
AcmStandardANSI
  3
"AcmSymBB|Product Description: AutoCAD Mechanical 2000|Company: Autodesk"
 90
        0
280
     0
281
     0
  0
CLASS
  1
ACMSURFSTANDARDANSI
  2
AcmSurfTextStdANSI
  3
"AcmSymBB|Product Description: AutoCAD Mechanical 2000|Company: Autodesk"
 90
        0
280
     0
281
     0
  0
CLASS
  1
ACMFCFSTANDARDANSI
  2
AcmFCFStdANSI
  3
"AcmSymBB|Product Description: AutoCAD Mechanical 2000|Company: Autodesk"
 90
        0
280
     0
281
     0
  0
CLASS
  1
ACMWELDSTANDARDANSI
  2
AcmWeldingStdANSI
  3
"AcmSymBB|Product Description: AutoCAD Mechanical 2000|Company: Autodesk"
 90
        0
280
     0
281
     0
  0
CLASS
  1
ACMIDSTANDARDANSI
  2
AcmIdStdANSI
  3
"AcmSymBB|Product Description: AutoCAD Mechanical 2000|Company: Autodesk"
 90
        0
280
     0
281
     0
  0
CLASS
  1
ACMDATUMSTANDARDANSI
  2
AcmDatumStdANSI
  3
"AcmSymBB|Product Description: AutoCAD Mechanical 2000|Company: Autodesk"
 90
        0
280
     0
281
     0
  0
CLASS
  1
ACMBOMSTANDARDANSI
  2
AcmBOMStdANSI
  3
"AcmSymBB|Product Description: AutoCAD Mechanical 2000|Company: Autodesk"
 90
        0
280
     0
281
     0
  0
CLASS
  1
ACMSTANDARDBSI
  2
AcmStandardBSI
  3
"AcmSymBB|Product Description: AutoCAD Mechanical 2000|Company: Autodesk"
 90
        0
280
     0
281
     0
  0
CLASS
  1
ACMSURFSTANDARDBSI
  2
AcmSurfTextStdBSI
  3
"AcmSymBB|Product Description: AutoCAD Mechanical 2000|Company: Autodesk"
 90
        0
280
     0
281
     0
  0
CLASS
  1
ACMFCFSTANDARDBSI
  2
AcmFCFStdBSI
  3
"AcmSymBB|Product Description: AutoCAD Mechanical 2000|Company: Autodesk"
 90
        0
280
     0
281
     0
  0
CLASS
  1
ACMWELDSTANDARDBSI
  2
AcmWeldingStdBSI
  3
"AcmSymBB|Product Description: AutoCAD Mechanical 2000|Company: Autodesk"
 90
        0
280
     0
281
     0
  0
CLASS
  1
ACMIDSTANDARDBSI
  2
AcmIdStdBSI
  3
"AcmSymBB|Product Description: AutoCAD Mechanical 2000|Company: Autodesk"
 90
        0
280
     0
281
     0
  0
CLASS
  1
ACMDATUMSTANDARDBSI
  2
AcmDatumStdBSI
  3
"AcmSymBB|Product Description: AutoCAD Mechanical 2000|Company: Autodesk"
 90
        0
280
     0
281
     0
  0
CLASS
  1
ACMBOMSTANDARDBSI
  2
AcmBOMStdBSI
  3
"AcmSymBB|Product Description: AutoCAD Mechanical 2000|Company: Autodesk"
 90
        0
280
     0
281
     0
  0
CLASS
  1
LONG_TRANSACTION
  2
AcDbLongTransaction
  3
AutoCAD 2000
 90
        0
280
     0
281
     0
  0
CLASS
  1
LWPOLYLINE
  2
AcDbPolyline
  3
AutoCAD 2000
 90
        0
280
     0
281
     1
  0
CLASS
  1
HATCH
  2
AcDbHatch
  3
AutoCAD 2000
 90
        0
280
     0
281
     1
  0
CLASS
  1
XRECORD
  2
AcDbXrecord
  3
AutoCAD 2000
 90
        0
280
     0
281
     0
  0
ENDSEC
  0
SECTION
  2
TABLES
  0
TABLE
  2
VPORT
  5
8
330
0
100
AcDbSymbolTable
 70
     3
  0
VPORT
  5
A4D2
330
8
100
AcDbSymbolTableRecord
100
AcDbViewportTableRecord
  2
*ACTIVE
 70
     0
 10
0.0
 20
0.0
 11
1.0
 21
1.0
 12
-35.41055620009208
 22
-17.94624952371924
 13
0.0
 23
0.0
 14
2.5
 24
2.5
 15
10.0
 25
10.0
 16
0.0
 26
0.0
 36
1.0
 17
0.0
 27
0.0
 37
0.0
 40
78.49914271548219
 41
1.56570841889117
 42
50.0
 43
0.0
 44
0.0
 50
0.0
 51
0.0
 71
     0
 72
   100
 73
     1
 74
     3
 75
     0
 76
     0
 77
     0
 78
     0
  0
ENDTAB
  0
TABLE
  2
LTYPE
  5
5
330
0
100
AcDbSymbolTable
 70
    10
  0
LTYPE
  5
14
330
5
100
AcDbSymbolTableRecord
100
AcDbLinetypeTableRecord
  2
BYBLOCK
 70
     0
  3

 72
    65
 73
     0
 40
0.0
  0
LTYPE
  5
15
330
5
100
AcDbSymbolTableRecord
100
AcDbLinetypeTableRecord
  2
BYLAYER
 70
     0
  3

 72
    65
 73
     0
 40
0.0
  0
LTYPE
  5
16
330
5
100
AcDbSymbolTableRecord
100
AcDbLinetypeTableRecord
  2
CONTINUOUS
 70
     0
  3
Solid line
 72
    65
 73
     0
 40
0.0
  0
LTYPE
  5
4B
330
5
100
AcDbSymbolTableRecord
100
AcDbLinetypeTableRecord
  2
AM_ISO02W050
 70
     0
  3
__ __ __ __ __ __ __ __ __ __ __ __ __ __ __
 72
    65
 73
     2
 40
7.5
 49
6.0
 74
     0
 49
-1.5
 74
     0
  0
LTYPE
  5
4C
330
5
100
AcDbSymbolTableRecord
100
AcDbLinetypeTableRecord
  2
AM_ISO08W050
 70
     0
  3
____ . ____ . ____ . ____ . ____ . ____ . ____
 72
    65
 73
     4
 40
18.0
 49
12.0
 74
     0
 49
-1.5
 74
     0
 49
3.0
 74
     0
 49
-1.5
 74
     0
  0
LTYPE
  5
4D
330
5
100
AcDbSymbolTableRecord
100
AcDbLinetypeTableRecord
  2
AM_ISO09W050
 70
     0
  3
_____ . . _____ . . _____ . . ____ .. ____
 72
    65
 73
     6
 40
22.5
 49
12.0
 74
     0
 49
-1.5
 74
     0
 49
3.0
 74
     0
 49
-1.5
 74
     0
 49
3.0
 74
     0
 49
-1.5
 74
     0
  0
LTYPE
  5
4E
330
5
100
AcDbSymbolTableRecord
100
AcDbLinetypeTableRecord
  2
AMCONSTR
 70
     0
  3
_______________________
 72
    65
 73
     2
 40
9999.0
 49
9999.0
 74
     0
 49
0.0
 74
     0
  0
LTYPE
  5
4F
330
5
100
AcDbSymbolTableRecord
100
AcDbLinetypeTableRecord
  2
AM_ISO02W050X2
 70
     0
  3
 _ _ _ _ _ _ _ _ _ _ _ _
 72
    65
 73
     2
 40
3.75
 49
3.0
 74
     0
 49
-0.75
 74
     0
  0
LTYPE
  5
50
330
5
100
AcDbSymbolTableRecord
100
AcDbLinetypeTableRecord
  2
AM_ISO08W050X2
 70
     0
  3
__ . __ . __ . __ . __ . __
 72
    65
 73
     4
 40
9.0
 49
6.0
 74
     0
 49
-0.75
 74
     0
 49
1.5
 74
     0
 49
-0.75
 74
     0
  0
LTYPE
  5
53
330
5
100
AcDbSymbolTableRecord
100
AcDbLinetypeTableRecord
  2
AMZIGZAG
 70
     0
  3
/\/-/\/-/\/-/\/-/\/-/\/
 72
    65
 73
     2
 40
11.00009999999999
 49
0.0001
 74
     4
 75
   135
340
52
 46
0.04
 50
0.0
 44
0.0
 45
0.0
 49
-11.0
 74
     0
  0
LTYPE
  5
166
330
5
100
AcDbSymbolTableRecord
100
AcDbLinetypeTableRecord
  2
ACJISTGL
 70
     0
  3
_ _ _ _ _
 72
    65
 73
     2
 40
3.0
 49
2.0
 74
     0
 49
-1.0
 74
     0
  0
LTYPE
  5
26A
330
5
100
AcDbSymbolTableRecord
100
AcDbLinetypeTableRecord
  2
ACJISTGB
 70
     0
  3
__ . . __ . .
 72
    65
 73
     6
 40
9.0
 49
4.0
 74
     0
 49
-1.0
 74
     0
 49
1.0
 74
     0
 49
-1.0
 74
     0
 49
1.0
 74
     0
 49
-1.0
 74
     0
  0
ENDTAB
  0
TABLE
  2
LAYER
  5
2
330
0
100
AcDbSymbolTable
 70
     7
  0
LAYER
  5
10
330
2
100
AcDbSymbolTableRecord
100
AcDbLayerTableRecord
  2
0
 70
     0
 62
     7
  6
CONTINUOUS
  0
LAYER
  5
3F9
330
2
100
AcDbSymbolTableRecord
100
AcDbLayerTableRecord
  2
AM_0
 70
     0
 62
     7
  6
CONTINUOUS
  0
LAYER
  5
BDD
330
2
100
AcDbSymbolTableRecord
100
AcDbLayerTableRecord
  2
AM_11
 70
     0
 62
     3
  6
AM_ISO09W050
  0
LAYER
  5
BDE
330
2
100
AcDbSymbolTableRecord
100
AcDbLayerTableRecord
  2
AM_7
 70
     0
 62
     4
  6
AM_ISO08W050
  0
LAYER
  5
BDF
330
2
100
AcDbSymbolTableRecord
100
AcDbLayerTableRecord
  2
AM_5
 70
     0
 62
     3
  6
CONTINUOUS
  0
LAYER
  5
BE0
330
2
100
AcDbSymbolTableRecord
100
AcDbLayerTableRecord
  2
DEFPOINTS
 70
     0
 62
     7
  6
CONTINUOUS
  0
LAYER
  5
14FF
330
2
100
AcDbSymbolTableRecord
100
AcDbLayerTableRecord
  2
AM_6
 70
     0
 62
     2
  6
CONTINUOUS
  0
ENDTAB
  0
TABLE
  2
STYLE
  5
3
330
0
100
AcDbSymbolTable
 70
     5
  0
STYLE
  5
11
330
3
100
AcDbSymbolTableRecord
100
AcDbTextStyleTableRecord
  2
STANDARD
 70
     0
 40
0.0
 41
1.0
 50
0.0
 71
     0
 42
2.5
  3
simplex.shx
  4
EXTFONT.SHX
  0
STYLE
  5
52
330
3
100
AcDbSymbolTableRecord
100
AcDbTextStyleTableRecord
  2

 70
     1
 40
0.0
 41
1.0
 50
0.0
 71
     0
 42
2.5
  3
ltypeshp.shx
  4

  0
STYLE
  5
6B
330
3
100
AcDbSymbolTableRecord
100
AcDbTextStyleTableRecord
  2
ASAMI
 70
     0
 40
0.0
 41
1.0
 50
0.0
 71
     0
 42
2.5
  3
simplex.shx
  4
EXTFONT.SHX
  0
STYLE
  5
262
330
3
100
AcDbSymbolTableRecord
100
AcDbTextStyleTableRecord
  2
ACJISTS
 70
     0
 40
1.0
 41
1.0
 50
0.0
 71
     0
 42
2.5
  3
simplex.shx
  4
bigfont.shx
  0
STYLE
  5
269
330
3
100
AcDbSymbolTableRecord
100
AcDbTextStyleTableRecord
  2
ACJISGDT
 70
     0
 40
0.0
 41
1.0
 50
0.0
 71
     0
 42
2.5
  3
amgdtans.shx
  4

  0
ENDTAB
  0
TABLE
  2
VIEW
  5
6
330
0
100
AcDbSymbolTable
 70
     0
  0
ENDTAB
  0
TABLE
  2
UCS
  5
7
330
0
100
AcDbSymbolTable
 70
     0
  0
ENDTAB
  0
TABLE
  2
APPID
  5
9
330
0
100
AcDbSymbolTable
 70
    13
  0
APPID
  5
12
330
9
100
AcDbSymbolTableRecord
100
AcDbRegAppTableRecord
  2
ACAD
 70
     0
  0
APPID
  5
30
330
9
100
AcDbSymbolTableRecord
100
AcDbRegAppTableRecord
  2
MCAD_NO_VIS
 70
     0
  0
APPID
  5
31
330
9
100
AcDbSymbolTableRecord
100
AcDbRegAppTableRecord
  2
ACAD_TEMP_GRAPHIC
 70
     0
  0
APPID
  5
2C2
330
9
100
AcDbSymbolTableRecord
100
AcDbRegAppTableRecord
  2
GENIUS_GENDTOL_13
 70
     0
  0
APPID
  5
339
330
9
100
AcDbSymbolTableRecord
100
AcDbRegAppTableRecord
  2
GENIUS_GENODEF_13
 70
     0
  0
APPID
  5
33A
330
9
100
AcDbSymbolTableRecord
100
AcDbRegAppTableRecord
  2
GENIUS_GENOBJ-N-RSBK_13
 70
     0
  0
APPID
  5
33B
330
9
100
AcDbSymbolTableRecord
100
AcDbRegAppTableRecord
  2
GENIUS_GENOBJ-N-LIB_13
 70
     0
  0
APPID
  5
33C
330
9
100
AcDbSymbolTableRecord
100
AcDbRegAppTableRecord
  2
GENIUS_GENSCALE_13
 70
     0
  0
APPID
  5
378
330
9
100
AcDbSymbolTableRecord
100
AcDbRegAppTableRecord
  2
GENIUS_GENDIMSH_14
 70
     0
  0
APPID
  5
BE1
330
9
100
AcDbSymbolTableRecord
100
AcDbRegAppTableRecord
  2
GENIUS_GENFIL_13
 70
     0
  0
APPID
  5
BE2
330
9
100
AcDbSymbolTableRecord
100
AcDbRegAppTableRecord
  2
GENIUS_GENOBJ-N-CHA_13
 70
     0
  0
APPID
  5
151B
330
9
100
AcDbSymbolTableRecord
100
AcDbRegAppTableRecord
  2
DCO15
 70
     0
  0
APPID
  5
1860
330
9
100
AcDbSymbolTableRecord
100
AcDbRegAppTableRecord
  2
GENIUS_GENOBJ-N-CEN_13
 70
     0
  0
ENDTAB
  0
TABLE
  2
DIMSTYLE
  5
A
330
0
100
AcDbSymbolTable
 70
     8
  0
DIMSTYLE
105
58
102
{ACAD_REACTORS
330
10F0
330
12D8
330
9EA4
330
A3F6
102
}
330
A
100
AcDbSymbolTableRecord
100
AcDbDimStyleTableRecord
  2
AM_JIS
 70
     0
  3

  4
"
  5
OPEN30
  6

  7

 40
0.5
 41
2.5
 42
1.0
 43
12.0
 44
1.0
 45
0.0
 46
0.0
 47
0.1
 48
0.1
140
3.2
141
0.0
142
0.0
143
0.0393701
144
1.0
145
0.0
146
0.71
147
1.5
 71
     0
 72
     0
 73
     0
 74
     0
 75
     0
 76
     0
 77
     3
 78
     8
170
     0
171
     2
172
     1
173
     0
174
     0
175
     0
176
   256
177
   256
178
     2
270
     2
271
     3
272
     3
273
     2
274
     2
340
6B
275
     0
280
     0
281
     0
282
     0
283
     0
284
     0
285
     0
286
     0
287
     3
288
     0
  0
DIMSTYLE
105
5F
330
A
100
AcDbSymbolTableRecord
100
AcDbDimStyleTableRecord
  2
AM_JIS$3
 70
     0
  3

  4
"
  5
OPEN30
  6

  7

 40
0.5
 41
2.5
 42
1.0
 43
10.0
 44
1.0
 45
0.0
 46
0.0
 47
0.1
 48
0.1
140
3.2
141
0.0
142
0.0
143
0.0393701
144
1.0
145
0.0
146
0.71
147
1.5
 71
     0
 72
     0
 73
     0
 74
     1
 75
     0
 76
     0
 77
     3
 78
     8
170
     0
171
     2
172
     0
173
     0
174
     0
175
     0
176
   256
177
   256
178
     2
270
     2
271
     2
272
     3
273
     2
274
     2
340
6B
275
     0
280
     0
281
     0
282
     0
283
     0
284
     0
285
     0
286
     0
287
     0
288
     1
  0
DIMSTYLE
105
60
330
A
100
AcDbSymbolTableRecord
100
AcDbDimStyleTableRecord
  2
AM_JIS$4
 70
     0
  3

  4
"
  5
OPEN30
  6

  7

 40
0.5
 41
2.5
 42
1.0
 43
10.0
 44
1.0
 45
0.0
 46
0.0
 47
0.1
 48
0.1
140
3.2
141
0.0
142
0.0
143
0.0393701
144
1.0
145
0.0
146
0.71
147
1.5
 71
     0
 72
     0
 73
     0
 74
     1
 75
     0
 76
     0
 77
     3
 78
     8
170
     0
171
     2
172
     0
173
     0
174
     0
175
     0
176
   256
177
   256
178
     2
270
     2
271
     2
272
     3
273
     2
274
     2
340
6B
275
     0
280
     0
281
     0
282
     0
283
     0
284
     0
285
     0
286
     0
287
     0
288
     1
  0
DIMSTYLE
105
61
330
A
100
AcDbSymbolTableRecord
100
AcDbDimStyleTableRecord
  2
AM_JIS$6
 70
     0
  3

  4
"
  5
OPEN30
  6

  7

 40
0.5
 41
2.5
 42
1.0
 43
10.0
 44
1.0
 45
0.0
 46
0.0
 47
0.1
 48
0.1
140
3.2
141
0.0
142
0.0
143
0.0393701
144
1.0
145
0.0
146
0.71
147
1.5
 71
     0
 72
     0
 73
     0
 74
     0
 75
     0
 76
     0
 77
     0
 78
     8
170
     0
171
     2
172
     1
173
     0
174
     0
175
     0
176
   256
177
   256
178
     2
270
     2
271
     2
272
     2
273
     2
274
     2
340
6B
275
     0
280
     0
281
     0
282
     0
283
     0
284
     0
285
     0
286
     0
287
     3
288
     0
  0
DIMSTYLE
105
62
330
A
100
AcDbSymbolTableRecord
100
AcDbDimStyleTableRecord
  2
AM_JIS$7
 70
     0
  3

  4
"
  5
OPEN30
  6

  7

 40
0.5
 41
2.5
 42
1.0
 43
10.0
 44
1.0
 45
0.0
 46
0.0
 47
0.1
 48
0.1
140
3.2
141
0.0
142
0.0
143
0.0393701
144
1.0
145
0.0
146
0.71
147
1.5
 71
     0
 72
     0
 73
     0
 74
     0
 75
     0
 76
     0
 77
     3
 78
     8
170
     0
171
     2
172
     1
173
     0
174
     0
175
     0
176
   256
177
   256
178
     2
270
     2
271
     2
272
     3
273
     2
274
     2
340
6B
275
     0
280
     0
281
     0
282
     0
283
     0
284
     0
285
     0
286
     0
287
     3
288
     0
  0
DIMSTYLE
105
63
330
A
100
AcDbSymbolTableRecord
100
AcDbDimStyleTableRecord
  2
AM_JIS$SF
 70
     0
  3

  4
"
  5
OPEN30
  6

  7

 40
0.5
 41
2.5
 42
1.0
 43
10.0
 44
1.0
 45
0.0
 46
0.0
 47
0.1
 48
0.1
140
3.2
141
0.0
142
0.0
143
0.0393701
144
1.0
145
0.0
146
0.71
147
1.5
 71
     0
 72
     0
 73
     0
 74
     0
 75
     1
 76
     1
 77
     3
 78
     8
170
     0
171
     2
172
     1
173
     0
174
     0
175
     0
176
   256
177
   256
178
     2
270
     2
271
     2
272
     2
273
     2
274
     2
340
6B
275
     0
280
     0
281
     0
282
     0
283
     0
284
     0
285
     0
286
     0
287
     3
288
     0
  0
DIMSTYLE
105
68
330
A
100
AcDbSymbolTableRecord
100
AcDbDimStyleTableRecord
  2
AM_JIS$SH
 70
     0
  3

  4
"
  5

  6
GENAXEH
  7
OPEN30
 40
0.5
 41
2.5
 42
1.0
 43
10.0
 44
1.0
 45
0.0
 46
0.0
 47
0.1
 48
0.1
140
3.2
141
0.0
142
0.0
143
0.0393701
144
2.0
145
0.0
146
0.71
147
1.5
 71
     0
 72
     0
 73
     0
 74
     0
 75
     1
 76
     1
 77
     3
 78
     8
170
     0
171
     2
172
     1
173
     1
174
     0
175
     0
176
   256
177
   256
178
     2
270
     2
271
     2
272
     2
273
     2
274
     2
340
6B
275
     0
280
     0
281
     0
282
     0
283
     0
284
     0
285
     0
286
     0
287
     3
288
     0
  0
DIMSTYLE
105
B34
330
A
100
AcDbSymbolTableRecord
100
AcDbDimStyleTableRecord
  2
AM_JIS$2
 70
     0
  3

  4
"
  5
OPEN30
  6

  7

 40
0.5
 41
2.5
 42
1.0
 43
12.0
 44
1.0
 45
0.0
 46
0.0
 47
0.1
 48
0.1
140
3.2
141
0.0
142
0.0
143
0.0393701
144
1.0
145
0.0
146
0.71
147
1.5
 71
     0
 72
     0
 73
     0
 74
     0
 75
     0
 76
     0
 77
     3
 78
     8
170
     0
171
     2
172
     1
173
     0
174
     0
175
     0
176
   256
177
   256
178
     2
270
     2
271
     3
272
     3
273
     2
274
     2
340
6B
275
     0
280
     0
281
     0
282
     0
283
     0
284
     0
285
     0
286
     0
287
     3
288
     0
  0
ENDTAB
  0
TABLE
  2
BLOCK_RECORD
  5
1
330
0
100
AcDbSymbolTable
 70
     9
  0
BLOCK_RECORD
  5
1F
102
{ACAD_XDICTIONARY
360
74
102
}
330
1
100
AcDbSymbolTableRecord
100
AcDbBlockTableRecord
  2
*MODEL_SPACE
  0
BLOCK_RECORD
  5
101
102
{ACAD_XDICTIONARY
360
A4FB
102
}
330
1
100
AcDbSymbolTableRecord
100
AcDbBlockTableRecord
  2
*PAPER_SPACE
  0
BLOCK_RECORD
  5
59
330
1
100
AcDbSymbolTableRecord
100
AcDbBlockTableRecord
  2
_OPEN30
  0
BLOCK_RECORD
  5
64
330
1
100
AcDbSymbolTableRecord
100
AcDbBlockTableRecord
  2
GENAXEH
  0
BLOCK_RECORD
  5
10F1
330
1
100
AcDbSymbolTableRecord
100
AcDbBlockTableRecord
  2
*D5
  0
BLOCK_RECORD
  5
12D9
330
1
100
AcDbSymbolTableRecord
100
AcDbBlockTableRecord
  2
*D6
  0
BLOCK_RECORD
  5
9EA5
330
1
100
AcDbSymbolTableRecord
100
AcDbBlockTableRecord
  2
*D7
  0
BLOCK_RECORD
  5
A3F7
330
1
100
AcDbSymbolTableRecord
100
AcDbBlockTableRecord
  2
*D8
  0
ENDTAB
  0
ENDSEC
  0
SECTION
  2
BLOCKS
  0
BLOCK
  5
20
330
1F
100
AcDbEntity
  8
0
100
AcDbBlockBegin
  2
*MODEL_SPACE
 70
     0
 10
0.0
 20
0.0
 30
0.0
  3
*MODEL_SPACE
  1

  0
ENDBLK
  5
21
330
1F
100
AcDbEntity
  8
0
100
AcDbBlockEnd
  0
BLOCK
  5
103
330
101
100
AcDbEntity
 67
     1
  8
0
100
AcDbBlockBegin
  2
*PAPER_SPACE
 70
     0
 10
0.0
 20
0.0
 30
0.0
  3
*PAPER_SPACE
  1

  0
ENDBLK
  5
104
330
101
100
AcDbEntity
 67
     1
  8
0
100
AcDbBlockEnd
  0
BLOCK
  5
5D
330
59
100
AcDbEntity
  8
0
100
AcDbBlockBegin
  2
_OPEN30
 70
     0
 10
0.0
 20
0.0
 30
0.0
  3
_OPEN30
  1

  0
LINE
  5
5A
330
59
100
AcDbEntity
  8
0
 62
     0
100
AcDbLine
 10
-1.0
 20
0.26794919
 30
0.0
 11
0.0
 21
0.0
 31
0.0
  0
LINE
  5
5B
330
59
100
AcDbEntity
  8
0
 62
     0
100
AcDbLine
 10
0.0
 20
0.0
 30
0.0
 11
-1.0
 21
-0.26794919
 31
0.0
  0
LINE
  5
5C
330
59
100
AcDbEntity
  8
0
 62
     0
100
AcDbLine
 10
0.0
 20
0.0
 30
0.0
 11
-1.0
 21
0.0
 31
0.0
  0
ENDBLK
  5
5E
330
59
100
AcDbEntity
  8
0
100
AcDbBlockEnd
  0
BLOCK
  5
66
330
64
100
AcDbEntity
  8
0
100
AcDbBlockBegin
  2
GENAXEH
 70
     0
 10
0.0
 20
0.0
 30
0.0
  3
GENAXEH
  1

  0
LINE
  5
65
330
64
100
AcDbEntity
  8
0
100
AcDbLine
 10
-1.0
 20
0.0
 30
0.0
 11
1.0
 21
0.0
 31
0.0
  0
ENDBLK
  5
67
330
64
100
AcDbEntity
  8
0
100
AcDbBlockEnd
  0
BLOCK
  5
10FB
330
10F1
100
AcDbEntity
  8
0
100
AcDbBlockBegin
  2
*D5
 70
     1
 10
0.0
 20
0.0
 30
0.0
  3
*D5
  1

  0
LINE
  5
A467
330
10F1
100
AcDbEntity
  8
AM_5
100
AcDbLine
 10
-70.0
 20
-6.000000000000026
 30
0.0
 11
-70.0
 21
-19.5001487250305
 31
0.0
  0
LINE
  5
A468
330
10F1
100
AcDbEntity
  8
AM_5
100
AcDbLine
 10
-0.0000000000012015
 20
-6.499999999996804
 30
0.0
 11
-0.0000000000012023
 21
-19.5001487250305
 31
0.0
  0
LINE
  5
A469
330
10F1
100
AcDbEntity
  8
AM_5
100
AcDbLine
 10
-68.75
 20
-19.0001487250305
 30
0.0
 11
-1.250000000001202
 21
-19.0001487250305
 31
0.0
  0
INSERT
  5
A46A
330
10F1
100
AcDbEntity
  8
AM_5
100
AcDbBlockReference
  2
_OPEN30
 10
-70.0
 20
-19.0001487250305
 30
0.0
 41
1.25
 42
1.25
 43
1.25
 50
180.0
  0
INSERT
  5
A46B
330
10F1
100
AcDbEntity
  8
AM_5
100
AcDbBlockReference
  2
_OPEN30
 10
-0.0000000000012023
 20
-19.0001487250305
 30
0.0
 41
1.25
 42
1.25
 43
1.25
  0
MTEXT
  5
A46C
330
10F1
100
AcDbEntity
  8
AM_5
 62
     2
100
AcDbMText
 10
-35.0000000000006
 20
-17.4501487250305
 30
0.0
 40
1.6
 41
0.0
 71
     5
 72
     1
  1
70
  7
ASAMI
1001
ACAD
1000
MTEXTBEGIN
1070
    73
1070
     1
1070
    44
1040
1.0
1070
    74
1070
     0
1000
MTEXTEND
  0
POINT
  5
A46D
330
10F1
100
AcDbEntity
  8
DEFPOINTS
 62
     0
100
AcDbPoint
 10
-70.0
 20
-5.500000000000026
 30
0.0
  0
POINT
  5
A46E
330
10F1
100
AcDbEntity
  8
DEFPOINTS
 62
     0
100
AcDbPoint
 10
-0.0000000000012015
 20
-5.999999999996804
 30
0.0
  0
POINT
  5
A46F
330
10F1
100
AcDbEntity
  8
DEFPOINTS
 62
     0
100
AcDbPoint
 10
-0.0000000000012023
 20
-19.0001487250305
 30
0.0
  0
ENDBLK
  5
10FC
330
10F1
100
AcDbEntity
  8
0
100
AcDbBlockEnd
  0
BLOCK
  5
12E5
330
12D9
100
AcDbEntity
  8
0
100
AcDbBlockBegin
  2
*D6
 70
     1
 10
0.0
 20
0.0
 30
0.0
  3
*D6
  1

  0
LINE
  5
A470
330
12D9
100
AcDbEntity
  8
AM_5
100
AcDbLine
 10
-0.0000000000012015
 20
-6.499999999996804
 30
0.0
 11
-0.000000000001202
 21
-13.50014872503053
 31
0.0
  0
LINE
  5
A471
330
12D9
100
AcDbEntity
  8
AM_5
100
AcDbLine
 10
-18.00000000000105
 20
-6.50000000000001
 30
0.0
 11
-18.00000000000105
 21
-13.50014872503053
 31
0.0
  0
LINE
  5
A472
330
12D9
100
AcDbEntity
  8
AM_5
100
AcDbLine
 10
-1.250000000001201
 20
-13.00014872503053
 30
0.0
 11
-16.75000000000105
 21
-13.00014872503053
 31
0.0
  0
INSERT
  5
A473
330
12D9
100
AcDbEntity
  8
AM_5
100
AcDbBlockReference
  2
_OPEN30
 10
-0.0000000000012019
 20
-13.00014872503053
 30
0.0
 41
1.25
 42
1.25
 43
1.25
  0
INSERT
  5
A474
330
12D9
100
AcDbEntity
  8
AM_5
100
AcDbBlockReference
  2
_OPEN30
 10
-18.00000000000105
 20
-13.00014872503053
 30
0.0
 41
1.25
 42
1.25
 43
1.25
 50
180.0
  0
MTEXT
  5
A475
330
12D9
100
AcDbEntity
  8
AM_5
 62
     2
100
AcDbMText
 10
-9.000000000001129
 20
-11.45014872503053
 30
0.0
 40
1.6
 41
0.0
 71
     5
 72
     1
  1
18
  7
ASAMI
1001
ACAD
1000
MTEXTBEGIN
1070
    73
1070
     1
1070
    44
1040
1.0
1070
    74
1070
     0
1000
MTEXTEND
  0
POINT
  5
A476
330
12D9
100
AcDbEntity
  8
DEFPOINTS
 62
     0
100
AcDbPoint
 10
-0.0000000000012015
 20
-5.999999999996804
 30
0.0
  0
POINT
  5
A477
330
12D9
100
AcDbEntity
  8
DEFPOINTS
 62
     0
100
AcDbPoint
 10
-18.00000000000105
 20
-6.00000000000001
 30
0.0
  0
POINT
  5
A478
330
12D9
100
AcDbEntity
  8
DEFPOINTS
 62
     0
100
AcDbPoint
 10
-18.00000000000105
 20
-13.00014872503053
 30
0.0
  0
ENDBLK
  5
12E6
330
12D9
100
AcDbEntity
  8
0
100
AcDbBlockEnd
  0
BLOCK
  5
9EAF
330
9EA5
100
AcDbEntity
  8
0
100
AcDbBlockBegin
  2
*D7
 70
     1
 10
0.0
 20
0.0
 30
0.0
  3
*D7
  1

  0
LINE
  5
A0AC
330
9EA5
100
AcDbEntity
  8
AM_5
100
AcDbLine
 10
-70.00000000000001
 20
5.999999999999976
 30
0.0
 11
-79.00000099999998
 21
5.999999999999979
 31
0.0
  0
LINE
  5
A0AD
330
9EA5
100
AcDbEntity
  8
AM_5
100
AcDbLine
 10
-70.0
 20
-6.000000000000024
 30
0.0
 11
-79.00000099999998
 21
-6.000000000000022
 31
0.0
  0
LINE
  5
A0AE
330
9EA5
100
AcDbEntity
  8
AM_5
100
AcDbLine
 10
-78.50000099999999
 20
4.749999999999979
 30
0.0
 11
-78.50000099999999
 21
-4.750000000000022
 31
0.0
  0
INSERT
  5
A0AF
330
9EA5
100
AcDbEntity
  8
AM_5
100
AcDbBlockReference
  2
_OPEN30
 10
-78.50000099999999
 20
5.999999999999979
 30
0.0
 41
1.25
 42
1.25
 43
1.25
 50
90.0
  0
INSERT
  5
A0B0
330
9EA5
100
AcDbEntity
  8
AM_5
100
AcDbBlockReference
  2
_OPEN30
 10
-78.50000099999999
 20
-6.000000000000022
 30
0.0
 41
1.25
 42
1.25
 43
1.25
 50
270.0
  0
MTEXT
  5
A0B1
330
9EA5
100
AcDbEntity
  8
AM_5
 62
     2
100
AcDbMText
 10
-80.05000099999998
 20
-0.0000000000000134
 30
0.0
 40
1.6
 41
0.0
 71
     5
 72
     1
  1
%%c12
  7
ASAMI
 11
0.0000000000000001
 21
1.0
 31
0.0
1001
ACAD
1000
MTEXTBEGIN
1070
    73
1070
     1
1070
    44
1040
1.0
1070
    74
1070
     0
1000
MTEXTEND
  0
POINT
  5
A0B2
330
9EA5
100
AcDbEntity
  8
DEFPOINTS
 62
     0
100
AcDbPoint
 10
-69.50000000000001
 20
5.999999999999976
 30
0.0
  0
POINT
  5
A0B3
330
9EA5
100
AcDbEntity
  8
DEFPOINTS
 62
     0
100
AcDbPoint
 10
-69.5
 20
-6.000000000000025
 30
0.0
  0
POINT
  5
A0B4
330
9EA5
100
AcDbEntity
  8
DEFPOINTS
 62
     0
100
AcDbPoint
 10
-78.50000099999999
 20
-6.000000000000022
 30
0.0
  0
ENDBLK
  5
9EB0
330
9EA5
100
AcDbEntity
  8
0
100
AcDbBlockEnd
  0
BLOCK
  5
A401
330
A3F7
100
AcDbEntity
  8
0
100
AcDbBlockBegin
  2
*D8
 70
     1
 10
0.0
 20
0.0
 30
0.0
  3
*D8
  1

  0
LINE
  5
A418
330
A3F7
100
AcDbEntity
  8
AM_5
100
AcDbLine
 10
0.4999999999999947
 20
5.999999999999996
 30
0.0
 11
9.551050680252144
 21
5.999999999999993
 31
0.0
  0
LINE
  5
A419
330
A3F7
100
AcDbEntity
  8
AM_5
100
AcDbLine
 10
0.4999999999991474
 20
-5.999999999999996
 30
0.0
 11
9.55105068025214
 21
-5.999999999999999
 31
0.0
  0
LINE
  5
A41A
330
A3F7
100
AcDbEntity
  8
AM_5
100
AcDbLine
 10
9.051050680252144
 20
4.749999999999993
 30
0.0
 11
9.05105068025214
 21
-4.749999999999999
 31
0.0
  0
INSERT
  5
A41B
330
A3F7
100
AcDbEntity
  8
AM_5
100
AcDbBlockReference
  2
_OPEN30
 10
9.051050680252144
 20
5.999999999999993
 30
0.0
 41
1.25
 42
1.25
 43
1.25
 50
90.0
  0
INSERT
  5
A41C
330
A3F7
100
AcDbEntity
  8
AM_5
100
AcDbBlockReference
  2
_OPEN30
 10
9.05105068025214
 20
-5.999999999999999
 30
0.0
 41
1.25
 42
1.25
 43
1.25
 50
270.0
  0
MTEXT
  5
A41D
330
A3F7
100
AcDbEntity
  8
AM_5
 62
     2
100
AcDbMText
 10
7.501050680252141
 20
-0.0000000000000013
 30
0.0
 40
1.6
 41
0.0
 71
     5
 72
     1
  1
%%c12
  7
ASAMI
 11
0.0000000000000001
 21
1.0
 31
0.0
1001
ACAD
1000
MTEXTBEGIN
1070
    73
1070
     1
1070
    44
1040
1.0
1070
    74
1070
     0
1000
MTEXTEND
  0
POINT
  5
A41E
330
A3F7
100
AcDbEntity
  8
DEFPOINTS
 62
     0
100
AcDbPoint
 10
-0.0000000000000053
 20
5.999999999999996
 30
0.0
  0
POINT
  5
A41F
330
A3F7
100
AcDbEntity
  8
DEFPOINTS
 62
     0
100
AcDbPoint
 10
-0.0000000000008527
 20
-5.999999999999996
 30
0.0
  0
POINT
  5
A420
330
A3F7
100
AcDbEntity
  8
DEFPOINTS
 62
     0
100
AcDbPoint
 10
9.05105068025214
 20
-5.999999999999999
 30
0.0
  0
ENDBLK
  5
A402
330
A3F7
100
AcDbEntity
  8
0
100
AcDbBlockEnd
  0
ENDSEC
  0
SECTION
  2
ENTITIES
  0
LINE
  5
C2E
330
1F
100
AcDbEntity
  8
AM_7
  6
AM_ISO08W050X2
100
AcDbLine
 10
2.051049680252134
 20
0.0
 30
0.0
 11
-71.5
 21
-0.0000000000000248
 31
0.0
  0
DIMENSION
  5
10F0
330
1F
100
AcDbEntity
  8
AM_5
100
AcDbDimension
  2
*D5
 10
-0.0000000000012023
 20
-19.0001487250305
 30
0.0
 11
-35.0000000000006
 21
-17.4501487250305
 31
0.0
 70
    32
  1
<>
  3
AM_JIS
100
AcDbAlignedDimension
 13
-70.0
 23
-5.500000000000026
 33
0.0
 14
-0.0000000000012015
 24
-5.999999999996804
 34
0.0
 50
0.0000000000001132
100
AcDbRotatedDimension
1001
GENIUS_GENDTOL_13
1000

1000
h7
1000

1040
0.0
  0
DIMENSION
  5
12D8
330
1F
100
AcDbEntity
  8
AM_5
100
AcDbDimension
  2
*D6
 10
-18.00000000000105
 20
-13.00014872503053
 30
0.0
 11
-9.000000000001129
 21
-11.45014872503053
 31
0.0
 70
    32
  1
<>
  3
AM_JIS
100
AcDbAlignedDimension
 13
-0.0000000000012015
 23
-5.999999999996804
 33
0.0
 14
-18.00000000000105
 24
-6.00000000000001
 34
0.0
 50
0.0000000000001132
100
AcDbRotatedDimension
1001
GENIUS_GENDTOL_13
1000

1000
h7
1000

1040
0.0
  0
TEXT
  5
1500
330
1F
100
AcDbEntity
  8
AM_6
100
AcDbText
 10
-42.97619047619107
 20
-30.25000099999994
 30
0.0
 40
2.5
  1
SSM2120
 72
     4
 11
-35.0000000000006
 21
-29.00000099999994
 31
0.0
100
AcDbText
  0
LINE
  5
9EA0
330
1F
100
AcDbEntity
  8
AM_0
100
AcDbLine
 10
-69.50000000000001
 20
5.999999999999975
 30
0.0
 11
-24.73065003824351
 21
6.000000000000009
 31
0.0
  0
LINE
  5
9EA1
330
1F
100
AcDbEntity
  8
AM_0
100
AcDbLine
 10
-69.5
 20
-6.000000000000026
 30
0.0
 11
-18.69074521278163
 21
-5.999999999999995
 31
0.0
  0
DIMENSION
  5
9EA4
330
1F
100
AcDbEntity
  8
AM_5
100
AcDbDimension
  2
*D7
 10
-78.50000099999999
 20
-6.000000000000022
 30
0.0
 11
-78.50000099999999
 21
-0.0000000000000136
 31
0.0
 70
   160
  1
%%c<>
  3
AM_JIS
100
AcDbAlignedDimension
 13
-69.50000000000001
 23
5.999999999999976
 33
0.0
 14
-69.5
 24
-6.000000000000025
 34
0.0
 50
270.0
100
AcDbRotatedDimension
1001
GENIUS_GENDTOL_13
1000

1000
h7
1000

1040
0.0
  0
LINE
  5
9EB1
330
1F
100
AcDbEntity
  8
AM_0
100
AcDbLine
 10
-70.0
 20
-5.500000000000026
 30
0.0
 11
-70.00000000000001
 21
5.499999999999975
 31
0.0
  0
LINE
  5
9EB2
330
1F
100
AcDbEntity
  8
AM_0
100
AcDbLine
 10
-69.50000000000001
 20
5.999999999999976
 30
0.0
 11
-69.5
 21
-6.000000000000025
 31
0.0
  0
LINE
  5
A3ED
330
1F
100
AcDbEntity
  8
AM_0
100
AcDbLine
 10
-0.3859858303412462
 20
0.7200000000001682
 30
0.0
 11
0.0
 21
1.199999999999994
 31
0.0
  0
LINE
  5
A3EE
330
1F
100
AcDbEntity
  8
AM_0
100
AcDbLine
 10
-0.4312499999999968
 20
-4.893864221415783
 30
0.0
 11
-0.4312499999999968
 21
-4.829226517359071
 31
0.0
  0
LINE
  5
A3EF
330
1F
100
AcDbEntity
  8
AM_0
100
AcDbLine
 10
0.0000000000000036
 20
-5.999999999999996
 30
0.0
 11
-0.120750000000017
 21
-5.680129389145981
 31
0.0
  0
LINE
  5
A3F0
330
1F
100
AcDbEntity
  8
AM_0
100
AcDbLine
 10
-0.120750000000017
 20
-5.680129389145981
 30
0.0
 11
-0.4312499999999968
 21
-4.893864221415783
 31
0.0
  0
ELLIPSE
  5
A3F1
330
1F
100
AcDbEntity
  8
AM_0
100
AcDbEllipse
 10
16.33778370874019
 20
0.025244774050057
 30
0.0
 11
-0.0000000000000918
 21
18.15902446789421
 31
0.0
210
0.0
220
0.0
230
1.0
 40
0.958333333333333
 41
1.489874453283507
 42
1.841418545974967
  0
LINE
  5
A3F2
330
1F
100
AcDbEntity
  8
AM_0
100
AcDbLine
 10
0.0000000000000036
 20
-5.999999999999996
 30
0.0
 11
0.0
 21
0.2400000000000598
 31
0.0
  0
LINE
  5
A3F3
330
1F
100
AcDbEntity
  8
AM_0
100
AcDbLine
 10
-0.120750000000017
 20
-5.680129389145981
 30
0.0
 11
-0.1207500000000206
 21
0.3901609526670684
 31
0.0
  0
LINE
  5
A3F4
330
1F
100
AcDbEntity
  8
AM_0
100
AcDbLine
 10
0.0
 20
0.2400000000000598
 30
0.0
 11
-2.710058065675074
 21
3.610144107033824
 31
0.0
  0
LINE
  5
A3F5
330
1F
100
AcDbEntity
  8
AM_0
100
AcDbLine
 10
0.0
 20
1.199999999999994
 30
0.0
 11
-0.0000000000000053
 21
5.999999999999996
 31
0.0
  0
DIMENSION
  5
A3F6
330
1F
100
AcDbEntity
  8
AM_5
100
AcDbDimension
  2
*D8
 10
9.05105068025214
 20
-5.999999999999999
 30
0.0
 11
7.501050680252141
 21
-0.0000000000000013
 31
0.0
 70
    32
  1
%%c<>
  3
AM_JIS
100
AcDbAlignedDimension
 13
-0.0000000000000053
 23
5.999999999999996
 33
0.0
 14
-0.0000000000008527
 24
-5.999999999999996
 34
0.0
 50
90.00000000000005
100
AcDbRotatedDimension
1001
GENIUS_GENDTOL_13
1000

1000
h7
1000

1040
0.0
  0
ELLIPSE
  5
A403
330
1F
100
AcDbEntity
  8
AM_0
100
AcDbEllipse
 10
-22.13761924379931
 20
61.94810629331922
 30
0.0
 11
-0.0000000000040358
 21
67.50882055167024
 31
0.0
210
0.0
220
0.0
230
1.0
 40
0.9583333333333186
 41
3.21721222925522
 42
3.357155841871524
  0
LINE
  5
A404
330
1F
100
AcDbEntity
  8
AM_11
100
AcDbLine
 10
-18.00000000000105
 20
5.999999999999996
 30
0.0
 11
-18.00000000000105
 21
-6.00000000000001
 31
0.0
  0
ELLIPSE
  5
A405
330
1F
100
AcDbEntity
  8
AM_0
100
AcDbEllipse
 10
-18.70005634360446
 20
1.52407931663587
 30
0.0
 11
-0.0000000000000166
 21
7.524085589821319
 31
0.0
210
0.0
220
0.0
230
1.0
 40
0.9583333333333342
 41
2.781362232984134
 42
3.142883968680304
  0
ELLIPSE
  5
A406
330
1F
100
AcDbEntity
  8
AM_0
100
AcDbEllipse
 10
-5.943260210685506
 20
39.58725487202892
 30
0.0
 11
-0.0000000000079655
 21
47.84597620014935
 31
0.0
210
0.0
220
0.0
230
1.0
 40
0.9583333333333449
 41
2.655229868663002
 42
2.801424427536023
  0
ELLIPSE
  5
A407
330
1F
100
AcDbEntity
  8
AM_0
100
AcDbEllipse
 10
3.375942709198593
 20
-67.50371869376256
 30
0.0
 11
-0.0000000000142575
 21
72.30369156067671
 31
0.0
210
0.0
220
0.0
230
1.0
 40
0.9583333333333147
 41
0.3136105178848547
 42
0.4598326322725664
  0
ELLIPSE
  5
A408
330
1F
100
AcDbEntity
  8
AM_0
100
AcDbEllipse
 10
-17.01451967286134
 20
17.94195180470545
 30
0.0
 11
0.0000000000002193
 21
23.31103457706837
 31
0.0
210
0.0
220
0.0
230
1.0
 40
0.9583333333333317
 41
2.659333301449033
 42
3.131051587643363
  0
ELLIPSE
  5
A409
330
1F
100
AcDbEntity
  8
AM_0
100
AcDbEllipse
 10
-28.29565874845819
 20
-39.50242964829485
 30
0.0
 11
0.0000000000007346
 21
45.65423935977542
 31
0.0
210
0.0
220
0.0
230
1.0
 40
0.9583333333333328
 41
-0.2635872382689322
 42
-0.0815726622040314
  0
LINE
  5
A40A
330
1F
100
AcDbEntity
  8
AM_0
100
AcDbLine
 10
-18.30533840159907
 20
2.524049748508963
 30
0.0
 11
-18.00000000000105
 21
3.384791488770725
 31
0.0
  0
LINE
  5
A40B
330
1F
100
AcDbEntity
  8
AM_0
100
AcDbLine
 10
-18.30533840159907
 20
2.524049748508963
 30
0.0
 11
-18.00000000000108
 21
1.273428666145354
 31
0.0
  0
ELLIPSE
  5
A40C
330
1F
100
AcDbEntity
  8
AM_0
100
AcDbEllipse
 10
-18.64541623011916
 20
1.572858393472149
 30
0.0
 11
-0.0000000000000517
 21
7.573006108502689
 31
0.0
210
0.0
220
0.0
230
1.0
 40
0.958333333333333
 41
3.135346769872644
 42
3.607862555263719
  0
LINE
  5
A40D
330
1F
100
AcDbEntity
  8
AM_0
100
AcDbLine
 10
-22.97624783850802
 20
4.97558794685277
 30
0.0
 11
-2.710058065675074
 21
3.610144107033824
 31
0.0
  0
LINE
  5
A40E
330
1F
100
AcDbEntity
  8
AM_11
100
AcDbLine
 10
-18.00000000000105
 20
-6.00000000000001
 30
0.0
 11
0.0000000000000036
 21
-5.999999999999996
 31
0.0
  0
LINE
  5
A40F
330
1F
100
AcDbEntity
  8
AM_11
100
AcDbLine
 10
-0.0000000000010498
 20
5.999999999999996
 30
0.0
 11
-18.00000000000105
 21
5.999999999999981
 31
0.0
  0
SPLINE
  5
A410
330
1F
100
AcDbEntity
  8
AM_0
100
AcDbSpline
210
0.0
220
0.0
230
1.0
 70
     8
 71
     3
 72
     8
 73
     4
 74
     0
 42
0.0000000001
 43
0.0000000001
 40
4.451443990518355
 40
4.451443990518355
 40
4.451443990518355
 40
4.451443990518355
 40
14.36247867694493
 40
14.36247867694493
 40
14.36247867694493
 40
14.36247867694493
 10
-22.97624783850809
 20
4.975587946852429
 30
0.0
 10
-18.31476247704205
 20
3.82360067527626
 30
0.0
 10
-14.81807414696031
 20
1.911800337638232
 30
0.0
 10
-11.32138581687831
 20
0.0000000000002706
 30
0.0
  0
SPLINE
  5
A411
330
1F
100
AcDbEntity
  8
AM_0
100
AcDbSpline
210
0.0
220
0.0
230
1.0
 70
     8
 71
     3
 72
     8
 73
     4
 74
     0
 42
0.0000000001
 43
0.0000000001
 40
12.94851199316644
 40
12.94851199316644
 40
12.94851199316644
 40
12.94851199316644
 40
14.48999654934388
 40
14.48999654934388
 40
14.48999654934388
 40
14.48999654934388
 10
-18.00000000000105
 20
1.273428666145243
 30
0.0
 10
-16.71292258334117
 20
0.6382960344796035
 30
0.0
 10
-16.17646129167053
 20
0.3191480172399296
 30
0.0
 10
-15.63999999999989
 20
0.0000000000002632
 30
0.0
  0
SPLINE
  5
A412
330
1F
100
AcDbEntity
  8
AM_0
100
AcDbSpline
210
0.0
220
0.0
230
1.0
 70
     8
 71
     3
 72
     8
 73
     4
 74
     0
 42
0.0000000001
 43
0.0000000001
 40
10.71027982889745
 40
10.71027982889745
 40
10.71027982889745
 40
10.71027982889745
 40
14.43901837670146
 40
14.43901837670146
 40
14.43901837670146
 40
14.43901837670146
 10
-18.30533840159907
 20
2.524049748508963
 30
0.0
 10
-16.24226470209019
 20
1.503047302873331
 30
0.0
 10
-14.93749930139816
 20
0.7515236514367972
 30
0.0
 10
-13.63273390070612
 20
0.0000000000002632
 30
0.0
  0
SPLINE
  5
A413
330
1F
100
AcDbEntity
  8
AM_0
100
AcDbSpline
210
0.0
220
0.0
230
1.0
 70
     8
 71
     3
 72
     8
 73
     4
 74
     0
 42
0.0000000001
 43
0.0000000001
 40
1.870660592686466
 40
1.870660592686466
 40
1.870660592686466
 40
1.870660592686466
 40
14.43901837670146
 40
14.43901837670146
 40
14.43901837670146
 40
14.43901837670146
 10
-0.120750000000017
 20
-5.680129389145981
 30
0.0
 10
-4.836859279912909
 20
-5.066280734521573
 30
0.0
 10
-9.234796590309516
 20
-2.533140367260788
 30
0.0
 10
-13.63273390070612
 20
0.0000000000002632
 30
0.0
  0
SPLINE
  5
A414
330
1F
100
AcDbEntity
  8
AM_0
100
AcDbSpline
210
0.0
220
0.0
230
1.0
 70
     8
 71
     3
 72
     8
 73
     4
 74
     0
 42
0.0000000001
 43
0.0000000001
 40
4.219358800530717
 40
4.219358800530717
 40
4.219358800530717
 40
4.219358800530717
 40
14.36247867694493
 40
14.36247867694493
 40
14.36247867694493
 40
14.36247867694493
 10
-0.4312499999999968
 20
-4.893864221415508
 30
0.0
 10
-4.164246320423645
 20
-3.913137350026501
 30
0.0
 10
-7.742816068650723
 20
-1.956568675013115
 30
0.0
 10
-11.32138581687831
 20
0.0000000000002706
 30
0.0
  0
SPLINE
  5
A415
330
1F
100
AcDbEntity
  8
AM_0
100
AcDbSpline
210
0.0
220
0.0
230
1.0
 70
     8
 71
     3
 72
     8
 73
     4
 74
     0
 42
0.0000000001
 43
0.0000000001
 40
0.0
 40
0.0
 40
0.0
 40
0.0
 40
2.974550122159133
 40
2.974550122159133
 40
2.974550122159133
 40
2.974550122159133
 10
-0.0000000000000053
 20
4.889643224020891
 30
0.0
 10
-0.6362574875783724
 20
4.096131835381369
 30
0.0
 10
-1.728357430423331
 20
3.755368556309349
 30
0.0
 10
-2.710058065675076
 20
3.610144107033824
 30
0.0
  0
SPLINE
  5
A416
330
1F
100
AcDbEntity
  8
AM_0
100
AcDbSpline
210
0.0
220
0.0
230
1.0
 70
     8
 71
     3
 72
     8
 73
     4
 74
     0
 42
0.0000000001
 43
0.0000000001
 40
0.0
 40
0.0
 40
0.0
 40
0.0
 40
7.57842115059705
 40
7.57842115059705
 40
7.57842115059705
 40
7.57842115059705
 10
-0.0000000000000053
 20
5.999999999999996
 30
0.0
 10
-2.905061441061848
 20
5.999999999999996
 30
0.0
 10
-5.670139308570247
 20
5.179379875179067
 30
0.0
 10
-8.368446489148643
 20
3.967332613221056
 30
0.0
  0
SPLINE
  5
A417
330
1F
100
AcDbEntity
  8
AM_0
100
AcDbSpline
210
0.0
220
0.0
230
1.0
 70
     8
 71
     3
 72
     8
 73
     4
 74
     0
 42
0.0000000001
 43
0.0000000001
 40
0.0
 40
0.0
 40
0.0
 40
0.0
 40
16.66349603174546
 40
16.66349603174546
 40
16.66349603174546
 40
16.66349603174546
 10
0.0000000000000036
 20
-5.999999999999996
 30
0.0
 10
-5.554498677248482
 20
-6.0
 30
0.0
 10
-10.59724933862419
 20
-3.000000000000005
 30
0.0
 10
-15.63999999999989
 20
-0.0000000000000111
 30
0.0
  0
LINE
  5
A43D
330
1F
100
AcDbEntity
  8
AM_0
100
AcDbLine
 10
-70.00000000000001
 20
5.499999999999975
 30
0.0
 11
-69.50000000000001
 21
5.999999999999975
 31
0.0
1001
GENIUS_GENFIL_13
1070
     0
1040
0.5
1040
0.5
1040
20.0
1040
0.0
1002
{
1002
}
1001
GENIUS_GENODEF_13
1002
{
1000
HIER
1070
     0
1002
}
1002
{
1000
MANEDIT
1070
     0
1002
}
1002
{
1000
NOSEL
1070
     0
1002
}
1002
{
1000
BEHIND
1070
     0
1002
}
1002
{
1000
REACTOR
1002
}
1001
GENIUS_GENOBJ-N-CHA_13
1002
{
1000
OWNER
1000
GEN
1002
}
  0
LINE
  5
A440
330
1F
100
AcDbEntity
  8
AM_0
100
AcDbLine
 10
-70.0
 20
-5.500000000000026
 30
0.0
 11
-69.5
 21
-6.000000000000026
 31
0.0
1001
GENIUS_GENFIL_13
1070
     0
1040
0.5
1040
0.5
1040
20.0
1040
0.0
1002
{
1002
}
1001
GENIUS_GENODEF_13
1002
{
1000
HIER
1070
     0
1002
}
1002
{
1000
MANEDIT
1070
     0
1002
}
1002
{
1000
NOSEL
1070
     0
1002
}
1002
{
1000
BEHIND
1070
     0
1002
}
1002
{
1000
REACTOR
1002
}
1001
GENIUS_GENOBJ-N-CHA_13
1002
{
1000
OWNER
1000
GEN
1002
}
  0
VIEWPORT
  5
110
330
101
100
AcDbEntity
 67
     1
  8
0
100
AcDbViewport
 10
420.5
 20
297.0
 30
0.0
 40
948.9782706766916
 41
628.452
 68
     1
 69
     1
1001
ACAD
1000
MVIEW
1002
{
1070
    16
1010
0.0
1020
0.0
1030
0.0
1010
0.0
1020
0.0
1030
1.0
1040
0.0
1040
628.452
1040
420.5
1040
297.0
1040
50.0
1040
0.0
1040
0.0
1070
     0
1070
   100
1070
     1
1070
     1
1070
     0
1070
     0
1070
     0
1070
     0
1040
0.0
1040
0.0
1040
0.0
1040
10.0
1040
10.0
1040
10.0
1040
10.0
1070
     0
1002
{
1002
}
1002
}
  0
ENDSEC
  0
SECTION
  2
OBJECTS
  0
DICTIONARY
  5
C
330
0
100
AcDbDictionary
  3
ACAD_GROUP
350
D
  3
ACAD_LAYOUT
350
1A
  3
ACAD_MLINESTYLE
350
17
  3
ACAD_PLOTSETTINGS
350
19
  3
ACAD_PLOTSTYLENAME
350
E
  3
ACDBVARIABLEDICTIONARY
350
34
  3
ACMDICTIONARY
350
43
  3
AMG
350
2B
  3
AMGSNAPSETTINGS
350
6E
  3
ASE_INDEX_DICTIONARY
350
151A
  3
DWGPROPS
350
A4C7
  3
ACDBHEADERROUNDTRIPXREC
350
A4D3
  0
DICTIONARY
  5
74
330
1F
100
AcDbDictionary
280
     1
  3
ACAD_INDEX
360
A4C9
  3
ACAD_LAYOUTSELFREF
360
A4F6
  0
DICTIONARY
  5
A4FB
330
101
100
AcDbDictionary
280
     1
  3
ACAD_LAYOUTSELFREF
360
A4FC
  0
DICTIONARY
  5
D
102
{ACAD_REACTORS
330
C
102
}
330
C
100
AcDbDictionary
  0
DICTIONARY
  5
1A
102
{ACAD_REACTORS
330
C
102
}
330
C
100
AcDbDictionary
  0
DICTIONARY
  5
17
102
{ACAD_REACTORS
330
C
102
}
330
C
100
AcDbDictionary
  3
STANDARD
350
18
  0
DICTIONARY
  5
19
102
{ACAD_REACTORS
330
C
102
}
330
C
100
AcDbDictionary
  0
ACDBDICTIONARYWDFLT
  5
E
102
{ACAD_REACTORS
330
C
102
}
330
C
100
AcDbDictionary
281
     1
  3
Normal
350
F
100
AcDbDictionaryWithDefault
340
F
  0
DICTIONARY
  5
34
102
{ACAD_REACTORS
330
C
102
}
330
C
100
AcDbDictionary
  3
INDEXCTL
350
35
  3
SORTENTS
350
B5E
  0
DICTIONARY
  5
43
102
{ACAD_REACTORS
330
C
102
}
330
C
100
AcDbDictionary
  3
ACMSTDDICTIONARY
350
260
  0
DICTIONARY
  5
2B
102
{ACAD_REACTORS
330
C
102
}
330
C
100
AcDbDictionary
  3
ACMGSETTINGS
350
2C
  0
DICTIONARY
  5
6E
102
{ACAD_REACTORS
330
C
102
}
330
C
100
AcDbDictionary
  0
DICTIONARY
  5
151A
102
{ACAD_REACTORS
330
C
102
}
330
C
100
AcDbDictionary
  3
ASEBLOCKHIERARCHYINDEXRECORD
350
151C
1001
DCO15
1040
1471862535.906
  0
XRECORD
  5
A4C7
102
{ACAD_REACTORS
330
C
102
}
330
C
100
AcDbXrecord
  1
DWGPROPS COOKIE
  2

  3

  4

  6

  7

  8

  9

300
AmdtFileType=82
301
=
302
=
303
=
304
=
305
=
306
=
307
=
308
=
309
=
 40
0.3789136342592593
 41
2452838.430434386
 42
2452845.389082384
  1

 90
        1
  0
DICTIONARY
  5
A4D3
102
{ACAD_REACTORS
330
C
102
}
330
C
100
AcDbDictionary
  3
TSTACKALIGN
350
A4D4
  3
TSTACKSIZE
350
A4D5
  3
HYPERLINKBASE
350
A4D6
  3
STYLESHEET
350
A4D7
  3
LAYOUTDICT
350
A4D8
  3
PLOTSETDICT
350
A4D9
  3
PLOTSTYLNAMDICT
350
A4DA
  3
LWETCUNION
350
A4DB
  3
INSUNITS
350
A4DC
  3
CEPSNTYPE
350
A4DD
  3
FINGERPRINTGUID
350
A4DE
  3
VERSIONGUID
350
A4DF
  3
PSVPSCALE
350
A4E0
  3
DIMSTYLEDATA
350
A4E1
  3
PUCSORTHOREF
350
A4E2
  3
PUCSORTHOVIEW
350
A4E3
  3
PUCSBASE
350
A4E4
  3
PUCSORGTOP
350
A4E5
  3
PUCSORGBOTTOM
350
A4E6
  3
PUCSORGLEFT
350
A4E7
  3
PUCSORGRIGHT
350
A4E8
  3
PUCSORGFRONT
350
A4E9
  3
PUCSORGBACK
350
A4EA
  3
UCSORTHOREF
350
A4EB
  3
UCSORTHOVIEW
350
A4EC
  3
UCSBASE
350
A4ED
  3
UCSORGTOP
350
A4EE
  3
UCSORGBOTTOM
350
A4EF
  3
UCSORGLEFT
350
A4F0
  3
UCSORGRIGHT
350
A4F1
  3
UCSORGFRONT
350
A4F2
  3
UCSORGBACK
350
A4F3
  0
DICTIONARY
  5
A4C9
102
{ACAD_REACTORS
330
74
102
}
330
74
100
AcDbDictionary
  3
*A1
350
A4CA
  0
XRECORD
  5
A4F6
102
{ACAD_REACTORS
330
74
102
}
330
74
100
AcDbXrecord
340
1F
  0
XRECORD
  5
A4FC
102
{ACAD_REACTORS
330
A4FB
102
}
330
A4FB
100
AcDbXrecord
340
101
  0
MLINESTYLE
  5
18
102
{ACAD_REACTORS
330
17
102
}
330
17
100
AcDbMlineStyle
  2
STANDARD
 70
     0
  3

 62
   256
 51
90.0
 52
90.0
 71
     2
 49
0.5
 62
   256
  6
BYLAYER
 49
-0.5
 62
   256
  6
BYLAYER
  0
ACDBPLACEHOLDER
  5
F
102
{ACAD_REACTORS
330
E
102
}
330
E
100
AcDbPlaceHolder
280
     0
  0
DICTIONARYVAR
  5
35
102
{ACAD_REACTORS
330
34
102
}
330
34
100
DictionaryVariables
280
     0
  1
1
  0
DICTIONARYVAR
  5
B5E
102
{ACAD_REACTORS
330
34
102
}
330
34
100
DictionaryVariables
280
     0
  1
96
  0
DICTIONARY
  5
260
102
{ACAD_REACTORS
330
43
102
}
330
43
100
AcDbDictionary
  0
DICTIONARY
  5
2C
102
{ACAD_REACTORS
330
2B
102
}
330
2B
100
AcDbDictionary
  3
DWGSETTINGS
350
2D
  0
XRECORD
  5
151C
102
{ACAD_REACTORS
330
151A
102
}
330
151A
100
AcDbXrecord
330
0
330
0
330
0
330
0
330
0
330
0
330
0
330
0
  0
XRECORD
  5
A4D4
102
{ACAD_REACTORS
330
A4D3
102
}
330
A4D3
100
AcDbXrecord
 90
        1
  0
XRECORD
  5
A4D5
102
{ACAD_REACTORS
330
A4D3
102
}
330
A4D3
100
AcDbXrecord
 90
       70
  0
XRECORD
  5
A4D6
102
{ACAD_REACTORS
330
A4D3
102
}
330
A4D3
100
AcDbXrecord
  1

  0
XRECORD
  5
A4D7
102
{ACAD_REACTORS
330
A4D3
102
}
330
A4D3
100
AcDbXrecord
  1
ASAMI.ctb
  0
XRECORD
  5
A4D8
102
{ACAD_REACTORS
330
A4D3
102
}
330
A4D3
100
AcDbXrecord
340
1A
  0
XRECORD
  5
A4D9
102
{ACAD_REACTORS
330
A4D3
102
}
330
A4D3
100
AcDbXrecord
340
19
  0
XRECORD
  5
A4DA
102
{ACAD_REACTORS
330
A4D3
102
}
330
A4D3
100
AcDbXrecord
340
E
  0
XRECORD
  5
A4DB
102
{ACAD_REACTORS
330
A4D3
102
}
330
A4D3
100
AcDbXrecord
 90
    10781
  0
XRECORD
  5
A4DC
102
{ACAD_REACTORS
330
A4D3
102
}
330
A4D3
100
AcDbXrecord
 90
        4
  0
XRECORD
  5
A4DD
102
{ACAD_REACTORS
330
A4D3
102
}
330
A4D3
100
AcDbXrecord
 90
        0
  0
XRECORD
  5
A4DE
102
{ACAD_REACTORS
330
A4D3
102
}
330
A4D3
100
AcDbXrecord
  1
{AFB28963-8C59-40AE-9337-C84526B81ACE}
  0
XRECORD
  5
A4DF
102
{ACAD_REACTORS
330
A4D3
102
}
330
A4D3
100
AcDbXrecord
  1
{852DB8AB-5EB1-422F-835D-ABF754DA4E3D}
  0
XRECORD
  5
A4E0
102
{ACAD_REACTORS
330
A4D3
102
}
330
A4D3
100
AcDbXrecord
 40
0.0
  0
XRECORD
  5
A4E1
102
{ACAD_REACTORS
330
A4D3
102
}
330
A4D3
100
AcDbXrecord
1000
DSTYLE
1002
{
1070
    79
 70
     2
1070
   341
340
59
1070
   342
340
59
1070
   371
 70
    -1
1070
   372
 70
    -1
1002
}
  0
XRECORD
  5
A4E2
102
{ACAD_REACTORS
330
A4D3
102
}
330
A4D3
100
AcDbXrecord
340
0
  0
XRECORD
  5
A4E3
102
{ACAD_REACTORS
330
A4D3
102
}
330
A4D3
100
AcDbXrecord
 70
     0
  0
XRECORD
  5
A4E4
102
{ACAD_REACTORS
330
A4D3
102
}
330
A4D3
100
AcDbXrecord
340
0
  0
XRECORD
  5
A4E5
102
{ACAD_REACTORS
330
A4D3
102
}
330
A4D3
100
AcDbXrecord
 10
0.0
 20
0.0
 30
0.0
  0
XRECORD
  5
A4E6
102
{ACAD_REACTORS
330
A4D3
102
}
330
A4D3
100
AcDbXrecord
 10
0.0
 20
0.0
 30
0.0
  0
XRECORD
  5
A4E7
102
{ACAD_REACTORS
330
A4D3
102
}
330
A4D3
100
AcDbXrecord
 10
0.0
 20
0.0
 30
0.0
  0
XRECORD
  5
A4E8
102
{ACAD_REACTORS
330
A4D3
102
}
330
A4D3
100
AcDbXrecord
 10
0.0
 20
0.0
 30
0.0
  0
XRECORD
  5
A4E9
102
{ACAD_REACTORS
330
A4D3
102
}
330
A4D3
100
AcDbXrecord
 10
0.0
 20
0.0
 30
0.0
  0
XRECORD
  5
A4EA
102
{ACAD_REACTORS
330
A4D3
102
}
330
A4D3
100
AcDbXrecord
 10
0.0
 20
0.0
 30
0.0
  0
XRECORD
  5
A4EB
102
{ACAD_REACTORS
330
A4D3
102
}
330
A4D3
100
AcDbXrecord
340
0
  0
XRECORD
  5
A4EC
102
{ACAD_REACTORS
330
A4D3
102
}
330
A4D3
100
AcDbXrecord
 70
     0
  0
XRECORD
  5
A4ED
102
{ACAD_REACTORS
330
A4D3
102
}
330
A4D3
100
AcDbXrecord
340
0
  0
XRECORD
  5
A4EE
102
{ACAD_REACTORS
330
A4D3
102
}
330
A4D3
100
AcDbXrecord
 10
0.0
 20
0.0
 30
0.0
  0
XRECORD
  5
A4EF
102
{ACAD_REACTORS
330
A4D3
102
}
330
A4D3
100
AcDbXrecord
 10
0.0
 20
0.0
 30
0.0
  0
XRECORD
  5
A4F0
102
{ACAD_REACTORS
330
A4D3
102
}
330
A4D3
100
AcDbXrecord
 10
0.0
 20
0.0
 30
0.0
  0
XRECORD
  5
A4F1
102
{ACAD_REACTORS
330
A4D3
102
}
330
A4D3
100
AcDbXrecord
 10
0.0
 20
0.0
 30
0.0
  0
XRECORD
  5
A4F2
102
{ACAD_REACTORS
330
A4D3
102
}
330
A4D3
100
AcDbXrecord
 10
0.0
 20
0.0
 30
0.0
  0
XRECORD
  5
A4F3
102
{ACAD_REACTORS
330
A4D3
102
}
330
A4D3
100
AcDbXrecord
 10
0.0
 20
0.0
 30
0.0
  0
LAYER_INDEX
  5
A4CA
102
{ACAD_REACTORS
330
A4C9
102
}
330
A4C9
100
AcDbIndex
 40
2453151.840036458
100
AcDbLayerIndex
  8
0
360
A4CB
 90
        0
  8
AM_0
360
A4CC
 90
       33
  8
AM_11
360
A4CD
 90
        3
  8
AM_7
360
A4CE
 90
        1
  8
AM_5
360
A4CF
 90
        4
  8
Defpoints
360
A4D0
 90
        0
  8
AM_6
360
A4D1
 90
        1
  0
XRECORD
  5
2D
102
{ACAD_REACTORS
330
2C
102
}
330
2C
100
AcDbXrecord
  1
VERSION
140
15.0
  1
PRODUCT
  2
AutoCAD Mechanical 2000
  0
IDBUFFER
  5
A4CB
330
0
100
AcDbIdBuffer
  0
IDBUFFER
  5
A4CC
330
0
100
AcDbIdBuffer
330
A407
330
A408
330
A409
330
A40A
330
A40B
330
A40C
330
A40D
330
A410
330
A411
330
A412
330
A413
330
A414
330
A415
330
A416
330
A417
330
A43D
330
A440
330
9EA0
330
9EA1
330
9EB1
330
9EB2
330
A3ED
330
A3EE
330
A3EF
330
A3F0
330
A3F1
330
A3F2
330
A3F3
330
A3F4
330
A3F5
330
A403
330
A405
330
A406
  0
IDBUFFER
  5
A4CD
330
0
100
AcDbIdBuffer
330
A404
330
A40E
330
A40F
  0
IDBUFFER
  5
A4CE
330
0
100
AcDbIdBuffer
330
C2E
  0
IDBUFFER
  5
A4CF
330
0
100
AcDbIdBuffer
330
10F0
330
12D8
330
9EA4
330
A3F6
  0
IDBUFFER
  5
A4D0
330
0
100
AcDbIdBuffer
  0
IDBUFFER
  5
A4D1
330
0
100
AcDbIdBuffer
330
1500
  0
ENDSEC
  0
EOF
