  0
SECTION
  2
HEADER
  9
$ACADVER
  1
AC1014
  9
$ACADMAINTVER
 70
     9
  9
$DWGCODEPAGE
  3
ANSI_932
  9
$INSBASE
 10
0.0
 20
0.0
 30
0.0
  9
$EXTMIN
 10
-114.3386983892743
 20
-56.50000099999992
 30
-0.00000001
  9
$EXTMAX
 10
17.05105068025213
 20
9.314492395524233
 30
0.00000001
  9
$LIMMIN
 10
-122.0200075512992
 20
-68.60524049214376
  9
$LIMMAX
 10
30.50067568987435
 20
35.88035034493055
  9
$ORTHOMODE
 70
     0
  9
$REGENMODE
 70
     1
  9
$FILLMODE
 70
     1
  9
$QTEXTMODE
 70
     0
  9
$MIRRTEXT
 70
     0
  9
$DRAGMODE
 70
     2
  9
$LTSCALE
 40
1.0
  9
$OSMODE
 70
    55
  9
$ATTMODE
 70
     1
  9
$TEXTSIZE
 40
5.0
  9
$TRACEWID
 40
1.0
  9
$TEXTSTYLE
  7
STANDARD
  9
$CLAYER
  8
AM_0
  9
$CELTYPE
  6
BYLAYER
  9
$CECOLOR
 62
   256
  9
$CELTSCALE
 40
1.0
  9
$DELOBJ
 70
     1
  9
$DISPSILH
 70
     0
  9
$DIMSCALE
 40
1.0
  9
$DIMASZ
 40
2.5
  9
$DIMEXO
 40
1.0
  9
$DIMDLI
 40
12.0
  9
$DIMRND
 40
0.0
  9
$DIMDLE
 40
0.0
  9
$DIMEXE
 40
1.0
  9
$DIMTP
 40
0.1
  9
$DIMTM
 40
0.1
  9
$DIMTXT
 40
3.2
  9
$DIMCEN
 40
0.0
  9
$DIMTSZ
 40
0.0
  9
$DIMTOL
 70
     0
  9
$DIMLIM
 70
     0
  9
$DIMTIH
 70
     0
  9
$DIMTOH
 70
     0
  9
$DIMSE1
 70
     0
  9
$DIMSE2
 70
     0
  9
$DIMTAD
 70
     3
  9
$DIMZIN
 70
     8
  9
$DIMBLK
  1
OPEN30
  9
$DIMASO
 70
     1
  9
$DIMSHO
 70
     1
  9
$DIMPOST
  1

  9
$DIMAPOST
  1
"
  9
$DIMALT
 70
     0
  9
$DIMALTD
 70
     2
  9
$DIMALTF
 40
0.0393701
  9
$DIMLFAC
 40
1.0
  9
$DIMTOFL
 70
     1
  9
$DIMTVP
 40
0.0
  9
$DIMTIX
 70
     0
  9
$DIMSOXD
 70
     0
  9
$DIMSAH
 70
     0
  9
$DIMBLK1
  1

  9
$DIMBLK2
  1

  9
$DIMSTYLE
  2
AM_JIS
  9
$DIMCLRD
 70
   256
  9
$DIMCLRE
 70
   256
  9
$DIMCLRT
 70
     2
  9
$DIMTFAC
 40
0.71
  9
$DIMGAP
 40
1.5
  9
$DIMJUST
 70
     0
  9
$DIMSD1
 70
     0
  9
$DIMSD2
 70
     0
  9
$DIMTOLJ
 70
     0
  9
$DIMTZIN
 70
     0
  9
$DIMALTZ
 70
     0
  9
$DIMALTTZ
 70
     0
  9
$DIMFIT
 70
     3
  9
$DIMUPT
 70
     0
  9
$DIMUNIT
 70
     2
  9
$DIMDEC
 70
     3
  9
$DIMTDEC
 70
     3
  9
$DIMALTU
 70
     2
  9
$DIMALTTD
 70
     2
  9
$DIMTXSTY
  7
ASAMI
  9
$DIMAUNIT
 70
     0
  9
$LUNITS
 70
     2
  9
$LUPREC
 70
     2
  9
$SKETCHINC
 40
1.0
  9
$FILLETRAD
 40
2.5
  9
$AUNITS
 70
     0
  9
$AUPREC
 70
     0
  9
$MENU
  1
.
  9
$ELEVATION
 40
0.0
  9
$PELEVATION
 40
0.0
  9
$THICKNESS
 40
0.0
  9
$LIMCHECK
 70
     0
  9
$BLIPMODE
 70
     0
  9
$CHAMFERA
 40
1.25
  9
$CHAMFERB
 40
1.25
  9
$CHAMFERC
 40
20.0
  9
$CHAMFERD
 40
0.0
  9
$SKPOLY
 70
     0
  9
$TDCREATE
 40
2452838.430434386
  9
$TDUPDATE
 40
2453151.841930324
  9
$TDINDWG
 40
0.4576990162
  9
$TDUSRTIMER
 40
0.4576990162
  9
$USRTIMER
 70
     1
  9
$ANGBASE
 50
0.0
  9
$ANGDIR
 70
     0
  9
$PDMODE
 70
     0
  9
$PDSIZE
 40
0.0
  9
$PLINEWID
 40
0.0
  9
$COORDS
 70
     1
  9
$SPLFRAME
 70
     0
  9
$SPLINETYPE
 70
     6
  9
$SPLINESEGS
 70
     8
  9
$ATTDIA
 70
     1
  9
$ATTREQ
 70
     1
  9
$HANDLING
 70
 12289
  9
$HANDSEED
  5
B5C3
  9
$SURFTAB1
 70
     6
  9
$SURFTAB2
 70
     6
  9
$SURFTYPE
 70
     6
  9
$SURFU
 70
     6
  9
$SURFV
 70
     6
  9
$UCSNAME
  2

  9
$UCSORG
 10
0.0
 20
0.0
 30
0.0
  9
$UCSXDIR
 10
1.0
 20
0.0
 30
0.0
  9
$UCSYDIR
 10
0.0
 20
1.0
 30
0.0
  9
$PUCSNAME
  2

  9
$PUCSORG
 10
0.0
 20
0.0
 30
0.0
  9
$PUCSXDIR
 10
1.0
 20
0.0
 30
0.0
  9
$PUCSYDIR
 10
0.0
 20
1.0
 30
0.0
  9
$USERI1
 70
     0
  9
$USERI2
 70
     0
  9
$USERI3
 70
     0
  9
$USERI4
 70
     0
  9
$USERI5
 70
     0
  9
$USERR1
 40
0.0
  9
$USERR2
 40
0.0
  9
$USERR3
 40
0.0
  9
$USERR4
 40
0.0
  9
$USERR5
 40
0.0
  9
$WORLDVIEW
 70
     1
  9
$SHADEDGE
 70
     3
  9
$SHADEDIF
 70
    70
  9
$TILEMODE
 70
     1
  9
$MAXACTVP
 70
    64
  9
$PINSBASE
 10
0.0
 20
0.0
 30
0.0
  9
$PLIMCHECK
 70
     0
  9
$PEXTMIN
 10
1.000000000000000E+20
 20
1.000000000000000E+20
 30
1.000000000000000E+20
  9
$PEXTMAX
 10
-1.000000000000000E+20
 20
-1.000000000000000E+20
 30
-1.000000000000000E+20
  9
$PLIMMIN
 10
0.0
 20
0.0
  9
$PLIMMAX
 10
841.0
 20
594.0
  9
$UNITMODE
 70
     0
  9
$VISRETAIN
 70
     1
  9
$PLINEGEN
 70
     0
  9
$PSLTSCALE
 70
     0
  9
$TREEDEPTH
 70
  3020
  9
$PICKSTYLE
 70
     0
  9
$CMLSTYLE
  2
STANDARD
  9
$CMLJUST
 70
     0
  9
$CMLSCALE
 40
20.0
  9
$PROXYGRAPHICS
 70
     1
  9
$MEASUREMENT
 70
     1
  0
ENDSEC
  0
SECTION
  2
CLASSES
  0
CLASS
  1
ACDBDICTIONARYWDFLT
  2
AcDbDictionaryWithDefault
  3
AutoCAD 2000
 90
        0
280
     0
281
     0
  0
CLASS
  1
ACDBPLACEHOLDER
  2
AcDbPlaceHolder
  3
AutoCAD 2000
 90
        0
280
     0
281
     0
  0
CLASS
  1
LAYOUT
  2
AcDbLayout
  3
AutoCAD 2000
 90
        0
280
     0
281
     0
  0
CLASS
  1
AMGSETTINGSOBJ
  2
AmgSettingsObj
  3
"AcadM|Product Description: AutoCAD Mechanical 2000|Company: Autodesk"
 90
        0
280
     0
281
     0
  0
CLASS
  1
ACME_DOCUMENT
  2
AcMeDbDoc
  3
AcMeServices
 90
        0
280
     0
281
     0
  0
CLASS
  1
ACMESCOPE
  2
AcMeScope
  3
AcMeServices
 90
        0
280
     0
281
     0
  0
CLASS
  1
ACMECOMMANDHISTORY
  2
AcMeCommandHistory
  3
AcMeServices
 90
        0
280
     0
281
     0
  0
CLASS
  1
DICTIONARYVAR
  2
AcDbDictionaryVar
  3
AutoCAD 2000
 90
        0
280
     0
281
     0
  0
CLASS
  1
ACIMSYSVARMAN
  2
AcImSysVarManager
  3
AcMeServices
 90
        0
280
     0
281
     0
  0
CLASS
  1
ACIMREALSYSVAR
  2
AcImRealSysVar
  3
AcMeServices
 90
        0
280
     0
281
     0
  0
CLASS
  1
ACIMINTSYSVAR
  2
AcImIntSysVar
  3
AcMeServices
 90
        0
280
     0
281
     0
  0
CLASS
  1
ACMEDRAWINGMAN
  2
AcMeDrawingMan
  3
AcMeServices
 90
        0
280
     0
281
     0
  0
CLASS
  1
ACMEVIEW
  2
AcMeView
  3
AcMeServices
 90
        0
280
     0
281
     0
  0
CLASS
  1
ACDBENTITYCACHE
  2
AcMeEntityCache
  3
AcMeServices
 90
        0
280
     0
281
     0
  0
CLASS
  1
GSMANAGER
  2
AcMeGSManager
  3
AcMeServices
 90
        0
280
     0
281
     0
  0
CLASS
  1
AmdtInternalReactor
  2
AmdtInternalReactor
  3
AcMeServices
 90
        0
280
     0
281
     0
  0
CLASS
  1
ACMESTATEMGR
  2
AcMeStateMgr
  3
AcMeServices
 90
        0
280
     0
281
     0
  0
CLASS
  1
ACME_DATABASE
  2
AcMeDbDatabase
  3
AcMeServices
 90
        0
280
     0
281
     0
  0
CLASS
  1
ACRFINSADJUSTERMGR
  2
AcRfInsAdjusterMgr
  3
AcMeServices
 90
        0
280
     0
281
     0
  0
CLASS
  1
ACMDATADICTIONARY
  2
AcmDataDictionary
  3
"AcmSymBB|Product Description: AutoCAD Mechanical 2000|Company: Autodesk"
 90
        0
280
     0
281
     0
  0
CLASS
  1
ACMDATAENTRYBLOCK
  2
AcmDataEntryBlock
  3
"AcmSymBB|Product Description: AutoCAD Mechanical 2000|Company: Autodesk"
 90
        0
280
     0
281
     0
  0
CLASS
  1
AMGOBJPROPCFG
  2
AmgObjPropCfg
  3
"AmgLay|Product Description: AutoCAD Mechanical 2000|Company: Autodesk"
 90
        1
280
     0
281
     0
  0
CLASS
  1
ACAMGFILTERDAT
  2
AcAmgFilterDat
  3
"AcadM|Product Description: AutoCAD Mechanical 2000|Company: Autodesk"
 90
        0
280
     0
281
     0
  0
CLASS
  1
LAYER_INDEX
  2
AcDbLayerIndex
  3
AutoCAD 2000
 90
        0
280
     0
281
     0
  0
CLASS
  1
IDBUFFER
  2
AcDbIdBuffer
  3
AutoCAD 2000
 90
        0
280
     0
281
     0
  0
CLASS
  1
ACIMSTRSYSVAR
  2
AcImStrSysVar
  3
AcMeServices
 90
        0
280
     0
281
     0
  0
CLASS
  1
ACMSTANDARDJIS
  2
AcmStandardJIS
  3
"AcmSymBB|Product Description: AutoCAD Mechanical 2000|Company: Autodesk"
 90
        0
280
     0
281
     0
  0
CLASS
  1
ACMSURFSTANDARDJIS
  2
AcmSurfTextStdJIS
  3
"AcmSymBB|Product Description: AutoCAD Mechanical 2000|Company: Autodesk"
 90
        0
280
     0
281
     0
  0
CLASS
  1
ACMFCFSTANDARDJIS
  2
AcmFCFStdJIS
  3
"AcmSymBB|Product Description: AutoCAD Mechanical 2000|Company: Autodesk"
 90
        0
280
     0
281
     0
  0
CLASS
  1
ACMWELDSTANDARDJIS
  2
AcmWeldingStdJIS
  3
"AcmSymBB|Product Description: AutoCAD Mechanical 2000|Company: Autodesk"
 90
        0
280
     0
281
     0
  0
CLASS
  1
ACMIDSTANDARDJIS
  2
AcmIdStdJIS
  3
"AcmSymBB|Product Description: AutoCAD Mechanical 2000|Company: Autodesk"
 90
        0
280
     0
281
     0
  0
CLASS
  1
ACMDATUMSTANDARDJIS
  2
AcmDatumStdJIS
  3
"AcmSymBB|Product Description: AutoCAD Mechanical 2000|Company: Autodesk"
 90
        0
280
     0
281
     0
  0
CLASS
  1
ACMBOMSTANDARDJIS
  2
AcmBOMStdJIS
  3
"AcmSymBB|Product Description: AutoCAD Mechanical 2000|Company: Autodesk"
 90
        0
280
     0
281
     0
  0
CLASS
  1
ACMSTANDARDANSI
  2
AcmStandardANSI
  3
"AcmSymBB|Product Description: AutoCAD Mechanical 2000|Company: Autodesk"
 90
        0
280
     0
281
     0
  0
CLASS
  1
ACMSURFSTANDARDANSI
  2
AcmSurfTextStdANSI
  3
"AcmSymBB|Product Description: AutoCAD Mechanical 2000|Company: Autodesk"
 90
        0
280
     0
281
     0
  0
CLASS
  1
ACMFCFSTANDARDANSI
  2
AcmFCFStdANSI
  3
"AcmSymBB|Product Description: AutoCAD Mechanical 2000|Company: Autodesk"
 90
        0
280
     0
281
     0
  0
CLASS
  1
ACMWELDSTANDARDANSI
  2
AcmWeldingStdANSI
  3
"AcmSymBB|Product Description: AutoCAD Mechanical 2000|Company: Autodesk"
 90
        0
280
     0
281
     0
  0
CLASS
  1
ACMIDSTANDARDANSI
  2
AcmIdStdANSI
  3
"AcmSymBB|Product Description: AutoCAD Mechanical 2000|Company: Autodesk"
 90
        0
280
     0
281
     0
  0
CLASS
  1
ACMDATUMSTANDARDANSI
  2
AcmDatumStdANSI
  3
"AcmSymBB|Product Description: AutoCAD Mechanical 2000|Company: Autodesk"
 90
        0
280
     0
281
     0
  0
CLASS
  1
ACMBOMSTANDARDANSI
  2
AcmBOMStdANSI
  3
"AcmSymBB|Product Description: AutoCAD Mechanical 2000|Company: Autodesk"
 90
        0
280
     0
281
     0
  0
CLASS
  1
ACMSTANDARDBSI
  2
AcmStandardBSI
  3
"AcmSymBB|Product Description: AutoCAD Mechanical 2000|Company: Autodesk"
 90
        0
280
     0
281
     0
  0
CLASS
  1
ACMSURFSTANDARDBSI
  2
AcmSurfTextStdBSI
  3
"AcmSymBB|Product Description: AutoCAD Mechanical 2000|Company: Autodesk"
 90
        0
280
     0
281
     0
  0
CLASS
  1
ACMFCFSTANDARDBSI
  2
AcmFCFStdBSI
  3
"AcmSymBB|Product Description: AutoCAD Mechanical 2000|Company: Autodesk"
 90
        0
280
     0
281
     0
  0
CLASS
  1
ACMWELDSTANDARDBSI
  2
AcmWeldingStdBSI
  3
"AcmSymBB|Product Description: AutoCAD Mechanical 2000|Company: Autodesk"
 90
        0
280
     0
281
     0
  0
CLASS
  1
ACMIDSTANDARDBSI
  2
AcmIdStdBSI
  3
"AcmSymBB|Product Description: AutoCAD Mechanical 2000|Company: Autodesk"
 90
        0
280
     0
281
     0
  0
CLASS
  1
ACMDATUMSTANDARDBSI
  2
AcmDatumStdBSI
  3
"AcmSymBB|Product Description: AutoCAD Mechanical 2000|Company: Autodesk"
 90
        0
280
     0
281
     0
  0
CLASS
  1
ACMBOMSTANDARDBSI
  2
AcmBOMStdBSI
  3
"AcmSymBB|Product Description: AutoCAD Mechanical 2000|Company: Autodesk"
 90
        0
280
     0
281
     0
  0
CLASS
  1
LONG_TRANSACTION
  2
AcDbLongTransaction
  3
AutoCAD 2000
 90
        0
280
     0
281
     0
  0
CLASS
  1
LWPOLYLINE
  2
AcDbPolyline
  3
AutoCAD 2000
 90
        0
280
     0
281
     1
  0
CLASS
  1
HATCH
  2
AcDbHatch
  3
AutoCAD 2000
 90
        0
280
     0
281
     1
  0
CLASS
  1
XRECORD
  2
AcDbXrecord
  3
AutoCAD 2000
 90
        0
280
     0
281
     0
  0
ENDSEC
  0
SECTION
  2
TABLES
  0
TABLE
  2
VPORT
  5
8
330
0
100
AcDbSymbolTable
 70
     3
  0
VPORT
  5
B598
330
8
100
AcDbSymbolTableRecord
100
AcDbViewportTableRecord
  2
*ACTIVE
 70
     0
 10
0.0
 20
0.0
 11
1.0
 21
1.0
 12
-35.33825444041238
 22
-6.911355000276486
 13
0.0
 23
0.0
 14
2.5
 24
2.5
 15
10.0
 25
10.0
 16
0.0
 26
0.0
 36
1.0
 17
0.0
 27
0.0
 37
0.0
 40
178.6849424603234
 41
1.56570841889117
 42
50.0
 43
0.0
 44
0.0
 50
0.0
 51
0.0
 71
     0
 72
   100
 73
     1
 74
     3
 75
     0
 76
     0
 77
     0
 78
     0
  0
ENDTAB
  0
TABLE
  2
LTYPE
  5
5
330
0
100
AcDbSymbolTable
 70
    10
  0
LTYPE
  5
14
330
5
100
AcDbSymbolTableRecord
100
AcDbLinetypeTableRecord
  2
BYBLOCK
 70
     0
  3

 72
    65
 73
     0
 40
0.0
  0
LTYPE
  5
15
330
5
100
AcDbSymbolTableRecord
100
AcDbLinetypeTableRecord
  2
BYLAYER
 70
     0
  3

 72
    65
 73
     0
 40
0.0
  0
LTYPE
  5
16
330
5
100
AcDbSymbolTableRecord
100
AcDbLinetypeTableRecord
  2
CONTINUOUS
 70
     0
  3
Solid line
 72
    65
 73
     0
 40
0.0
  0
LTYPE
  5
4B
330
5
100
AcDbSymbolTableRecord
100
AcDbLinetypeTableRecord
  2
AM_ISO02W050
 70
     0
  3
__ __ __ __ __ __ __ __ __ __ __ __ __ __ __
 72
    65
 73
     2
 40
7.5
 49
6.0
 74
     0
 49
-1.5
 74
     0
  0
LTYPE
  5
4C
330
5
100
AcDbSymbolTableRecord
100
AcDbLinetypeTableRecord
  2
AM_ISO08W050
 70
     0
  3
____ . ____ . ____ . ____ . ____ . ____ . ____
 72
    65
 73
     4
 40
18.0
 49
12.0
 74
     0
 49
-1.5
 74
     0
 49
3.0
 74
     0
 49
-1.5
 74
     0
  0
LTYPE
  5
4D
330
5
100
AcDbSymbolTableRecord
100
AcDbLinetypeTableRecord
  2
AM_ISO09W050
 70
     0
  3
_____ . . _____ . . _____ . . ____ .. ____
 72
    65
 73
     6
 40
22.5
 49
12.0
 74
     0
 49
-1.5
 74
     0
 49
3.0
 74
     0
 49
-1.5
 74
     0
 49
3.0
 74
     0
 49
-1.5
 74
     0
  0
LTYPE
  5
4E
330
5
100
AcDbSymbolTableRecord
100
AcDbLinetypeTableRecord
  2
AMCONSTR
 70
     0
  3
_______________________
 72
    65
 73
     2
 40
9999.0
 49
9999.0
 74
     0
 49
0.0
 74
     0
  0
LTYPE
  5
4F
330
5
100
AcDbSymbolTableRecord
100
AcDbLinetypeTableRecord
  2
AM_ISO02W050X2
 70
     0
  3
 _ _ _ _ _ _ _ _ _ _ _ _
 72
    65
 73
     2
 40
3.75
 49
3.0
 74
     0
 49
-0.75
 74
     0
  0
LTYPE
  5
50
330
5
100
AcDbSymbolTableRecord
100
AcDbLinetypeTableRecord
  2
AM_ISO08W050X2
 70
     0
  3
__ . __ . __ . __ . __ . __
 72
    65
 73
     4
 40
9.0
 49
6.0
 74
     0
 49
-0.75
 74
     0
 49
1.5
 74
     0
 49
-0.75
 74
     0
  0
LTYPE
  5
53
330
5
100
AcDbSymbolTableRecord
100
AcDbLinetypeTableRecord
  2
AMZIGZAG
 70
     0
  3
/\/-/\/-/\/-/\/-/\/-/\/
 72
    65
 73
     2
 40
11.00009999999999
 49
0.0001
 74
     4
 75
   135
340
52
 46
0.04
 50
0.0
 44
0.0
 45
0.0
 49
-11.0
 74
     0
  0
LTYPE
  5
166
330
5
100
AcDbSymbolTableRecord
100
AcDbLinetypeTableRecord
  2
ACJISTGL
 70
     0
  3
_ _ _ _ _
 72
    65
 73
     2
 40
3.0
 49
2.0
 74
     0
 49
-1.0
 74
     0
  0
LTYPE
  5
26A
330
5
100
AcDbSymbolTableRecord
100
AcDbLinetypeTableRecord
  2
ACJISTGB
 70
     0
  3
__ . . __ . .
 72
    65
 73
     6
 40
9.0
 49
4.0
 74
     0
 49
-1.0
 74
     0
 49
1.0
 74
     0
 49
-1.0
 74
     0
 49
1.0
 74
     0
 49
-1.0
 74
     0
  0
ENDTAB
  0
TABLE
  2
LAYER
  5
2
330
0
100
AcDbSymbolTable
 70
     7
  0
LAYER
  5
10
330
2
100
AcDbSymbolTableRecord
100
AcDbLayerTableRecord
  2
0
 70
     0
 62
     7
  6
CONTINUOUS
  0
LAYER
  5
3F9
330
2
100
AcDbSymbolTableRecord
100
AcDbLayerTableRecord
  2
AM_0
 70
     0
 62
     7
  6
CONTINUOUS
  0
LAYER
  5
BDD
330
2
100
AcDbSymbolTableRecord
100
AcDbLayerTableRecord
  2
AM_11
 70
     0
 62
     3
  6
AM_ISO09W050
  0
LAYER
  5
BDE
330
2
100
AcDbSymbolTableRecord
100
AcDbLayerTableRecord
  2
AM_7
 70
     0
 62
     4
  6
AM_ISO08W050
  0
LAYER
  5
BDF
330
2
100
AcDbSymbolTableRecord
100
AcDbLayerTableRecord
  2
AM_5
 70
     0
 62
     3
  6
CONTINUOUS
  0
LAYER
  5
BE0
330
2
100
AcDbSymbolTableRecord
100
AcDbLayerTableRecord
  2
DEFPOINTS
 70
     0
 62
     7
  6
CONTINUOUS
  0
LAYER
  5
14FF
330
2
100
AcDbSymbolTableRecord
100
AcDbLayerTableRecord
  2
AM_6
 70
     0
 62
     2
  6
CONTINUOUS
  0
ENDTAB
  0
TABLE
  2
STYLE
  5
3
330
0
100
AcDbSymbolTable
 70
     5
  0
STYLE
  5
11
330
3
100
AcDbSymbolTableRecord
100
AcDbTextStyleTableRecord
  2
STANDARD
 70
     0
 40
0.0
 41
1.0
 50
0.0
 71
     0
 42
5.0
  3
simplex.shx
  4
EXTFONT.SHX
  0
STYLE
  5
52
330
3
100
AcDbSymbolTableRecord
100
AcDbTextStyleTableRecord
  2

 70
     1
 40
0.0
 41
1.0
 50
0.0
 71
     0
 42
2.5
  3
ltypeshp.shx
  4

  0
STYLE
  5
6B
330
3
100
AcDbSymbolTableRecord
100
AcDbTextStyleTableRecord
  2
ASAMI
 70
     0
 40
0.0
 41
1.0
 50
0.0
 71
     0
 42
2.5
  3
simplex.shx
  4
EXTFONT.SHX
  0
STYLE
  5
262
330
3
100
AcDbSymbolTableRecord
100
AcDbTextStyleTableRecord
  2
ACJISTS
 70
     0
 40
1.0
 41
1.0
 50
0.0
 71
     0
 42
2.5
  3
simplex.shx
  4
bigfont.shx
  0
STYLE
  5
269
330
3
100
AcDbSymbolTableRecord
100
AcDbTextStyleTableRecord
  2
ACJISGDT
 70
     0
 40
0.0
 41
1.0
 50
0.0
 71
     0
 42
2.5
  3
amgdtans.shx
  4

  0
ENDTAB
  0
TABLE
  2
VIEW
  5
6
330
0
100
AcDbSymbolTable
 70
     0
  0
ENDTAB
  0
TABLE
  2
UCS
  5
7
330
0
100
AcDbSymbolTable
 70
     0
  0
ENDTAB
  0
TABLE
  2
APPID
  5
9
330
0
100
AcDbSymbolTable
 70
    13
  0
APPID
  5
12
330
9
100
AcDbSymbolTableRecord
100
AcDbRegAppTableRecord
  2
ACAD
 70
     0
  0
APPID
  5
30
330
9
100
AcDbSymbolTableRecord
100
AcDbRegAppTableRecord
  2
MCAD_NO_VIS
 70
     0
  0
APPID
  5
31
330
9
100
AcDbSymbolTableRecord
100
AcDbRegAppTableRecord
  2
ACAD_TEMP_GRAPHIC
 70
     0
  0
APPID
  5
2C2
330
9
100
AcDbSymbolTableRecord
100
AcDbRegAppTableRecord
  2
GENIUS_GENDTOL_13
 70
     0
  0
APPID
  5
339
330
9
100
AcDbSymbolTableRecord
100
AcDbRegAppTableRecord
  2
GENIUS_GENODEF_13
 70
     0
  0
APPID
  5
33A
330
9
100
AcDbSymbolTableRecord
100
AcDbRegAppTableRecord
  2
GENIUS_GENOBJ-N-RSBK_13
 70
     0
  0
APPID
  5
33B
330
9
100
AcDbSymbolTableRecord
100
AcDbRegAppTableRecord
  2
GENIUS_GENOBJ-N-LIB_13
 70
     0
  0
APPID
  5
33C
330
9
100
AcDbSymbolTableRecord
100
AcDbRegAppTableRecord
  2
GENIUS_GENSCALE_13
 70
     0
  0
APPID
  5
378
330
9
100
AcDbSymbolTableRecord
100
AcDbRegAppTableRecord
  2
GENIUS_GENDIMSH_14
 70
     0
  0
APPID
  5
BE1
330
9
100
AcDbSymbolTableRecord
100
AcDbRegAppTableRecord
  2
GENIUS_GENFIL_13
 70
     0
  0
APPID
  5
BE2
330
9
100
AcDbSymbolTableRecord
100
AcDbRegAppTableRecord
  2
GENIUS_GENOBJ-N-CHA_13
 70
     0
  0
APPID
  5
151B
330
9
100
AcDbSymbolTableRecord
100
AcDbRegAppTableRecord
  2
DCO15
 70
     0
  0
APPID
  5
1860
330
9
100
AcDbSymbolTableRecord
100
AcDbRegAppTableRecord
  2
GENIUS_GENOBJ-N-CEN_13
 70
     0
  0
ENDTAB
  0
TABLE
  2
DIMSTYLE
  5
A
330
0
100
AcDbSymbolTable
 70
     8
  0
DIMSTYLE
105
58
102
{ACAD_REACTORS
330
10F0
330
12D8
330
A446
330
B143
102
}
330
A
100
AcDbSymbolTableRecord
100
AcDbDimStyleTableRecord
  2
AM_JIS
 70
     0
  3

  4
"
  5
OPEN30
  6

  7

 40
1.0
 41
2.5
 42
1.0
 43
12.0
 44
1.0
 45
0.0
 46
0.0
 47
0.1
 48
0.1
140
3.2
141
0.0
142
0.0
143
0.0393701
144
1.0
145
0.0
146
0.71
147
1.5
 71
     0
 72
     0
 73
     0
 74
     0
 75
     0
 76
     0
 77
     3
 78
     8
170
     0
171
     2
172
     1
173
     0
174
     0
175
     0
176
   256
177
   256
178
     2
270
     2
271
     3
272
     3
273
     2
274
     2
340
6B
275
     0
280
     0
281
     0
282
     0
283
     0
284
     0
285
     0
286
     0
287
     3
288
     0
  0
DIMSTYLE
105
5F
330
A
100
AcDbSymbolTableRecord
100
AcDbDimStyleTableRecord
  2
AM_JIS$3
 70
     0
  3

  4
"
  5
OPEN30
  6

  7

 40
1.0
 41
2.5
 42
1.0
 43
10.0
 44
1.0
 45
0.0
 46
0.0
 47
0.1
 48
0.1
140
3.2
141
0.0
142
0.0
143
0.0393701
144
1.0
145
0.0
146
0.71
147
1.5
 71
     0
 72
     0
 73
     0
 74
     1
 75
     0
 76
     0
 77
     3
 78
     8
170
     0
171
     2
172
     0
173
     0
174
     0
175
     0
176
   256
177
   256
178
     2
270
     2
271
     2
272
     3
273
     2
274
     2
340
6B
275
     0
280
     0
281
     0
282
     0
283
     0
284
     0
285
     0
286
     0
287
     0
288
     1
  0
DIMSTYLE
105
60
330
A
100
AcDbSymbolTableRecord
100
AcDbDimStyleTableRecord
  2
AM_JIS$4
 70
     0
  3

  4
"
  5
OPEN30
  6

  7

 40
1.0
 41
2.5
 42
1.0
 43
10.0
 44
1.0
 45
0.0
 46
0.0
 47
0.1
 48
0.1
140
3.2
141
0.0
142
0.0
143
0.0393701
144
1.0
145
0.0
146
0.71
147
1.5
 71
     0
 72
     0
 73
     0
 74
     1
 75
     0
 76
     0
 77
     3
 78
     8
170
     0
171
     2
172
     0
173
     0
174
     0
175
     0
176
   256
177
   256
178
     2
270
     2
271
     2
272
     3
273
     2
274
     2
340
6B
275
     0
280
     0
281
     0
282
     0
283
     0
284
     0
285
     0
286
     0
287
     0
288
     1
  0
DIMSTYLE
105
61
330
A
100
AcDbSymbolTableRecord
100
AcDbDimStyleTableRecord
  2
AM_JIS$6
 70
     0
  3

  4
"
  5
OPEN30
  6

  7

 40
1.0
 41
2.5
 42
1.0
 43
10.0
 44
1.0
 45
0.0
 46
0.0
 47
0.1
 48
0.1
140
3.2
141
0.0
142
0.0
143
0.0393701
144
1.0
145
0.0
146
0.71
147
1.5
 71
     0
 72
     0
 73
     0
 74
     0
 75
     0
 76
     0
 77
     0
 78
     8
170
     0
171
     2
172
     1
173
     0
174
     0
175
     0
176
   256
177
   256
178
     2
270
     2
271
     2
272
     2
273
     2
274
     2
340
6B
275
     0
280
     0
281
     0
282
     0
283
     0
284
     0
285
     0
286
     0
287
     3
288
     0
  0
DIMSTYLE
105
62
330
A
100
AcDbSymbolTableRecord
100
AcDbDimStyleTableRecord
  2
AM_JIS$7
 70
     0
  3

  4
"
  5
OPEN30
  6

  7

 40
1.0
 41
2.5
 42
1.0
 43
10.0
 44
1.0
 45
0.0
 46
0.0
 47
0.1
 48
0.1
140
3.2
141
0.0
142
0.0
143
0.0393701
144
1.0
145
0.0
146
0.71
147
1.5
 71
     0
 72
     0
 73
     0
 74
     0
 75
     0
 76
     0
 77
     3
 78
     8
170
     0
171
     2
172
     1
173
     0
174
     0
175
     0
176
   256
177
   256
178
     2
270
     2
271
     2
272
     3
273
     2
274
     2
340
6B
275
     0
280
     0
281
     0
282
     0
283
     0
284
     0
285
     0
286
     0
287
     3
288
     0
  0
DIMSTYLE
105
63
330
A
100
AcDbSymbolTableRecord
100
AcDbDimStyleTableRecord
  2
AM_JIS$SF
 70
     0
  3

  4
"
  5
OPEN30
  6

  7

 40
1.0
 41
2.5
 42
1.0
 43
10.0
 44
1.0
 45
0.0
 46
0.0
 47
0.1
 48
0.1
140
3.2
141
0.0
142
0.0
143
0.0393701
144
1.0
145
0.0
146
0.71
147
1.5
 71
     0
 72
     0
 73
     0
 74
     0
 75
     1
 76
     1
 77
     3
 78
     8
170
     0
171
     2
172
     1
173
     0
174
     0
175
     0
176
   256
177
   256
178
     2
270
     2
271
     2
272
     2
273
     2
274
     2
340
6B
275
     0
280
     0
281
     0
282
     0
283
     0
284
     0
285
     0
286
     0
287
     3
288
     0
  0
DIMSTYLE
105
68
330
A
100
AcDbSymbolTableRecord
100
AcDbDimStyleTableRecord
  2
AM_JIS$SH
 70
     0
  3

  4
"
  5

  6
GENAXEH
  7
OPEN30
 40
1.0
 41
2.5
 42
1.0
 43
10.0
 44
1.0
 45
0.0
 46
0.0
 47
0.1
 48
0.1
140
3.2
141
0.0
142
0.0
143
0.0393701
144
2.0
145
0.0
146
0.71
147
1.5
 71
     0
 72
     0
 73
     0
 74
     0
 75
     1
 76
     1
 77
     3
 78
     8
170
     0
171
     2
172
     1
173
     1
174
     0
175
     0
176
   256
177
   256
178
     2
270
     2
271
     2
272
     2
273
     2
274
     2
340
6B
275
     0
280
     0
281
     0
282
     0
283
     0
284
     0
285
     0
286
     0
287
     3
288
     0
  0
DIMSTYLE
105
B34
330
A
100
AcDbSymbolTableRecord
100
AcDbDimStyleTableRecord
  2
AM_JIS$2
 70
     0
  3

  4
"
  5
OPEN30
  6

  7

 40
1.0
 41
2.5
 42
1.0
 43
12.0
 44
1.0
 45
0.0
 46
0.0
 47
0.1
 48
0.1
140
3.2
141
0.0
142
0.0
143
0.0393701
144
1.0
145
0.0
146
0.71
147
1.5
 71
     0
 72
     0
 73
     0
 74
     0
 75
     0
 76
     0
 77
     3
 78
     8
170
     0
171
     2
172
     1
173
     0
174
     0
175
     0
176
   256
177
   256
178
     2
270
     2
271
     3
272
     3
273
     2
274
     2
340
6B
275
     0
280
     0
281
     0
282
     0
283
     0
284
     0
285
     0
286
     0
287
     3
288
     0
  0
ENDTAB
  0
TABLE
  2
BLOCK_RECORD
  5
1
330
0
100
AcDbSymbolTable
 70
     9
  0
BLOCK_RECORD
  5
1F
102
{ACAD_XDICTIONARY
360
74
102
}
330
1
100
AcDbSymbolTableRecord
100
AcDbBlockTableRecord
  2
*MODEL_SPACE
  0
BLOCK_RECORD
  5
101
102
{ACAD_XDICTIONARY
360
B5C1
102
}
330
1
100
AcDbSymbolTableRecord
100
AcDbBlockTableRecord
  2
*PAPER_SPACE
  0
BLOCK_RECORD
  5
59
330
1
100
AcDbSymbolTableRecord
100
AcDbBlockTableRecord
  2
_OPEN30
  0
BLOCK_RECORD
  5
64
330
1
100
AcDbSymbolTableRecord
100
AcDbBlockTableRecord
  2
GENAXEH
  0
BLOCK_RECORD
  5
10F1
330
1
100
AcDbSymbolTableRecord
100
AcDbBlockTableRecord
  2
*D5
  0
BLOCK_RECORD
  5
12D9
330
1
100
AcDbSymbolTableRecord
100
AcDbBlockTableRecord
  2
*D6
  0
BLOCK_RECORD
  5
A447
330
1
100
AcDbSymbolTableRecord
100
AcDbBlockTableRecord
  2
*D7
  0
BLOCK_RECORD
  5
B144
330
1
100
AcDbSymbolTableRecord
100
AcDbBlockTableRecord
  2
*D8
  0
ENDTAB
  0
ENDSEC
  0
SECTION
  2
BLOCKS
  0
BLOCK
  5
20
330
1F
100
AcDbEntity
  8
0
100
AcDbBlockBegin
  2
*MODEL_SPACE
 70
     0
 10
0.0
 20
0.0
 30
0.0
  3
*MODEL_SPACE
  1

  0
ENDBLK
  5
21
330
1F
100
AcDbEntity
  8
0
100
AcDbBlockEnd
  0
BLOCK
  5
103
330
101
100
AcDbEntity
 67
     1
  8
0
100
AcDbBlockBegin
  2
*PAPER_SPACE
 70
     0
 10
0.0
 20
0.0
 30
0.0
  3
*PAPER_SPACE
  1

  0
ENDBLK
  5
104
330
101
100
AcDbEntity
 67
     1
  8
0
100
AcDbBlockEnd
  0
BLOCK
  5
5D
330
59
100
AcDbEntity
  8
0
100
AcDbBlockBegin
  2
_OPEN30
 70
     0
 10
0.0
 20
0.0
 30
0.0
  3
_OPEN30
  1

  0
LINE
  5
5A
330
59
100
AcDbEntity
  8
0
 62
     0
100
AcDbLine
 10
-1.0
 20
0.26794919
 30
0.0
 11
0.0
 21
0.0
 31
0.0
  0
LINE
  5
5B
330
59
100
AcDbEntity
  8
0
 62
     0
100
AcDbLine
 10
0.0
 20
0.0
 30
0.0
 11
-1.0
 21
-0.26794919
 31
0.0
  0
LINE
  5
5C
330
59
100
AcDbEntity
  8
0
 62
     0
100
AcDbLine
 10
0.0
 20
0.0
 30
0.0
 11
-1.0
 21
0.0
 31
0.0
  0
ENDBLK
  5
5E
330
59
100
AcDbEntity
  8
0
100
AcDbBlockEnd
  0
BLOCK
  5
66
330
64
100
AcDbEntity
  8
0
100
AcDbBlockBegin
  2
GENAXEH
 70
     0
 10
0.0
 20
0.0
 30
0.0
  3
GENAXEH
  1

  0
LINE
  5
65
330
64
100
AcDbEntity
  8
0
100
AcDbLine
 10
-1.0
 20
0.0
 30
0.0
 11
1.0
 21
0.0
 31
0.0
  0
ENDBLK
  5
67
330
64
100
AcDbEntity
  8
0
100
AcDbBlockEnd
  0
BLOCK
  5
10FB
330
10F1
100
AcDbEntity
  8
0
100
AcDbBlockBegin
  2
*D5
 70
     1
 10
0.0
 20
0.0
 30
0.0
  3
*D5
  1

  0
LINE
  5
B350
330
10F1
100
AcDbEntity
  8
AM_5
100
AcDbLine
 10
-90.0
 20
-7.666666666666703
 30
0.0
 11
-90.0
 21
-35.00000099999991
 31
0.0
  0
LINE
  5
B351
330
10F1
100
AcDbEntity
  8
AM_5
100
AcDbLine
 10
-0.0000000000019759
 20
-8.749999999995074
 30
0.0
 11
-0.0000000000019775
 21
-35.00000099999991
 31
0.0
  0
LINE
  5
B352
330
10F1
100
AcDbEntity
  8
AM_5
100
AcDbLine
 10
-87.5
 20
-34.00000099999991
 30
0.0
 11
-2.500000000001977
 21
-34.00000099999991
 31
0.0
  0
INSERT
  5
B353
330
10F1
100
AcDbEntity
  8
AM_5
100
AcDbBlockReference
  2
_OPEN30
 10
-90.0
 20
-34.00000099999991
 30
0.0
 41
2.5
 42
2.5
 43
2.5
 50
180.0
  0
INSERT
  5
B354
330
10F1
100
AcDbEntity
  8
AM_5
100
AcDbBlockReference
  2
_OPEN30
 10
-0.0000000000019775
 20
-34.00000099999991
 30
0.0
 41
2.5
 42
2.5
 43
2.5
  0
MTEXT
  5
B355
330
10F1
100
AcDbEntity
  8
AM_5
 62
     2
100
AcDbMText
 10
-45.00000000000098
 20
-30.90000099999991
 30
0.0
 40
3.2
 41
0.0
 71
     5
 72
     1
  1
90
  7
ASAMI
1001
ACAD
1000
MTEXTBEGIN
1070
    73
1070
     1
1070
    44
1040
1.0
1070
    74
1070
     0
1000
MTEXTEND
  0
POINT
  5
B356
330
10F1
100
AcDbEntity
  8
DEFPOINTS
 62
     0
100
AcDbPoint
 10
-90.0
 20
-6.666666666666703
 30
0.0
  0
POINT
  5
B357
330
10F1
100
AcDbEntity
  8
DEFPOINTS
 62
     0
100
AcDbPoint
 10
-0.0000000000019759
 20
-7.749999999995074
 30
0.0
  0
POINT
  5
B358
330
10F1
100
AcDbEntity
  8
DEFPOINTS
 62
     0
100
AcDbPoint
 10
-0.0000000000019775
 20
-34.00000099999991
 30
0.0
  0
ENDBLK
  5
10FC
330
10F1
100
AcDbEntity
  8
0
100
AcDbBlockEnd
  0
BLOCK
  5
12E5
330
12D9
100
AcDbEntity
  8
0
100
AcDbBlockBegin
  2
*D6
 70
     1
 10
0.0
 20
0.0
 30
0.0
  3
*D6
  1

  0
LINE
  5
B362
330
12D9
100
AcDbEntity
  8
AM_5
100
AcDbLine
 10
-0.0000000000007673
 20
-8.749999999995925
 30
0.0
 11
-0.0000000000007681
 21
-23.00000099999997
 31
0.0
  0
LINE
  5
B363
330
12D9
100
AcDbEntity
  8
AM_5
100
AcDbLine
 10
-35.00000000000035
 20
-8.749999999998088
 30
0.0
 11
-35.00000000000035
 21
-23.00000099999997
 31
0.0
  0
LINE
  5
B364
330
12D9
100
AcDbEntity
  8
AM_5
100
AcDbLine
 10
-2.500000000000768
 20
-22.00000099999998
 30
0.0
 11
-32.50000000000035
 21
-22.00000099999998
 31
0.0
  0
INSERT
  5
B365
330
12D9
100
AcDbEntity
  8
AM_5
100
AcDbBlockReference
  2
_OPEN30
 10
-0.0000000000007681
 20
-22.00000099999998
 30
0.0
 41
2.5
 42
2.5
 43
2.5
  0
INSERT
  5
B366
330
12D9
100
AcDbEntity
  8
AM_5
100
AcDbBlockReference
  2
_OPEN30
 10
-35.00000000000035
 20
-22.00000099999998
 30
0.0
 41
2.5
 42
2.5
 43
2.5
 50
180.0
  0
MTEXT
  5
B367
330
12D9
100
AcDbEntity
  8
AM_5
 62
     2
100
AcDbMText
 10
-17.50000000000055
 20
-18.90000099999998
 30
0.0
 40
3.2
 41
0.0
 71
     5
 72
     1
  1
35
  7
ASAMI
1001
ACAD
1000
MTEXTBEGIN
1070
    73
1070
     1
1070
    44
1040
1.0
1070
    74
1070
     0
1000
MTEXTEND
  0
POINT
  5
B368
330
12D9
100
AcDbEntity
  8
DEFPOINTS
 62
     0
100
AcDbPoint
 10
-0.0000000000007672
 20
-7.749999999995924
 30
0.0
  0
POINT
  5
B369
330
12D9
100
AcDbEntity
  8
DEFPOINTS
 62
     0
100
AcDbPoint
 10
-35.00000000000035
 20
-7.749999999998088
 30
0.0
  0
POINT
  5
B36A
330
12D9
100
AcDbEntity
  8
DEFPOINTS
 62
     0
100
AcDbPoint
 10
-35.00000000000035
 20
-22.00000099999998
 30
0.0
  0
ENDBLK
  5
12E6
330
12D9
100
AcDbEntity
  8
0
100
AcDbBlockEnd
  0
BLOCK
  5
A451
330
A447
100
AcDbEntity
  8
0
100
AcDbBlockBegin
  2
*D7
 70
     1
 10
0.0
 20
0.0
 30
0.0
  3
*D7
  1

  0
LINE
  5
B359
330
A447
100
AcDbEntity
  8
AM_5
100
AcDbLine
 10
-89.74999999999999
 20
7.999999999999966
 30
0.0
 11
-110.6386983892743
 21
7.999999999999973
 31
0.0
  0
LINE
  5
B35A
330
A447
100
AcDbEntity
  8
AM_5
100
AcDbLine
 10
-89.74999999999999
 20
-8.000000000000037
 30
0.0
 11
-110.6386983892743
 21
-8.00000000000003
 31
0.0
  0
LINE
  5
B35B
330
A447
100
AcDbEntity
  8
AM_5
100
AcDbLine
 10
-109.6386983892743
 20
5.499999999999971
 30
0.0
 11
-109.6386983892743
 21
-5.500000000000031
 31
0.0
  0
INSERT
  5
B35C
330
A447
100
AcDbEntity
  8
AM_5
100
AcDbBlockReference
  2
_OPEN30
 10
-109.6386983892743
 20
7.999999999999971
 30
0.0
 41
2.5
 42
2.5
 43
2.5
 50
90.0
  0
INSERT
  5
B35D
330
A447
100
AcDbEntity
  8
AM_5
100
AcDbBlockReference
  2
_OPEN30
 10
-109.6386983892743
 20
-8.00000000000003
 30
0.0
 41
2.5
 42
2.5
 43
2.5
 50
270.0
  0
MTEXT
  5
B35E
330
A447
100
AcDbEntity
  8
AM_5
 62
     2
100
AcDbMText
 10
-112.7386983892743
 20
-0.0000000000000185
 30
0.0
 40
3.2
 41
0.0
 71
     5
 72
     1
  1
%%c16
  7
ASAMI
 11
0.0000000000000001
 21
1.0
 31
0.0
1001
ACAD
1000
MTEXTBEGIN
1070
    73
1070
     1
1070
    44
1040
1.0
1070
    74
1070
     0
1000
MTEXTEND
  0
POINT
  5
B35F
330
A447
100
AcDbEntity
  8
DEFPOINTS
 62
     0
100
AcDbPoint
 10
-88.75
 20
7.999999999999966
 30
0.0
  0
POINT
  5
B360
330
A447
100
AcDbEntity
  8
DEFPOINTS
 62
     0
100
AcDbPoint
 10
-88.74999999999998
 20
-8.000000000000037
 30
0.0
  0
POINT
  5
B361
330
A447
100
AcDbEntity
  8
DEFPOINTS
 62
     0
100
AcDbPoint
 10
-109.6386983892743
 20
-8.00000000000003
 30
0.0
  0
ENDBLK
  5
A452
330
A447
100
AcDbEntity
  8
0
100
AcDbBlockEnd
  0
BLOCK
  5
B14E
330
B144
100
AcDbEntity
  8
0
100
AcDbBlockBegin
  2
*D8
 70
     1
 10
0.0
 20
0.0
 30
0.0
  3
*D8
  1

  0
LINE
  5
B36B
330
B144
100
AcDbEntity
  8
AM_5
100
AcDbLine
 10
1.0
 20
7.750000000000003
 30
0.0
 11
17.05105068025213
 21
7.749999999999999
 31
0.0
  0
LINE
  5
B36C
330
B144
100
AcDbEntity
  8
AM_5
100
AcDbLine
 10
0.9999999999995461
 20
-7.750000000000802
 30
0.0
 11
17.05105068025213
 21
-7.750000000000807
 31
0.0
  0
LINE
  5
B36D
330
B144
100
AcDbEntity
  8
AM_5
100
AcDbLine
 10
16.05105068025213
 20
5.249999999999999
 30
0.0
 11
16.05105068025213
 21
-5.250000000000807
 31
0.0
  0
INSERT
  5
B36E
330
B144
100
AcDbEntity
  8
AM_5
100
AcDbBlockReference
  2
_OPEN30
 10
16.05105068025213
 20
7.749999999999999
 30
0.0
 41
2.5
 42
2.5
 43
2.5
 50
90.0
  0
INSERT
  5
B36F
330
B144
100
AcDbEntity
  8
AM_5
100
AcDbBlockReference
  2
_OPEN30
 10
16.05105068025213
 20
-7.750000000000807
 30
0.0
 41
2.5
 42
2.5
 43
2.5
 50
270.0
  0
MTEXT
  5
B370
330
B144
100
AcDbEntity
  8
AM_5
 62
     2
100
AcDbMText
 10
12.95105068025213
 20
-0.0000000000004012
 30
0.0
 40
3.2
 41
0.0
 71
     5
 72
     1
  1
%%c15.5
  7
ASAMI
 11
0.0000000000000001
 21
1.0
 31
0.0
1001
ACAD
1000
MTEXTBEGIN
1070
    73
1070
     1
1070
    44
1040
1.0
1070
    74
1070
     0
1000
MTEXTEND
  0
POINT
  5
B371
330
B144
100
AcDbEntity
  8
DEFPOINTS
 62
     0
100
AcDbPoint
 10
0.0
 20
7.750000000000003
 30
0.0
  0
POINT
  5
B372
330
B144
100
AcDbEntity
  8
DEFPOINTS
 62
     0
100
AcDbPoint
 10
-0.0000000000004539
 20
-7.750000000000802
 30
0.0
  0
POINT
  5
B373
330
B144
100
AcDbEntity
  8
DEFPOINTS
 62
     0
100
AcDbPoint
 10
16.05105068025213
 20
-7.750000000000807
 30
0.0
  0
ENDBLK
  5
B14F
330
B144
100
AcDbEntity
  8
0
100
AcDbBlockEnd
  0
ENDSEC
  0
SECTION
  2
ENTITIES
  0
LINE
  5
C2E
330
1F
100
AcDbEntity
  8
AM_7
  6
AM_ISO08W050X2
100
AcDbLine
 10
2.051049680252134
 20
0.0
 30
0.0
 11
-91.5
 21
-0.0000000000000354
 31
0.0
  0
DIMENSION
  5
10F0
330
1F
100
AcDbEntity
  8
AM_5
100
AcDbDimension
  2
*D5
 10
-0.0000000000019775
 20
-34.00000099999991
 30
0.0
 11
-45.00000000000098
 21
-30.90000099999991
 31
0.0
 70
    32
  1
<>
  3
AM_JIS
100
AcDbAlignedDimension
 13
-90.0
 23
-6.666666666666703
 33
0.0
 14
-0.0000000000019759
 24
-7.749999999995074
 34
0.0
 50
0.0000000000001132
100
AcDbRotatedDimension
1001
GENIUS_GENDTOL_13
1000

1000
h7
1000

1040
0.0
  0
DIMENSION
  5
12D8
330
1F
100
AcDbEntity
  8
AM_5
100
AcDbDimension
  2
*D6
 10
-35.00000000000035
 20
-22.00000099999998
 30
0.0
 11
-17.50000000000055
 21
-18.90000099999998
 31
0.0
 70
    32
  1
<>
  3
AM_JIS
100
AcDbAlignedDimension
 13
-0.0000000000007672
 23
-7.749999999995924
 33
0.0
 14
-35.00000000000035
 24
-7.749999999998088
 34
0.0
 50
0.0000000000001132
100
AcDbRotatedDimension
1001
GENIUS_GENDTOL_13
1000

1000
h7
1000

1040
0.0
  0
LINE
  5
A440
330
1F
100
AcDbEntity
  8
AM_0
100
AcDbLine
 10
-88.75
 20
7.999999999999966
 30
0.0
 11
-50.50000000000002
 21
7.999999999999999
 31
0.0
  0
LINE
  5
A441
330
1F
100
AcDbEntity
  8
AM_0
100
AcDbLine
 10
-88.75000000000001
 20
-8.000000000000039
 30
0.0
 11
-50.5
 21
-8.00000000000001
 31
0.0
  0
LINE
  5
A445
330
1F
100
AcDbEntity
  8
AM_0
100
AcDbLine
 10
-90.00000000000001
 20
-6.750000000000039
 30
0.0
 11
-90.0
 21
6.749999999999965
 31
0.0
  0
DIMENSION
  5
A446
330
1F
100
AcDbEntity
  8
AM_5
100
AcDbDimension
  2
*D7
 10
-109.6386983892743
 20
-8.00000000000003
 30
0.0
 11
-109.6386983892743
 21
-0.0000000000000189
 31
0.0
 70
   160
  1
%%c<>
  3
AM_JIS
100
AcDbAlignedDimension
 13
-88.75
 23
7.999999999999966
 33
0.0
 14
-88.74999999999998
 24
-8.000000000000037
 34
0.0
 50
270.0
100
AcDbRotatedDimension
1001
GENIUS_GENDTOL_13
1000

1000
h7
1000

1040
0.0
  0
LINE
  5
A475
330
1F
100
AcDbEntity
  8
AM_7
  6
AM_ISO08W050X2
100
AcDbLine
 10
-90.0
 20
-0.0000000000000354
 30
0.0
 11
-95.6386973892744
 21
-0.0000000000000354
 31
0.0
1001
GENIUS_GENODEF_13
1002
{
1000
HIER
1070
     0
1002
}
1002
{
1000
MANEDIT
1070
     0
1002
}
1002
{
1000
NOSEL
1070
     0
1002
}
1002
{
1000
BEHIND
1070
     0
1002
}
1002
{
1000
REACTOR
1002
}
1001
GENIUS_GENOBJ-N-CEN_13
1002
{
1000
OWNER
1000
GEN
1002
}
  0
LINE
  5
A47D
330
1F
100
AcDbEntity
  8
AM_0
100
AcDbLine
 10
-50.5
 20
-8.000000000000005
 30
0.0
 11
-50.50000000000002
 21
8.000000000000005
 31
0.0
  0
LINE
  5
A490
330
1F
100
AcDbEntity
  8
AM_0
100
AcDbLine
 10
-90.0
 20
6.749999999999965
 30
0.0
 11
-88.75
 21
7.999999999999966
 31
0.0
1001
GENIUS_GENFIL_13
1070
     0
1040
1.25
1040
1.25
1040
20.0
1040
0.0
1002
{
1002
}
1001
GENIUS_GENODEF_13
1002
{
1000
HIER
1070
     0
1002
}
1002
{
1000
MANEDIT
1070
     0
1002
}
1002
{
1000
NOSEL
1070
     0
1002
}
1002
{
1000
BEHIND
1070
     0
1002
}
1002
{
1000
REACTOR
1002
}
1001
GENIUS_GENOBJ-N-CHA_13
1002
{
1000
OWNER
1000
GEN
1002
}
  0
LINE
  5
A492
330
1F
100
AcDbEntity
  8
AM_0
100
AcDbLine
 10
-88.75000000000001
 20
-8.000000000000039
 30
0.0
 11
-90.00000000000001
 21
-6.750000000000039
 31
0.0
1001
GENIUS_GENFIL_13
1070
     0
1040
1.25
1040
1.25
1040
20.0
1040
0.0
1002
{
1002
}
1001
GENIUS_GENODEF_13
1002
{
1000
HIER
1070
     0
1002
}
1002
{
1000
MANEDIT
1070
     0
1002
}
1002
{
1000
NOSEL
1070
     0
1002
}
1002
{
1000
BEHIND
1070
     0
1002
}
1002
{
1000
REACTOR
1002
}
1001
GENIUS_GENOBJ-N-CHA_13
1002
{
1000
OWNER
1000
GEN
1002
}
  0
LINE
  5
A493
330
1F
100
AcDbEntity
  8
AM_0
100
AcDbLine
 10
-88.75
 20
7.999999999999966
 30
0.0
 11
-88.74999999999998
 21
-8.000000000000067
 31
0.0
  0
LINE
  5
A6AD
330
1F
100
AcDbEntity
  8
AM_0
100
AcDbLine
 10
-50.50000000000001
 20
8.000000000000003
 30
0.0
 11
-49.81313064513624
 21
7.749999999999962
 31
0.0
  0
LINE
  5
A6AE
330
1F
100
AcDbEntity
  8
AM_0
100
AcDbLine
 10
-49.81313064513624
 20
7.749999999999961
 30
0.0
 11
-49.81313064513624
 21
6.475636438219913
 31
0.0
  0
LINE
  5
A6AF
330
1F
100
AcDbEntity
  8
AM_0
100
AcDbLine
 10
-49.81313064513615
 20
-7.749999999999933
 30
0.0
 11
-50.5
 21
-8.000000000000003
 31
0.0
  0
DIMENSION
  5
B143
330
1F
100
AcDbEntity
  8
AM_5
100
AcDbDimension
  2
*D8
 10
16.05105068025213
 20
-7.750000000000807
 30
0.0
 11
12.95105068025213
 21
-0.0000000000004012
 31
0.0
 70
    32
  1
%%c<>
  3
AM_JIS
100
AcDbAlignedDimension
 13
0.0
 23
7.750000000000003
 33
0.0
 14
-0.0000000000004539
 24
-7.750000000000802
 34
0.0
 50
90.00000000000005
100
AcDbRotatedDimension
1001
GENIUS_GENDTOL_13
1000

1000
h7
1000

1040
0.0
  0
LINE
  5
B2D2
330
1F
100
AcDbEntity
  8
AM_0
100
AcDbLine
 10
-0.5339724925673935
 20
0.9299999999999535
 30
0.0
 11
0.0
 21
1.550000000000007
 31
0.0
  0
LINE
  5
B2D3
330
1F
100
AcDbEntity
  8
AM_0
100
AcDbLine
 10
0.0
 20
1.550000000000007
 30
0.0
 11
0.0
 21
7.750000000000003
 31
0.0
  0
LINE
  5
B2D4
330
1F
100
AcDbEntity
  8
AM_0
100
AcDbLine
 10
-0.5965909090908994
 20
-6.321241285995565
 30
0.0
 11
-0.5965909090908994
 21
-6.237750918255553
 31
0.0
  0
ELLIPSE
  5
B2D5
330
1F
100
AcDbEntity
  8
AM_0
100
AcDbEllipse
 10
22.60167706742696
 20
0.0326078331479955
 30
0.0
 11
24.07446425667793
 21
0.00000000000021
 31
0.0
210
0.0
220
0.0
230
1.0
 40
0.9742857142857134
 41
3.060670780078399
 42
3.412214872769682
  0
LINE
  5
B2D6
330
1F
100
AcDbEntity
  8
AM_0
100
AcDbLine
 10
0.0
 20
0.3099999999999881
 30
0.0
 11
-3.749092185716683
 21
4.663102804918526
 31
0.0
  0
LINE
  5
B2D7
330
1F
100
AcDbEntity
  8
AM_0
100
AcDbLine
 10
0.0000000000000142
 20
-7.749999999999996
 30
0.0
 11
-0.1670454545454731
 21
-7.336833794313825
 31
0.0
  0
LINE
  5
B2D8
330
1F
100
AcDbEntity
  8
AM_0
100
AcDbLine
 10
-0.1670454545454731
 20
-7.336833794313825
 30
0.0
 11
-0.5965909090908994
 21
-6.321241285995565
 31
0.0
  0
LINE
  5
B2D9
330
1F
100
AcDbEntity
  8
AM_0
100
AcDbLine
 10
-0.1670454545454731
 20
-7.336833794313825
 30
0.0
 11
-0.1670454545454802
 21
0.5039578971947023
 31
0.0
  0
LINE
  5
B2DA
330
1F
100
AcDbEntity
  8
AM_0
100
AcDbLine
 10
0.0000000000000142
 20
-7.749999999999996
 30
0.0
 11
0.0
 21
0.3099999999999881
 31
0.0
  0
ELLIPSE
  5
B2DC
330
1F
100
AcDbEntity
  8
AM_0
100
AcDbEllipse
 10
-37.08442674810385
 20
-5.758515555471415
 30
0.0
 11
5.680069641492304
 21
11.43265725451205
 31
0.0
210
0.0
220
0.0
230
1.0
 40
0.6846200210943964
 41
1.271205757933036
 42
1.739152247828401
  0
ELLIPSE
  5
B2DD
330
1F
100
AcDbEntity
  8
AM_0
100
AcDbEllipse
 10
-35.20378232652358
 20
0.3521575635309295
 30
0.0
 11
-8.318493952857235
 21
0.0000000000004475
 31
0.0
210
0.0
220
0.0
230
1.0
 40
0.9742857142857202
 41
1.546296373348035
 42
2.124140613766358
  0
ELLIPSE
  5
B2DE
330
1F
100
AcDbEntity
  8
AM_0
100
AcDbEllipse
 10
-34.82788060019786
 20
12.48064538250586
 30
0.0
 11
19.99935761225375
 21
0.0000000000001522
 31
0.0
210
0.0
220
0.0
230
1.0
 40
0.9742857142857147
 41
4.134506855285145
 42
4.615705943178389
  0
ELLIPSE
  5
B2DF
330
1F
100
AcDbEntity
  8
AM_0
100
AcDbEllipse
 10
-33.94648575163873
 20
10.86675437212254
 30
0.0
 11
19.16388409196707
 21
0.0000000000006182
 31
0.0
210
0.0
220
0.0
230
1.0
 40
0.9742857142857172
 41
4.048660333193795
 42
4.636073652744025
  0
LINE
  5
B2E0
330
1F
100
AcDbEntity
  8
AM_11
100
AcDbLine
 10
-35.00000000000035
 20
-7.749999999998088
 30
0.0
 11
-35.00000000000037
 21
7.749999999999975
 31
0.0
  0
ELLIPSE
  5
B2E1
330
1F
100
AcDbEntity
  8
AM_0
100
AcDbEllipse
 10
22.94389560824316
 20
124.7628563973445
 30
0.0
 11
64.61327923946054
 21
124.0893497122032
 31
0.0
210
0.0
220
0.0
230
1.0
 40
0.5687818708194384
 41
3.014861099318619
 42
3.172103642928804
  0
LINE
  5
B2E2
330
1F
100
AcDbEntity
  8
AM_11
100
AcDbLine
 10
-35.00000000000036
 20
-7.749999999999921
 30
0.0
 11
0.0000000000000142
 21
-7.749999999999996
 31
0.0
  0
LINE
  5
B2E3
330
1F
100
AcDbEntity
  8
AM_0
100
AcDbLine
 10
-30.13928610216056
 20
6.218531939128555
 30
0.0
 11
-3.749092185716683
 21
4.663102804918526
 31
0.0
  0
LINE
  5
B2E4
330
1F
100
AcDbEntity
  8
AM_11
100
AcDbLine
 10
-0.0000000000012221
 20
7.750000000000003
 30
0.0
 11
-35.00000000000037
 21
7.749999999999975
 31
0.0
  0
LINE
  5
B2E5
330
1F
100
AcDbEntity
  8
AM_0
100
AcDbLine
 10
-18.34243966320338
 20
-5.946877961031404
 30
0.0
 11
-36.75846822306982
 21
-6.91344445150029
 31
0.0
  0
SPLINE
  5
B2E6
330
1F
100
AcDbEntity
  8
AM_0
100
AcDbSpline
210
0.0
220
0.0
230
1.0
 70
     8
 71
     3
 72
     8
 73
     4
 74
     0
 42
0.0000000001
 43
0.0000000001
 40
0.0
 40
0.0
 40
0.0
 40
0.0
 40
14.48999654934397
 40
14.48999654934397
 40
14.48999654934397
 40
14.48999654934397
 10
-42.13425931387422
 20
7.750000000000152
 30
0.0
 10
-35.58863819352971
 20
7.750000000000152
 30
0.0
 10
-28.61250091494666
 20
3.875000000000145
 30
0.0
 10
-21.63636363636361
 20
0.0000000000001599
 30
0.0
  0
SPLINE
  5
B2E7
330
1F
100
AcDbEntity
  8
AM_0
100
AcDbSpline
210
0.0
220
0.0
230
1.0
 70
     8
 71
     3
 72
     8
 73
     4
 74
     0
 42
0.0000000001
 43
0.0000000001
 40
0.3581103616548037
 40
0.3581103616548037
 40
0.3581103616548037
 40
0.3581103616548037
 40
14.43901837670146
 40
14.43901837670146
 40
14.43901837670146
 40
14.43901837670146
 10
-38.95997298197647
 20
7.46808596116069
 30
0.0
 10
-32.4921129057413
 20
7.331482962482478
 30
0.0
 10
-25.67581310355674
 20
3.665741481241273
 30
0.0
 10
-18.85951330137219
 20
0.0000000000000817
 30
0.0
  0
SPLINE
  5
B2E8
330
1F
100
AcDbEntity
  8
AM_0
100
AcDbSpline
210
0.0
220
0.0
230
1.0
 70
     8
 71
     3
 72
     8
 73
     4
 74
     0
 42
0.0000000001
 43
0.0000000001
 40
0.0
 40
0.0
 40
0.0
 40
0.0
 40
2.586565323616739
 40
2.586565323616739
 40
2.586565323616739
 40
2.586565323616739
 10
0.0
 20
6.31578916436015
 30
0.0
 10
-0.880198105345606
 20
5.290836954034059
 30
0.0
 10
-2.391008302957303
 20
4.850684385232749
 30
0.0
 10
-3.749092185716683
 20
4.663102804918526
 30
0.0
  0
SPLINE
  5
B2E9
330
1F
100
AcDbEntity
  8
AM_0
100
AcDbSpline
210
0.0
220
0.0
230
1.0
 70
     8
 71
     3
 72
     8
 73
     4
 74
     0
 42
0.0000000001
 43
0.0000000001
 40
0.0
 40
0.0
 40
0.0
 40
0.0
 40
7.57842115059705
 40
7.57842115059705
 40
7.57842115059705
 40
7.57842115059705
 10
0.0
 20
7.750000000000003
 30
0.0
 10
-4.018859701074191
 20
7.750000000000003
 30
0.0
 10
-7.84406623715251
 20
6.690032338772699
 30
0.0
 10
-11.57690225771569
 20
5.124471292077107
 30
0.0
  0
SPLINE
  5
B2EA
330
1F
100
AcDbEntity
  8
AM_0
100
AcDbSpline
210
0.0
220
0.0
230
1.0
 70
     8
 71
     3
 72
     8
 73
     4
 74
     0
 42
0.0000000001
 43
0.0000000001
 40
0.7142832446738512
 40
0.7142832446738512
 40
0.7142832446738512
 40
0.7142832446738512
 40
14.36247867694493
 40
14.36247867694493
 40
14.36247867694493
 40
14.36247867694493
 10
-35.55815052802718
 20
7.095631373278753
 30
0.0
 10
-28.98464805624818
 20
6.801100904987055
 30
0.0
 10
-22.32332212280284
 20
3.400550452493565
 30
0.0
 10
-15.66199618935749
 20
0.0000000000000817
 30
0.0
  0
SPLINE
  5
B2EB
330
1F
100
AcDbEntity
  8
AM_0
100
AcDbSpline
210
0.0
220
0.0
230
1.0
 70
     8
 71
     3
 72
     8
 73
     4
 74
     0
 42
0.0000000001
 43
0.0000000001
 40
0.0
 40
0.0
 40
0.0
 40
0.0
 40
14.48999654934395
 40
14.48999654934395
 40
14.48999654934395
 40
14.48999654934395
 10
0.0000000000000142
 20
-7.749999999999996
 30
0.0
 10
-7.684089079197541
 20
-7.75
 30
0.0
 10
-14.66022635778058
 20
-3.87500000000001
 30
0.0
 10
-21.63636363636361
 20
-0.0000000000000178
 30
0.0
  0
SPLINE
  5
B2EC
330
1F
100
AcDbEntity
  8
AM_0
100
AcDbSpline
210
0.0
220
0.0
230
1.0
 70
     8
 71
     3
 72
     8
 73
     4
 74
     0
 42
0.0000000001
 43
0.0000000001
 40
1.870660592686466
 40
1.870660592686466
 40
1.870660592686466
 40
1.870660592686466
 40
14.43901837670146
 40
14.43901837670146
 40
14.43901837670146
 40
14.43901837670146
 10
-0.1670454545454234
 20
-7.336833794313736
 30
0.0
 10
-6.691307304227656
 20
-6.543945948757297
 30
0.0
 10
-12.77541030279994
 20
-3.271972974378606
 30
0.0
 10
-18.85951330137219
 20
0.0000000000000817
 30
0.0
  0
SPLINE
  5
B2ED
330
1F
100
AcDbEntity
  8
AM_0
100
AcDbSpline
210
0.0
220
0.0
230
1.0
 70
     8
 71
     3
 72
     8
 73
     4
 74
     0
 42
0.0000000001
 43
0.0000000001
 40
4.219358800530717
 40
4.219358800530717
 40
4.219358800530717
 40
4.219358800530717
 40
14.36247867694493
 40
14.36247867694493
 40
14.36247867694493
 40
14.36247867694493
 10
-0.5965909090908071
 20
-6.32124128599521
 30
0.0
 10
-5.760815067779788
 20
-5.054469077117655
 30
0.0
 10
-10.71140562856864
 20
-2.527234538558786
 30
0.0
 10
-15.66199618935749
 20
0.0000000000000817
 30
0.0
  0
SPLINE
  5
B2EE
330
1F
100
AcDbEntity
  8
AM_0
100
AcDbSpline
210
0.0
220
0.0
230
1.0
 70
     8
 71
     3
 72
     8
 73
     4
 74
     0
 42
0.0000000001
 43
0.0000000001
 40
0.0
 40
0.0
 40
0.0
 40
0.0
 40
2.238610194515266
 40
2.238610194515266
 40
2.238610194515266
 40
2.238610194515266
 10
-18.34243966320338
 20
-5.946877961031404
 30
0.0
 10
-16.01471070244894
 20
-5.946877961031404
 30
0.0
 10
-13.72915943693029
 20
-5.655313689805037
 30
0.0
 10
-11.47270656383212
 20
-5.162599224555762
 30
0.0
  0
SPLINE
  5
B2EF
330
1F
100
AcDbEntity
  8
AM_0
100
AcDbSpline
210
0.0
220
0.0
230
1.0
 70
     8
 71
     3
 72
     8
 73
     4
 74
     0
 42
0.0000000001
 43
0.0000000001
 40
0.0
 40
0.0
 40
0.0
 40
0.0
 40
13.97258598406841
 40
13.97258598406841
 40
13.97258598406841
 40
13.97258598406841
 10
-18.34243966320338
 20
-5.946877961031404
 30
0.0
 10
-25.75214435172456
 20
-5.946877961031415
 30
0.0
 10
-32.73446350076279
 20
-2.992464433810159
 30
0.0
 10
-39.48618646738697
 20
-0.3898703252881519
 30
0.0
  0
SPLINE
  5
B2F0
330
1F
100
AcDbEntity
  8
AM_0
100
AcDbSpline
210
0.0
220
0.0
230
1.0
 70
     8
 71
     3
 72
     8
 73
     4
 74
     0
 42
0.0000000001
 43
0.0000000001
 40
0.0
 40
0.0
 40
0.0
 40
0.0
 40
5.192508374738713
 40
5.192508374738713
 40
5.192508374738713
 40
5.192508374738713
 10
-42.13425931387422
 20
7.749999999999975
 30
0.0
 10
-46.02633019872498
 20
7.749999999999975
 30
0.0
 10
-48.68902105650863
 20
7.252389479023566
 30
0.0
 10
-50.07196466600537
 20
6.313702792052541
 30
0.0
  0
LINE
  5
B2F4
330
1F
100
AcDbEntity
  8
AM_0
100
AcDbLine
 10
-49.81313064513625
 20
6.097061810168362
 30
0.0
 11
-49.81313064513631
 21
-7.749999999999993
 31
0.0
  0
LINE
  5
B2F5
330
1F
100
AcDbEntity
  8
AM_0
100
AcDbLine
 10
-42.13430343549806
 20
7.749999999999969
 30
0.0
 11
-49.81313064513624
 21
7.749999999999963
 31
0.0
  0
LINE
  5
B2F6
330
1F
100
AcDbEntity
  8
AM_0
100
AcDbLine
 10
-35.00000000000035
 20
-7.749999999999926
 30
0.0
 11
-49.81313064513615
 21
-7.749999999999933
 31
0.0
  0
TEXT
  5
B375
330
1F
100
AcDbEntity
  8
AM_6
100
AcDbText
 10
-60.95238095238193
 20
-56.50000099999991
 30
0.0
 40
5.0
  1
SSM2155
 72
     4
 11
-45.00000000000097
 21
-54.00000099999991
 31
0.0
100
AcDbText
  0
VIEWPORT
  5
110
330
101
100
AcDbEntity
 67
     1
  8
0
100
AcDbViewport
 10
420.5
 20
297.0
 30
0.0
 40
948.9782706766916
 41
628.452
 68
     1
 69
     1
1001
ACAD
1000
MVIEW
1002
{
1070
    16
1010
0.0
1020
0.0
1030
0.0
1010
0.0
1020
0.0
1030
1.0
1040
0.0
1040
628.452
1040
420.5
1040
297.0
1040
50.0
1040
0.0
1040
0.0
1070
     0
1070
   100
1070
     1
1070
     1
1070
     0
1070
     0
1070
     0
1070
     0
1040
0.0
1040
0.0
1040
0.0
1040
10.0
1040
10.0
1040
10.0
1040
10.0
1070
     0
1002
{
1002
}
1002
}
  0
ENDSEC
  0
SECTION
  2
OBJECTS
  0
DICTIONARY
  5
C
330
0
100
AcDbDictionary
  3
ACAD_GROUP
350
D
  3
ACAD_LAYOUT
350
1A
  3
ACAD_MLINESTYLE
350
17
  3
ACAD_PLOTSETTINGS
350
19
  3
ACAD_PLOTSTYLENAME
350
E
  3
ACDBVARIABLEDICTIONARY
350
34
  3
ACMDICTIONARY
350
43
  3
AMG
350
2B
  3
AMGSNAPSETTINGS
350
6E
  3
ASE_INDEX_DICTIONARY
350
151A
  3
DWGPROPS
350
B58D
  3
ACDBHEADERROUNDTRIPXREC
350
B599
  0
DICTIONARY
  5
74
330
1F
100
AcDbDictionary
280
     1
  3
ACAD_INDEX
360
B58F
  3
ACAD_LAYOUTSELFREF
360
B5BC
  0
DICTIONARY
  5
B5C1
330
101
100
AcDbDictionary
280
     1
  3
ACAD_LAYOUTSELFREF
360
B5C2
  0
DICTIONARY
  5
D
102
{ACAD_REACTORS
330
C
102
}
330
C
100
AcDbDictionary
  0
DICTIONARY
  5
1A
102
{ACAD_REACTORS
330
C
102
}
330
C
100
AcDbDictionary
  0
DICTIONARY
  5
17
102
{ACAD_REACTORS
330
C
102
}
330
C
100
AcDbDictionary
  3
STANDARD
350
18
  0
DICTIONARY
  5
19
102
{ACAD_REACTORS
330
C
102
}
330
C
100
AcDbDictionary
  0
ACDBDICTIONARYWDFLT
  5
E
102
{ACAD_REACTORS
330
C
102
}
330
C
100
AcDbDictionary
281
     1
  3
Normal
350
F
100
AcDbDictionaryWithDefault
340
F
  0
DICTIONARY
  5
34
102
{ACAD_REACTORS
330
C
102
}
330
C
100
AcDbDictionary
  3
INDEXCTL
350
35
  3
SORTENTS
350
B5E
  0
DICTIONARY
  5
43
102
{ACAD_REACTORS
330
C
102
}
330
C
100
AcDbDictionary
  3
ACMSTDDICTIONARY
350
260
  0
DICTIONARY
  5
2B
102
{ACAD_REACTORS
330
C
102
}
330
C
100
AcDbDictionary
  3
ACMGSETTINGS
350
2C
  0
DICTIONARY
  5
6E
102
{ACAD_REACTORS
330
C
102
}
330
C
100
AcDbDictionary
  0
DICTIONARY
  5
151A
102
{ACAD_REACTORS
330
C
102
}
330
C
100
AcDbDictionary
  3
ASEBLOCKHIERARCHYINDEXRECORD
350
151C
1001
DCO15
1040
1471862535.906
  0
XRECORD
  5
B58D
102
{ACAD_REACTORS
330
C
102
}
330
C
100
AcDbXrecord
  1
DWGPROPS COOKIE
  2

  3

  4

  6

  7

  8

  9

300
AmdtFileType=82
301
=
302
=
303
=
304
=
305
=
306
=
307
=
308
=
309
=
 40
0.4574666319444444
 41
2452838.430434386
 42
2453045.604327349
  1

 90
        1
  0
DICTIONARY
  5
B599
102
{ACAD_REACTORS
330
C
102
}
330
C
100
AcDbDictionary
  3
TSTACKALIGN
350
B59A
  3
TSTACKSIZE
350
B59B
  3
HYPERLINKBASE
350
B59C
  3
STYLESHEET
350
B59D
  3
LAYOUTDICT
350
B59E
  3
PLOTSETDICT
350
B59F
  3
PLOTSTYLNAMDICT
350
B5A0
  3
LWETCUNION
350
B5A1
  3
INSUNITS
350
B5A2
  3
CEPSNTYPE
350
B5A3
  3
FINGERPRINTGUID
350
B5A4
  3
VERSIONGUID
350
B5A5
  3
PSVPSCALE
350
B5A6
  3
DIMSTYLEDATA
350
B5A7
  3
PUCSORTHOREF
350
B5A8
  3
PUCSORTHOVIEW
350
B5A9
  3
PUCSBASE
350
B5AA
  3
PUCSORGTOP
350
B5AB
  3
PUCSORGBOTTOM
350
B5AC
  3
PUCSORGLEFT
350
B5AD
  3
PUCSORGRIGHT
350
B5AE
  3
PUCSORGFRONT
350
B5AF
  3
PUCSORGBACK
350
B5B0
  3
UCSORTHOREF
350
B5B1
  3
UCSORTHOVIEW
350
B5B2
  3
UCSBASE
350
B5B3
  3
UCSORGTOP
350
B5B4
  3
UCSORGBOTTOM
350
B5B5
  3
UCSORGLEFT
350
B5B6
  3
UCSORGRIGHT
350
B5B7
  3
UCSORGFRONT
350
B5B8
  3
UCSORGBACK
350
B5B9
  0
DICTIONARY
  5
B58F
102
{ACAD_REACTORS
330
74
102
}
330
74
100
AcDbDictionary
  3
*A1
350
B590
  0
XRECORD
  5
B5BC
102
{ACAD_REACTORS
330
74
102
}
330
74
100
AcDbXrecord
340
1F
  0
XRECORD
  5
B5C2
102
{ACAD_REACTORS
330
B5C1
102
}
330
B5C1
100
AcDbXrecord
340
101
  0
MLINESTYLE
  5
18
102
{ACAD_REACTORS
330
17
102
}
330
17
100
AcDbMlineStyle
  2
STANDARD
 70
     0
  3

 62
   256
 51
90.0
 52
90.0
 71
     2
 49
0.5
 62
   256
  6
BYLAYER
 49
-0.5
 62
   256
  6
BYLAYER
  0
ACDBPLACEHOLDER
  5
F
102
{ACAD_REACTORS
330
E
102
}
330
E
100
AcDbPlaceHolder
280
     0
  0
DICTIONARYVAR
  5
35
102
{ACAD_REACTORS
330
34
102
}
330
34
100
DictionaryVariables
280
     0
  1
1
  0
DICTIONARYVAR
  5
B5E
102
{ACAD_REACTORS
330
34
102
}
330
34
100
DictionaryVariables
280
     0
  1
96
  0
DICTIONARY
  5
260
102
{ACAD_REACTORS
330
43
102
}
330
43
100
AcDbDictionary
  0
DICTIONARY
  5
2C
102
{ACAD_REACTORS
330
2B
102
}
330
2B
100
AcDbDictionary
  3
DWGSETTINGS
350
2D
  0
XRECORD
  5
151C
102
{ACAD_REACTORS
330
151A
102
}
330
151A
100
AcDbXrecord
330
0
330
0
330
0
330
0
330
0
330
0
330
0
330
0
  0
XRECORD
  5
B59A
102
{ACAD_REACTORS
330
B599
102
}
330
B599
100
AcDbXrecord
 90
        1
  0
XRECORD
  5
B59B
102
{ACAD_REACTORS
330
B599
102
}
330
B599
100
AcDbXrecord
 90
       70
  0
XRECORD
  5
B59C
102
{ACAD_REACTORS
330
B599
102
}
330
B599
100
AcDbXrecord
  1

  0
XRECORD
  5
B59D
102
{ACAD_REACTORS
330
B599
102
}
330
B599
100
AcDbXrecord
  1
ASAMI.ctb
  0
XRECORD
  5
B59E
102
{ACAD_REACTORS
330
B599
102
}
330
B599
100
AcDbXrecord
340
1A
  0
XRECORD
  5
B59F
102
{ACAD_REACTORS
330
B599
102
}
330
B599
100
AcDbXrecord
340
19
  0
XRECORD
  5
B5A0
102
{ACAD_REACTORS
330
B599
102
}
330
B599
100
AcDbXrecord
340
E
  0
XRECORD
  5
B5A1
102
{ACAD_REACTORS
330
B599
102
}
330
B599
100
AcDbXrecord
 90
    10781
  0
XRECORD
  5
B5A2
102
{ACAD_REACTORS
330
B599
102
}
330
B599
100
AcDbXrecord
 90
        4
  0
XRECORD
  5
B5A3
102
{ACAD_REACTORS
330
B599
102
}
330
B599
100
AcDbXrecord
 90
        0
  0
XRECORD
  5
B5A4
102
{ACAD_REACTORS
330
B599
102
}
330
B599
100
AcDbXrecord
  1
{AFB28963-8C59-40AE-9337-C84526B81ACE}
  0
XRECORD
  5
B5A5
102
{ACAD_REACTORS
330
B599
102
}
330
B599
100
AcDbXrecord
  1
{6742F9E9-4638-4840-9956-FBB7142F41B4}
  0
XRECORD
  5
B5A6
102
{ACAD_REACTORS
330
B599
102
}
330
B599
100
AcDbXrecord
 40
0.0
  0
XRECORD
  5
B5A7
102
{ACAD_REACTORS
330
B599
102
}
330
B599
100
AcDbXrecord
1000
DSTYLE
1002
{
1070
    79
 70
     2
1070
   341
340
59
1070
   342
340
59
1070
   371
 70
    -1
1070
   372
 70
    -1
1002
}
  0
XRECORD
  5
B5A8
102
{ACAD_REACTORS
330
B599
102
}
330
B599
100
AcDbXrecord
340
0
  0
XRECORD
  5
B5A9
102
{ACAD_REACTORS
330
B599
102
}
330
B599
100
AcDbXrecord
 70
     0
  0
XRECORD
  5
B5AA
102
{ACAD_REACTORS
330
B599
102
}
330
B599
100
AcDbXrecord
340
0
  0
XRECORD
  5
B5AB
102
{ACAD_REACTORS
330
B599
102
}
330
B599
100
AcDbXrecord
 10
0.0
 20
0.0
 30
0.0
  0
XRECORD
  5
B5AC
102
{ACAD_REACTORS
330
B599
102
}
330
B599
100
AcDbXrecord
 10
0.0
 20
0.0
 30
0.0
  0
XRECORD
  5
B5AD
102
{ACAD_REACTORS
330
B599
102
}
330
B599
100
AcDbXrecord
 10
0.0
 20
0.0
 30
0.0
  0
XRECORD
  5
B5AE
102
{ACAD_REACTORS
330
B599
102
}
330
B599
100
AcDbXrecord
 10
0.0
 20
0.0
 30
0.0
  0
XRECORD
  5
B5AF
102
{ACAD_REACTORS
330
B599
102
}
330
B599
100
AcDbXrecord
 10
0.0
 20
0.0
 30
0.0
  0
XRECORD
  5
B5B0
102
{ACAD_REACTORS
330
B599
102
}
330
B599
100
AcDbXrecord
 10
0.0
 20
0.0
 30
0.0
  0
XRECORD
  5
B5B1
102
{ACAD_REACTORS
330
B599
102
}
330
B599
100
AcDbXrecord
340
0
  0
XRECORD
  5
B5B2
102
{ACAD_REACTORS
330
B599
102
}
330
B599
100
AcDbXrecord
 70
     0
  0
XRECORD
  5
B5B3
102
{ACAD_REACTORS
330
B599
102
}
330
B599
100
AcDbXrecord
340
0
  0
XRECORD
  5
B5B4
102
{ACAD_REACTORS
330
B599
102
}
330
B599
100
AcDbXrecord
 10
0.0
 20
0.0
 30
0.0
  0
XRECORD
  5
B5B5
102
{ACAD_REACTORS
330
B599
102
}
330
B599
100
AcDbXrecord
 10
0.0
 20
0.0
 30
0.0
  0
XRECORD
  5
B5B6
102
{ACAD_REACTORS
330
B599
102
}
330
B599
100
AcDbXrecord
 10
0.0
 20
0.0
 30
0.0
  0
XRECORD
  5
B5B7
102
{ACAD_REACTORS
330
B599
102
}
330
B599
100
AcDbXrecord
 10
0.0
 20
0.0
 30
0.0
  0
XRECORD
  5
B5B8
102
{ACAD_REACTORS
330
B599
102
}
330
B599
100
AcDbXrecord
 10
0.0
 20
0.0
 30
0.0
  0
XRECORD
  5
B5B9
102
{ACAD_REACTORS
330
B599
102
}
330
B599
100
AcDbXrecord
 10
0.0
 20
0.0
 30
0.0
  0
LAYER_INDEX
  5
B590
102
{ACAD_REACTORS
330
B58F
102
}
330
B58F
100
AcDbIndex
 40
2453151.841930324
100
AcDbLayerIndex
  8
0
360
B591
 90
        0
  8
AM_0
360
B592
 90
       40
  8
AM_11
360
B593
 90
        3
  8
AM_7
360
B594
 90
        2
  8
AM_5
360
B595
 90
        4
  8
Defpoints
360
B596
 90
        0
  8
AM_6
360
B597
 90
        1
  0
XRECORD
  5
2D
102
{ACAD_REACTORS
330
2C
102
}
330
2C
100
AcDbXrecord
  1
VERSION
140
15.0
  1
PRODUCT
  2
AutoCAD Mechanical 2000
  0
IDBUFFER
  5
B591
330
0
100
AcDbIdBuffer
  0
IDBUFFER
  5
B592
330
0
100
AcDbIdBuffer
330
B2D8
330
B2D9
330
B2DA
330
B2DC
330
B2DD
330
B2DE
330
B2DF
330
B2E1
330
B2E3
330
B2E5
330
B2E6
330
B2E7
330
B2E8
330
B2E9
330
B2EA
330
B2EB
330
B2EC
330
B2ED
330
B2EE
330
B2EF
330
B2F0
330
B2F4
330
B2F5
330
B2F6
330
A440
330
A441
330
A445
330
A47D
330
A490
330
A492
330
A493
330
A6AD
330
A6AE
330
A6AF
330
B2D2
330
B2D3
330
B2D4
330
B2D5
330
B2D6
330
B2D7
  0
IDBUFFER
  5
B593
330
0
100
AcDbIdBuffer
330
B2E0
330
B2E2
330
B2E4
  0
IDBUFFER
  5
B594
330
0
100
AcDbIdBuffer
330
C2E
330
A475
  0
IDBUFFER
  5
B595
330
0
100
AcDbIdBuffer
330
10F0
330
12D8
330
A446
330
B143
  0
IDBUFFER
  5
B596
330
0
100
AcDbIdBuffer
  0
IDBUFFER
  5
B597
330
0
100
AcDbIdBuffer
330
B375
  0
ENDSEC
  0
EOF
