  0
SECTION
  2
HEADER
  9
$ACADVER
  1
AC1014
  9
$ACADMAINTVER
 70
     9
  9
$DWGCODEPAGE
  3
ANSI_932
  9
$INSBASE
 10
0.0
 20
0.0
 30
0.0
  9
$EXTMIN
 10
-108.6999999999999
 20
-57.00000000000023
 30
-0.00000001
  9
$EXTMAX
 10
15.37777777777777
 20
8.567045198045398
 30
0.00000001
  9
$LIMMIN
 10
-117.3405074784071
 20
-71.06966296033125
  9
$LIMMAX
 10
33.94195492091887
 20
18.30807680234488
  9
$ORTHOMODE
 70
     0
  9
$REGENMODE
 70
     1
  9
$FILLMODE
 70
     1
  9
$QTEXTMODE
 70
     0
  9
$MIRRTEXT
 70
     0
  9
$DRAGMODE
 70
     2
  9
$LTSCALE
 40
1.0
  9
$OSMODE
 70
    55
  9
$ATTMODE
 70
     1
  9
$TEXTSIZE
 40
2.5
  9
$TRACEWID
 40
1.0
  9
$TEXTSTYLE
  7
STANDARD
  9
$CLAYER
  8
AM_0
  9
$CELTYPE
  6
BYLAYER
  9
$CECOLOR
 62
   256
  9
$CELTSCALE
 40
1.0
  9
$DELOBJ
 70
     1
  9
$DISPSILH
 70
     0
  9
$DIMSCALE
 40
1.0
  9
$DIMASZ
 40
2.5
  9
$DIMEXO
 40
1.0
  9
$DIMDLI
 40
12.0
  9
$DIMRND
 40
0.0
  9
$DIMDLE
 40
0.0
  9
$DIMEXE
 40
1.0
  9
$DIMTP
 40
0.1
  9
$DIMTM
 40
0.1
  9
$DIMTXT
 40
3.2
  9
$DIMCEN
 40
0.0
  9
$DIMTSZ
 40
0.0
  9
$DIMTOL
 70
     0
  9
$DIMLIM
 70
     0
  9
$DIMTIH
 70
     0
  9
$DIMTOH
 70
     0
  9
$DIMSE1
 70
     0
  9
$DIMSE2
 70
     0
  9
$DIMTAD
 70
     3
  9
$DIMZIN
 70
     8
  9
$DIMBLK
  1
OPEN30
  9
$DIMASO
 70
     1
  9
$DIMSHO
 70
     1
  9
$DIMPOST
  1

  9
$DIMAPOST
  1
"
  9
$DIMALT
 70
     0
  9
$DIMALTD
 70
     2
  9
$DIMALTF
 40
0.0393701
  9
$DIMLFAC
 40
1.0
  9
$DIMTOFL
 70
     1
  9
$DIMTVP
 40
0.0
  9
$DIMTIX
 70
     0
  9
$DIMSOXD
 70
     0
  9
$DIMSAH
 70
     0
  9
$DIMBLK1
  1

  9
$DIMBLK2
  1

  9
$DIMSTYLE
  2
AM_JIS
  9
$DIMCLRD
 70
   256
  9
$DIMCLRE
 70
   256
  9
$DIMCLRT
 70
     2
  9
$DIMTFAC
 40
0.71
  9
$DIMGAP
 40
1.5
  9
$DIMJUST
 70
     0
  9
$DIMSD1
 70
     0
  9
$DIMSD2
 70
     0
  9
$DIMTOLJ
 70
     0
  9
$DIMTZIN
 70
     0
  9
$DIMALTZ
 70
     0
  9
$DIMALTTZ
 70
     0
  9
$DIMFIT
 70
     3
  9
$DIMUPT
 70
     0
  9
$DIMUNIT
 70
     2
  9
$DIMDEC
 70
     3
  9
$DIMTDEC
 70
     3
  9
$DIMALTU
 70
     2
  9
$DIMALTTD
 70
     2
  9
$DIMTXSTY
  7
ASAMI
  9
$DIMAUNIT
 70
     0
  9
$LUNITS
 70
     2
  9
$LUPREC
 70
     2
  9
$SKETCHINC
 40
1.0
  9
$FILLETRAD
 40
2.5
  9
$AUNITS
 70
     0
  9
$AUPREC
 70
     0
  9
$MENU
  1
.
  9
$ELEVATION
 40
0.0
  9
$PELEVATION
 40
0.0
  9
$THICKNESS
 40
0.0
  9
$LIMCHECK
 70
     0
  9
$BLIPMODE
 70
     0
  9
$CHAMFERA
 40
0.5
  9
$CHAMFERB
 40
0.5
  9
$CHAMFERC
 40
20.0
  9
$CHAMFERD
 40
0.0
  9
$SKPOLY
 70
     0
  9
$TDCREATE
 40
2452809.557180439
  9
$TDUPDATE
 40
2453151.805059803
  9
$TDINDWG
 40
0.0344236574
  9
$TDUSRTIMER
 40
0.0344236574
  9
$USRTIMER
 70
     1
  9
$ANGBASE
 50
0.0
  9
$ANGDIR
 70
     0
  9
$PDMODE
 70
     0
  9
$PDSIZE
 40
0.0
  9
$PLINEWID
 40
0.0
  9
$COORDS
 70
     1
  9
$SPLFRAME
 70
     0
  9
$SPLINETYPE
 70
     6
  9
$SPLINESEGS
 70
     8
  9
$ATTDIA
 70
     1
  9
$ATTREQ
 70
     1
  9
$HANDLING
 70
 12289
  9
$HANDSEED
  5
161A
  9
$SURFTAB1
 70
     6
  9
$SURFTAB2
 70
     6
  9
$SURFTYPE
 70
     6
  9
$SURFU
 70
     6
  9
$SURFV
 70
     6
  9
$UCSNAME
  2

  9
$UCSORG
 10
0.0
 20
-0.0000000000000007
 30
0.0
  9
$UCSXDIR
 10
1.0
 20
0.0
 30
0.0
  9
$UCSYDIR
 10
0.0
 20
1.0
 30
0.0
  9
$PUCSNAME
  2

  9
$PUCSORG
 10
0.0
 20
0.0
 30
0.0
  9
$PUCSXDIR
 10
1.0
 20
0.0
 30
0.0
  9
$PUCSYDIR
 10
0.0
 20
1.0
 30
0.0
  9
$USERI1
 70
     0
  9
$USERI2
 70
     0
  9
$USERI3
 70
     0
  9
$USERI4
 70
     0
  9
$USERI5
 70
     0
  9
$USERR1
 40
0.0
  9
$USERR2
 40
0.0
  9
$USERR3
 40
0.0
  9
$USERR4
 40
0.0
  9
$USERR5
 40
0.0
  9
$WORLDVIEW
 70
     1
  9
$SHADEDGE
 70
     3
  9
$SHADEDIF
 70
    70
  9
$TILEMODE
 70
     1
  9
$MAXACTVP
 70
    64
  9
$PINSBASE
 10
0.0
 20
0.0
 30
0.0
  9
$PLIMCHECK
 70
     0
  9
$PEXTMIN
 10
1.000000000000000E+20
 20
1.000000000000000E+20
 30
1.000000000000000E+20
  9
$PEXTMAX
 10
-1.000000000000000E+20
 20
-1.000000000000000E+20
 30
-1.000000000000000E+20
  9
$PLIMMIN
 10
0.0
 20
0.0
  9
$PLIMMAX
 10
841.0
 20
594.0
  9
$UNITMODE
 70
     0
  9
$VISRETAIN
 70
     1
  9
$PLINEGEN
 70
     0
  9
$PSLTSCALE
 70
     0
  9
$TREEDEPTH
 70
  3020
  9
$PICKSTYLE
 70
     0
  9
$CMLSTYLE
  2
STANDARD
  9
$CMLJUST
 70
     0
  9
$CMLSCALE
 40
20.0
  9
$PROXYGRAPHICS
 70
     1
  9
$MEASUREMENT
 70
     1
  0
ENDSEC
  0
SECTION
  2
CLASSES
  0
CLASS
  1
ACDBDICTIONARYWDFLT
  2
AcDbDictionaryWithDefault
  3
AutoCAD 2000
 90
        0
280
     0
281
     0
  0
CLASS
  1
ACDBPLACEHOLDER
  2
AcDbPlaceHolder
  3
AutoCAD 2000
 90
        0
280
     0
281
     0
  0
CLASS
  1
LAYOUT
  2
AcDbLayout
  3
AutoCAD 2000
 90
        0
280
     0
281
     0
  0
CLASS
  1
AMGSETTINGSOBJ
  2
AmgSettingsObj
  3
"AcadM|Product Description: AutoCAD Mechanical 2000|Company: Autodesk"
 90
        0
280
     0
281
     0
  0
CLASS
  1
ACME_DOCUMENT
  2
AcMeDbDoc
  3
AcMeServices
 90
        0
280
     0
281
     0
  0
CLASS
  1
ACMESCOPE
  2
AcMeScope
  3
AcMeServices
 90
        0
280
     0
281
     0
  0
CLASS
  1
ACMECOMMANDHISTORY
  2
AcMeCommandHistory
  3
AcMeServices
 90
        0
280
     0
281
     0
  0
CLASS
  1
DICTIONARYVAR
  2
AcDbDictionaryVar
  3
AutoCAD 2000
 90
        0
280
     0
281
     0
  0
CLASS
  1
ACIMSYSVARMAN
  2
AcImSysVarManager
  3
AcMeServices
 90
        0
280
     0
281
     0
  0
CLASS
  1
ACIMREALSYSVAR
  2
AcImRealSysVar
  3
AcMeServices
 90
        0
280
     0
281
     0
  0
CLASS
  1
ACIMINTSYSVAR
  2
AcImIntSysVar
  3
AcMeServices
 90
        0
280
     0
281
     0
  0
CLASS
  1
ACMEDRAWINGMAN
  2
AcMeDrawingMan
  3
AcMeServices
 90
        0
280
     0
281
     0
  0
CLASS
  1
ACMEVIEW
  2
AcMeView
  3
AcMeServices
 90
        0
280
     0
281
     0
  0
CLASS
  1
ACDBENTITYCACHE
  2
AcMeEntityCache
  3
AcMeServices
 90
        0
280
     0
281
     0
  0
CLASS
  1
GSMANAGER
  2
AcMeGSManager
  3
AcMeServices
 90
        0
280
     0
281
     0
  0
CLASS
  1
AmdtInternalReactor
  2
AmdtInternalReactor
  3
AcMeServices
 90
        0
280
     0
281
     0
  0
CLASS
  1
ACMESTATEMGR
  2
AcMeStateMgr
  3
AcMeServices
 90
        0
280
     0
281
     0
  0
CLASS
  1
ACME_DATABASE
  2
AcMeDbDatabase
  3
AcMeServices
 90
        0
280
     0
281
     0
  0
CLASS
  1
ACRFINSADJUSTERMGR
  2
AcRfInsAdjusterMgr
  3
AcMeServices
 90
        0
280
     0
281
     0
  0
CLASS
  1
ACMDATADICTIONARY
  2
AcmDataDictionary
  3
"AcmSymBB|Product Description: AutoCAD Mechanical 2000|Company: Autodesk"
 90
        0
280
     0
281
     0
  0
CLASS
  1
ACMDATAENTRYBLOCK
  2
AcmDataEntryBlock
  3
"AcmSymBB|Product Description: AutoCAD Mechanical 2000|Company: Autodesk"
 90
        0
280
     0
281
     0
  0
CLASS
  1
AMGOBJPROPCFG
  2
AmgObjPropCfg
  3
"AmgLay|Product Description: AutoCAD Mechanical 2000|Company: Autodesk"
 90
        1
280
     0
281
     0
  0
CLASS
  1
ACAMGFILTERDAT
  2
AcAmgFilterDat
  3
"AcadM|Product Description: AutoCAD Mechanical 2000|Company: Autodesk"
 90
        0
280
     0
281
     0
  0
CLASS
  1
LAYER_INDEX
  2
AcDbLayerIndex
  3
AutoCAD 2000
 90
        0
280
     0
281
     0
  0
CLASS
  1
IDBUFFER
  2
AcDbIdBuffer
  3
AutoCAD 2000
 90
        0
280
     0
281
     0
  0
CLASS
  1
ACIMSTRSYSVAR
  2
AcImStrSysVar
  3
AcMeServices
 90
        0
280
     0
281
     0
  0
CLASS
  1
ACMSTANDARDJIS
  2
AcmStandardJIS
  3
"AcmSymBB|Product Description: AutoCAD Mechanical 2000|Company: Autodesk"
 90
        0
280
     0
281
     0
  0
CLASS
  1
ACMSURFSTANDARDJIS
  2
AcmSurfTextStdJIS
  3
"AcmSymBB|Product Description: AutoCAD Mechanical 2000|Company: Autodesk"
 90
        0
280
     0
281
     0
  0
CLASS
  1
ACMFCFSTANDARDJIS
  2
AcmFCFStdJIS
  3
"AcmSymBB|Product Description: AutoCAD Mechanical 2000|Company: Autodesk"
 90
        0
280
     0
281
     0
  0
CLASS
  1
ACMWELDSTANDARDJIS
  2
AcmWeldingStdJIS
  3
"AcmSymBB|Product Description: AutoCAD Mechanical 2000|Company: Autodesk"
 90
        0
280
     0
281
     0
  0
CLASS
  1
ACMIDSTANDARDJIS
  2
AcmIdStdJIS
  3
"AcmSymBB|Product Description: AutoCAD Mechanical 2000|Company: Autodesk"
 90
        0
280
     0
281
     0
  0
CLASS
  1
ACMDATUMSTANDARDJIS
  2
AcmDatumStdJIS
  3
"AcmSymBB|Product Description: AutoCAD Mechanical 2000|Company: Autodesk"
 90
        0
280
     0
281
     0
  0
CLASS
  1
ACMBOMSTANDARDJIS
  2
AcmBOMStdJIS
  3
"AcmSymBB|Product Description: AutoCAD Mechanical 2000|Company: Autodesk"
 90
        0
280
     0
281
     0
  0
CLASS
  1
ACMSTANDARDANSI
  2
AcmStandardANSI
  3
"AcmSymBB|Product Description: AutoCAD Mechanical 2000|Company: Autodesk"
 90
        0
280
     0
281
     0
  0
CLASS
  1
ACMSURFSTANDARDANSI
  2
AcmSurfTextStdANSI
  3
"AcmSymBB|Product Description: AutoCAD Mechanical 2000|Company: Autodesk"
 90
        0
280
     0
281
     0
  0
CLASS
  1
ACMFCFSTANDARDANSI
  2
AcmFCFStdANSI
  3
"AcmSymBB|Product Description: AutoCAD Mechanical 2000|Company: Autodesk"
 90
        0
280
     0
281
     0
  0
CLASS
  1
ACMWELDSTANDARDANSI
  2
AcmWeldingStdANSI
  3
"AcmSymBB|Product Description: AutoCAD Mechanical 2000|Company: Autodesk"
 90
        0
280
     0
281
     0
  0
CLASS
  1
ACMIDSTANDARDANSI
  2
AcmIdStdANSI
  3
"AcmSymBB|Product Description: AutoCAD Mechanical 2000|Company: Autodesk"
 90
        0
280
     0
281
     0
  0
CLASS
  1
ACMDATUMSTANDARDANSI
  2
AcmDatumStdANSI
  3
"AcmSymBB|Product Description: AutoCAD Mechanical 2000|Company: Autodesk"
 90
        0
280
     0
281
     0
  0
CLASS
  1
ACMBOMSTANDARDANSI
  2
AcmBOMStdANSI
  3
"AcmSymBB|Product Description: AutoCAD Mechanical 2000|Company: Autodesk"
 90
        0
280
     0
281
     0
  0
CLASS
  1
ACMSTANDARDBSI
  2
AcmStandardBSI
  3
"AcmSymBB|Product Description: AutoCAD Mechanical 2000|Company: Autodesk"
 90
        0
280
     0
281
     0
  0
CLASS
  1
ACMSURFSTANDARDBSI
  2
AcmSurfTextStdBSI
  3
"AcmSymBB|Product Description: AutoCAD Mechanical 2000|Company: Autodesk"
 90
        0
280
     0
281
     0
  0
CLASS
  1
ACMFCFSTANDARDBSI
  2
AcmFCFStdBSI
  3
"AcmSymBB|Product Description: AutoCAD Mechanical 2000|Company: Autodesk"
 90
        0
280
     0
281
     0
  0
CLASS
  1
ACMWELDSTANDARDBSI
  2
AcmWeldingStdBSI
  3
"AcmSymBB|Product Description: AutoCAD Mechanical 2000|Company: Autodesk"
 90
        0
280
     0
281
     0
  0
CLASS
  1
ACMIDSTANDARDBSI
  2
AcmIdStdBSI
  3
"AcmSymBB|Product Description: AutoCAD Mechanical 2000|Company: Autodesk"
 90
        0
280
     0
281
     0
  0
CLASS
  1
ACMDATUMSTANDARDBSI
  2
AcmDatumStdBSI
  3
"AcmSymBB|Product Description: AutoCAD Mechanical 2000|Company: Autodesk"
 90
        0
280
     0
281
     0
  0
CLASS
  1
ACMBOMSTANDARDBSI
  2
AcmBOMStdBSI
  3
"AcmSymBB|Product Description: AutoCAD Mechanical 2000|Company: Autodesk"
 90
        0
280
     0
281
     0
  0
CLASS
  1
LONG_TRANSACTION
  2
AcDbLongTransaction
  3
AutoCAD 2000
 90
        0
280
     0
281
     0
  0
CLASS
  1
LWPOLYLINE
  2
AcDbPolyline
  3
AutoCAD 2000
 90
        0
280
     0
281
     1
  0
CLASS
  1
HATCH
  2
AcDbHatch
  3
AutoCAD 2000
 90
        0
280
     0
281
     1
  0
CLASS
  1
XRECORD
  2
AcDbXrecord
  3
AutoCAD 2000
 90
        0
280
     0
281
     0
  0
ENDSEC
  0
SECTION
  2
TABLES
  0
TABLE
  2
VPORT
  5
8
330
0
100
AcDbSymbolTable
 70
     3
  0
VPORT
  5
15E9
330
8
100
AcDbSymbolTableRecord
100
AcDbViewportTableRecord
  2
*ACTIVE
 70
     0
 10
0.0
 20
0.0
 11
1.0
 21
1.0
 12
-39.9808673995578
 22
-29.76559719607976
 13
0.0
 23
0.0
 14
2.5
 24
2.5
 15
10.0
 25
10.0
 16
0.0
 26
0.0
 36
1.0
 17
0.0
 27
0.0
 37
0.0
 40
216.7106637789722
 41
1.56570841889117
 42
50.0
 43
0.0
 44
0.0
 50
0.0
 51
0.0
 71
     0
 72
   100
 73
     1
 74
     3
 75
     0
 76
     0
 77
     0
 78
     0
  0
ENDTAB
  0
TABLE
  2
LTYPE
  5
5
330
0
100
AcDbSymbolTable
 70
    10
  0
LTYPE
  5
14
330
5
100
AcDbSymbolTableRecord
100
AcDbLinetypeTableRecord
  2
BYBLOCK
 70
     0
  3

 72
    65
 73
     0
 40
0.0
  0
LTYPE
  5
15
330
5
100
AcDbSymbolTableRecord
100
AcDbLinetypeTableRecord
  2
BYLAYER
 70
     0
  3

 72
    65
 73
     0
 40
0.0
  0
LTYPE
  5
16
330
5
100
AcDbSymbolTableRecord
100
AcDbLinetypeTableRecord
  2
CONTINUOUS
 70
     0
  3
Solid line
 72
    65
 73
     0
 40
0.0
  0
LTYPE
  5
4B
330
5
100
AcDbSymbolTableRecord
100
AcDbLinetypeTableRecord
  2
AM_ISO02W050
 70
     0
  3
__ __ __ __ __ __ __ __ __ __ __ __ __ __ __
 72
    65
 73
     2
 40
7.5
 49
6.0
 74
     0
 49
-1.5
 74
     0
  0
LTYPE
  5
4C
330
5
100
AcDbSymbolTableRecord
100
AcDbLinetypeTableRecord
  2
AM_ISO08W050
 70
     0
  3
____ . ____ . ____ . ____ . ____ . ____ . ____
 72
    65
 73
     4
 40
18.0
 49
12.0
 74
     0
 49
-1.5
 74
     0
 49
3.0
 74
     0
 49
-1.5
 74
     0
  0
LTYPE
  5
4D
330
5
100
AcDbSymbolTableRecord
100
AcDbLinetypeTableRecord
  2
AM_ISO09W050
 70
     0
  3
_____ . . _____ . . _____ . . ____ .. ____
 72
    65
 73
     6
 40
22.5
 49
12.0
 74
     0
 49
-1.5
 74
     0
 49
3.0
 74
     0
 49
-1.5
 74
     0
 49
3.0
 74
     0
 49
-1.5
 74
     0
  0
LTYPE
  5
4E
330
5
100
AcDbSymbolTableRecord
100
AcDbLinetypeTableRecord
  2
AMCONSTR
 70
     0
  3
_______________________
 72
    65
 73
     2
 40
9999.0
 49
9999.0
 74
     0
 49
0.0
 74
     0
  0
LTYPE
  5
4F
330
5
100
AcDbSymbolTableRecord
100
AcDbLinetypeTableRecord
  2
AM_ISO02W050X2
 70
     0
  3
 _ _ _ _ _ _ _ _ _ _ _ _
 72
    65
 73
     2
 40
3.75
 49
3.0
 74
     0
 49
-0.75
 74
     0
  0
LTYPE
  5
50
330
5
100
AcDbSymbolTableRecord
100
AcDbLinetypeTableRecord
  2
AM_ISO08W050X2
 70
     0
  3
__ . __ . __ . __ . __ . __
 72
    65
 73
     4
 40
9.0
 49
6.0
 74
     0
 49
-0.75
 74
     0
 49
1.5
 74
     0
 49
-0.75
 74
     0
  0
LTYPE
  5
53
330
5
100
AcDbSymbolTableRecord
100
AcDbLinetypeTableRecord
  2
AMZIGZAG
 70
     0
  3
/\/-/\/-/\/-/\/-/\/-/\/
 72
    65
 73
     2
 40
11.00009999999999
 49
0.0001
 74
     4
 75
   135
340
52
 46
0.04
 50
0.0
 44
0.0
 45
0.0
 49
-11.0
 74
     0
  0
LTYPE
  5
166
330
5
100
AcDbSymbolTableRecord
100
AcDbLinetypeTableRecord
  2
ACJISTGL
 70
     0
  3
_ _ _ _ _
 72
    65
 73
     2
 40
3.0
 49
2.0
 74
     0
 49
-1.0
 74
     0
  0
LTYPE
  5
26A
330
5
100
AcDbSymbolTableRecord
100
AcDbLinetypeTableRecord
  2
ACJISTGB
 70
     0
  3
__ . . __ . .
 72
    65
 73
     6
 40
9.0
 49
4.0
 74
     0
 49
-1.0
 74
     0
 49
1.0
 74
     0
 49
-1.0
 74
     0
 49
1.0
 74
     0
 49
-1.0
 74
     0
  0
ENDTAB
  0
TABLE
  2
LAYER
  5
2
330
0
100
AcDbSymbolTable
 70
     7
  0
LAYER
  5
10
330
2
100
AcDbSymbolTableRecord
100
AcDbLayerTableRecord
  2
0
 70
     0
 62
     7
  6
CONTINUOUS
  0
LAYER
  5
3F9
330
2
100
AcDbSymbolTableRecord
100
AcDbLayerTableRecord
  2
AM_0
 70
     0
 62
     7
  6
CONTINUOUS
  0
LAYER
  5
BA4
330
2
100
AcDbSymbolTableRecord
100
AcDbLayerTableRecord
  2
AM_11
 70
     0
 62
     3
  6
AM_ISO09W050
  0
LAYER
  5
BA5
330
2
100
AcDbSymbolTableRecord
100
AcDbLayerTableRecord
  2
AM_7
 70
     0
 62
     4
  6
AM_ISO08W050
  0
LAYER
  5
D5B
330
2
100
AcDbSymbolTableRecord
100
AcDbLayerTableRecord
  2
AM_5
 70
     0
 62
     3
  6
CONTINUOUS
  0
LAYER
  5
D5D
330
2
100
AcDbSymbolTableRecord
100
AcDbLayerTableRecord
  2
DEFPOINTS
 70
     0
 62
     7
  6
CONTINUOUS
  0
LAYER
  5
F1B
330
2
100
AcDbSymbolTableRecord
100
AcDbLayerTableRecord
  2
AM_6
 70
     0
 62
     2
  6
CONTINUOUS
  0
ENDTAB
  0
TABLE
  2
STYLE
  5
3
330
0
100
AcDbSymbolTable
 70
     5
  0
STYLE
  5
11
330
3
100
AcDbSymbolTableRecord
100
AcDbTextStyleTableRecord
  2
STANDARD
 70
     0
 40
0.0
 41
1.0
 50
0.0
 71
     0
 42
2.5
  3
simplex.shx
  4
EXTFONT.SHX
  0
STYLE
  5
52
330
3
100
AcDbSymbolTableRecord
100
AcDbTextStyleTableRecord
  2

 70
     1
 40
0.0
 41
1.0
 50
0.0
 71
     0
 42
2.5
  3
ltypeshp.shx
  4

  0
STYLE
  5
6B
330
3
100
AcDbSymbolTableRecord
100
AcDbTextStyleTableRecord
  2
ASAMI
 70
     0
 40
0.0
 41
1.0
 50
0.0
 71
     0
 42
2.5
  3
simplex.shx
  4
EXTFONT.SHX
  0
STYLE
  5
262
330
3
100
AcDbSymbolTableRecord
100
AcDbTextStyleTableRecord
  2
ACJISTS
 70
     0
 40
1.0
 41
1.0
 50
0.0
 71
     0
 42
2.5
  3
simplex.shx
  4
bigfont.shx
  0
STYLE
  5
269
330
3
100
AcDbSymbolTableRecord
100
AcDbTextStyleTableRecord
  2
ACJISGDT
 70
     0
 40
0.0
 41
1.0
 50
0.0
 71
     0
 42
2.5
  3
amgdtans.shx
  4

  0
ENDTAB
  0
TABLE
  2
VIEW
  5
6
330
0
100
AcDbSymbolTable
 70
     0
  0
ENDTAB
  0
TABLE
  2
UCS
  5
7
330
0
100
AcDbSymbolTable
 70
     0
  0
ENDTAB
  0
TABLE
  2
APPID
  5
9
330
0
100
AcDbSymbolTable
 70
    12
  0
APPID
  5
12
330
9
100
AcDbSymbolTableRecord
100
AcDbRegAppTableRecord
  2
ACAD
 70
     0
  0
APPID
  5
30
330
9
100
AcDbSymbolTableRecord
100
AcDbRegAppTableRecord
  2
MCAD_NO_VIS
 70
     0
  0
APPID
  5
31
330
9
100
AcDbSymbolTableRecord
100
AcDbRegAppTableRecord
  2
ACAD_TEMP_GRAPHIC
 70
     0
  0
APPID
  5
2C2
330
9
100
AcDbSymbolTableRecord
100
AcDbRegAppTableRecord
  2
GENIUS_GENDTOL_13
 70
     0
  0
APPID
  5
339
330
9
100
AcDbSymbolTableRecord
100
AcDbRegAppTableRecord
  2
GENIUS_GENODEF_13
 70
     0
  0
APPID
  5
33A
330
9
100
AcDbSymbolTableRecord
100
AcDbRegAppTableRecord
  2
GENIUS_GENOBJ-N-RSBK_13
 70
     0
  0
APPID
  5
33B
330
9
100
AcDbSymbolTableRecord
100
AcDbRegAppTableRecord
  2
GENIUS_GENOBJ-N-LIB_13
 70
     0
  0
APPID
  5
33C
330
9
100
AcDbSymbolTableRecord
100
AcDbRegAppTableRecord
  2
GENIUS_GENSCALE_13
 70
     0
  0
APPID
  5
378
330
9
100
AcDbSymbolTableRecord
100
AcDbRegAppTableRecord
  2
GENIUS_GENDIMSH_14
 70
     0
  0
APPID
  5
BA6
330
9
100
AcDbSymbolTableRecord
100
AcDbRegAppTableRecord
  2
GENIUS_GENOBJ-N-CEN_13
 70
     0
  0
APPID
  5
D49
330
9
100
AcDbSymbolTableRecord
100
AcDbRegAppTableRecord
  2
GENIUS_GENFIL_13
 70
     0
  0
APPID
  5
D4A
330
9
100
AcDbSymbolTableRecord
100
AcDbRegAppTableRecord
  2
GENIUS_GENOBJ-N-CHA_13
 70
     0
  0
ENDTAB
  0
TABLE
  2
DIMSTYLE
  5
A
330
0
100
AcDbSymbolTable
 70
     8
  0
DIMSTYLE
105
58
102
{ACAD_REACTORS
330
11DC
330
12A8
330
130D
330
1323
102
}
330
A
100
AcDbSymbolTableRecord
100
AcDbDimStyleTableRecord
  2
AM_JIS
 70
     0
  3

  4
"
  5
OPEN30
  6

  7

 40
1.0
 41
2.5
 42
1.0
 43
12.0
 44
1.0
 45
0.0
 46
0.0
 47
0.1
 48
0.1
140
3.2
141
0.0
142
0.0
143
0.0393701
144
1.0
145
0.0
146
0.71
147
1.5
 71
     0
 72
     0
 73
     0
 74
     0
 75
     0
 76
     0
 77
     3
 78
     8
170
     0
171
     2
172
     1
173
     0
174
     0
175
     0
176
   256
177
   256
178
     2
270
     2
271
     3
272
     3
273
     2
274
     2
340
6B
275
     0
280
     0
281
     0
282
     0
283
     0
284
     0
285
     0
286
     0
287
     3
288
     0
  0
DIMSTYLE
105
5F
330
A
100
AcDbSymbolTableRecord
100
AcDbDimStyleTableRecord
  2
AM_JIS$3
 70
     0
  3

  4
"
  5
OPEN30
  6

  7

 40
1.0
 41
2.5
 42
1.0
 43
10.0
 44
1.0
 45
0.0
 46
0.0
 47
0.1
 48
0.1
140
3.2
141
0.0
142
0.0
143
0.0393701
144
1.0
145
0.0
146
0.71
147
1.5
 71
     0
 72
     0
 73
     0
 74
     1
 75
     0
 76
     0
 77
     3
 78
     8
170
     0
171
     2
172
     0
173
     0
174
     0
175
     0
176
   256
177
   256
178
     2
270
     2
271
     2
272
     3
273
     2
274
     2
340
6B
275
     0
280
     0
281
     0
282
     0
283
     0
284
     0
285
     0
286
     0
287
     0
288
     1
  0
DIMSTYLE
105
60
102
{ACAD_REACTORS
330
1560
102
}
330
A
100
AcDbSymbolTableRecord
100
AcDbDimStyleTableRecord
  2
AM_JIS$4
 70
     0
  3

  4
"
  5
OPEN30
  6

  7

 40
1.0
 41
2.5
 42
1.0
 43
10.0
 44
1.0
 45
0.0
 46
0.0
 47
0.1
 48
0.1
140
3.2
141
0.0
142
0.0
143
0.0393701
144
1.0
145
0.0
146
0.71
147
1.5
 71
     0
 72
     0
 73
     0
 74
     1
 75
     0
 76
     0
 77
     3
 78
     8
170
     0
171
     2
172
     0
173
     0
174
     0
175
     0
176
   256
177
   256
178
     2
270
     2
271
     2
272
     3
273
     2
274
     2
340
6B
275
     0
280
     0
281
     0
282
     0
283
     0
284
     0
285
     0
286
     0
287
     0
288
     1
  0
DIMSTYLE
105
61
330
A
100
AcDbSymbolTableRecord
100
AcDbDimStyleTableRecord
  2
AM_JIS$6
 70
     0
  3

  4
"
  5
OPEN30
  6

  7

 40
1.0
 41
2.5
 42
1.0
 43
10.0
 44
1.0
 45
0.0
 46
0.0
 47
0.1
 48
0.1
140
3.2
141
0.0
142
0.0
143
0.0393701
144
1.0
145
0.0
146
0.71
147
1.5
 71
     0
 72
     0
 73
     0
 74
     0
 75
     0
 76
     0
 77
     0
 78
     8
170
     0
171
     2
172
     1
173
     0
174
     0
175
     0
176
   256
177
   256
178
     2
270
     2
271
     2
272
     2
273
     2
274
     2
340
6B
275
     0
280
     0
281
     0
282
     0
283
     0
284
     0
285
     0
286
     0
287
     3
288
     0
  0
DIMSTYLE
105
62
330
A
100
AcDbSymbolTableRecord
100
AcDbDimStyleTableRecord
  2
AM_JIS$7
 70
     0
  3

  4
"
  5
OPEN30
  6

  7

 40
1.0
 41
2.5
 42
1.0
 43
10.0
 44
1.0
 45
0.0
 46
0.0
 47
0.1
 48
0.1
140
3.2
141
0.0
142
0.0
143
0.0393701
144
1.0
145
0.0
146
0.71
147
1.5
 71
     0
 72
     0
 73
     0
 74
     0
 75
     0
 76
     0
 77
     3
 78
     8
170
     0
171
     2
172
     1
173
     0
174
     0
175
     0
176
   256
177
   256
178
     2
270
     2
271
     2
272
     3
273
     2
274
     2
340
6B
275
     0
280
     0
281
     0
282
     0
283
     0
284
     0
285
     0
286
     0
287
     3
288
     0
  0
DIMSTYLE
105
63
330
A
100
AcDbSymbolTableRecord
100
AcDbDimStyleTableRecord
  2
AM_JIS$SF
 70
     0
  3

  4
"
  5
OPEN30
  6

  7

 40
1.0
 41
2.5
 42
1.0
 43
10.0
 44
1.0
 45
0.0
 46
0.0
 47
0.1
 48
0.1
140
3.2
141
0.0
142
0.0
143
0.0393701
144
1.0
145
0.0
146
0.71
147
1.5
 71
     0
 72
     0
 73
     0
 74
     0
 75
     1
 76
     1
 77
     3
 78
     8
170
     0
171
     2
172
     1
173
     0
174
     0
175
     0
176
   256
177
   256
178
     2
270
     2
271
     2
272
     2
273
     2
274
     2
340
6B
275
     0
280
     0
281
     0
282
     0
283
     0
284
     0
285
     0
286
     0
287
     3
288
     0
  0
DIMSTYLE
105
68
330
A
100
AcDbSymbolTableRecord
100
AcDbDimStyleTableRecord
  2
AM_JIS$SH
 70
     0
  3

  4
"
  5

  6
GENAXEH
  7
OPEN30
 40
1.0
 41
2.5
 42
1.0
 43
10.0
 44
1.0
 45
0.0
 46
0.0
 47
0.1
 48
0.1
140
3.2
141
0.0
142
0.0
143
0.0393701
144
2.0
145
0.0
146
0.71
147
1.5
 71
     0
 72
     0
 73
     0
 74
     0
 75
     1
 76
     1
 77
     3
 78
     8
170
     0
171
     2
172
     1
173
     1
174
     0
175
     0
176
   256
177
   256
178
     2
270
     2
271
     2
272
     2
273
     2
274
     2
340
6B
275
     0
280
     0
281
     0
282
     0
283
     0
284
     0
285
     0
286
     0
287
     3
288
     0
  0
DIMSTYLE
105
B34
330
A
100
AcDbSymbolTableRecord
100
AcDbDimStyleTableRecord
  2
AM_JIS$2
 70
     0
  3

  4
"
  5
OPEN30
  6

  7

 40
1.0
 41
2.5
 42
1.0
 43
12.0
 44
1.0
 45
0.0
 46
0.0
 47
0.1
 48
0.1
140
3.2
141
0.0
142
0.0
143
0.0393701
144
1.0
145
0.0
146
0.71
147
1.5
 71
     0
 72
     0
 73
     0
 74
     0
 75
     0
 76
     0
 77
     3
 78
     8
170
     0
171
     2
172
     1
173
     0
174
     0
175
     0
176
   256
177
   256
178
     2
270
     2
271
     3
272
     3
273
     2
274
     2
340
6B
275
     0
280
     0
281
     0
282
     0
283
     0
284
     0
285
     0
286
     0
287
     3
288
     0
  0
ENDTAB
  0
TABLE
  2
BLOCK_RECORD
  5
1
330
0
100
AcDbSymbolTable
 70
    10
  0
BLOCK_RECORD
  5
1F
102
{ACAD_XDICTIONARY
360
74
102
}
330
1
100
AcDbSymbolTableRecord
100
AcDbBlockTableRecord
  2
*MODEL_SPACE
  0
BLOCK_RECORD
  5
101
102
{ACAD_XDICTIONARY
360
1612
102
}
330
1
100
AcDbSymbolTableRecord
100
AcDbBlockTableRecord
  2
*PAPER_SPACE
  0
BLOCK_RECORD
  5
59
330
1
100
AcDbSymbolTableRecord
100
AcDbBlockTableRecord
  2
_OPEN30
  0
BLOCK_RECORD
  5
64
330
1
100
AcDbSymbolTableRecord
100
AcDbBlockTableRecord
  2
GENAXEH
  0
BLOCK_RECORD
  5
11DD
330
1
100
AcDbSymbolTableRecord
100
AcDbBlockTableRecord
  2
*D5
  0
BLOCK_RECORD
  5
12A9
330
1
100
AcDbSymbolTableRecord
100
AcDbBlockTableRecord
  2
*D6
  0
BLOCK_RECORD
  5
130E
330
1
100
AcDbSymbolTableRecord
100
AcDbBlockTableRecord
  2
*D7
  0
BLOCK_RECORD
  5
1324
330
1
100
AcDbSymbolTableRecord
100
AcDbBlockTableRecord
  2
*D8
  0
BLOCK_RECORD
  5
1561
330
1
100
AcDbSymbolTableRecord
100
AcDbBlockTableRecord
  2
*D9
  0
ENDTAB
  0
ENDSEC
  0
SECTION
  2
BLOCKS
  0
BLOCK
  5
20
330
1F
100
AcDbEntity
  8
0
100
AcDbBlockBegin
  2
*MODEL_SPACE
 70
     0
 10
0.0
 20
0.0
 30
0.0
  3
*MODEL_SPACE
  1

  0
ENDBLK
  5
21
330
1F
100
AcDbEntity
  8
0
100
AcDbBlockEnd
  0
BLOCK
  5
103
330
101
100
AcDbEntity
 67
     1
  8
0
100
AcDbBlockBegin
  2
*PAPER_SPACE
 70
     0
 10
0.0
 20
0.0
 30
0.0
  3
*PAPER_SPACE
  1

  0
ENDBLK
  5
104
330
101
100
AcDbEntity
 67
     1
  8
0
100
AcDbBlockEnd
  0
BLOCK
  5
5D
330
59
100
AcDbEntity
  8
0
100
AcDbBlockBegin
  2
_OPEN30
 70
     0
 10
0.0
 20
0.0
 30
0.0
  3
_OPEN30
  1

  0
LINE
  5
5A
330
59
100
AcDbEntity
  8
0
 62
     0
100
AcDbLine
 10
-1.0
 20
0.26794919
 30
0.0
 11
0.0
 21
0.0
 31
0.0
  0
LINE
  5
5B
330
59
100
AcDbEntity
  8
0
 62
     0
100
AcDbLine
 10
0.0
 20
0.0
 30
0.0
 11
-1.0
 21
-0.26794919
 31
0.0
  0
LINE
  5
5C
330
59
100
AcDbEntity
  8
0
 62
     0
100
AcDbLine
 10
0.0
 20
0.0
 30
0.0
 11
-1.0
 21
0.0
 31
0.0
  0
ENDBLK
  5
5E
330
59
100
AcDbEntity
  8
0
100
AcDbBlockEnd
  0
BLOCK
  5
66
330
64
100
AcDbEntity
  8
0
100
AcDbBlockBegin
  2
GENAXEH
 70
     0
 10
0.0
 20
0.0
 30
0.0
  3
GENAXEH
  1

  0
LINE
  5
65
330
64
100
AcDbEntity
  8
0
100
AcDbLine
 10
-1.0
 20
0.0
 30
0.0
 11
1.0
 21
0.0
 31
0.0
  0
ENDBLK
  5
67
330
64
100
AcDbEntity
  8
0
100
AcDbBlockEnd
  0
BLOCK
  5
11E7
330
11DD
100
AcDbEntity
  8
0
100
AcDbBlockBegin
  2
*D5
 70
     1
 10
0.0
 20
0.0
 30
0.0
  3
*D5
  1

  0
LINE
  5
14C7
330
11DD
100
AcDbEntity
  8
AM_5
100
AcDbLine
 10
-90.5
 20
-8.000000000000042
 30
0.0
 11
-105.0
 21
-8.000000000000037
 31
0.0
  0
LINE
  5
14C8
330
11DD
100
AcDbEntity
  8
AM_5
100
AcDbLine
 10
-90.5
 20
7.999999999999955
 30
0.0
 11
-105.0
 21
7.999999999999959
 31
0.0
  0
LINE
  5
14C9
330
11DD
100
AcDbEntity
  8
AM_5
100
AcDbLine
 10
-104.0
 20
-5.500000000000039
 30
0.0
 11
-104.0
 21
5.499999999999959
 31
0.0
  0
INSERT
  5
14CA
330
11DD
100
AcDbEntity
  8
AM_5
100
AcDbBlockReference
  2
_OPEN30
 10
-104.0
 20
-8.000000000000039
 30
0.0
 41
2.5
 42
2.5
 43
2.5
 50
270.0
  0
INSERT
  5
14CB
330
11DD
100
AcDbEntity
  8
AM_5
100
AcDbBlockReference
  2
_OPEN30
 10
-104.0
 20
7.999999999999959
 30
0.0
 41
2.5
 42
2.5
 43
2.5
 50
90.0
  0
MTEXT
  5
14CC
330
11DD
100
AcDbEntity
  8
AM_5
 62
     2
100
AcDbMText
 10
-107.0999999999999
 20
-0.0000000000000563
 30
0.0
 40
3.2
 41
0.0
 71
     5
 72
     1
  1
%%c16
  7
ASAMI
 11
0.0000000000000001
 21
1.0
 31
0.0
1001
ACAD
1000
MTEXTBEGIN
1070
    73
1070
     1
1070
    44
1040
1.0
1070
    74
1070
     0
1000
MTEXTEND
  0
POINT
  5
14CD
330
11DD
100
AcDbEntity
  8
DEFPOINTS
 62
     0
100
AcDbPoint
 10
-89.50000000000001
 20
-8.000000000000042
 30
0.0
  0
POINT
  5
14CE
330
11DD
100
AcDbEntity
  8
DEFPOINTS
 62
     0
100
AcDbPoint
 10
-89.50000000000001
 20
7.999999999999954
 30
0.0
  0
POINT
  5
14CF
330
11DD
100
AcDbEntity
  8
DEFPOINTS
 62
     0
100
AcDbPoint
 10
-104.0
 20
7.999999999999959
 30
0.0
  0
ENDBLK
  5
11E8
330
11DD
100
AcDbEntity
  8
0
100
AcDbBlockEnd
  0
BLOCK
  5
12B3
330
12A9
100
AcDbEntity
  8
0
100
AcDbBlockBegin
  2
*D6
 70
     1
 10
0.0
 20
0.0
 30
0.0
  3
*D6
  1

  0
LINE
  5
14BE
330
12A9
100
AcDbEntity
  8
AM_5
100
AcDbLine
 10
-0.0000000000000001
 20
-11.33846153846153
 30
0.0
 11
-0.0000000000000015
 21
-35.50000000000022
 31
0.0
  0
LINE
  5
14BF
330
12A9
100
AcDbEntity
  8
AM_5
100
AcDbLine
 10
-90.0
 20
-8.200000000000045
 30
0.0
 11
-90.0
 21
-35.50000000000022
 31
0.0
  0
LINE
  5
14C0
330
12A9
100
AcDbEntity
  8
AM_5
100
AcDbLine
 10
-2.500000000000001
 20
-34.50000000000022
 30
0.0
 11
-87.5
 21
-34.50000000000022
 31
0.0
  0
INSERT
  5
14C1
330
12A9
100
AcDbEntity
  8
AM_5
100
AcDbBlockReference
  2
_OPEN30
 10
-0.0000000000000015
 20
-34.50000000000022
 30
0.0
 41
2.5
 42
2.5
 43
2.5
  0
INSERT
  5
14C2
330
12A9
100
AcDbEntity
  8
AM_5
100
AcDbBlockReference
  2
_OPEN30
 10
-90.0
 20
-34.50000000000022
 30
0.0
 41
2.5
 42
2.5
 43
2.5
 50
180.0
  0
MTEXT
  5
14C3
330
12A9
100
AcDbEntity
  8
AM_5
 62
     2
100
AcDbMText
 10
-45.0
 20
-31.40000000000021
 30
0.0
 40
3.2
 41
0.0
 71
     5
 72
     1
  1
90
  7
ASAMI
1001
ACAD
1000
MTEXTBEGIN
1070
    73
1070
     1
1070
    44
1040
1.0
1070
    74
1070
     0
1000
MTEXTEND
  0
POINT
  5
14C4
330
12A9
100
AcDbEntity
  8
DEFPOINTS
 62
     0
100
AcDbPoint
 10
0.0
 20
-10.33846153846153
 30
0.0
  0
POINT
  5
14C5
330
12A9
100
AcDbEntity
  8
DEFPOINTS
 62
     0
100
AcDbPoint
 10
-90.0
 20
-7.200000000000044
 30
0.0
  0
POINT
  5
14C6
330
12A9
100
AcDbEntity
  8
DEFPOINTS
 62
     0
100
AcDbPoint
 10
-90.0
 20
-34.50000000000022
 30
0.0
  0
ENDBLK
  5
12B4
330
12A9
100
AcDbEntity
  8
0
100
AcDbBlockEnd
  0
BLOCK
  5
1318
330
130E
100
AcDbEntity
  8
0
100
AcDbBlockBegin
  2
*D7
 70
     1
 10
0.0
 20
0.0
 30
0.0
  3
*D7
  1

  0
LINE
  5
14D5
330
130E
100
AcDbEntity
  8
AM_5
100
AcDbLine
 10
-35.00000000000036
 20
-9.000000000004252
 30
0.0
 11
-35.00000000000036
 21
-24.99999999999994
 31
0.0
  0
LINE
  5
14D6
330
130E
100
AcDbEntity
  8
AM_5
100
AcDbLine
 10
-0.0000000000000001
 20
-8.999999999999996
 30
0.0
 11
-0.000000000000001
 21
-24.99999999999994
 31
0.0
  0
LINE
  5
14D7
330
130E
100
AcDbEntity
  8
AM_5
100
AcDbLine
 10
-32.50000000000036
 20
-23.99999999999994
 30
0.0
 11
-2.5
 21
-23.99999999999994
 31
0.0
  0
INSERT
  5
14D8
330
130E
100
AcDbEntity
  8
AM_5
100
AcDbBlockReference
  2
_OPEN30
 10
-35.00000000000036
 20
-23.99999999999994
 30
0.0
 41
2.5
 42
2.5
 43
2.5
 50
180.0
  0
INSERT
  5
14D9
330
130E
100
AcDbEntity
  8
AM_5
100
AcDbBlockReference
  2
_OPEN30
 10
-0.000000000000001
 20
-23.99999999999994
 30
0.0
 41
2.5
 42
2.5
 43
2.5
  0
MTEXT
  5
14DA
330
130E
100
AcDbEntity
  8
AM_5
 62
     2
100
AcDbMText
 10
-17.50000000000018
 20
-20.89999999999994
 30
0.0
 40
3.2
 41
0.0
 71
     5
 72
     1
  1
35
  7
ASAMI
1001
ACAD
1000
MTEXTBEGIN
1070
    73
1070
     1
1070
    44
1040
1.0
1070
    74
1070
     0
1000
MTEXTEND
  0
POINT
  5
14DB
330
130E
100
AcDbEntity
  8
DEFPOINTS
 62
     0
100
AcDbPoint
 10
-35.00000000000036
 20
-8.000000000004252
 30
0.0
  0
POINT
  5
14DC
330
130E
100
AcDbEntity
  8
DEFPOINTS
 62
     0
100
AcDbPoint
 10
0.0
 20
-7.999999999999996
 30
0.0
  0
POINT
  5
14DD
330
130E
100
AcDbEntity
  8
DEFPOINTS
 62
     0
100
AcDbPoint
 10
-0.000000000000001
 20
-23.99999999999994
 30
0.0
  0
ENDBLK
  5
1319
330
130E
100
AcDbEntity
  8
0
100
AcDbBlockEnd
  0
BLOCK
  5
1330
330
1324
100
AcDbEntity
  8
0
100
AcDbBlockBegin
  2
*D8
 70
     1
 10
0.0
 20
0.0
 30
0.0
  3
*D8
  1

  0
LINE
  5
1384
330
1324
100
AcDbEntity
  8
AM_5
100
AcDbLine
 10
1.0
 20
-7.999999999999996
 30
0.0
 11
15.37777777777777
 21
-8.0
 31
0.0
  0
LINE
  5
1385
330
1324
100
AcDbEntity
  8
AM_5
100
AcDbLine
 10
1.0
 20
8.0
 30
0.0
 11
15.37777777777777
 21
7.999999999999995
 31
0.0
  0
LINE
  5
1386
330
1324
100
AcDbEntity
  8
AM_5
100
AcDbLine
 10
14.37777777777776
 20
-5.5
 30
0.0
 11
14.37777777777777
 21
5.499999999999995
 31
0.0
  0
INSERT
  5
1387
330
1324
100
AcDbEntity
  8
AM_5
100
AcDbBlockReference
  2
_OPEN30
 10
14.37777777777776
 20
-8.0
 30
0.0
 41
2.5
 42
2.5
 43
2.5
 50
270.0
  0
INSERT
  5
1388
330
1324
100
AcDbEntity
  8
AM_5
100
AcDbBlockReference
  2
_OPEN30
 10
14.37777777777777
 20
7.999999999999995
 30
0.0
 41
2.5
 42
2.5
 43
2.5
 50
90.0
  0
MTEXT
  5
1389
330
1324
100
AcDbEntity
  8
AM_5
 62
     2
100
AcDbMText
 10
11.27777777777777
 20
-0.0000000000000038
 30
0.0
 40
3.2
 41
0.0
 71
     5
 72
     1
  1
%%c16
  7
ASAMI
 11
0.0000000000000001
 21
1.0
 31
0.0
1001
ACAD
1000
MTEXTBEGIN
1070
    73
1070
     1
1070
    44
1040
1.0
1070
    74
1070
     0
1000
MTEXTEND
  0
POINT
  5
138A
330
1324
100
AcDbEntity
  8
DEFPOINTS
 62
     0
100
AcDbPoint
 10
0.0
 20
-7.999999999999996
 30
0.0
  0
POINT
  5
138B
330
1324
100
AcDbEntity
  8
DEFPOINTS
 62
     0
100
AcDbPoint
 10
0.0
 20
8.0
 30
0.0
  0
POINT
  5
138C
330
1324
100
AcDbEntity
  8
DEFPOINTS
 62
     0
100
AcDbPoint
 10
14.37777777777777
 20
7.999999999999995
 30
0.0
  0
ENDBLK
  5
1331
330
1324
100
AcDbEntity
  8
0
100
AcDbBlockEnd
  0
BLOCK
  5
1567
330
1561
100
AcDbEntity
  8
0
100
AcDbBlockBegin
  2
*D9
 70
     1
 10
0.0
 20
0.0
 30
0.0
  3
*D9
  1

  0
LINE
  5
1614
330
1561
100
AcDbEntity
  8
AM_5
100
AcDbLine
 10
7.94344506403408
 20
-16.3822047218814
 30
0.0
 11
1.414927304211992
 21
-9.533402083241307
 31
0.0
  0
MTEXT
  5
1615
330
1561
100
AcDbEntity
  8
AM_5
 62
     2
100
AcDbMText
 10
7.785530637926763
 20
-11.72365424855977
 30
0.0
 40
3.2
 41
0.0
 71
     5
 72
     1
  1
R1
  7
ASAMI
 11
0.6899792297748557
 21
-0.723829166640373
 31
0.0
  0
LINE
  5
1616
330
1561
100
AcDbEntity
  8
AM_5
100
AcDbLine
 10
-1.000000000000003
 20
-7.0
 30
0.0
 11
-0.3100207702251461
 21
-7.723829166640374
 31
0.0
  0
INSERT
  5
1617
330
1561
100
AcDbEntity
  8
AM_5
100
AcDbBlockReference
  2
_OPEN30
 10
-0.3100207702251461
 20
-7.723829166640374
 30
0.0
 41
2.5
 42
2.5
 43
2.5
 50
133.6284647471536
  0
POINT
  5
1618
330
1561
100
AcDbEntity
  8
DEFPOINTS
 62
     0
100
AcDbPoint
 10
-0.3100207702251461
 20
-7.723829166640374
 30
0.0
  0
POINT
  5
1619
330
1561
100
AcDbEntity
  8
DEFPOINTS
 62
     0
100
AcDbPoint
 10
-1.000000000000003
 20
-7.0
 30
0.0
  0
ENDBLK
  5
1568
330
1561
100
AcDbEntity
  8
0
100
AcDbBlockEnd
  0
ENDSEC
  0
SECTION
  2
ENTITIES
  0
TEXT
  5
F1C
330
1F
100
AcDbEntity
  8
AM_6
100
AcDbText
 10
-75.5952380952381
 20
-57.00000000000021
 30
0.0
 40
5.0
  1
SSM2160ZX-R10
 72
     4
 11
-45.0
 21
-54.50000000000021
 31
0.0
100
AcDbText
  0
LINE
  5
11D8
330
1F
100
AcDbEntity
  8
AM_0
100
AcDbLine
 10
-90.0
 20
7.199999999999953
 30
0.0
 11
-89.50000000000001
 21
7.999999999999954
 31
0.0
1001
GENIUS_GENFIL_13
1070
     0
1040
0.5
1040
0.5
1040
20.0
1040
0.0
1002
{
1002
}
1001
GENIUS_GENODEF_13
1002
{
1000
HIER
1070
     0
1002
}
1002
{
1000
MANEDIT
1070
     0
1002
}
1002
{
1000
NOSEL
1070
     0
1002
}
1002
{
1000
BEHIND
1070
     0
1002
}
1002
{
1000
REACTOR
1002
}
1001
GENIUS_GENOBJ-N-CHA_13
1002
{
1000
OWNER
1000
GEN
1002
}
  0
LINE
  5
11D9
330
1F
100
AcDbEntity
  8
AM_0
100
AcDbLine
 10
-90.0
 20
-7.200000000000044
 30
0.0
 11
-89.50000000000001
 21
-8.000000000000042
 31
0.0
1001
GENIUS_GENFIL_13
1070
     0
1040
0.5
1040
0.5
1040
20.0
1040
0.0
1002
{
1002
}
1001
GENIUS_GENODEF_13
1002
{
1000
HIER
1070
     0
1002
}
1002
{
1000
MANEDIT
1070
     0
1002
}
1002
{
1000
NOSEL
1070
     0
1002
}
1002
{
1000
BEHIND
1070
     0
1002
}
1002
{
1000
REACTOR
1002
}
1001
GENIUS_GENOBJ-N-CHA_13
1002
{
1000
OWNER
1000
GEN
1002
}
  0
LINE
  5
11DA
330
1F
100
AcDbEntity
  8
AM_0
100
AcDbLine
 10
-89.50000000000001
 20
7.999999999999769
 30
0.0
 11
-89.50000000000001
 21
-7.999999999997999
 31
0.0
  0
LINE
  5
11DB
330
1F
100
AcDbEntity
  8
AM_0
100
AcDbLine
 10
-90.0
 20
-7.200000000000044
 30
0.0
 11
-90.0
 21
7.199999999999953
 31
0.0
  0
DIMENSION
  5
11DC
330
1F
100
AcDbEntity
  8
AM_5
100
AcDbDimension
  2
*D5
 10
-104.0
 20
7.999999999999959
 30
0.0
 11
-107.0999999999999
 21
-0.0000000000000563
 31
0.0
 70
    32
  1
%%c<>
  3
AM_JIS
100
AcDbAlignedDimension
 13
-89.50000000000001
 23
-8.000000000000042
 33
0.0
 14
-89.50000000000001
 24
7.999999999999954
 34
0.0
 50
270.0
100
AcDbRotatedDimension
1001
GENIUS_GENDTOL_13
1000

1000
h7
1000

1040
0.0
  0
DIMENSION
  5
12A8
330
1F
100
AcDbEntity
  8
AM_5
100
AcDbDimension
  2
*D6
 10
-90.0
 20
-34.50000000000022
 30
0.0
 11
-45.0
 21
-31.40000000000021
 31
0.0
 70
    32
  1
<>
  3
AM_JIS
100
AcDbAlignedDimension
 13
0.0
 23
-10.33846153846153
 33
0.0
 14
-90.0
 24
-7.200000000000044
 34
0.0
 50
0.000000000000234
100
AcDbRotatedDimension
1001
GENIUS_GENDTOL_13
1000

1000
h7
1000

1040
0.0
  0
DIMENSION
  5
130D
330
1F
100
AcDbEntity
  8
AM_5
100
AcDbDimension
  2
*D7
 10
-0.000000000000001
 20
-23.99999999999994
 30
0.0
 11
-17.50000000000018
 21
-20.89999999999994
 31
0.0
 70
    32
  1
<>
  3
AM_JIS
100
AcDbAlignedDimension
 13
-35.00000000000036
 23
-8.000000000004252
 33
0.0
 14
0.0
 24
-7.999999999999996
 34
0.0
 50
0.0000000000001222
100
AcDbRotatedDimension
1001
GENIUS_GENDTOL_13
1000

1000
h7
1000

1040
0.0
  0
DIMENSION
  5
1323
330
1F
100
AcDbEntity
  8
AM_5
100
AcDbDimension
  2
*D8
 10
14.37777777777777
 20
7.999999999999995
 30
0.0
 11
14.37777777777777
 21
-0.0000000000000042
 31
0.0
 70
   160
  1
%%c<>
  3
AM_JIS
100
AcDbAlignedDimension
 13
0.0
 23
-7.999999999999996
 33
0.0
 14
0.0
 24
8.0
 34
0.0
 50
90.00000000000003
100
AcDbRotatedDimension
1001
GENIUS_GENDTOL_13
1000

1000
h7
1000

1040
0.0
  0
SPLINE
  5
1486
330
1F
100
AcDbEntity
  8
AM_0
100
AcDbSpline
210
0.0
220
0.0
230
1.0
 70
     8
 71
     3
 72
     8
 73
     4
 74
     0
 42
0.0000000001
 43
0.0000000001
 40
8.846325818261362
 40
8.846325818261362
 40
8.846325818261362
 40
8.846325818261362
 40
14.48999654934396
 40
14.48999654934396
 40
14.48999654934396
 40
14.48999654934396
 10
-35.00000000009173
 20
4.917124680775076
 30
0.0
 10
-29.25310165329375
 20
4.654280158238154
 30
0.0
 10
-24.49264378687741
 20
1.557949503125033
 30
0.0
 10
-21.76000000000001
 20
0.0000000000002309
 30
0.0
  0
SPLINE
  5
1487
330
1F
100
AcDbEntity
  8
AM_0
100
AcDbSpline
210
0.0
220
0.0
230
1.0
 70
     8
 71
     3
 72
     8
 73
     4
 74
     0
 42
0.0000000001
 43
0.0000000001
 40
0.0
 40
0.0
 40
0.0
 40
0.0
 40
5.192508374738713
 40
5.192508374738713
 40
5.192508374738713
 40
5.192508374738713
 10
-35.00000000000039
 20
4.917124680757057
 30
0.0
 10
-38.61386970631974
 20
5.410700136346128
 30
0.0
 10
-42.15964342710345
 20
5.188677689262931
 30
0.0
 10
-46.86209593113348
 20
4.032470770846078
 30
0.0
  0
SPLINE
  5
1488
330
1F
100
AcDbEntity
  8
AM_0
100
AcDbSpline
210
0.0
220
0.0
230
1.0
 70
     8
 71
     3
 72
     8
 73
     4
 74
     0
 42
0.0000000001
 43
0.0000000001
 40
0.7142832446738512
 40
0.7142832446738512
 40
0.7142832446738512
 40
0.7142832446738512
 40
14.36247867694493
 40
14.36247867694493
 40
14.36247867694493
 40
14.36247867694493
 10
-35.0000000000004
 20
7.064952573944562
 30
0.0
 10
-29.15027461656959
 20
7.02049125676081
 30
0.0
 10
-22.45088396350459
 20
3.51024562838052
 30
0.0
 10
-15.75149331043954
 20
0.0000000000001172
 30
0.0
  0
SPLINE
  5
1489
330
1F
100
AcDbEntity
  8
AM_0
100
AcDbSpline
210
0.0
220
0.0
230
1.0
 70
     8
 71
     3
 72
     8
 73
     4
 74
     0
 42
0.0000000001
 43
0.0000000001
 40
6.426432622015573
 40
6.426432622015573
 40
6.426432622015573
 40
6.426432622015573
 40
14.43901837670146
 40
14.43901837670146
 40
14.43901837670146
 40
14.43901837670146
 10
-35.78469664214102
 20
6.348318624972227
 30
0.0
 10
-28.9859427722855
 20
5.627964866458744
 30
0.0
 10
-22.86818657309527
 20
2.153238555652823
 30
0.0
 10
-18.96728194880862
 20
0.0000000000001172
 30
0.0
  0
SPLINE
  5
148A
330
1F
100
AcDbEntity
  8
AM_0
100
AcDbSpline
210
0.0
220
0.0
230
1.0
 70
     8
 71
     3
 72
     8
 73
     4
 74
     0
 42
0.0000000001
 43
0.0000000001
 40
0.0
 40
0.0
 40
0.0
 40
0.0
 40
13.97258598406841
 40
13.97258598406841
 40
13.97258598406841
 40
13.97258598406841
 10
-18.44725360413602
 20
-6.138712733967846
 30
0.0
 10
-25.89929946230589
 20
-6.138712733967846
 30
0.0
 10
-32.92151757791001
 20
-3.088995544578205
 30
0.0
 10
-39.93819979438197
 20
0.000000000000119
 30
0.0
  0
SPLINE
  5
148B
330
1F
100
AcDbEntity
  8
AM_0
100
AcDbSpline
210
0.0
220
0.0
230
1.0
 70
     8
 71
     3
 72
     8
 73
     4
 74
     0
 42
0.0000000001
 43
0.0000000001
 40
0.0
 40
0.0
 40
0.0
 40
0.0
 40
2.127066085792379
 40
2.127066085792379
 40
2.127066085792379
 40
2.127066085792379
 10
-18.44725360413602
 20
-6.138712733967846
 30
0.0
 10
-16.22287076900929
 20
-6.138712733967846
 30
0.0
 10
-14.03678473289619
 20
-5.86698898353328
 30
0.0
 10
-11.87771140084399
 20
-5.403604482174041
 30
0.0
  0
SPLINE
  5
148C
330
1F
100
AcDbEntity
  8
AM_0
100
AcDbSpline
210
0.0
220
0.0
230
1.0
 70
     8
 71
     3
 72
     8
 73
     4
 74
     0
 42
0.0000000001
 43
0.0000000001
 40
4.219358800530717
 40
4.219358800530717
 40
4.219358800530717
 40
4.219358800530717
 40
14.36247867694493
 40
14.36247867694493
 40
14.36247867694493
 40
14.36247867694493
 10
-0.5999999999999393
 20
-6.525152295220889
 30
0.0
 10
-5.793734011024271
 20
-5.217516466702134
 30
0.0
 10
-10.77261366073187
 20
-2.608758233350952
 30
0.0
 10
-15.75149331043954
 20
0.0000000000001172
 30
0.0
  0
SPLINE
  5
148D
330
1F
100
AcDbEntity
  8
AM_0
100
AcDbSpline
210
0.0
220
0.0
230
1.0
 70
     8
 71
     3
 72
     8
 73
     4
 74
     0
 42
0.0000000001
 43
0.0000000001
 40
1.878176295906439
 40
1.878176295906439
 40
1.878176295906439
 40
1.878176295906439
 40
14.43901837670146
 40
14.43901837670146
 40
14.43901837670146
 40
14.43901837670146
 10
-0.1797706603026597
 20
-7.57203481563897
 30
0.0
 10
-6.736861343512259
 20
-6.751001558770375
 30
0.0
 10
-12.85207164616046
 20
-3.375500779385187
 30
0.0
 10
-18.96728194880862
 20
0.0000000000001172
 30
0.0
  0
SPLINE
  5
148E
330
1F
100
AcDbEntity
  8
AM_0
100
AcDbSpline
210
0.0
220
0.0
230
1.0
 70
     8
 71
     3
 72
     8
 73
     4
 74
     2
 42
0.0000000001
 43
0.0000000001
 44
0.0000000001
 12
-1.0
 22
0.0000000000000001
 32
0.0
 40
0.0
 40
0.0
 40
0.0
 40
0.0
 40
22.24809205302784
 40
22.24809205302784
 40
22.24809205302784
 40
22.24809205302784
 10
-1.000000000000001
 20
-8.0
 30
0.0
 10
-8.416030684342617
 20
-7.999999999999999
 30
0.0
 10
-15.08801534217131
 20
-3.999999999999997
 30
0.0
 10
-21.76000000000001
 20
0.0000000000000036
 30
0.0
 11
-1.000000000000001
 21
-8.0
 31
0.0
 11
-21.76000000000001
 21
0.0000000000000036
 31
0.0
  0
SPLINE
  5
148F
330
1F
100
AcDbEntity
  8
AM_0
100
AcDbSpline
210
0.0
220
0.0
230
1.0
 70
     8
 71
     3
 72
     8
 73
     4
 74
     0
 42
0.0000000001
 43
0.0000000001
 40
0.0
 40
0.0
 40
0.0
 40
0.0
 40
7.57842115059705
 40
7.57842115059705
 40
7.57842115059705
 40
7.57842115059705
 10
-0.9999999999999992
 20
8.000000000000001
 30
0.0
 10
-4.041824613651755
 20
8.000000000000001
 30
0.0
 10
-7.888889472793408
 20
6.905839833571805
 30
0.0
 10
-11.64305598490264
 20
5.289776817627968
 30
0.0
  0
SPLINE
  5
1490
330
1F
100
AcDbEntity
  8
AM_0
100
AcDbSpline
210
0.0
220
0.0
230
1.0
 70
     8
 71
     3
 72
     8
 73
     4
 74
     2
 42
0.0000000001
 43
0.0000000001
 44
0.0000000001
 12
-0.6417012268563101
 22
-0.7669547153848827
 32
0.0
 13
-0.9900999427831042
 23
-0.1403641809753962
 33
0.0
 40
0.0
 40
0.0
 40
0.0
 40
0.0
 40
4.138504517786791
 40
4.138504517786791
 40
4.138504517786791
 40
4.138504517786791
 10
-0.0000000000000284
 20
6.519524298694364
 30
0.0
 10
-0.8852278088047501
 20
5.461509113841625
 30
0.0
 10
-2.404671207545639
 20
5.007158075078943
 30
0.0
 10
-3.77051556963508
 20
4.813525476044903
 30
0.0
 11
-0.0000000000000284
 21
6.519524298694364
 31
0.0
 11
-3.77051556963508
 21
4.813525476044903
 31
0.0
  0
LINE
  5
1491
330
1F
100
AcDbEntity
  8
AM_0
100
AcDbLine
 10
-37.27125012416545
 20
8.000000000000001
 30
0.0
 11
-89.50000000000001
 21
7.999999999999769
 31
0.0
  0
LINE
  5
1492
330
1F
100
AcDbEntity
  8
AM_0
100
AcDbLine
 10
-34.99999999992028
 20
-7.999999999999982
 30
0.0
 11
-89.50000000000001
 21
-7.999999999997999
 31
0.0
  0
LINE
  5
1493
330
1F
100
AcDbEntity
  8
AM_7
  6
AM_ISO08W050X2
100
AcDbLine
 10
7.292428849367921
 20
0.0
 30
0.0
 11
-93.44533665525615
 21
-0.0000000000000242
 31
0.0
1001
GENIUS_GENODEF_13
1002
{
1000
HIER
1070
     0
1002
}
1002
{
1000
MANEDIT
1070
     0
1002
}
1002
{
1000
NOSEL
1070
     0
1002
}
1002
{
1000
BEHIND
1070
     0
1002
}
1002
{
1000
REACTOR
1002
}
1001
GENIUS_GENOBJ-N-CEN_13
1002
{
1000
OWNER
1000
GEN
1002
}
  0
LINE
  5
1494
330
1F
100
AcDbEntity
  8
AM_11
100
AcDbLine
 10
-35.00000000000036
 20
-7.999999999999984
 30
0.0
 11
-35.0000000000004
 21
8.000000000000005
 31
0.0
  0
ARC
  5
1495
330
1F
100
AcDbEntity
  8
AM_0
100
AcDbCircle
 10
-33.53057207622196
 20
11.21729483573944
 30
0.0
 40
19.27339200106409
100
AcDbArc
 50
231.9711497740361
 51
265.6274538140337
  0
LINE
  5
1496
330
1F
100
AcDbEntity
  8
AM_0
100
AcDbLine
 10
0.0000000000000001
 20
-7.0
 30
0.0
 11
-0.0000000000000009
 21
0.3199999999999941
 31
0.0
  0
ARC
  5
1498
330
1F
100
AcDbEntity
  8
AM_0
100
AcDbCircle
 10
-36.52474763105772
 20
20.59110696374738
 30
0.0
 40
28.63173506358115
100
AcDbArc
 50
273.0526598916122
 51
287.2412802679505
  0
LINE
  5
1499
330
1F
100
AcDbEntity
  8
AM_11
100
AcDbLine
 10
-0.0000000000012221
 20
8.000000000000001
 30
0.0
 11
-35.0000000000004
 21
8.000000000000005
 31
0.0
  0
LINE
  5
149A
330
1F
100
AcDbEntity
  8
AM_0
100
AcDbLine
 10
-30.46862560669336
 20
6.32388411540803
 30
0.0
 11
-3.770515569635051
 21
4.813525476044903
 31
0.0
  0
LINE
  5
149B
330
1F
100
AcDbEntity
  8
AM_0
100
AcDbLine
 10
-18.44725360413599
 20
-6.138712733967903
 30
0.0
 11
-35.00000000000037
 21
-7.136458788645422
 31
0.0
  0
LINE
  5
149C
330
1F
100
AcDbEntity
  8
AM_0
100
AcDbLine
 10
-0.0000000000000009
 20
1.600000000000023
 30
0.0
 11
0.0
 21
7.000000000000001
 31
0.0
  0
LINE
  5
149D
330
1F
100
AcDbEntity
  8
AM_0
100
AcDbLine
 10
-0.0000000000000009
 20
0.3199999999999941
 30
0.0
 11
-3.770515569635051
 21
4.813525476044903
 31
0.0
  0
LINE
  5
149E
330
1F
100
AcDbEntity
  8
AM_0
100
AcDbLine
 10
-0.1680000000000367
 20
-7.554775630322799
 30
0.0
 11
-0.1680000000000357
 21
0.5202146035558153
 31
0.0
  0
ARC
  5
149F
330
1F
100
AcDbEntity
  8
AM_0
100
AcDbCircle
 10
22.73082950781227
 20
0.0336596987334001
 30
0.0
 40
24.21203262385895
100
AcDbArc
 50
175.3635181775061
 51
195.5055110014724
  0
LINE
  5
14A0
330
1F
100
AcDbEntity
  8
AM_0
100
AcDbLine
 10
-0.5370237639535001
 20
0.9599999999999235
 30
0.0
 11
-0.0000000000000009
 21
1.600000000000023
 31
0.0
  0
LINE
  5
14A1
330
1F
100
AcDbEntity
  8
AM_0
100
AcDbLine
 10
-0.5999999999999961
 20
-6.52515229522123
 30
0.0
 11
-0.5999999999999961
 21
-6.438968689812211
 31
0.0
  0
LINE
  5
14A2
330
1F
100
AcDbEntity
  8
AM_0
100
AcDbLine
 10
-0.1727871428833724
 20
-7.561888680274789
 30
0.0
 11
-0.5999999999999961
 21
-6.52515229522123
 31
0.0
  0
ARC
  5
14A3
330
1F
100
AcDbEntity
  8
AM_0
100
AcDbCircle
 10
-34.84980660601291
 20
12.00435392232581
 30
0.0
 40
19.14140196777852
100
AcDbArc
 50
236.5378664220369
 51
269.5504229049497
  0
ARC
  5
14A4
330
1F
100
AcDbEntity
  8
AM_0
100
AcDbCircle
 10
-31.58802712563514
 20
-8.802546409844518
 30
0.0
 40
14.63871295659785
100
AcDbArc
 50
137.0815330150789
 51
160.7005285884942
  0
LINE
  5
14A5
330
1F
100
AcDbEntity
  8
AM_0
100
AcDbLine
 10
-35.78469664214102
 20
6.276259133487219
 30
0.0
 11
-35.0000000000004
 21
7.064952573944562
 31
0.0
  0
LINE
  5
14A6
330
1F
100
AcDbEntity
  8
AM_0
100
AcDbLine
 10
-35.00000000000039
 20
4.9171246807709
 30
0.0
 11
-35.78469664214102
 21
6.276259133487219
 31
0.0
  0
ARC
  5
14A7
330
1F
100
AcDbEntity
  8
AM_0
100
AcDbCircle
 10
-24.21612440230969
 20
34.95588788965705
 30
0.0
 40
38.32881100149428
100
AcDbArc
 50
233.7837736528344
 51
245.7832612521401
  0
LINE
  5
14A8
330
1F
100
AcDbEntity
  8
AM_11
100
AcDbLine
 10
-35.00000000000036
 20
-7.999999999999984
 30
0.0
 11
-0.0000000000000018
 21
-8.0
 31
0.0
  0
LINE
  5
14A9
330
1F
100
AcDbEntity
  8
AM_11
100
AcDbLine
 10
0.0
 20
-8.0
 30
0.0
 11
0.000000000000001
 21
8.000000000000001
 31
0.0
  0
ARC
  5
14D3
330
1F
100
AcDbEntity
  8
AM_0
100
AcDbCircle
 10
-35.69122866660803
 20
14.23548790747243
 30
0.0
 40
7.203774985305396
100
AcDbArc
 50
239.9497042880859
 51
275.5062119976491
  0
ARC
  5
14D4
330
1F
100
AcDbEntity
  8
AM_0
100
AcDbCircle
 10
-37.72317749096838
 20
1.946492187876818
 30
0.0
 40
6.070353793338725
100
AcDbArc
 50
57.22015196198849
 51
85.7304778521359
  0
ARC
  5
1555
330
1F
100
AcDbEntity
  8
AM_0
100
AcDbCircle
 10
-0.9999999999999992
 20
7.000000000000001
 30
0.0
 40
1.0
100
AcDbArc
 50
0.0
 51
90.0
  0
ARC
  5
1556
330
1F
100
AcDbEntity
  8
AM_0
100
AcDbCircle
 10
-1.0
 20
-7.0
 30
0.0
 40
1.0
100
AcDbArc
 50
270.0
 51
0.0
  0
DIMENSION
  5
1560
330
1F
100
AcDbEntity
  8
AM_5
100
AcDbDimension
  2
*D9
 10
-1.000000000000003
 20
-7.0
 30
0.0
 11
7.785530637926763
 21
-11.72365424855977
 31
0.0
 70
    36
  1
<>
  3
AM_JIS$4
100
AcDbRadialDimension
 15
-0.3100207702251461
 25
-7.723829166640374
 35
0.0
 40
0.0
1001
GENIUS_GENDTOL_13
1000

1000
h7
1000

1040
0.0
1001
ACAD
1000
DSTYLE
1002
{
1070
   287
1070
     3
1070
   271
1070
     3
1070
   288
1070
     1
1070
   289
1070
     3
1070
   172
1070
     1
1070
    74
1070
     0
1002
}
  0
VIEWPORT
  5
110
330
101
100
AcDbEntity
 67
     1
  8
0
100
AcDbViewport
 10
420.5
 20
297.0
 30
0.0
 40
948.9782706766916
 41
628.452
 68
     1
 69
     1
1001
ACAD
1000
MVIEW
1002
{
1070
    16
1010
0.0
1020
0.0
1030
0.0
1010
0.0
1020
0.0
1030
1.0
1040
0.0
1040
628.452
1040
420.5
1040
297.0
1040
50.0
1040
0.0
1040
0.0
1070
     0
1070
   100
1070
     1
1070
     1
1070
     0
1070
     0
1070
     0
1070
     0
1040
0.0
1040
0.0
1040
0.0
1040
10.0
1040
10.0
1040
10.0
1040
10.0
1070
     0
1002
{
1002
}
1002
}
  0
ENDSEC
  0
SECTION
  2
OBJECTS
  0
DICTIONARY
  5
C
330
0
100
AcDbDictionary
  3
ACAD_GROUP
350
D
  3
ACAD_LAYOUT
350
1A
  3
ACAD_MLINESTYLE
350
17
  3
ACAD_PLOTSETTINGS
350
19
  3
ACAD_PLOTSTYLENAME
350
E
  3
ACDBVARIABLEDICTIONARY
350
34
  3
ACMDICTIONARY
350
43
  3
AMG
350
2B
  3
AMGSNAPSETTINGS
350
6E
  3
DWGPROPS
350
15DE
  3
ACDBHEADERROUNDTRIPXREC
350
15EA
  0
DICTIONARY
  5
74
330
1F
100
AcDbDictionary
280
     1
  3
ACAD_INDEX
360
15E0
  3
ACAD_LAYOUTSELFREF
360
160D
  0
DICTIONARY
  5
1612
330
101
100
AcDbDictionary
280
     1
  3
ACAD_LAYOUTSELFREF
360
1613
  0
DICTIONARY
  5
D
102
{ACAD_REACTORS
330
C
102
}
330
C
100
AcDbDictionary
  0
DICTIONARY
  5
1A
102
{ACAD_REACTORS
330
C
102
}
330
C
100
AcDbDictionary
  0
DICTIONARY
  5
17
102
{ACAD_REACTORS
330
C
102
}
330
C
100
AcDbDictionary
  3
STANDARD
350
18
  0
DICTIONARY
  5
19
102
{ACAD_REACTORS
330
C
102
}
330
C
100
AcDbDictionary
  0
ACDBDICTIONARYWDFLT
  5
E
102
{ACAD_REACTORS
330
C
102
}
330
C
100
AcDbDictionary
281
     1
  3
Normal
350
F
100
AcDbDictionaryWithDefault
340
F
  0
DICTIONARY
  5
34
102
{ACAD_REACTORS
330
C
102
}
330
C
100
AcDbDictionary
  3
INDEXCTL
350
35
  3
SORTENTS
350
B5E
  0
DICTIONARY
  5
43
102
{ACAD_REACTORS
330
C
102
}
330
C
100
AcDbDictionary
  3
ACMSTDDICTIONARY
350
260
  0
DICTIONARY
  5
2B
102
{ACAD_REACTORS
330
C
102
}
330
C
100
AcDbDictionary
  3
ACMGSETTINGS
350
2C
  0
DICTIONARY
  5
6E
102
{ACAD_REACTORS
330
C
102
}
330
C
100
AcDbDictionary
  0
XRECORD
  5
15DE
102
{ACAD_REACTORS
330
C
102
}
330
C
100
AcDbXrecord
  1
DWGPROPS COOKIE
  2

  3

  4

  6

  7

  8

  9

300
AmdtFileType=82
301
=
302
=
303
=
304
=
305
=
306
=
307
=
308
=
309
=
 40
0.0342024768518519
 41
2452809.557180439
 42
2452962.986024803
  1

 90
        1
  0
DICTIONARY
  5
15EA
102
{ACAD_REACTORS
330
C
102
}
330
C
100
AcDbDictionary
  3
TSTACKALIGN
350
15EB
  3
TSTACKSIZE
350
15EC
  3
HYPERLINKBASE
350
15ED
  3
STYLESHEET
350
15EE
  3
LAYOUTDICT
350
15EF
  3
PLOTSETDICT
350
15F0
  3
PLOTSTYLNAMDICT
350
15F1
  3
LWETCUNION
350
15F2
  3
INSUNITS
350
15F3
  3
CEPSNTYPE
350
15F4
  3
FINGERPRINTGUID
350
15F5
  3
VERSIONGUID
350
15F6
  3
PSVPSCALE
350
15F7
  3
DIMSTYLEDATA
350
15F8
  3
PUCSORTHOREF
350
15F9
  3
PUCSORTHOVIEW
350
15FA
  3
PUCSBASE
350
15FB
  3
PUCSORGTOP
350
15FC
  3
PUCSORGBOTTOM
350
15FD
  3
PUCSORGLEFT
350
15FE
  3
PUCSORGRIGHT
350
15FF
  3
PUCSORGFRONT
350
1600
  3
PUCSORGBACK
350
1601
  3
UCSORTHOREF
350
1602
  3
UCSORTHOVIEW
350
1603
  3
UCSBASE
350
1604
  3
UCSORGTOP
350
1605
  3
UCSORGBOTTOM
350
1606
  3
UCSORGLEFT
350
1607
  3
UCSORGRIGHT
350
1608
  3
UCSORGFRONT
350
1609
  3
UCSORGBACK
350
160A
  0
DICTIONARY
  5
15E0
102
{ACAD_REACTORS
330
74
102
}
330
74
100
AcDbDictionary
  3
*A1
350
15E1
  0
XRECORD
  5
160D
102
{ACAD_REACTORS
330
74
102
}
330
74
100
AcDbXrecord
340
1F
  0
XRECORD
  5
1613
102
{ACAD_REACTORS
330
1612
102
}
330
1612
100
AcDbXrecord
340
101
  0
MLINESTYLE
  5
18
102
{ACAD_REACTORS
330
17
102
}
330
17
100
AcDbMlineStyle
  2
STANDARD
 70
     0
  3

 62
   256
 51
90.0
 52
90.0
 71
     2
 49
0.5
 62
   256
  6
BYLAYER
 49
-0.5
 62
   256
  6
BYLAYER
  0
ACDBPLACEHOLDER
  5
F
102
{ACAD_REACTORS
330
E
102
}
330
E
100
AcDbPlaceHolder
280
     0
  0
DICTIONARYVAR
  5
35
102
{ACAD_REACTORS
330
34
102
}
330
34
100
DictionaryVariables
280
     0
  1
1
  0
DICTIONARYVAR
  5
B5E
102
{ACAD_REACTORS
330
34
102
}
330
34
100
DictionaryVariables
280
     0
  1
96
  0
DICTIONARY
  5
260
102
{ACAD_REACTORS
330
43
102
}
330
43
100
AcDbDictionary
  0
DICTIONARY
  5
2C
102
{ACAD_REACTORS
330
2B
102
}
330
2B
100
AcDbDictionary
  3
DWGSETTINGS
350
2D
  0
XRECORD
  5
15EB
102
{ACAD_REACTORS
330
15EA
102
}
330
15EA
100
AcDbXrecord
 90
        1
  0
XRECORD
  5
15EC
102
{ACAD_REACTORS
330
15EA
102
}
330
15EA
100
AcDbXrecord
 90
       70
  0
XRECORD
  5
15ED
102
{ACAD_REACTORS
330
15EA
102
}
330
15EA
100
AcDbXrecord
  1

  0
XRECORD
  5
15EE
102
{ACAD_REACTORS
330
15EA
102
}
330
15EA
100
AcDbXrecord
  1
ASAMI.ctb
  0
XRECORD
  5
15EF
102
{ACAD_REACTORS
330
15EA
102
}
330
15EA
100
AcDbXrecord
340
1A
  0
XRECORD
  5
15F0
102
{ACAD_REACTORS
330
15EA
102
}
330
15EA
100
AcDbXrecord
340
19
  0
XRECORD
  5
15F1
102
{ACAD_REACTORS
330
15EA
102
}
330
15EA
100
AcDbXrecord
340
E
  0
XRECORD
  5
15F2
102
{ACAD_REACTORS
330
15EA
102
}
330
15EA
100
AcDbXrecord
 90
    10781
  0
XRECORD
  5
15F3
102
{ACAD_REACTORS
330
15EA
102
}
330
15EA
100
AcDbXrecord
 90
        4
  0
XRECORD
  5
15F4
102
{ACAD_REACTORS
330
15EA
102
}
330
15EA
100
AcDbXrecord
 90
        0
  0
XRECORD
  5
15F5
102
{ACAD_REACTORS
330
15EA
102
}
330
15EA
100
AcDbXrecord
  1
{AFB28963-8C59-40AE-9337-C84526B81ACE}
  0
XRECORD
  5
15F6
102
{ACAD_REACTORS
330
15EA
102
}
330
15EA
100
AcDbXrecord
  1
{78967485-E124-424A-9649-315FE574A97D}
  0
XRECORD
  5
15F7
102
{ACAD_REACTORS
330
15EA
102
}
330
15EA
100
AcDbXrecord
 40
0.0
  0
XRECORD
  5
15F8
102
{ACAD_REACTORS
330
15EA
102
}
330
15EA
100
AcDbXrecord
1000
DSTYLE
1002
{
1070
    79
 70
     2
1070
   341
340
59
1070
   342
340
59
1070
   371
 70
    -1
1070
   372
 70
    -1
1002
}
  0
XRECORD
  5
15F9
102
{ACAD_REACTORS
330
15EA
102
}
330
15EA
100
AcDbXrecord
340
0
  0
XRECORD
  5
15FA
102
{ACAD_REACTORS
330
15EA
102
}
330
15EA
100
AcDbXrecord
 70
     0
  0
XRECORD
  5
15FB
102
{ACAD_REACTORS
330
15EA
102
}
330
15EA
100
AcDbXrecord
340
0
  0
XRECORD
  5
15FC
102
{ACAD_REACTORS
330
15EA
102
}
330
15EA
100
AcDbXrecord
 10
0.0
 20
0.0
 30
0.0
  0
XRECORD
  5
15FD
102
{ACAD_REACTORS
330
15EA
102
}
330
15EA
100
AcDbXrecord
 10
0.0
 20
0.0
 30
0.0
  0
XRECORD
  5
15FE
102
{ACAD_REACTORS
330
15EA
102
}
330
15EA
100
AcDbXrecord
 10
0.0
 20
0.0
 30
0.0
  0
XRECORD
  5
15FF
102
{ACAD_REACTORS
330
15EA
102
}
330
15EA
100
AcDbXrecord
 10
0.0
 20
0.0
 30
0.0
  0
XRECORD
  5
1600
102
{ACAD_REACTORS
330
15EA
102
}
330
15EA
100
AcDbXrecord
 10
0.0
 20
0.0
 30
0.0
  0
XRECORD
  5
1601
102
{ACAD_REACTORS
330
15EA
102
}
330
15EA
100
AcDbXrecord
 10
0.0
 20
0.0
 30
0.0
  0
XRECORD
  5
1602
102
{ACAD_REACTORS
330
15EA
102
}
330
15EA
100
AcDbXrecord
340
0
  0
XRECORD
  5
1603
102
{ACAD_REACTORS
330
15EA
102
}
330
15EA
100
AcDbXrecord
 70
     0
  0
XRECORD
  5
1604
102
{ACAD_REACTORS
330
15EA
102
}
330
15EA
100
AcDbXrecord
340
0
  0
XRECORD
  5
1605
102
{ACAD_REACTORS
330
15EA
102
}
330
15EA
100
AcDbXrecord
 10
0.0
 20
0.0
 30
0.0
  0
XRECORD
  5
1606
102
{ACAD_REACTORS
330
15EA
102
}
330
15EA
100
AcDbXrecord
 10
0.0
 20
0.0
 30
0.0
  0
XRECORD
  5
1607
102
{ACAD_REACTORS
330
15EA
102
}
330
15EA
100
AcDbXrecord
 10
0.0
 20
0.0
 30
0.0
  0
XRECORD
  5
1608
102
{ACAD_REACTORS
330
15EA
102
}
330
15EA
100
AcDbXrecord
 10
0.0
 20
0.0
 30
0.0
  0
XRECORD
  5
1609
102
{ACAD_REACTORS
330
15EA
102
}
330
15EA
100
AcDbXrecord
 10
0.0
 20
0.0
 30
0.0
  0
XRECORD
  5
160A
102
{ACAD_REACTORS
330
15EA
102
}
330
15EA
100
AcDbXrecord
 10
0.0
 20
0.0
 30
0.0
  0
LAYER_INDEX
  5
15E1
102
{ACAD_REACTORS
330
15E0
102
}
330
15E0
100
AcDbIndex
 40
2453151.805059803
100
AcDbLayerIndex
  8
0
360
15E2
 90
        0
  8
AM_0
360
15E3
 90
       38
  8
AM_11
360
15E4
 90
        4
  8
AM_7
360
15E5
 90
        1
  8
AM_5
360
15E6
 90
        5
  8
Defpoints
360
15E7
 90
        0
  8
AM_6
360
15E8
 90
        1
  0
XRECORD
  5
2D
102
{ACAD_REACTORS
330
2C
102
}
330
2C
100
AcDbXrecord
  1
VERSION
140
15.0
  1
PRODUCT
  2
AutoCAD Mechanical 2000
  0
IDBUFFER
  5
15E2
330
0
100
AcDbIdBuffer
  0
IDBUFFER
  5
15E3
330
0
100
AcDbIdBuffer
330
1492
330
1495
330
1496
330
1498
330
149A
330
149B
330
149C
330
149D
330
149E
330
149F
330
14A0
330
14A1
330
14A2
330
14A3
330
14A4
330
14A5
330
14A6
330
14A7
330
14D3
330
14D4
330
1555
330
1556
330
11D8
330
11D9
330
11DA
330
11DB
330
1486
330
1487
330
1488
330
1489
330
148A
330
148B
330
148C
330
148D
330
148E
330
148F
330
1490
330
1491
  0
IDBUFFER
  5
15E4
330
0
100
AcDbIdBuffer
330
1494
330
1499
330
14A8
330
14A9
  0
IDBUFFER
  5
15E5
330
0
100
AcDbIdBuffer
330
1493
  0
IDBUFFER
  5
15E6
330
0
100
AcDbIdBuffer
330
11DC
330
12A8
330
130D
330
1323
330
1560
  0
IDBUFFER
  5
15E7
330
0
100
AcDbIdBuffer
  0
IDBUFFER
  5
15E8
330
0
100
AcDbIdBuffer
330
F1C
  0
ENDSEC
  0
EOF
