  0
SECTION
  2
HEADER
  9
$ACADVER
  1
AC1014
  9
$ACADMAINTVER
 70
     9
  9
$DWGCODEPAGE
  3
ANSI_932
  9
$INSBASE
 10
0.0
 20
0.0
 30
0.0
  9
$EXTMIN
 10
-129.3386983892743
 20
-58.50000099999999
 30
-0.00000001
  9
$EXTMAX
 10
17.05105068025213
 20
11.39283640860871
 30
0.00000001
  9
$LIMMIN
 10
-136.7214016783747
 20
-70.21711298362288
  9
$LIMMAX
 10
31.50706870789054
 20
45.91068634409242
  9
$ORTHOMODE
 70
     0
  9
$REGENMODE
 70
     1
  9
$FILLMODE
 70
     1
  9
$QTEXTMODE
 70
     0
  9
$MIRRTEXT
 70
     0
  9
$DRAGMODE
 70
     2
  9
$LTSCALE
 40
1.0
  9
$OSMODE
 70
    55
  9
$ATTMODE
 70
     1
  9
$TEXTSIZE
 40
5.0
  9
$TRACEWID
 40
1.0
  9
$TEXTSTYLE
  7
STANDARD
  9
$CLAYER
  8
AM_0
  9
$CELTYPE
  6
BYLAYER
  9
$CECOLOR
 62
   256
  9
$CELTSCALE
 40
1.0
  9
$DELOBJ
 70
     1
  9
$DISPSILH
 70
     0
  9
$DIMSCALE
 40
1.0
  9
$DIMASZ
 40
2.5
  9
$DIMEXO
 40
1.0
  9
$DIMDLI
 40
12.0
  9
$DIMRND
 40
0.0
  9
$DIMDLE
 40
0.0
  9
$DIMEXE
 40
1.0
  9
$DIMTP
 40
0.1
  9
$DIMTM
 40
0.1
  9
$DIMTXT
 40
3.2
  9
$DIMCEN
 40
0.0
  9
$DIMTSZ
 40
0.0
  9
$DIMTOL
 70
     0
  9
$DIMLIM
 70
     0
  9
$DIMTIH
 70
     0
  9
$DIMTOH
 70
     0
  9
$DIMSE1
 70
     0
  9
$DIMSE2
 70
     0
  9
$DIMTAD
 70
     3
  9
$DIMZIN
 70
     8
  9
$DIMBLK
  1
OPEN30
  9
$DIMASO
 70
     1
  9
$DIMSHO
 70
     1
  9
$DIMPOST
  1

  9
$DIMAPOST
  1
"
  9
$DIMALT
 70
     0
  9
$DIMALTD
 70
     2
  9
$DIMALTF
 40
0.0393701
  9
$DIMLFAC
 40
1.0
  9
$DIMTOFL
 70
     1
  9
$DIMTVP
 40
0.0
  9
$DIMTIX
 70
     0
  9
$DIMSOXD
 70
     0
  9
$DIMSAH
 70
     0
  9
$DIMBLK1
  1

  9
$DIMBLK2
  1

  9
$DIMSTYLE
  2
AM_JIS
  9
$DIMCLRD
 70
   256
  9
$DIMCLRE
 70
   256
  9
$DIMCLRT
 70
     2
  9
$DIMTFAC
 40
0.71
  9
$DIMGAP
 40
1.5
  9
$DIMJUST
 70
     0
  9
$DIMSD1
 70
     0
  9
$DIMSD2
 70
     0
  9
$DIMTOLJ
 70
     0
  9
$DIMTZIN
 70
     0
  9
$DIMALTZ
 70
     0
  9
$DIMALTTZ
 70
     0
  9
$DIMFIT
 70
     3
  9
$DIMUPT
 70
     0
  9
$DIMUNIT
 70
     2
  9
$DIMDEC
 70
     3
  9
$DIMTDEC
 70
     3
  9
$DIMALTU
 70
     2
  9
$DIMALTTD
 70
     2
  9
$DIMTXSTY
  7
ASAMI
  9
$DIMAUNIT
 70
     0
  9
$LUNITS
 70
     2
  9
$LUPREC
 70
     2
  9
$SKETCHINC
 40
1.0
  9
$FILLETRAD
 40
2.5
  9
$AUNITS
 70
     0
  9
$AUPREC
 70
     0
  9
$MENU
  1
.
  9
$ELEVATION
 40
0.0
  9
$PELEVATION
 40
0.0
  9
$THICKNESS
 40
0.0
  9
$LIMCHECK
 70
     0
  9
$BLIPMODE
 70
     0
  9
$CHAMFERA
 40
1.25
  9
$CHAMFERB
 40
1.25
  9
$CHAMFERC
 40
20.0
  9
$CHAMFERD
 40
0.0
  9
$SKPOLY
 70
     0
  9
$TDCREATE
 40
2452838.430434386
  9
$TDUPDATE
 40
2453151.843643692
  9
$TDINDWG
 40
0.4823859606
  9
$TDUSRTIMER
 40
0.4823859606
  9
$USRTIMER
 70
     1
  9
$ANGBASE
 50
0.0
  9
$ANGDIR
 70
     0
  9
$PDMODE
 70
     0
  9
$PDSIZE
 40
0.0
  9
$PLINEWID
 40
0.0
  9
$COORDS
 70
     1
  9
$SPLFRAME
 70
     0
  9
$SPLINETYPE
 70
     6
  9
$SPLINESEGS
 70
     8
  9
$ATTDIA
 70
     1
  9
$ATTREQ
 70
     1
  9
$HANDLING
 70
 12289
  9
$HANDSEED
  5
BEF6
  9
$SURFTAB1
 70
     6
  9
$SURFTAB2
 70
     6
  9
$SURFTYPE
 70
     6
  9
$SURFU
 70
     6
  9
$SURFV
 70
     6
  9
$UCSNAME
  2

  9
$UCSORG
 10
0.0
 20
0.0
 30
0.0
  9
$UCSXDIR
 10
1.0
 20
0.0
 30
0.0
  9
$UCSYDIR
 10
0.0
 20
1.0
 30
0.0
  9
$PUCSNAME
  2

  9
$PUCSORG
 10
0.0
 20
0.0
 30
0.0
  9
$PUCSXDIR
 10
1.0
 20
0.0
 30
0.0
  9
$PUCSYDIR
 10
0.0
 20
1.0
 30
0.0
  9
$USERI1
 70
     0
  9
$USERI2
 70
     0
  9
$USERI3
 70
     0
  9
$USERI4
 70
     0
  9
$USERI5
 70
     0
  9
$USERR1
 40
0.0
  9
$USERR2
 40
0.0
  9
$USERR3
 40
0.0
  9
$USERR4
 40
0.0
  9
$USERR5
 40
0.0
  9
$WORLDVIEW
 70
     1
  9
$SHADEDGE
 70
     3
  9
$SHADEDIF
 70
    70
  9
$TILEMODE
 70
     1
  9
$MAXACTVP
 70
    64
  9
$PINSBASE
 10
0.0
 20
0.0
 30
0.0
  9
$PLIMCHECK
 70
     0
  9
$PEXTMIN
 10
1.000000000000000E+20
 20
1.000000000000000E+20
 30
1.000000000000000E+20
  9
$PEXTMAX
 10
-1.000000000000000E+20
 20
-1.000000000000000E+20
 30
-1.000000000000000E+20
  9
$PLIMMIN
 10
0.0
 20
0.0
  9
$PLIMMAX
 10
841.0
 20
594.0
  9
$UNITMODE
 70
     0
  9
$VISRETAIN
 70
     1
  9
$PLINEGEN
 70
     0
  9
$PSLTSCALE
 70
     0
  9
$TREEDEPTH
 70
  3020
  9
$PICKSTYLE
 70
     0
  9
$CMLSTYLE
  2
STANDARD
  9
$CMLJUST
 70
     0
  9
$CMLSCALE
 40
20.0
  9
$PROXYGRAPHICS
 70
     1
  9
$MEASUREMENT
 70
     1
  0
ENDSEC
  0
SECTION
  2
CLASSES
  0
CLASS
  1
ACDBDICTIONARYWDFLT
  2
AcDbDictionaryWithDefault
  3
AutoCAD 2000
 90
        0
280
     0
281
     0
  0
CLASS
  1
ACDBPLACEHOLDER
  2
AcDbPlaceHolder
  3
AutoCAD 2000
 90
        0
280
     0
281
     0
  0
CLASS
  1
LAYOUT
  2
AcDbLayout
  3
AutoCAD 2000
 90
        0
280
     0
281
     0
  0
CLASS
  1
AMGSETTINGSOBJ
  2
AmgSettingsObj
  3
"AcadM|Product Description: AutoCAD Mechanical 2000|Company: Autodesk"
 90
        0
280
     0
281
     0
  0
CLASS
  1
ACME_DOCUMENT
  2
AcMeDbDoc
  3
AcMeServices
 90
        0
280
     0
281
     0
  0
CLASS
  1
ACMESCOPE
  2
AcMeScope
  3
AcMeServices
 90
        0
280
     0
281
     0
  0
CLASS
  1
ACMECOMMANDHISTORY
  2
AcMeCommandHistory
  3
AcMeServices
 90
        0
280
     0
281
     0
  0
CLASS
  1
DICTIONARYVAR
  2
AcDbDictionaryVar
  3
AutoCAD 2000
 90
        0
280
     0
281
     0
  0
CLASS
  1
ACIMSYSVARMAN
  2
AcImSysVarManager
  3
AcMeServices
 90
        0
280
     0
281
     0
  0
CLASS
  1
ACIMREALSYSVAR
  2
AcImRealSysVar
  3
AcMeServices
 90
        0
280
     0
281
     0
  0
CLASS
  1
ACIMINTSYSVAR
  2
AcImIntSysVar
  3
AcMeServices
 90
        0
280
     0
281
     0
  0
CLASS
  1
ACMEDRAWINGMAN
  2
AcMeDrawingMan
  3
AcMeServices
 90
        0
280
     0
281
     0
  0
CLASS
  1
ACMEVIEW
  2
AcMeView
  3
AcMeServices
 90
        0
280
     0
281
     0
  0
CLASS
  1
ACDBENTITYCACHE
  2
AcMeEntityCache
  3
AcMeServices
 90
        0
280
     0
281
     0
  0
CLASS
  1
GSMANAGER
  2
AcMeGSManager
  3
AcMeServices
 90
        0
280
     0
281
     0
  0
CLASS
  1
AmdtInternalReactor
  2
AmdtInternalReactor
  3
AcMeServices
 90
        0
280
     0
281
     0
  0
CLASS
  1
ACMESTATEMGR
  2
AcMeStateMgr
  3
AcMeServices
 90
        0
280
     0
281
     0
  0
CLASS
  1
ACME_DATABASE
  2
AcMeDbDatabase
  3
AcMeServices
 90
        0
280
     0
281
     0
  0
CLASS
  1
ACRFINSADJUSTERMGR
  2
AcRfInsAdjusterMgr
  3
AcMeServices
 90
        0
280
     0
281
     0
  0
CLASS
  1
ACMDATADICTIONARY
  2
AcmDataDictionary
  3
"AcmSymBB|Product Description: AutoCAD Mechanical 2000|Company: Autodesk"
 90
        0
280
     0
281
     0
  0
CLASS
  1
ACMDATAENTRYBLOCK
  2
AcmDataEntryBlock
  3
"AcmSymBB|Product Description: AutoCAD Mechanical 2000|Company: Autodesk"
 90
        0
280
     0
281
     0
  0
CLASS
  1
AMGOBJPROPCFG
  2
AmgObjPropCfg
  3
"AmgLay|Product Description: AutoCAD Mechanical 2000|Company: Autodesk"
 90
        1
280
     0
281
     0
  0
CLASS
  1
ACAMGFILTERDAT
  2
AcAmgFilterDat
  3
"AcadM|Product Description: AutoCAD Mechanical 2000|Company: Autodesk"
 90
        0
280
     0
281
     0
  0
CLASS
  1
LAYER_INDEX
  2
AcDbLayerIndex
  3
AutoCAD 2000
 90
        0
280
     0
281
     0
  0
CLASS
  1
IDBUFFER
  2
AcDbIdBuffer
  3
AutoCAD 2000
 90
        0
280
     0
281
     0
  0
CLASS
  1
ACIMSTRSYSVAR
  2
AcImStrSysVar
  3
AcMeServices
 90
        0
280
     0
281
     0
  0
CLASS
  1
ACMSTANDARDJIS
  2
AcmStandardJIS
  3
"AcmSymBB|Product Description: AutoCAD Mechanical 2000|Company: Autodesk"
 90
        0
280
     0
281
     0
  0
CLASS
  1
ACMSURFSTANDARDJIS
  2
AcmSurfTextStdJIS
  3
"AcmSymBB|Product Description: AutoCAD Mechanical 2000|Company: Autodesk"
 90
        0
280
     0
281
     0
  0
CLASS
  1
ACMFCFSTANDARDJIS
  2
AcmFCFStdJIS
  3
"AcmSymBB|Product Description: AutoCAD Mechanical 2000|Company: Autodesk"
 90
        0
280
     0
281
     0
  0
CLASS
  1
ACMWELDSTANDARDJIS
  2
AcmWeldingStdJIS
  3
"AcmSymBB|Product Description: AutoCAD Mechanical 2000|Company: Autodesk"
 90
        0
280
     0
281
     0
  0
CLASS
  1
ACMIDSTANDARDJIS
  2
AcmIdStdJIS
  3
"AcmSymBB|Product Description: AutoCAD Mechanical 2000|Company: Autodesk"
 90
        0
280
     0
281
     0
  0
CLASS
  1
ACMDATUMSTANDARDJIS
  2
AcmDatumStdJIS
  3
"AcmSymBB|Product Description: AutoCAD Mechanical 2000|Company: Autodesk"
 90
        0
280
     0
281
     0
  0
CLASS
  1
ACMBOMSTANDARDJIS
  2
AcmBOMStdJIS
  3
"AcmSymBB|Product Description: AutoCAD Mechanical 2000|Company: Autodesk"
 90
        0
280
     0
281
     0
  0
CLASS
  1
ACMSTANDARDANSI
  2
AcmStandardANSI
  3
"AcmSymBB|Product Description: AutoCAD Mechanical 2000|Company: Autodesk"
 90
        0
280
     0
281
     0
  0
CLASS
  1
ACMSURFSTANDARDANSI
  2
AcmSurfTextStdANSI
  3
"AcmSymBB|Product Description: AutoCAD Mechanical 2000|Company: Autodesk"
 90
        0
280
     0
281
     0
  0
CLASS
  1
ACMFCFSTANDARDANSI
  2
AcmFCFStdANSI
  3
"AcmSymBB|Product Description: AutoCAD Mechanical 2000|Company: Autodesk"
 90
        0
280
     0
281
     0
  0
CLASS
  1
ACMWELDSTANDARDANSI
  2
AcmWeldingStdANSI
  3
"AcmSymBB|Product Description: AutoCAD Mechanical 2000|Company: Autodesk"
 90
        0
280
     0
281
     0
  0
CLASS
  1
ACMIDSTANDARDANSI
  2
AcmIdStdANSI
  3
"AcmSymBB|Product Description: AutoCAD Mechanical 2000|Company: Autodesk"
 90
        0
280
     0
281
     0
  0
CLASS
  1
ACMDATUMSTANDARDANSI
  2
AcmDatumStdANSI
  3
"AcmSymBB|Product Description: AutoCAD Mechanical 2000|Company: Autodesk"
 90
        0
280
     0
281
     0
  0
CLASS
  1
ACMBOMSTANDARDANSI
  2
AcmBOMStdANSI
  3
"AcmSymBB|Product Description: AutoCAD Mechanical 2000|Company: Autodesk"
 90
        0
280
     0
281
     0
  0
CLASS
  1
ACMSTANDARDBSI
  2
AcmStandardBSI
  3
"AcmSymBB|Product Description: AutoCAD Mechanical 2000|Company: Autodesk"
 90
        0
280
     0
281
     0
  0
CLASS
  1
ACMSURFSTANDARDBSI
  2
AcmSurfTextStdBSI
  3
"AcmSymBB|Product Description: AutoCAD Mechanical 2000|Company: Autodesk"
 90
        0
280
     0
281
     0
  0
CLASS
  1
ACMFCFSTANDARDBSI
  2
AcmFCFStdBSI
  3
"AcmSymBB|Product Description: AutoCAD Mechanical 2000|Company: Autodesk"
 90
        0
280
     0
281
     0
  0
CLASS
  1
ACMWELDSTANDARDBSI
  2
AcmWeldingStdBSI
  3
"AcmSymBB|Product Description: AutoCAD Mechanical 2000|Company: Autodesk"
 90
        0
280
     0
281
     0
  0
CLASS
  1
ACMIDSTANDARDBSI
  2
AcmIdStdBSI
  3
"AcmSymBB|Product Description: AutoCAD Mechanical 2000|Company: Autodesk"
 90
        0
280
     0
281
     0
  0
CLASS
  1
ACMDATUMSTANDARDBSI
  2
AcmDatumStdBSI
  3
"AcmSymBB|Product Description: AutoCAD Mechanical 2000|Company: Autodesk"
 90
        0
280
     0
281
     0
  0
CLASS
  1
ACMBOMSTANDARDBSI
  2
AcmBOMStdBSI
  3
"AcmSymBB|Product Description: AutoCAD Mechanical 2000|Company: Autodesk"
 90
        0
280
     0
281
     0
  0
CLASS
  1
LONG_TRANSACTION
  2
AcDbLongTransaction
  3
AutoCAD 2000
 90
        0
280
     0
281
     0
  0
CLASS
  1
LWPOLYLINE
  2
AcDbPolyline
  3
AutoCAD 2000
 90
        0
280
     0
281
     1
  0
CLASS
  1
HATCH
  2
AcDbHatch
  3
AutoCAD 2000
 90
        0
280
     0
281
     1
  0
CLASS
  1
XRECORD
  2
AcDbXrecord
  3
AutoCAD 2000
 90
        0
280
     0
281
     0
  0
ENDSEC
  0
SECTION
  2
TABLES
  0
TABLE
  2
VPORT
  5
8
330
0
100
AcDbSymbolTable
 70
     3
  0
VPORT
  5
BECB
330
8
100
AcDbSymbolTableRecord
100
AcDbViewportTableRecord
  2
*ACTIVE
 70
     0
 10
0.0
 20
0.0
 11
1.0
 21
1.0
 12
-46.2025987491654
 22
-10.66246224943159
 13
0.0
 23
0.0
 14
2.5
 24
2.5
 15
10.0
 25
10.0
 16
0.0
 26
0.0
 36
1.0
 17
0.0
 27
0.0
 37
0.0
 40
133.2338301107343
 41
1.56570841889117
 42
50.0
 43
0.0
 44
0.0
 50
0.0
 51
0.0
 71
     0
 72
   100
 73
     1
 74
     3
 75
     0
 76
     0
 77
     0
 78
     0
  0
ENDTAB
  0
TABLE
  2
LTYPE
  5
5
330
0
100
AcDbSymbolTable
 70
    10
  0
LTYPE
  5
14
330
5
100
AcDbSymbolTableRecord
100
AcDbLinetypeTableRecord
  2
BYBLOCK
 70
     0
  3

 72
    65
 73
     0
 40
0.0
  0
LTYPE
  5
15
330
5
100
AcDbSymbolTableRecord
100
AcDbLinetypeTableRecord
  2
BYLAYER
 70
     0
  3

 72
    65
 73
     0
 40
0.0
  0
LTYPE
  5
16
330
5
100
AcDbSymbolTableRecord
100
AcDbLinetypeTableRecord
  2
CONTINUOUS
 70
     0
  3
Solid line
 72
    65
 73
     0
 40
0.0
  0
LTYPE
  5
4B
330
5
100
AcDbSymbolTableRecord
100
AcDbLinetypeTableRecord
  2
AM_ISO02W050
 70
     0
  3
__ __ __ __ __ __ __ __ __ __ __ __ __ __ __
 72
    65
 73
     2
 40
7.5
 49
6.0
 74
     0
 49
-1.5
 74
     0
  0
LTYPE
  5
4C
330
5
100
AcDbSymbolTableRecord
100
AcDbLinetypeTableRecord
  2
AM_ISO08W050
 70
     0
  3
____ . ____ . ____ . ____ . ____ . ____ . ____
 72
    65
 73
     4
 40
18.0
 49
12.0
 74
     0
 49
-1.5
 74
     0
 49
3.0
 74
     0
 49
-1.5
 74
     0
  0
LTYPE
  5
4D
330
5
100
AcDbSymbolTableRecord
100
AcDbLinetypeTableRecord
  2
AM_ISO09W050
 70
     0
  3
_____ . . _____ . . _____ . . ____ .. ____
 72
    65
 73
     6
 40
22.5
 49
12.0
 74
     0
 49
-1.5
 74
     0
 49
3.0
 74
     0
 49
-1.5
 74
     0
 49
3.0
 74
     0
 49
-1.5
 74
     0
  0
LTYPE
  5
4E
330
5
100
AcDbSymbolTableRecord
100
AcDbLinetypeTableRecord
  2
AMCONSTR
 70
     0
  3
_______________________
 72
    65
 73
     2
 40
9999.0
 49
9999.0
 74
     0
 49
0.0
 74
     0
  0
LTYPE
  5
4F
330
5
100
AcDbSymbolTableRecord
100
AcDbLinetypeTableRecord
  2
AM_ISO02W050X2
 70
     0
  3
 _ _ _ _ _ _ _ _ _ _ _ _
 72
    65
 73
     2
 40
3.75
 49
3.0
 74
     0
 49
-0.75
 74
     0
  0
LTYPE
  5
50
330
5
100
AcDbSymbolTableRecord
100
AcDbLinetypeTableRecord
  2
AM_ISO08W050X2
 70
     0
  3
__ . __ . __ . __ . __ . __
 72
    65
 73
     4
 40
9.0
 49
6.0
 74
     0
 49
-0.75
 74
     0
 49
1.5
 74
     0
 49
-0.75
 74
     0
  0
LTYPE
  5
53
330
5
100
AcDbSymbolTableRecord
100
AcDbLinetypeTableRecord
  2
AMZIGZAG
 70
     0
  3
/\/-/\/-/\/-/\/-/\/-/\/
 72
    65
 73
     2
 40
11.00009999999999
 49
0.0001
 74
     4
 75
   135
340
52
 46
0.04
 50
0.0
 44
0.0
 45
0.0
 49
-11.0
 74
     0
  0
LTYPE
  5
166
330
5
100
AcDbSymbolTableRecord
100
AcDbLinetypeTableRecord
  2
ACJISTGL
 70
     0
  3
_ _ _ _ _
 72
    65
 73
     2
 40
3.0
 49
2.0
 74
     0
 49
-1.0
 74
     0
  0
LTYPE
  5
26A
330
5
100
AcDbSymbolTableRecord
100
AcDbLinetypeTableRecord
  2
ACJISTGB
 70
     0
  3
__ . . __ . .
 72
    65
 73
     6
 40
9.0
 49
4.0
 74
     0
 49
-1.0
 74
     0
 49
1.0
 74
     0
 49
-1.0
 74
     0
 49
1.0
 74
     0
 49
-1.0
 74
     0
  0
ENDTAB
  0
TABLE
  2
LAYER
  5
2
330
0
100
AcDbSymbolTable
 70
     8
  0
LAYER
  5
10
330
2
100
AcDbSymbolTableRecord
100
AcDbLayerTableRecord
  2
0
 70
     0
 62
     7
  6
CONTINUOUS
  0
LAYER
  5
3F9
330
2
100
AcDbSymbolTableRecord
100
AcDbLayerTableRecord
  2
AM_0
 70
     0
 62
     7
  6
CONTINUOUS
  0
LAYER
  5
BDD
330
2
100
AcDbSymbolTableRecord
100
AcDbLayerTableRecord
  2
AM_11
 70
     0
 62
     3
  6
AM_ISO09W050
  0
LAYER
  5
BDE
330
2
100
AcDbSymbolTableRecord
100
AcDbLayerTableRecord
  2
AM_7
 70
     0
 62
     4
  6
AM_ISO08W050
  0
LAYER
  5
BDF
330
2
100
AcDbSymbolTableRecord
100
AcDbLayerTableRecord
  2
AM_5
 70
     0
 62
     3
  6
CONTINUOUS
  0
LAYER
  5
BE0
330
2
100
AcDbSymbolTableRecord
100
AcDbLayerTableRecord
  2
DEFPOINTS
 70
     0
 62
     7
  6
CONTINUOUS
  0
LAYER
  5
14FF
330
2
100
AcDbSymbolTableRecord
100
AcDbLayerTableRecord
  2
AM_6
 70
     0
 62
     2
  6
CONTINUOUS
  0
LAYER
  5
BE75
330
2
100
AcDbSymbolTableRecord
100
AcDbLayerTableRecord
  2
AM_CL
 70
     0
 62
     1
  6
AMCONSTR
  0
ENDTAB
  0
TABLE
  2
STYLE
  5
3
330
0
100
AcDbSymbolTable
 70
     5
  0
STYLE
  5
11
330
3
100
AcDbSymbolTableRecord
100
AcDbTextStyleTableRecord
  2
STANDARD
 70
     0
 40
0.0
 41
1.0
 50
0.0
 71
     0
 42
5.0
  3
simplex.shx
  4
EXTFONT.SHX
  0
STYLE
  5
52
330
3
100
AcDbSymbolTableRecord
100
AcDbTextStyleTableRecord
  2

 70
     1
 40
0.0
 41
1.0
 50
0.0
 71
     0
 42
2.5
  3
ltypeshp.shx
  4

  0
STYLE
  5
6B
330
3
100
AcDbSymbolTableRecord
100
AcDbTextStyleTableRecord
  2
ASAMI
 70
     0
 40
0.0
 41
1.0
 50
0.0
 71
     0
 42
2.5
  3
simplex.shx
  4
EXTFONT.SHX
  0
STYLE
  5
262
330
3
100
AcDbSymbolTableRecord
100
AcDbTextStyleTableRecord
  2
ACJISTS
 70
     0
 40
1.0
 41
1.0
 50
0.0
 71
     0
 42
2.5
  3
simplex.shx
  4
bigfont.shx
  0
STYLE
  5
269
330
3
100
AcDbSymbolTableRecord
100
AcDbTextStyleTableRecord
  2
ACJISGDT
 70
     0
 40
0.0
 41
1.0
 50
0.0
 71
     0
 42
2.5
  3
amgdtans.shx
  4

  0
ENDTAB
  0
TABLE
  2
VIEW
  5
6
330
0
100
AcDbSymbolTable
 70
     0
  0
ENDTAB
  0
TABLE
  2
UCS
  5
7
330
0
100
AcDbSymbolTable
 70
     0
  0
ENDTAB
  0
TABLE
  2
APPID
  5
9
330
0
100
AcDbSymbolTable
 70
    13
  0
APPID
  5
12
330
9
100
AcDbSymbolTableRecord
100
AcDbRegAppTableRecord
  2
ACAD
 70
     0
  0
APPID
  5
30
330
9
100
AcDbSymbolTableRecord
100
AcDbRegAppTableRecord
  2
MCAD_NO_VIS
 70
     0
  0
APPID
  5
31
330
9
100
AcDbSymbolTableRecord
100
AcDbRegAppTableRecord
  2
ACAD_TEMP_GRAPHIC
 70
     0
  0
APPID
  5
2C2
330
9
100
AcDbSymbolTableRecord
100
AcDbRegAppTableRecord
  2
GENIUS_GENDTOL_13
 70
     0
  0
APPID
  5
339
330
9
100
AcDbSymbolTableRecord
100
AcDbRegAppTableRecord
  2
GENIUS_GENODEF_13
 70
     0
  0
APPID
  5
33A
330
9
100
AcDbSymbolTableRecord
100
AcDbRegAppTableRecord
  2
GENIUS_GENOBJ-N-RSBK_13
 70
     0
  0
APPID
  5
33B
330
9
100
AcDbSymbolTableRecord
100
AcDbRegAppTableRecord
  2
GENIUS_GENOBJ-N-LIB_13
 70
     0
  0
APPID
  5
33C
330
9
100
AcDbSymbolTableRecord
100
AcDbRegAppTableRecord
  2
GENIUS_GENSCALE_13
 70
     0
  0
APPID
  5
378
330
9
100
AcDbSymbolTableRecord
100
AcDbRegAppTableRecord
  2
GENIUS_GENDIMSH_14
 70
     0
  0
APPID
  5
BE1
330
9
100
AcDbSymbolTableRecord
100
AcDbRegAppTableRecord
  2
GENIUS_GENFIL_13
 70
     0
  0
APPID
  5
BE2
330
9
100
AcDbSymbolTableRecord
100
AcDbRegAppTableRecord
  2
GENIUS_GENOBJ-N-CHA_13
 70
     0
  0
APPID
  5
151B
330
9
100
AcDbSymbolTableRecord
100
AcDbRegAppTableRecord
  2
DCO15
 70
     0
  0
APPID
  5
1860
330
9
100
AcDbSymbolTableRecord
100
AcDbRegAppTableRecord
  2
GENIUS_GENOBJ-N-CEN_13
 70
     0
  0
ENDTAB
  0
TABLE
  2
DIMSTYLE
  5
A
330
0
100
AcDbSymbolTable
 70
     8
  0
DIMSTYLE
105
58
102
{ACAD_REACTORS
330
10F0
330
12D8
330
B473
330
BD54
102
}
330
A
100
AcDbSymbolTableRecord
100
AcDbDimStyleTableRecord
  2
AM_JIS
 70
     0
  3

  4
"
  5
OPEN30
  6

  7

 40
1.0
 41
2.5
 42
1.0
 43
12.0
 44
1.0
 45
0.0
 46
0.0
 47
0.1
 48
0.1
140
3.2
141
0.0
142
0.0
143
0.0393701
144
1.0
145
0.0
146
0.71
147
1.5
 71
     0
 72
     0
 73
     0
 74
     0
 75
     0
 76
     0
 77
     3
 78
     8
170
     0
171
     2
172
     1
173
     0
174
     0
175
     0
176
   256
177
   256
178
     2
270
     2
271
     3
272
     3
273
     2
274
     2
340
6B
275
     0
280
     0
281
     0
282
     0
283
     0
284
     0
285
     0
286
     0
287
     3
288
     0
  0
DIMSTYLE
105
5F
330
A
100
AcDbSymbolTableRecord
100
AcDbDimStyleTableRecord
  2
AM_JIS$3
 70
     0
  3

  4
"
  5
OPEN30
  6

  7

 40
1.0
 41
2.5
 42
1.0
 43
10.0
 44
1.0
 45
0.0
 46
0.0
 47
0.1
 48
0.1
140
3.2
141
0.0
142
0.0
143
0.0393701
144
1.0
145
0.0
146
0.71
147
1.5
 71
     0
 72
     0
 73
     0
 74
     1
 75
     0
 76
     0
 77
     3
 78
     8
170
     0
171
     2
172
     0
173
     0
174
     0
175
     0
176
   256
177
   256
178
     2
270
     2
271
     2
272
     3
273
     2
274
     2
340
6B
275
     0
280
     0
281
     0
282
     0
283
     0
284
     0
285
     0
286
     0
287
     0
288
     1
  0
DIMSTYLE
105
60
330
A
100
AcDbSymbolTableRecord
100
AcDbDimStyleTableRecord
  2
AM_JIS$4
 70
     0
  3

  4
"
  5
OPEN30
  6

  7

 40
1.0
 41
2.5
 42
1.0
 43
10.0
 44
1.0
 45
0.0
 46
0.0
 47
0.1
 48
0.1
140
3.2
141
0.0
142
0.0
143
0.0393701
144
1.0
145
0.0
146
0.71
147
1.5
 71
     0
 72
     0
 73
     0
 74
     1
 75
     0
 76
     0
 77
     3
 78
     8
170
     0
171
     2
172
     0
173
     0
174
     0
175
     0
176
   256
177
   256
178
     2
270
     2
271
     2
272
     3
273
     2
274
     2
340
6B
275
     0
280
     0
281
     0
282
     0
283
     0
284
     0
285
     0
286
     0
287
     0
288
     1
  0
DIMSTYLE
105
61
330
A
100
AcDbSymbolTableRecord
100
AcDbDimStyleTableRecord
  2
AM_JIS$6
 70
     0
  3

  4
"
  5
OPEN30
  6

  7

 40
1.0
 41
2.5
 42
1.0
 43
10.0
 44
1.0
 45
0.0
 46
0.0
 47
0.1
 48
0.1
140
3.2
141
0.0
142
0.0
143
0.0393701
144
1.0
145
0.0
146
0.71
147
1.5
 71
     0
 72
     0
 73
     0
 74
     0
 75
     0
 76
     0
 77
     0
 78
     8
170
     0
171
     2
172
     1
173
     0
174
     0
175
     0
176
   256
177
   256
178
     2
270
     2
271
     2
272
     2
273
     2
274
     2
340
6B
275
     0
280
     0
281
     0
282
     0
283
     0
284
     0
285
     0
286
     0
287
     3
288
     0
  0
DIMSTYLE
105
62
330
A
100
AcDbSymbolTableRecord
100
AcDbDimStyleTableRecord
  2
AM_JIS$7
 70
     0
  3

  4
"
  5
OPEN30
  6

  7

 40
1.0
 41
2.5
 42
1.0
 43
10.0
 44
1.0
 45
0.0
 46
0.0
 47
0.1
 48
0.1
140
3.2
141
0.0
142
0.0
143
0.0393701
144
1.0
145
0.0
146
0.71
147
1.5
 71
     0
 72
     0
 73
     0
 74
     0
 75
     0
 76
     0
 77
     3
 78
     8
170
     0
171
     2
172
     1
173
     0
174
     0
175
     0
176
   256
177
   256
178
     2
270
     2
271
     2
272
     3
273
     2
274
     2
340
6B
275
     0
280
     0
281
     0
282
     0
283
     0
284
     0
285
     0
286
     0
287
     3
288
     0
  0
DIMSTYLE
105
63
330
A
100
AcDbSymbolTableRecord
100
AcDbDimStyleTableRecord
  2
AM_JIS$SF
 70
     0
  3

  4
"
  5
OPEN30
  6

  7

 40
1.0
 41
2.5
 42
1.0
 43
10.0
 44
1.0
 45
0.0
 46
0.0
 47
0.1
 48
0.1
140
3.2
141
0.0
142
0.0
143
0.0393701
144
1.0
145
0.0
146
0.71
147
1.5
 71
     0
 72
     0
 73
     0
 74
     0
 75
     1
 76
     1
 77
     3
 78
     8
170
     0
171
     2
172
     1
173
     0
174
     0
175
     0
176
   256
177
   256
178
     2
270
     2
271
     2
272
     2
273
     2
274
     2
340
6B
275
     0
280
     0
281
     0
282
     0
283
     0
284
     0
285
     0
286
     0
287
     3
288
     0
  0
DIMSTYLE
105
68
330
A
100
AcDbSymbolTableRecord
100
AcDbDimStyleTableRecord
  2
AM_JIS$SH
 70
     0
  3

  4
"
  5

  6
GENAXEH
  7
OPEN30
 40
1.0
 41
2.5
 42
1.0
 43
10.0
 44
1.0
 45
0.0
 46
0.0
 47
0.1
 48
0.1
140
3.2
141
0.0
142
0.0
143
0.0393701
144
2.0
145
0.0
146
0.71
147
1.5
 71
     0
 72
     0
 73
     0
 74
     0
 75
     1
 76
     1
 77
     3
 78
     8
170
     0
171
     2
172
     1
173
     1
174
     0
175
     0
176
   256
177
   256
178
     2
270
     2
271
     2
272
     2
273
     2
274
     2
340
6B
275
     0
280
     0
281
     0
282
     0
283
     0
284
     0
285
     0
286
     0
287
     3
288
     0
  0
DIMSTYLE
105
B34
330
A
100
AcDbSymbolTableRecord
100
AcDbDimStyleTableRecord
  2
AM_JIS$2
 70
     0
  3

  4
"
  5
OPEN30
  6

  7

 40
1.0
 41
2.5
 42
1.0
 43
12.0
 44
1.0
 45
0.0
 46
0.0
 47
0.1
 48
0.1
140
3.2
141
0.0
142
0.0
143
0.0393701
144
1.0
145
0.0
146
0.71
147
1.5
 71
     0
 72
     0
 73
     0
 74
     0
 75
     0
 76
     0
 77
     3
 78
     8
170
     0
171
     2
172
     1
173
     0
174
     0
175
     0
176
   256
177
   256
178
     2
270
     2
271
     3
272
     3
273
     2
274
     2
340
6B
275
     0
280
     0
281
     0
282
     0
283
     0
284
     0
285
     0
286
     0
287
     3
288
     0
  0
ENDTAB
  0
TABLE
  2
BLOCK_RECORD
  5
1
330
0
100
AcDbSymbolTable
 70
     9
  0
BLOCK_RECORD
  5
1F
102
{ACAD_XDICTIONARY
360
74
102
}
330
1
100
AcDbSymbolTableRecord
100
AcDbBlockTableRecord
  2
*MODEL_SPACE
  0
BLOCK_RECORD
  5
101
102
{ACAD_XDICTIONARY
360
BEF4
102
}
330
1
100
AcDbSymbolTableRecord
100
AcDbBlockTableRecord
  2
*PAPER_SPACE
  0
BLOCK_RECORD
  5
59
330
1
100
AcDbSymbolTableRecord
100
AcDbBlockTableRecord
  2
_OPEN30
  0
BLOCK_RECORD
  5
64
330
1
100
AcDbSymbolTableRecord
100
AcDbBlockTableRecord
  2
GENAXEH
  0
BLOCK_RECORD
  5
10F1
330
1
100
AcDbSymbolTableRecord
100
AcDbBlockTableRecord
  2
*D5
  0
BLOCK_RECORD
  5
12D9
330
1
100
AcDbSymbolTableRecord
100
AcDbBlockTableRecord
  2
*D6
  0
BLOCK_RECORD
  5
B474
330
1
100
AcDbSymbolTableRecord
100
AcDbBlockTableRecord
  2
*D7
  0
BLOCK_RECORD
  5
BD55
330
1
100
AcDbSymbolTableRecord
100
AcDbBlockTableRecord
  2
*D8
  0
ENDTAB
  0
ENDSEC
  0
SECTION
  2
BLOCKS
  0
BLOCK
  5
20
330
1F
100
AcDbEntity
  8
0
100
AcDbBlockBegin
  2
*MODEL_SPACE
 70
     0
 10
0.0
 20
0.0
 30
0.0
  3
*MODEL_SPACE
  1

  0
ENDBLK
  5
21
330
1F
100
AcDbEntity
  8
0
100
AcDbBlockEnd
  0
BLOCK
  5
103
330
101
100
AcDbEntity
 67
     1
  8
0
100
AcDbBlockBegin
  2
*PAPER_SPACE
 70
     0
 10
0.0
 20
0.0
 30
0.0
  3
*PAPER_SPACE
  1

  0
ENDBLK
  5
104
330
101
100
AcDbEntity
 67
     1
  8
0
100
AcDbBlockEnd
  0
BLOCK
  5
5D
330
59
100
AcDbEntity
  8
0
100
AcDbBlockBegin
  2
_OPEN30
 70
     0
 10
0.0
 20
0.0
 30
0.0
  3
_OPEN30
  1

  0
LINE
  5
5A
330
59
100
AcDbEntity
  8
0
 62
     0
100
AcDbLine
 10
-1.0
 20
0.26794919
 30
0.0
 11
0.0
 21
0.0
 31
0.0
  0
LINE
  5
5B
330
59
100
AcDbEntity
  8
0
 62
     0
100
AcDbLine
 10
0.0
 20
0.0
 30
0.0
 11
-1.0
 21
-0.26794919
 31
0.0
  0
LINE
  5
5C
330
59
100
AcDbEntity
  8
0
 62
     0
100
AcDbLine
 10
0.0
 20
0.0
 30
0.0
 11
-1.0
 21
0.0
 31
0.0
  0
ENDBLK
  5
5E
330
59
100
AcDbEntity
  8
0
100
AcDbBlockEnd
  0
BLOCK
  5
66
330
64
100
AcDbEntity
  8
0
100
AcDbBlockBegin
  2
GENAXEH
 70
     0
 10
0.0
 20
0.0
 30
0.0
  3
GENAXEH
  1

  0
LINE
  5
65
330
64
100
AcDbEntity
  8
0
100
AcDbLine
 10
-1.0
 20
0.0
 30
0.0
 11
1.0
 21
0.0
 31
0.0
  0
ENDBLK
  5
67
330
64
100
AcDbEntity
  8
0
100
AcDbBlockEnd
  0
BLOCK
  5
10FB
330
10F1
100
AcDbEntity
  8
0
100
AcDbBlockBegin
  2
*D5
 70
     1
 10
0.0
 20
0.0
 30
0.0
  3
*D5
  1

  0
LINE
  5
BD75
330
10F1
100
AcDbEntity
  8
AM_5
100
AcDbLine
 10
-105.0
 20
-9.750000000000051
 30
0.0
 11
-105.0
 21
-37.00000099999997
 31
0.0
  0
LINE
  5
BD76
330
10F1
100
AcDbEntity
  8
AM_5
100
AcDbLine
 10
-0.0000000000022388
 20
-10.24999999999634
 30
0.0
 11
-0.0000000000022405
 21
-37.00000099999997
 31
0.0
  0
LINE
  5
BD77
330
10F1
100
AcDbEntity
  8
AM_5
100
AcDbLine
 10
-102.5
 20
-36.00000099999997
 30
0.0
 11
-2.50000000000224
 21
-36.00000099999997
 31
0.0
  0
INSERT
  5
BD78
330
10F1
100
AcDbEntity
  8
AM_5
100
AcDbBlockReference
  2
_OPEN30
 10
-105.0
 20
-36.00000099999997
 30
0.0
 41
2.5
 42
2.5
 43
2.5
 50
180.0
  0
INSERT
  5
BD79
330
10F1
100
AcDbEntity
  8
AM_5
100
AcDbBlockReference
  2
_OPEN30
 10
-0.0000000000022404
 20
-36.00000099999997
 30
0.0
 41
2.5
 42
2.5
 43
2.5
  0
MTEXT
  5
BD7A
330
10F1
100
AcDbEntity
  8
AM_5
 62
     2
100
AcDbMText
 10
-52.50000000000113
 20
-32.90000099999997
 30
0.0
 40
3.2
 41
0.0
 71
     5
 72
     1
  1
105
  7
ASAMI
1001
ACAD
1000
MTEXTBEGIN
1070
    73
1070
     1
1070
    44
1040
1.0
1070
    74
1070
     0
1000
MTEXTEND
  0
POINT
  5
BD7B
330
10F1
100
AcDbEntity
  8
DEFPOINTS
 62
     0
100
AcDbPoint
 10
-105.0
 20
-8.750000000000051
 30
0.0
  0
POINT
  5
BD7C
330
10F1
100
AcDbEntity
  8
DEFPOINTS
 62
     0
100
AcDbPoint
 10
-0.0000000000022388
 20
-9.249999999996347
 30
0.0
  0
POINT
  5
BD7D
330
10F1
100
AcDbEntity
  8
DEFPOINTS
 62
     0
100
AcDbPoint
 10
-0.0000000000022404
 20
-36.00000099999997
 30
0.0
  0
ENDBLK
  5
10FC
330
10F1
100
AcDbEntity
  8
0
100
AcDbBlockEnd
  0
BLOCK
  5
12E5
330
12D9
100
AcDbEntity
  8
0
100
AcDbBlockBegin
  2
*D6
 70
     1
 10
0.0
 20
0.0
 30
0.0
  3
*D6
  1

  0
LINE
  5
BD7E
330
12D9
100
AcDbEntity
  8
AM_5
100
AcDbLine
 10
-0.0000000000010302
 20
-10.24999999999719
 30
0.0
 11
-0.0000000000010311
 21
-25.00000100000005
 31
0.0
  0
LINE
  5
BD7F
330
12D9
100
AcDbEntity
  8
AM_5
100
AcDbLine
 10
-40.00000000000038
 20
-10.24999999999771
 30
0.0
 11
-40.00000000000038
 21
-25.00000100000005
 31
0.0
  0
LINE
  5
BD80
330
12D9
100
AcDbEntity
  8
AM_5
100
AcDbLine
 10
-2.500000000001031
 20
-24.00000100000005
 30
0.0
 11
-37.50000000000038
 21
-24.00000100000005
 31
0.0
  0
INSERT
  5
BD81
330
12D9
100
AcDbEntity
  8
AM_5
100
AcDbBlockReference
  2
_OPEN30
 10
-0.000000000001031
 20
-24.00000100000005
 30
0.0
 41
2.5
 42
2.5
 43
2.5
  0
INSERT
  5
BD82
330
12D9
100
AcDbEntity
  8
AM_5
100
AcDbBlockReference
  2
_OPEN30
 10
-40.00000000000038
 20
-24.00000100000005
 30
0.0
 41
2.5
 42
2.5
 43
2.5
 50
180.0
  0
MTEXT
  5
BD83
330
12D9
100
AcDbEntity
  8
AM_5
 62
     2
100
AcDbMText
 10
-20.0000000000007
 20
-20.90000100000005
 30
0.0
 40
3.2
 41
0.0
 71
     5
 72
     1
  1
40
  7
ASAMI
1001
ACAD
1000
MTEXTBEGIN
1070
    73
1070
     1
1070
    44
1040
1.0
1070
    74
1070
     0
1000
MTEXTEND
  0
POINT
  5
BD84
330
12D9
100
AcDbEntity
  8
DEFPOINTS
 62
     0
100
AcDbPoint
 10
-0.0000000000010301
 20
-9.249999999997196
 30
0.0
  0
POINT
  5
BD85
330
12D9
100
AcDbEntity
  8
DEFPOINTS
 62
     0
100
AcDbPoint
 10
-40.00000000000038
 20
-9.249999999997715
 30
0.0
  0
POINT
  5
BD86
330
12D9
100
AcDbEntity
  8
DEFPOINTS
 62
     0
100
AcDbPoint
 10
-40.00000000000038
 20
-24.00000100000005
 30
0.0
  0
ENDBLK
  5
12E6
330
12D9
100
AcDbEntity
  8
0
100
AcDbBlockEnd
  0
BLOCK
  5
B47E
330
B474
100
AcDbEntity
  8
0
100
AcDbBlockBegin
  2
*D7
 70
     1
 10
0.0
 20
0.0
 30
0.0
  3
*D7
  1

  0
LINE
  5
B78A
330
B474
100
AcDbEntity
  8
AM_5
100
AcDbLine
 10
-104.75
 20
9.999999999999955
 30
0.0
 11
-125.6386983892743
 21
9.999999999999962
 31
0.0
  0
LINE
  5
B78B
330
B474
100
AcDbEntity
  8
AM_5
100
AcDbLine
 10
-104.7499999999999
 20
-10.00000000000004
 30
0.0
 11
-125.6386983892743
 21
-10.00000000000004
 31
0.0
  0
LINE
  5
B78C
330
B474
100
AcDbEntity
  8
AM_5
100
AcDbLine
 10
-124.6386983892743
 20
7.499999999999961
 30
0.0
 11
-124.6386983892743
 21
-7.500000000000041
 31
0.0
  0
INSERT
  5
B78D
330
B474
100
AcDbEntity
  8
AM_5
100
AcDbBlockReference
  2
_OPEN30
 10
-124.6386983892743
 20
9.999999999999962
 30
0.0
 41
2.5
 42
2.5
 43
2.5
 50
90.0
  0
INSERT
  5
B78E
330
B474
100
AcDbEntity
  8
AM_5
100
AcDbBlockReference
  2
_OPEN30
 10
-124.6386983892743
 20
-10.00000000000004
 30
0.0
 41
2.5
 42
2.5
 43
2.5
 50
270.0
  0
MTEXT
  5
B78F
330
B474
100
AcDbEntity
  8
AM_5
 62
     2
100
AcDbMText
 10
-127.7386983892743
 20
-0.0000000000000247
 30
0.0
 40
3.2
 41
0.0
 71
     5
 72
     1
  1
%%c20
  7
ASAMI
 11
0.0000000000000001
 21
1.0
 31
0.0
1001
ACAD
1000
MTEXTBEGIN
1070
    73
1070
     1
1070
    44
1040
1.0
1070
    74
1070
     0
1000
MTEXTEND
  0
POINT
  5
B790
330
B474
100
AcDbEntity
  8
DEFPOINTS
 62
     0
100
AcDbPoint
 10
-103.75
 20
9.999999999999955
 30
0.0
  0
POINT
  5
B791
330
B474
100
AcDbEntity
  8
DEFPOINTS
 62
     0
100
AcDbPoint
 10
-103.7499999999999
 20
-10.00000000000004
 30
0.0
  0
POINT
  5
B792
330
B474
100
AcDbEntity
  8
DEFPOINTS
 62
     0
100
AcDbPoint
 10
-124.6386983892743
 20
-10.00000000000004
 30
0.0
  0
ENDBLK
  5
B47F
330
B474
100
AcDbEntity
  8
0
100
AcDbBlockEnd
  0
BLOCK
  5
BD5F
330
BD55
100
AcDbEntity
  8
0
100
AcDbBlockBegin
  2
*D8
 70
     1
 10
0.0
 20
0.0
 30
0.0
  3
*D8
  1

  0
LINE
  5
BD63
330
BD55
100
AcDbEntity
  8
AM_5
100
AcDbLine
 10
1.0
 20
9.25
 30
0.0
 11
17.05105068025213
 21
9.249999999999994
 31
0.0
  0
LINE
  5
BD64
330
BD55
100
AcDbEntity
  8
AM_5
100
AcDbLine
 10
0.9999999999995463
 20
-9.24999999999874
 30
0.0
 11
17.05105068025213
 21
-9.249999999998745
 31
0.0
  0
LINE
  5
BD65
330
BD55
100
AcDbEntity
  8
AM_5
100
AcDbLine
 10
16.05105068025213
 20
6.749999999999994
 30
0.0
 11
16.05105068025213
 21
-6.749999999998745
 31
0.0
  0
INSERT
  5
BD66
330
BD55
100
AcDbEntity
  8
AM_5
100
AcDbBlockReference
  2
_OPEN30
 10
16.05105068025213
 20
9.249999999999994
 30
0.0
 41
2.5
 42
2.5
 43
2.5
 50
90.0
  0
INSERT
  5
BD67
330
BD55
100
AcDbEntity
  8
AM_5
100
AcDbBlockReference
  2
_OPEN30
 10
16.05105068025213
 20
-9.249999999998745
 30
0.0
 41
2.5
 42
2.5
 43
2.5
 50
270.0
  0
MTEXT
  5
BD68
330
BD55
100
AcDbEntity
  8
AM_5
 62
     2
100
AcDbMText
 10
12.95105068025213
 20
0.0000000000006273
 30
0.0
 40
3.2
 41
0.0
 71
     5
 72
     1
  1
%%c18.5
  7
ASAMI
 11
0.0000000000000001
 21
1.0
 31
0.0
1001
ACAD
1000
MTEXTBEGIN
1070
    73
1070
     1
1070
    44
1040
1.0
1070
    74
1070
     0
1000
MTEXTEND
  0
POINT
  5
BD69
330
BD55
100
AcDbEntity
  8
DEFPOINTS
 62
     0
100
AcDbPoint
 10
0.0
 20
9.25
 30
0.0
  0
POINT
  5
BD6A
330
BD55
100
AcDbEntity
  8
DEFPOINTS
 62
     0
100
AcDbPoint
 10
-0.0000000000004537
 20
-9.24999999999874
 30
0.0
  0
POINT
  5
BD6B
330
BD55
100
AcDbEntity
  8
DEFPOINTS
 62
     0
100
AcDbPoint
 10
16.05105068025213
 20
-9.249999999998745
 30
0.0
  0
ENDBLK
  5
BD60
330
BD55
100
AcDbEntity
  8
0
100
AcDbBlockEnd
  0
ENDSEC
  0
SECTION
  2
ENTITIES
  0
LINE
  5
C2E
330
1F
100
AcDbEntity
  8
AM_7
  6
AM_ISO08W050X2
100
AcDbLine
 10
2.051049680252134
 20
0.0
 30
0.0
 11
-106.4999999999999
 21
-0.0000000000000461
 31
0.0
  0
DIMENSION
  5
10F0
330
1F
100
AcDbEntity
  8
AM_5
100
AcDbDimension
  2
*D5
 10
-0.0000000000022404
 20
-36.00000099999997
 30
0.0
 11
-52.50000000000113
 21
-32.90000099999997
 31
0.0
 70
    32
  1
<>
  3
AM_JIS
100
AcDbAlignedDimension
 13
-105.0
 23
-8.750000000000051
 33
0.0
 14
-0.0000000000022388
 24
-9.249999999996347
 34
0.0
 50
0.0000000000001132
100
AcDbRotatedDimension
1001
GENIUS_GENDTOL_13
1000

1000
h7
1000

1040
0.0
  0
DIMENSION
  5
12D8
330
1F
100
AcDbEntity
  8
AM_5
100
AcDbDimension
  2
*D6
 10
-40.00000000000038
 20
-24.00000100000005
 30
0.0
 11
-20.0000000000007
 21
-20.90000100000005
 31
0.0
 70
    32
  1
<>
  3
AM_JIS
100
AcDbAlignedDimension
 13
-0.0000000000010301
 23
-9.249999999997196
 33
0.0
 14
-40.00000000000038
 24
-9.249999999997715
 34
0.0
 50
0.0000000000001132
100
AcDbRotatedDimension
1001
GENIUS_GENDTOL_13
1000

1000
h7
1000

1040
0.0
  0
LINE
  5
A475
330
1F
100
AcDbEntity
  8
AM_7
  6
AM_ISO08W050X2
100
AcDbLine
 10
-105.0
 20
-0.0000000000000461
 30
0.0
 11
-110.6386973892744
 21
-0.0000000000000461
 31
0.0
1001
GENIUS_GENODEF_13
1002
{
1000
HIER
1070
     0
1002
}
1002
{
1000
MANEDIT
1070
     0
1002
}
1002
{
1000
NOSEL
1070
     0
1002
}
1002
{
1000
BEHIND
1070
     0
1002
}
1002
{
1000
REACTOR
1002
}
1001
GENIUS_GENOBJ-N-CEN_13
1002
{
1000
OWNER
1000
GEN
1002
}
  0
TEXT
  5
B375
330
1F
100
AcDbEntity
  8
AM_6
100
AcDbText
 10
-68.45238095238205
 20
-58.50000099999998
 30
0.0
 40
5.0
  1
SSM2185
 72
     4
 11
-52.50000000000111
 21
-56.00000099999998
 31
0.0
100
AcDbText
  0
LINE
  5
B46D
330
1F
100
AcDbEntity
  8
AM_0
100
AcDbLine
 10
-103.75
 20
-10.00000000000005
 30
0.0
 11
-59.0
 21
-10.0
 31
0.0
  0
LINE
  5
B46E
330
1F
100
AcDbEntity
  8
AM_0
100
AcDbLine
 10
-103.7499999999999
 20
9.999999999999957
 30
0.0
 11
-58.99999999999995
 21
10.0
 31
0.0
  0
LINE
  5
B471
330
1F
100
AcDbEntity
  8
AM_0
100
AcDbLine
 10
-105.0
 20
-8.750000000000051
 30
0.0
 11
-104.9999999999999
 21
8.749999999999955
 31
0.0
  0
LINE
  5
B472
330
1F
100
AcDbEntity
  8
AM_0
100
AcDbLine
 10
-103.75
 20
9.999999999999955
 30
0.0
 11
-103.7499999999999
 21
-10.00000000000008
 31
0.0
  0
DIMENSION
  5
B473
330
1F
100
AcDbEntity
  8
AM_5
100
AcDbDimension
  2
*D7
 10
-124.6386983892743
 20
-10.00000000000004
 30
0.0
 11
-124.6386983892743
 21
-0.000000000000025
 31
0.0
 70
   160
  1
%%c<>
  3
AM_JIS
100
AcDbAlignedDimension
 13
-103.75
 23
9.999999999999955
 33
0.0
 14
-103.7499999999999
 24
-10.00000000000004
 34
0.0
 50
270.0
100
AcDbRotatedDimension
1001
GENIUS_GENDTOL_13
1000

1000
h7
1000

1040
0.0
  0
LINE
  5
B495
330
1F
100
AcDbEntity
  8
AM_0
100
AcDbLine
 10
-103.7499999999999
 20
9.999999999999957
 30
0.0
 11
-104.9999999999999
 21
8.749999999999955
 31
0.0
1001
GENIUS_GENFIL_13
1070
     0
1040
1.25
1040
1.25
1040
20.0
1040
0.0
1002
{
1002
}
1001
GENIUS_GENODEF_13
1002
{
1000
HIER
1070
     0
1002
}
1002
{
1000
MANEDIT
1070
     0
1002
}
1002
{
1000
NOSEL
1070
     0
1002
}
1002
{
1000
BEHIND
1070
     0
1002
}
1002
{
1000
REACTOR
1002
}
1001
GENIUS_GENOBJ-N-CHA_13
1002
{
1000
OWNER
1000
GEN
1002
}
  0
LINE
  5
B497
330
1F
100
AcDbEntity
  8
AM_0
100
AcDbLine
 10
-105.0
 20
-8.750000000000051
 30
0.0
 11
-103.75
 21
-10.00000000000005
 31
0.0
1001
GENIUS_GENFIL_13
1070
     0
1040
1.25
1040
1.25
1040
20.0
1040
0.0
1002
{
1002
}
1001
GENIUS_GENODEF_13
1002
{
1000
HIER
1070
     0
1002
}
1002
{
1000
MANEDIT
1070
     0
1002
}
1002
{
1000
NOSEL
1070
     0
1002
}
1002
{
1000
BEHIND
1070
     0
1002
}
1002
{
1000
REACTOR
1002
}
1001
GENIUS_GENOBJ-N-CHA_13
1002
{
1000
OWNER
1000
GEN
1002
}
  0
LINE
  5
B4B2
330
1F
100
AcDbEntity
  8
AM_0
100
AcDbLine
 10
-59.00000000000001
 20
-10.00000000000001
 30
0.0
 11
-58.99999999999996
 21
9.999999999999992
 31
0.0
  0
LINE
  5
B53C
330
1F
100
AcDbEntity
  8
AM_0
100
AcDbLine
 10
-58.99999999999996
 20
9.999999999999996
 30
0.0
 11
-56.93939193540865
 21
9.249999999999864
 31
0.0
  0
LINE
  5
B53E
330
1F
100
AcDbEntity
  8
AM_0
100
AcDbLine
 10
-56.9393919354086
 20
-9.24999999999984
 30
0.0
 11
-59.00000000000001
 21
-10.00000000000001
 31
0.0
  0
LINE
  5
B68B
330
1F
100
AcDbEntity
  8
AM_0
100
AcDbLine
 10
-56.93939193540865
 20
9.249999999999868
 30
0.0
 11
-56.93939193540865
 21
7.952078630561394
 31
0.0
  0
LINE
  5
B82A
330
1F
100
AcDbEntity
  8
AM_0
100
AcDbLine
 10
-40.00000000000038
 20
-9.249999999999925
 30
0.0
 11
-56.93939193540281
 21
-9.249999999997731
 31
0.0
  0
LINE
  5
B833
330
1F
100
AcDbEntity
  8
AM_0
100
AcDbLine
 10
-49.1000000000007
 20
9.249999999999914
 30
0.0
 11
-56.93939193540866
 21
9.249999999999868
 31
0.0
  0
LINE
  5
BB16
330
1F
100
AcDbEntity
  8
AM_0
100
AcDbLine
 10
-56.93939193540864
 20
6.752983831983176
 30
0.0
 11
-56.93939193540861
 21
-9.249999999999841
 31
0.0
  0
LINE
  5
BD37
330
1F
100
AcDbEntity
  8
AM_0
100
AcDbLine
 10
-0.5873697418241335
 20
1.109999999999936
 30
0.0
 11
0.0
 21
1.849999999999999
 31
0.0
  0
LINE
  5
BD38
330
1F
100
AcDbEntity
  8
AM_0
100
AcDbLine
 10
0.0
 20
0.3699999999999789
 30
0.0
 11
-4.12400140428835
 21
5.565638831676942
 31
0.0
  0
LINE
  5
BD39
330
1F
100
AcDbEntity
  8
AM_0
100
AcDbLine
 10
0.0
 20
1.849999999999999
 30
0.0
 11
0.0
 21
9.25
 31
0.0
  0
LINE
  5
BD3A
330
1F
100
AcDbEntity
  8
AM_0
100
AcDbLine
 10
-0.6562499999999858
 20
-7.544707341349548
 30
0.0
 11
-0.6562499999999858
 21
-7.445057547595343
 31
0.0
  0
LINE
  5
BD3B
330
1F
100
AcDbEntity
  8
AM_0
100
AcDbLine
 10
0.0000000000000142
 20
-9.25
 30
0.0
 11
-0.1837500000000176
 21
-8.756866141600376
 31
0.0
  0
LINE
  5
BD3C
330
1F
100
AcDbEntity
  8
AM_0
100
AcDbLine
 10
-0.1837500000000176
 20
-8.756866141600376
 30
0.0
 11
-0.6562499999999858
 21
-7.544707341349548
 31
0.0
  0
LINE
  5
BD3D
330
1F
100
AcDbEntity
  8
AM_0
100
AcDbLine
 10
0.0000000000000142
 20
-9.25
 30
0.0
 11
0.0
 21
0.3699999999999789
 31
0.0
  0
LINE
  5
BD3E
330
1F
100
AcDbEntity
  8
AM_0
100
AcDbLine
 10
-0.1837500000000176
 20
-8.756866141600376
 30
0.0
 11
-0.1837500000000318
 21
0.6014981353614103
 31
0.0
  0
LINE
  5
BD40
330
1F
100
AcDbEntity
  8
AM_11
100
AcDbLine
 10
-40.00000000000038
 20
-9.249999999997715
 30
0.0
 11
-40.00000000000039
 21
9.249999999999968
 31
0.0
  0
LINE
  5
BD41
330
1F
100
AcDbEntity
  8
AM_0
100
AcDbLine
 10
-33.61374376440173
 20
7.438577215508601
 30
0.0
 11
-4.12400140428835
 21
5.565638831676942
 31
0.0
  0
LINE
  5
BD42
330
1F
100
AcDbEntity
  8
AM_0
100
AcDbLine
 10
-20.17668362952373
 20
-7.097886598650408
 30
0.0
 11
-41.29999999999943
 21
-8.25153047437133
 31
0.0
  0
LINE
  5
BD43
330
1F
100
AcDbEntity
  8
AM_11
100
AcDbLine
 10
-40.00000000000038
 20
-9.249999999999925
 30
0.0
 11
0.0000000000000142
 21
-9.25
 31
0.0
  0
LINE
  5
BD44
330
1F
100
AcDbEntity
  8
AM_11
100
AcDbLine
 10
-0.0000000000013429
 20
9.25
 30
0.0
 11
-40.00000000000039
 21
9.249999999999968
 31
0.0
  0
SPLINE
  5
BD45
330
1F
100
AcDbEntity
  8
AM_0
100
AcDbSpline
210
0.0
220
0.0
230
1.0
 70
     8
 71
     3
 72
     8
 73
     4
 74
     0
 42
0.0000000001
 43
0.0000000001
 40
0.0
 40
0.0
 40
0.0
 40
0.0
 40
13.97258598406841
 40
13.97258598406841
 40
13.97258598406841
 40
13.97258598406841
 10
-20.17668362952373
 20
-7.097886598650408
 30
0.0
 10
-28.32735878689701
 20
-7.097886598650408
 30
0.0
 10
-37.71669715333457
 20
-3.571651098418585
 30
0.0
 10
-45.18240602510509
 20
-0.0000000000000901
 30
0.0
  0
SPLINE
  5
BD46
330
1F
100
AcDbEntity
  8
AM_0
100
AcDbSpline
210
0.0
220
0.0
230
1.0
 70
     8
 71
     3
 72
     8
 73
     4
 74
     0
 42
0.0000000001
 43
0.0000000001
 40
0.0
 40
0.0
 40
0.0
 40
0.0
 40
25.35749396135195
 40
25.35749396135195
 40
25.35749396135195
 40
25.35749396135195
 10
-49.10000000000001
 20
9.249999999999953
 30
0.0
 10
-39.14750201288269
 20
9.250000000000168
 30
0.0
 10
-31.47375100644133
 20
4.625000000000174
 30
0.0
 10
-23.79999999999998
 20
0.0000000000001803
 30
0.0
  0
SPLINE
  5
BD47
330
1F
100
AcDbEntity
  8
AM_0
100
AcDbSpline
210
0.0
220
0.0
230
1.0
 70
     8
 71
     3
 72
     8
 73
     4
 74
     0
 42
0.0000000001
 43
0.0000000001
 40
0.3581103616548037
 40
0.3581103616548037
 40
0.3581103616548037
 40
0.3581103616548037
 40
14.43901837670146
 40
14.43901837670146
 40
14.43901837670146
 40
14.43901837670146
 10
-44.85104527450785
 20
8.964814032277402
 30
0.0
 10
-35.7413241963154
 20
8.750479664898431
 30
0.0
 10
-28.24339441391242
 20
4.375239832449253
 30
0.0
 10
-20.7454646315094
 20
0.0000000000000751
 30
0.0
  0
SPLINE
  5
BD48
330
1F
100
AcDbEntity
  8
AM_0
100
AcDbSpline
210
0.0
220
0.0
230
1.0
 70
     8
 71
     3
 72
     8
 73
     4
 74
     0
 42
0.0000000001
 43
0.0000000001
 40
0.0
 40
0.0
 40
0.0
 40
0.0
 40
4.526489316329294
 40
4.526489316329294
 40
4.526489316329294
 40
4.526489316329294
 10
0.0
 20
7.538199970365329
 30
0.0
 10
-0.968217915880162
 20
6.31486991287935
 30
0.0
 10
-2.630109133253027
 20
5.789526524310051
 30
0.0
 10
-4.12400140428835
 20
5.565638831676942
 30
0.0
  0
SPLINE
  5
BD49
330
1F
100
AcDbEntity
  8
AM_0
100
AcDbSpline
210
0.0
220
0.0
230
1.0
 70
     8
 71
     3
 72
     8
 73
     4
 74
     0
 42
0.0000000001
 43
0.0000000001
 40
0.0
 40
0.0
 40
0.0
 40
0.0
 40
7.57842115059705
 40
7.57842115059705
 40
7.57842115059705
 40
7.57842115059705
 10
0.0
 20
9.25
 30
0.0
 10
-4.42074567118162
 20
9.25
 30
0.0
 10
-8.628472860867759
 20
7.984877307567423
 30
0.0
 10
-12.73459248348726
 20
6.116304445382331
 30
0.0
  0
SPLINE
  5
BD4A
330
1F
100
AcDbEntity
  8
AM_0
100
AcDbSpline
210
0.0
220
0.0
230
1.0
 70
     8
 71
     3
 72
     8
 73
     4
 74
     0
 42
0.0000000001
 43
0.0000000001
 40
0.7142832446738512
 40
0.7142832446738512
 40
0.7142832446738512
 40
0.7142832446738512
 40
14.36247867694493
 40
14.36247867694493
 40
14.36247867694493
 40
14.36247867694493
 10
-40.3136294074985
 20
8.511105911174908
 30
0.0
 10
-31.883112861873
 20
8.117443015629703
 30
0.0
 10
-24.5556543350831
 20
4.058721507814889
 30
0.0
 10
-17.22819580829323
 20
0.0000000000000751
 30
0.0
  0
SPLINE
  5
BD4B
330
1F
100
AcDbEntity
  8
AM_0
100
AcDbSpline
210
0.0
220
0.0
230
1.0
 70
     8
 71
     3
 72
     8
 73
     4
 74
     0
 42
0.0000000001
 43
0.0000000001
 40
0.0
 40
0.0
 40
0.0
 40
0.0
 40
25.35749396135192
 40
25.35749396135192
 40
25.35749396135192
 40
25.35749396135192
 10
0.0000000000000142
 20
-9.25
 30
0.0
 10
-8.452497987117293
 20
-9.250000000000007
 30
0.0
 10
-16.12624899355863
 20
-4.625000000000017
 30
0.0
 10
-23.79999999999998
 20
-0.00000000000003
 30
0.0
  0
SPLINE
  5
BD4C
330
1F
100
AcDbEntity
  8
AM_0
100
AcDbSpline
210
0.0
220
0.0
230
1.0
 70
     8
 71
     3
 72
     8
 73
     4
 74
     0
 42
0.0000000001
 43
0.0000000001
 40
1.870660592686466
 40
1.870660592686466
 40
1.870660592686466
 40
1.870660592686466
 40
14.43901837670146
 40
14.43901837670146
 40
14.43901837670146
 40
14.43901837670146
 10
-0.183749999999975
 20
-8.756866141600269
 30
0.0
 10
-7.360438034650428
 20
-7.810516132387734
 30
0.0
 10
-14.05295133307994
 20
-3.905258066193844
 30
0.0
 10
-20.7454646315094
 20
0.0000000000000751
 30
0.0
  0
SPLINE
  5
BD4D
330
1F
100
AcDbEntity
  8
AM_0
100
AcDbSpline
210
0.0
220
0.0
230
1.0
 70
     8
 71
     3
 72
     8
 73
     4
 74
     0
 42
0.0000000001
 43
0.0000000001
 40
4.219358800530717
 40
4.219358800530717
 40
4.219358800530717
 40
4.219358800530717
 40
14.36247867694493
 40
14.36247867694493
 40
14.36247867694493
 40
14.36247867694493
 10
-0.6562499999998864
 20
-7.544707341349127
 30
0.0
 10
-6.336896574557769
 20
-6.032753414624291
 30
0.0
 10
-11.78254619142549
 20
-3.016376707312122
 30
0.0
 10
-17.22819580829323
 20
0.0000000000000751
 30
0.0
  0
SPLINE
  5
BD4E
330
1F
100
AcDbEntity
  8
AM_0
100
AcDbSpline
210
0.0
220
0.0
230
1.0
 70
     8
 71
     3
 72
     8
 73
     4
 74
     0
 42
0.0000000001
 43
0.0000000001
 40
0.0
 40
0.0
 40
0.0
 40
0.0
 40
2.238610194515266
 40
2.238610194515266
 40
2.238610194515266
 40
2.238610194515266
 10
-20.17668362952373
 20
-7.097886598650408
 30
0.0
 10
-17.61618177269385
 20
-7.097886598650408
 30
0.0
 10
-15.10207538062333
 20
-6.749890532993132
 30
0.0
 10
-12.61997722021534
 20
-6.161811977695609
 30
0.0
  0
ELLIPSE
  5
BD4F
330
1F
100
AcDbEntity
  8
AM_0
100
AcDbEllipse
 10
24.86184477416968
 20
0.0389190266605129
 30
0.0
 11
0.0000000000001587
 21
27.99516272133701
 31
0.0
210
0.0
220
0.0
230
1.0
 40
0.9459459459459424
 41
1.489874453283519
 42
1.8414185459748
  0
ELLIPSE
  5
BD50
330
1F
100
AcDbEntity
  8
AM_0
100
AcDbEllipse
 10
-39.77583944082748
 20
0.420317091956357
 30
0.0
 11
0.0000000000000667
 21
9.673220110894147
 31
0.0
210
0.0
220
0.0
230
1.0
 40
0.9459459459459493
 41
3.117092700142891
 42
3.685400352353863
  0
ELLIPSE
  5
BD51
330
1F
100
AcDbEntity
  8
AM_0
100
AcDbEllipse
 10
-36.3529997535587
 20
-7.512304975579851
 30
0.0
 11
10.82523608925948
 21
10.82523608925948
 31
0.0
210
0.0
220
0.0
230
1.0
 40
0.9999999999999953
 41
1.704032023555168
 42
2.163717722770606
  0
ELLIPSE
  5
BD52
330
1F
100
AcDbEntity
  8
AM_0
100
AcDbEllipse
 10
-39.48683160275865
 20
14.62901937822625
 30
0.0
 11
0.0000000000003007
 21
22.96069684340892
 31
0.0
210
0.0
220
0.0
230
1.0
 40
0.9459459459459445
 41
2.562153585180871
 42
3.058014555005654
  0
ELLIPSE
  5
BD53
330
1F
100
AcDbEntity
  8
AM_0
100
AcDbEllipse
 10
-38.39281320845411
 20
12.96999715382365
 30
0.0
 11
-0.0000000000004778
 21
22.28485950123034
 31
0.0
210
0.0
220
0.0
230
1.0
 40
0.9459459459459482
 41
2.47786400639891
 42
3.065277325949139
  0
DIMENSION
  5
BD54
330
1F
100
AcDbEntity
  8
AM_5
100
AcDbDimension
  2
*D8
 10
16.05105068025213
 20
-9.249999999998745
 30
0.0
 11
12.95105068025213
 21
0.0000000000006273
 31
0.0
 70
    32
  1
%%c<>
  3
AM_JIS
100
AcDbAlignedDimension
 13
0.0
 23
9.25
 33
0.0
 14
-0.0000000000004537
 24
-9.24999999999874
 34
0.0
 50
90.00000000000005
100
AcDbRotatedDimension
1001
GENIUS_GENDTOL_13
1000

1000
h7
1000

1040
0.0
  0
ELLIPSE
  5
BD61
330
1F
100
AcDbEntity
  8
AM_0
100
AcDbEllipse
 10
23.73828516906749
 20
148.9105060226369
 30
0.0
 11
-0.000000000066598
 21
165.7792962811146
 31
0.0
210
0.0
220
0.0
230
1.0
 40
0.945945945945974
 41
2.592099274282801
 42
2.686557308635592
  0
SPLINE
  5
BD62
330
1F
100
AcDbEntity
  8
AM_0
100
AcDbSpline
210
0.0
220
0.0
230
1.0
 70
     8
 71
     3
 72
     8
 73
     4
 74
     0
 42
0.0000000001
 43
0.0000000001
 40
0.0
 40
0.0
 40
0.0
 40
0.0
 40
5.192508374738713
 40
5.192508374738713
 40
5.192508374738713
 40
5.192508374738713
 10
-49.10000000000001
 20
9.249999999999953
 30
0.0
 10
-52.12896321859751
 20
9.249999999999953
 30
0.0
 10
-55.05792316215951
 20
8.656077765286173
 30
0.0
 10
-58.16087171300448
 20
7.535709784062708
 30
0.0
  0
VIEWPORT
  5
110
330
101
100
AcDbEntity
 67
     1
  8
0
100
AcDbViewport
 10
420.5
 20
297.0
 30
0.0
 40
948.9782706766916
 41
628.452
 68
     1
 69
     1
1001
ACAD
1000
MVIEW
1002
{
1070
    16
1010
0.0
1020
0.0
1030
0.0
1010
0.0
1020
0.0
1030
1.0
1040
0.0
1040
628.452
1040
420.5
1040
297.0
1040
50.0
1040
0.0
1040
0.0
1070
     0
1070
   100
1070
     1
1070
     1
1070
     0
1070
     0
1070
     0
1070
     0
1040
0.0
1040
0.0
1040
0.0
1040
10.0
1040
10.0
1040
10.0
1040
10.0
1070
     0
1002
{
1002
}
1002
}
  0
ENDSEC
  0
SECTION
  2
OBJECTS
  0
DICTIONARY
  5
C
330
0
100
AcDbDictionary
  3
ACAD_GROUP
350
D
  3
ACAD_LAYOUT
350
1A
  3
ACAD_MLINESTYLE
350
17
  3
ACAD_PLOTSETTINGS
350
19
  3
ACAD_PLOTSTYLENAME
350
E
  3
ACDBVARIABLEDICTIONARY
350
34
  3
ACMDICTIONARY
350
43
  3
AMG
350
2B
  3
AMGSNAPSETTINGS
350
6E
  3
ASE_INDEX_DICTIONARY
350
151A
  3
DWGPROPS
350
BEBF
  3
ACDBHEADERROUNDTRIPXREC
350
BECC
  0
DICTIONARY
  5
74
330
1F
100
AcDbDictionary
280
     1
  3
ACAD_INDEX
360
BEC1
  3
ACAD_LAYOUTSELFREF
360
BEEF
  0
DICTIONARY
  5
BEF4
330
101
100
AcDbDictionary
280
     1
  3
ACAD_LAYOUTSELFREF
360
BEF5
  0
DICTIONARY
  5
D
102
{ACAD_REACTORS
330
C
102
}
330
C
100
AcDbDictionary
  0
DICTIONARY
  5
1A
102
{ACAD_REACTORS
330
C
102
}
330
C
100
AcDbDictionary
  0
DICTIONARY
  5
17
102
{ACAD_REACTORS
330
C
102
}
330
C
100
AcDbDictionary
  3
STANDARD
350
18
  0
DICTIONARY
  5
19
102
{ACAD_REACTORS
330
C
102
}
330
C
100
AcDbDictionary
  0
ACDBDICTIONARYWDFLT
  5
E
102
{ACAD_REACTORS
330
C
102
}
330
C
100
AcDbDictionary
281
     1
  3
Normal
350
F
100
AcDbDictionaryWithDefault
340
F
  0
DICTIONARY
  5
34
102
{ACAD_REACTORS
330
C
102
}
330
C
100
AcDbDictionary
  3
INDEXCTL
350
35
  3
SORTENTS
350
B5E
  0
DICTIONARY
  5
43
102
{ACAD_REACTORS
330
C
102
}
330
C
100
AcDbDictionary
  3
ACMSTDDICTIONARY
350
260
  0
DICTIONARY
  5
2B
102
{ACAD_REACTORS
330
C
102
}
330
C
100
AcDbDictionary
  3
ACMGSETTINGS
350
2C
  0
DICTIONARY
  5
6E
102
{ACAD_REACTORS
330
C
102
}
330
C
100
AcDbDictionary
  0
DICTIONARY
  5
151A
102
{ACAD_REACTORS
330
C
102
}
330
C
100
AcDbDictionary
  3
ASEBLOCKHIERARCHYINDEXRECORD
350
151C
1001
DCO15
1040
1471862535.906
  0
XRECORD
  5
BEBF
102
{ACAD_REACTORS
330
C
102
}
330
C
100
AcDbXrecord
  1
DWGPROPS COOKIE
  2

  3

  4

  6

  7

  8

  9

300
AmdtFileType=82
301
=
302
=
303
=
304
=
305
=
306
=
307
=
308
=
309
=
 40
0.4821300694444444
 41
2452838.430434386
 42
2453045.604457974
  1

 90
        1
  0
DICTIONARY
  5
BECC
102
{ACAD_REACTORS
330
C
102
}
330
C
100
AcDbDictionary
  3
TSTACKALIGN
350
BECD
  3
TSTACKSIZE
350
BECE
  3
HYPERLINKBASE
350
BECF
  3
STYLESHEET
350
BED0
  3
LAYOUTDICT
350
BED1
  3
PLOTSETDICT
350
BED2
  3
PLOTSTYLNAMDICT
350
BED3
  3
LWETCUNION
350
BED4
  3
INSUNITS
350
BED5
  3
CEPSNTYPE
350
BED6
  3
FINGERPRINTGUID
350
BED7
  3
VERSIONGUID
350
BED8
  3
PSVPSCALE
350
BED9
  3
DIMSTYLEDATA
350
BEDA
  3
PUCSORTHOREF
350
BEDB
  3
PUCSORTHOVIEW
350
BEDC
  3
PUCSBASE
350
BEDD
  3
PUCSORGTOP
350
BEDE
  3
PUCSORGBOTTOM
350
BEDF
  3
PUCSORGLEFT
350
BEE0
  3
PUCSORGRIGHT
350
BEE1
  3
PUCSORGFRONT
350
BEE2
  3
PUCSORGBACK
350
BEE3
  3
UCSORTHOREF
350
BEE4
  3
UCSORTHOVIEW
350
BEE5
  3
UCSBASE
350
BEE6
  3
UCSORGTOP
350
BEE7
  3
UCSORGBOTTOM
350
BEE8
  3
UCSORGLEFT
350
BEE9
  3
UCSORGRIGHT
350
BEEA
  3
UCSORGFRONT
350
BEEB
  3
UCSORGBACK
350
BEEC
  0
DICTIONARY
  5
BEC1
102
{ACAD_REACTORS
330
74
102
}
330
74
100
AcDbDictionary
  3
*A1
350
BEC2
  0
XRECORD
  5
BEEF
102
{ACAD_REACTORS
330
74
102
}
330
74
100
AcDbXrecord
340
1F
  0
XRECORD
  5
BEF5
102
{ACAD_REACTORS
330
BEF4
102
}
330
BEF4
100
AcDbXrecord
340
101
  0
MLINESTYLE
  5
18
102
{ACAD_REACTORS
330
17
102
}
330
17
100
AcDbMlineStyle
  2
STANDARD
 70
     0
  3

 62
   256
 51
90.0
 52
90.0
 71
     2
 49
0.5
 62
   256
  6
BYLAYER
 49
-0.5
 62
   256
  6
BYLAYER
  0
ACDBPLACEHOLDER
  5
F
102
{ACAD_REACTORS
330
E
102
}
330
E
100
AcDbPlaceHolder
280
     0
  0
DICTIONARYVAR
  5
35
102
{ACAD_REACTORS
330
34
102
}
330
34
100
DictionaryVariables
280
     0
  1
1
  0
DICTIONARYVAR
  5
B5E
102
{ACAD_REACTORS
330
34
102
}
330
34
100
DictionaryVariables
280
     0
  1
96
  0
DICTIONARY
  5
260
102
{ACAD_REACTORS
330
43
102
}
330
43
100
AcDbDictionary
  0
DICTIONARY
  5
2C
102
{ACAD_REACTORS
330
2B
102
}
330
2B
100
AcDbDictionary
  3
DWGSETTINGS
350
2D
  0
XRECORD
  5
151C
102
{ACAD_REACTORS
330
151A
102
}
330
151A
100
AcDbXrecord
330
0
330
0
330
0
330
0
330
0
330
0
330
0
330
0
  0
XRECORD
  5
BECD
102
{ACAD_REACTORS
330
BECC
102
}
330
BECC
100
AcDbXrecord
 90
        1
  0
XRECORD
  5
BECE
102
{ACAD_REACTORS
330
BECC
102
}
330
BECC
100
AcDbXrecord
 90
       70
  0
XRECORD
  5
BECF
102
{ACAD_REACTORS
330
BECC
102
}
330
BECC
100
AcDbXrecord
  1

  0
XRECORD
  5
BED0
102
{ACAD_REACTORS
330
BECC
102
}
330
BECC
100
AcDbXrecord
  1
ASAMI.ctb
  0
XRECORD
  5
BED1
102
{ACAD_REACTORS
330
BECC
102
}
330
BECC
100
AcDbXrecord
340
1A
  0
XRECORD
  5
BED2
102
{ACAD_REACTORS
330
BECC
102
}
330
BECC
100
AcDbXrecord
340
19
  0
XRECORD
  5
BED3
102
{ACAD_REACTORS
330
BECC
102
}
330
BECC
100
AcDbXrecord
340
E
  0
XRECORD
  5
BED4
102
{ACAD_REACTORS
330
BECC
102
}
330
BECC
100
AcDbXrecord
 90
    10781
  0
XRECORD
  5
BED5
102
{ACAD_REACTORS
330
BECC
102
}
330
BECC
100
AcDbXrecord
 90
        4
  0
XRECORD
  5
BED6
102
{ACAD_REACTORS
330
BECC
102
}
330
BECC
100
AcDbXrecord
 90
        0
  0
XRECORD
  5
BED7
102
{ACAD_REACTORS
330
BECC
102
}
330
BECC
100
AcDbXrecord
  1
{AFB28963-8C59-40AE-9337-C84526B81ACE}
  0
XRECORD
  5
BED8
102
{ACAD_REACTORS
330
BECC
102
}
330
BECC
100
AcDbXrecord
  1
{E053B182-3F86-4016-A70F-34FC1890F2F9}
  0
XRECORD
  5
BED9
102
{ACAD_REACTORS
330
BECC
102
}
330
BECC
100
AcDbXrecord
 40
0.0
  0
XRECORD
  5
BEDA
102
{ACAD_REACTORS
330
BECC
102
}
330
BECC
100
AcDbXrecord
1000
DSTYLE
1002
{
1070
    79
 70
     2
1070
   341
340
59
1070
   342
340
59
1070
   371
 70
    -1
1070
   372
 70
    -1
1002
}
  0
XRECORD
  5
BEDB
102
{ACAD_REACTORS
330
BECC
102
}
330
BECC
100
AcDbXrecord
340
0
  0
XRECORD
  5
BEDC
102
{ACAD_REACTORS
330
BECC
102
}
330
BECC
100
AcDbXrecord
 70
     0
  0
XRECORD
  5
BEDD
102
{ACAD_REACTORS
330
BECC
102
}
330
BECC
100
AcDbXrecord
340
0
  0
XRECORD
  5
BEDE
102
{ACAD_REACTORS
330
BECC
102
}
330
BECC
100
AcDbXrecord
 10
0.0
 20
0.0
 30
0.0
  0
XRECORD
  5
BEDF
102
{ACAD_REACTORS
330
BECC
102
}
330
BECC
100
AcDbXrecord
 10
0.0
 20
0.0
 30
0.0
  0
XRECORD
  5
BEE0
102
{ACAD_REACTORS
330
BECC
102
}
330
BECC
100
AcDbXrecord
 10
0.0
 20
0.0
 30
0.0
  0
XRECORD
  5
BEE1
102
{ACAD_REACTORS
330
BECC
102
}
330
BECC
100
AcDbXrecord
 10
0.0
 20
0.0
 30
0.0
  0
XRECORD
  5
BEE2
102
{ACAD_REACTORS
330
BECC
102
}
330
BECC
100
AcDbXrecord
 10
0.0
 20
0.0
 30
0.0
  0
XRECORD
  5
BEE3
102
{ACAD_REACTORS
330
BECC
102
}
330
BECC
100
AcDbXrecord
 10
0.0
 20
0.0
 30
0.0
  0
XRECORD
  5
BEE4
102
{ACAD_REACTORS
330
BECC
102
}
330
BECC
100
AcDbXrecord
340
0
  0
XRECORD
  5
BEE5
102
{ACAD_REACTORS
330
BECC
102
}
330
BECC
100
AcDbXrecord
 70
     0
  0
XRECORD
  5
BEE6
102
{ACAD_REACTORS
330
BECC
102
}
330
BECC
100
AcDbXrecord
340
0
  0
XRECORD
  5
BEE7
102
{ACAD_REACTORS
330
BECC
102
}
330
BECC
100
AcDbXrecord
 10
0.0
 20
0.0
 30
0.0
  0
XRECORD
  5
BEE8
102
{ACAD_REACTORS
330
BECC
102
}
330
BECC
100
AcDbXrecord
 10
0.0
 20
0.0
 30
0.0
  0
XRECORD
  5
BEE9
102
{ACAD_REACTORS
330
BECC
102
}
330
BECC
100
AcDbXrecord
 10
0.0
 20
0.0
 30
0.0
  0
XRECORD
  5
BEEA
102
{ACAD_REACTORS
330
BECC
102
}
330
BECC
100
AcDbXrecord
 10
0.0
 20
0.0
 30
0.0
  0
XRECORD
  5
BEEB
102
{ACAD_REACTORS
330
BECC
102
}
330
BECC
100
AcDbXrecord
 10
0.0
 20
0.0
 30
0.0
  0
XRECORD
  5
BEEC
102
{ACAD_REACTORS
330
BECC
102
}
330
BECC
100
AcDbXrecord
 10
0.0
 20
0.0
 30
0.0
  0
LAYER_INDEX
  5
BEC2
102
{ACAD_REACTORS
330
BEC1
102
}
330
BEC1
100
AcDbIndex
 40
2453151.843643692
100
AcDbLayerIndex
  8
0
360
BEC3
 90
        0
  8
AM_0
360
BEC4
 90
       40
  8
AM_11
360
BEC5
 90
        3
  8
AM_7
360
BEC6
 90
        2
  8
AM_5
360
BEC7
 90
        4
  8
Defpoints
360
BEC8
 90
        0
  8
AM_6
360
BEC9
 90
        1
  8
AM_CL
360
BECA
 90
        0
  0
XRECORD
  5
2D
102
{ACAD_REACTORS
330
2C
102
}
330
2C
100
AcDbXrecord
  1
VERSION
140
15.0
  1
PRODUCT
  2
AutoCAD Mechanical 2000
  0
IDBUFFER
  5
BEC3
330
0
100
AcDbIdBuffer
  0
IDBUFFER
  5
BEC4
330
0
100
AcDbIdBuffer
330
BD3A
330
BD3B
330
BD3C
330
BD3D
330
BD3E
330
BD41
330
BD42
330
BD45
330
BD46
330
BD47
330
BD48
330
BD49
330
BD4A
330
BD4B
330
BD4C
330
BD4D
330
BD4E
330
BD4F
330
BD50
330
BD51
330
BD52
330
BD53
330
BD61
330
BD62
330
B46D
330
B46E
330
B471
330
B472
330
B495
330
B497
330
B4B2
330
B53C
330
B53E
330
B68B
330
B82A
330
B833
330
BB16
330
BD37
330
BD38
330
BD39
  0
IDBUFFER
  5
BEC5
330
0
100
AcDbIdBuffer
330
BD40
330
BD43
330
BD44
  0
IDBUFFER
  5
BEC6
330
0
100
AcDbIdBuffer
330
C2E
330
A475
  0
IDBUFFER
  5
BEC7
330
0
100
AcDbIdBuffer
330
10F0
330
12D8
330
B473
330
BD54
  0
IDBUFFER
  5
BEC8
330
0
100
AcDbIdBuffer
  0
IDBUFFER
  5
BEC9
330
0
100
AcDbIdBuffer
330
B375
  0
IDBUFFER
  5
BECA
330
0
100
AcDbIdBuffer
  0
ENDSEC
  0
EOF
