  0
SECTION
  2
HEADER
  9
$ACADVER
  1
AC1014
  9
$ACADMAINTVER
 70
     9
  9
$DWGCODEPAGE
  3
ANSI_932
  9
$INSBASE
 10
0.0
 20
0.0
 30
0.0
  9
$EXTMIN
 10
-129.3386983892743
 20
-58.50000099999999
 30
-0.00000001
  9
$EXTMAX
 10
17.05105068025213
 20
11.68773148364518
 30
0.00000001
  9
$LIMMIN
 10
-136.7214016783747
 20
-70.21711298362288
  9
$LIMMAX
 10
31.50706870789054
 20
45.91068634409242
  9
$ORTHOMODE
 70
     0
  9
$REGENMODE
 70
     1
  9
$FILLMODE
 70
     1
  9
$QTEXTMODE
 70
     0
  9
$MIRRTEXT
 70
     0
  9
$DRAGMODE
 70
     2
  9
$LTSCALE
 40
1.0
  9
$OSMODE
 70
    55
  9
$ATTMODE
 70
     1
  9
$TEXTSIZE
 40
5.0
  9
$TRACEWID
 40
1.0
  9
$TEXTSTYLE
  7
STANDARD
  9
$CLAYER
  8
AM_0
  9
$CELTYPE
  6
BYLAYER
  9
$CECOLOR
 62
   256
  9
$CELTSCALE
 40
1.0
  9
$DELOBJ
 70
     1
  9
$DISPSILH
 70
     0
  9
$DIMSCALE
 40
1.0
  9
$DIMASZ
 40
2.5
  9
$DIMEXO
 40
1.0
  9
$DIMDLI
 40
12.0
  9
$DIMRND
 40
0.0
  9
$DIMDLE
 40
0.0
  9
$DIMEXE
 40
1.0
  9
$DIMTP
 40
0.1
  9
$DIMTM
 40
0.1
  9
$DIMTXT
 40
3.2
  9
$DIMCEN
 40
0.0
  9
$DIMTSZ
 40
0.0
  9
$DIMTOL
 70
     0
  9
$DIMLIM
 70
     0
  9
$DIMTIH
 70
     0
  9
$DIMTOH
 70
     0
  9
$DIMSE1
 70
     0
  9
$DIMSE2
 70
     0
  9
$DIMTAD
 70
     3
  9
$DIMZIN
 70
     8
  9
$DIMBLK
  1
OPEN30
  9
$DIMASO
 70
     1
  9
$DIMSHO
 70
     1
  9
$DIMPOST
  1

  9
$DIMAPOST
  1
"
  9
$DIMALT
 70
     0
  9
$DIMALTD
 70
     2
  9
$DIMALTF
 40
0.0393701
  9
$DIMLFAC
 40
1.0
  9
$DIMTOFL
 70
     1
  9
$DIMTVP
 40
0.0
  9
$DIMTIX
 70
     0
  9
$DIMSOXD
 70
     0
  9
$DIMSAH
 70
     0
  9
$DIMBLK1
  1

  9
$DIMBLK2
  1

  9
$DIMSTYLE
  2
AM_JIS
  9
$DIMCLRD
 70
   256
  9
$DIMCLRE
 70
   256
  9
$DIMCLRT
 70
     2
  9
$DIMTFAC
 40
0.71
  9
$DIMGAP
 40
1.5
  9
$DIMJUST
 70
     0
  9
$DIMSD1
 70
     0
  9
$DIMSD2
 70
     0
  9
$DIMTOLJ
 70
     0
  9
$DIMTZIN
 70
     0
  9
$DIMALTZ
 70
     0
  9
$DIMALTTZ
 70
     0
  9
$DIMFIT
 70
     3
  9
$DIMUPT
 70
     0
  9
$DIMUNIT
 70
     2
  9
$DIMDEC
 70
     3
  9
$DIMTDEC
 70
     3
  9
$DIMALTU
 70
     2
  9
$DIMALTTD
 70
     2
  9
$DIMTXSTY
  7
ASAMI
  9
$DIMAUNIT
 70
     0
  9
$LUNITS
 70
     2
  9
$LUPREC
 70
     2
  9
$SKETCHINC
 40
1.0
  9
$FILLETRAD
 40
2.5
  9
$AUNITS
 70
     0
  9
$AUPREC
 70
     0
  9
$MENU
  1
.
  9
$ELEVATION
 40
0.0
  9
$PELEVATION
 40
0.0
  9
$THICKNESS
 40
0.0
  9
$LIMCHECK
 70
     0
  9
$BLIPMODE
 70
     0
  9
$CHAMFERA
 40
1.25
  9
$CHAMFERB
 40
1.25
  9
$CHAMFERC
 40
20.0
  9
$CHAMFERD
 40
0.0
  9
$SKPOLY
 70
     0
  9
$TDCREATE
 40
2452838.430434386
  9
$TDUPDATE
 40
2453151.843908807
  9
$TDINDWG
 40
0.4827083449
  9
$TDUSRTIMER
 40
0.4827083449
  9
$USRTIMER
 70
     1
  9
$ANGBASE
 50
0.0
  9
$ANGDIR
 70
     0
  9
$PDMODE
 70
     0
  9
$PDSIZE
 40
0.0
  9
$PLINEWID
 40
0.0
  9
$COORDS
 70
     1
  9
$SPLFRAME
 70
     0
  9
$SPLINETYPE
 70
     6
  9
$SPLINESEGS
 70
     8
  9
$ATTDIA
 70
     1
  9
$ATTREQ
 70
     1
  9
$HANDLING
 70
 12289
  9
$HANDSEED
  5
C0DC
  9
$SURFTAB1
 70
     6
  9
$SURFTAB2
 70
     6
  9
$SURFTYPE
 70
     6
  9
$SURFU
 70
     6
  9
$SURFV
 70
     6
  9
$UCSNAME
  2

  9
$UCSORG
 10
0.0
 20
0.0
 30
0.0
  9
$UCSXDIR
 10
1.0
 20
0.0
 30
0.0
  9
$UCSYDIR
 10
0.0
 20
1.0
 30
0.0
  9
$PUCSNAME
  2

  9
$PUCSORG
 10
0.0
 20
0.0
 30
0.0
  9
$PUCSXDIR
 10
1.0
 20
0.0
 30
0.0
  9
$PUCSYDIR
 10
0.0
 20
1.0
 30
0.0
  9
$USERI1
 70
     0
  9
$USERI2
 70
     0
  9
$USERI3
 70
     0
  9
$USERI4
 70
     0
  9
$USERI5
 70
     0
  9
$USERR1
 40
0.0
  9
$USERR2
 40
0.0
  9
$USERR3
 40
0.0
  9
$USERR4
 40
0.0
  9
$USERR5
 40
0.0
  9
$WORLDVIEW
 70
     1
  9
$SHADEDGE
 70
     3
  9
$SHADEDIF
 70
    70
  9
$TILEMODE
 70
     1
  9
$MAXACTVP
 70
    64
  9
$PINSBASE
 10
0.0
 20
0.0
 30
0.0
  9
$PLIMCHECK
 70
     0
  9
$PEXTMIN
 10
1.000000000000000E+20
 20
1.000000000000000E+20
 30
1.000000000000000E+20
  9
$PEXTMAX
 10
-1.000000000000000E+20
 20
-1.000000000000000E+20
 30
-1.000000000000000E+20
  9
$PLIMMIN
 10
0.0
 20
0.0
  9
$PLIMMAX
 10
841.0
 20
594.0
  9
$UNITMODE
 70
     0
  9
$VISRETAIN
 70
     1
  9
$PLINEGEN
 70
     0
  9
$PSLTSCALE
 70
     0
  9
$TREEDEPTH
 70
  3020
  9
$PICKSTYLE
 70
     0
  9
$CMLSTYLE
  2
STANDARD
  9
$CMLJUST
 70
     0
  9
$CMLSCALE
 40
20.0
  9
$PROXYGRAPHICS
 70
     1
  9
$MEASUREMENT
 70
     1
  0
ENDSEC
  0
SECTION
  2
CLASSES
  0
CLASS
  1
ACDBDICTIONARYWDFLT
  2
AcDbDictionaryWithDefault
  3
AutoCAD 2000
 90
        0
280
     0
281
     0
  0
CLASS
  1
ACDBPLACEHOLDER
  2
AcDbPlaceHolder
  3
AutoCAD 2000
 90
        0
280
     0
281
     0
  0
CLASS
  1
LAYOUT
  2
AcDbLayout
  3
AutoCAD 2000
 90
        0
280
     0
281
     0
  0
CLASS
  1
AMGSETTINGSOBJ
  2
AmgSettingsObj
  3
"AcadM|Product Description: AutoCAD Mechanical 2000|Company: Autodesk"
 90
        0
280
     0
281
     0
  0
CLASS
  1
ACME_DOCUMENT
  2
AcMeDbDoc
  3
AcMeServices
 90
        0
280
     0
281
     0
  0
CLASS
  1
ACMESCOPE
  2
AcMeScope
  3
AcMeServices
 90
        0
280
     0
281
     0
  0
CLASS
  1
ACMECOMMANDHISTORY
  2
AcMeCommandHistory
  3
AcMeServices
 90
        0
280
     0
281
     0
  0
CLASS
  1
DICTIONARYVAR
  2
AcDbDictionaryVar
  3
AutoCAD 2000
 90
        0
280
     0
281
     0
  0
CLASS
  1
ACIMSYSVARMAN
  2
AcImSysVarManager
  3
AcMeServices
 90
        0
280
     0
281
     0
  0
CLASS
  1
ACIMREALSYSVAR
  2
AcImRealSysVar
  3
AcMeServices
 90
        0
280
     0
281
     0
  0
CLASS
  1
ACIMINTSYSVAR
  2
AcImIntSysVar
  3
AcMeServices
 90
        0
280
     0
281
     0
  0
CLASS
  1
ACMEDRAWINGMAN
  2
AcMeDrawingMan
  3
AcMeServices
 90
        0
280
     0
281
     0
  0
CLASS
  1
ACMEVIEW
  2
AcMeView
  3
AcMeServices
 90
        0
280
     0
281
     0
  0
CLASS
  1
ACDBENTITYCACHE
  2
AcMeEntityCache
  3
AcMeServices
 90
        0
280
     0
281
     0
  0
CLASS
  1
GSMANAGER
  2
AcMeGSManager
  3
AcMeServices
 90
        0
280
     0
281
     0
  0
CLASS
  1
AmdtInternalReactor
  2
AmdtInternalReactor
  3
AcMeServices
 90
        0
280
     0
281
     0
  0
CLASS
  1
ACMESTATEMGR
  2
AcMeStateMgr
  3
AcMeServices
 90
        0
280
     0
281
     0
  0
CLASS
  1
ACME_DATABASE
  2
AcMeDbDatabase
  3
AcMeServices
 90
        0
280
     0
281
     0
  0
CLASS
  1
ACRFINSADJUSTERMGR
  2
AcRfInsAdjusterMgr
  3
AcMeServices
 90
        0
280
     0
281
     0
  0
CLASS
  1
ACMDATADICTIONARY
  2
AcmDataDictionary
  3
"AcmSymBB|Product Description: AutoCAD Mechanical 2000|Company: Autodesk"
 90
        0
280
     0
281
     0
  0
CLASS
  1
ACMDATAENTRYBLOCK
  2
AcmDataEntryBlock
  3
"AcmSymBB|Product Description: AutoCAD Mechanical 2000|Company: Autodesk"
 90
        0
280
     0
281
     0
  0
CLASS
  1
AMGOBJPROPCFG
  2
AmgObjPropCfg
  3
"AmgLay|Product Description: AutoCAD Mechanical 2000|Company: Autodesk"
 90
        1
280
     0
281
     0
  0
CLASS
  1
ACAMGFILTERDAT
  2
AcAmgFilterDat
  3
"AcadM|Product Description: AutoCAD Mechanical 2000|Company: Autodesk"
 90
        0
280
     0
281
     0
  0
CLASS
  1
LAYER_INDEX
  2
AcDbLayerIndex
  3
AutoCAD 2000
 90
        0
280
     0
281
     0
  0
CLASS
  1
IDBUFFER
  2
AcDbIdBuffer
  3
AutoCAD 2000
 90
        0
280
     0
281
     0
  0
CLASS
  1
ACIMSTRSYSVAR
  2
AcImStrSysVar
  3
AcMeServices
 90
        0
280
     0
281
     0
  0
CLASS
  1
ACMSTANDARDJIS
  2
AcmStandardJIS
  3
"AcmSymBB|Product Description: AutoCAD Mechanical 2000|Company: Autodesk"
 90
        0
280
     0
281
     0
  0
CLASS
  1
ACMSURFSTANDARDJIS
  2
AcmSurfTextStdJIS
  3
"AcmSymBB|Product Description: AutoCAD Mechanical 2000|Company: Autodesk"
 90
        0
280
     0
281
     0
  0
CLASS
  1
ACMFCFSTANDARDJIS
  2
AcmFCFStdJIS
  3
"AcmSymBB|Product Description: AutoCAD Mechanical 2000|Company: Autodesk"
 90
        0
280
     0
281
     0
  0
CLASS
  1
ACMWELDSTANDARDJIS
  2
AcmWeldingStdJIS
  3
"AcmSymBB|Product Description: AutoCAD Mechanical 2000|Company: Autodesk"
 90
        0
280
     0
281
     0
  0
CLASS
  1
ACMIDSTANDARDJIS
  2
AcmIdStdJIS
  3
"AcmSymBB|Product Description: AutoCAD Mechanical 2000|Company: Autodesk"
 90
        0
280
     0
281
     0
  0
CLASS
  1
ACMDATUMSTANDARDJIS
  2
AcmDatumStdJIS
  3
"AcmSymBB|Product Description: AutoCAD Mechanical 2000|Company: Autodesk"
 90
        0
280
     0
281
     0
  0
CLASS
  1
ACMBOMSTANDARDJIS
  2
AcmBOMStdJIS
  3
"AcmSymBB|Product Description: AutoCAD Mechanical 2000|Company: Autodesk"
 90
        0
280
     0
281
     0
  0
CLASS
  1
ACMSTANDARDANSI
  2
AcmStandardANSI
  3
"AcmSymBB|Product Description: AutoCAD Mechanical 2000|Company: Autodesk"
 90
        0
280
     0
281
     0
  0
CLASS
  1
ACMSURFSTANDARDANSI
  2
AcmSurfTextStdANSI
  3
"AcmSymBB|Product Description: AutoCAD Mechanical 2000|Company: Autodesk"
 90
        0
280
     0
281
     0
  0
CLASS
  1
ACMFCFSTANDARDANSI
  2
AcmFCFStdANSI
  3
"AcmSymBB|Product Description: AutoCAD Mechanical 2000|Company: Autodesk"
 90
        0
280
     0
281
     0
  0
CLASS
  1
ACMWELDSTANDARDANSI
  2
AcmWeldingStdANSI
  3
"AcmSymBB|Product Description: AutoCAD Mechanical 2000|Company: Autodesk"
 90
        0
280
     0
281
     0
  0
CLASS
  1
ACMIDSTANDARDANSI
  2
AcmIdStdANSI
  3
"AcmSymBB|Product Description: AutoCAD Mechanical 2000|Company: Autodesk"
 90
        0
280
     0
281
     0
  0
CLASS
  1
ACMDATUMSTANDARDANSI
  2
AcmDatumStdANSI
  3
"AcmSymBB|Product Description: AutoCAD Mechanical 2000|Company: Autodesk"
 90
        0
280
     0
281
     0
  0
CLASS
  1
ACMBOMSTANDARDANSI
  2
AcmBOMStdANSI
  3
"AcmSymBB|Product Description: AutoCAD Mechanical 2000|Company: Autodesk"
 90
        0
280
     0
281
     0
  0
CLASS
  1
ACMSTANDARDBSI
  2
AcmStandardBSI
  3
"AcmSymBB|Product Description: AutoCAD Mechanical 2000|Company: Autodesk"
 90
        0
280
     0
281
     0
  0
CLASS
  1
ACMSURFSTANDARDBSI
  2
AcmSurfTextStdBSI
  3
"AcmSymBB|Product Description: AutoCAD Mechanical 2000|Company: Autodesk"
 90
        0
280
     0
281
     0
  0
CLASS
  1
ACMFCFSTANDARDBSI
  2
AcmFCFStdBSI
  3
"AcmSymBB|Product Description: AutoCAD Mechanical 2000|Company: Autodesk"
 90
        0
280
     0
281
     0
  0
CLASS
  1
ACMWELDSTANDARDBSI
  2
AcmWeldingStdBSI
  3
"AcmSymBB|Product Description: AutoCAD Mechanical 2000|Company: Autodesk"
 90
        0
280
     0
281
     0
  0
CLASS
  1
ACMIDSTANDARDBSI
  2
AcmIdStdBSI
  3
"AcmSymBB|Product Description: AutoCAD Mechanical 2000|Company: Autodesk"
 90
        0
280
     0
281
     0
  0
CLASS
  1
ACMDATUMSTANDARDBSI
  2
AcmDatumStdBSI
  3
"AcmSymBB|Product Description: AutoCAD Mechanical 2000|Company: Autodesk"
 90
        0
280
     0
281
     0
  0
CLASS
  1
ACMBOMSTANDARDBSI
  2
AcmBOMStdBSI
  3
"AcmSymBB|Product Description: AutoCAD Mechanical 2000|Company: Autodesk"
 90
        0
280
     0
281
     0
  0
CLASS
  1
LONG_TRANSACTION
  2
AcDbLongTransaction
  3
AutoCAD 2000
 90
        0
280
     0
281
     0
  0
CLASS
  1
LWPOLYLINE
  2
AcDbPolyline
  3
AutoCAD 2000
 90
        0
280
     0
281
     1
  0
CLASS
  1
HATCH
  2
AcDbHatch
  3
AutoCAD 2000
 90
        0
280
     0
281
     1
  0
CLASS
  1
XRECORD
  2
AcDbXrecord
  3
AutoCAD 2000
 90
        0
280
     0
281
     0
  0
ENDSEC
  0
SECTION
  2
TABLES
  0
TABLE
  2
VPORT
  5
8
330
0
100
AcDbSymbolTable
 70
     3
  0
VPORT
  5
C0B1
330
8
100
AcDbSymbolTableRecord
100
AcDbViewportTableRecord
  2
*ACTIVE
 70
     0
 10
0.0
 20
0.0
 11
1.0
 21
1.0
 12
-28.02624711249904
 22
-0.7279759033609139
 13
0.0
 23
0.0
 14
2.5
 24
2.5
 15
10.0
 25
10.0
 16
0.0
 26
0.0
 36
1.0
 17
0.0
 27
0.0
 37
0.0
 40
183.5920857379873
 41
1.56570841889117
 42
50.0
 43
0.0
 44
0.0
 50
0.0
 51
0.0
 71
     0
 72
   100
 73
     1
 74
     3
 75
     0
 76
     0
 77
     0
 78
     0
  0
ENDTAB
  0
TABLE
  2
LTYPE
  5
5
330
0
100
AcDbSymbolTable
 70
    10
  0
LTYPE
  5
14
330
5
100
AcDbSymbolTableRecord
100
AcDbLinetypeTableRecord
  2
BYBLOCK
 70
     0
  3

 72
    65
 73
     0
 40
0.0
  0
LTYPE
  5
15
330
5
100
AcDbSymbolTableRecord
100
AcDbLinetypeTableRecord
  2
BYLAYER
 70
     0
  3

 72
    65
 73
     0
 40
0.0
  0
LTYPE
  5
16
330
5
100
AcDbSymbolTableRecord
100
AcDbLinetypeTableRecord
  2
CONTINUOUS
 70
     0
  3
Solid line
 72
    65
 73
     0
 40
0.0
  0
LTYPE
  5
4B
330
5
100
AcDbSymbolTableRecord
100
AcDbLinetypeTableRecord
  2
AM_ISO02W050
 70
     0
  3
__ __ __ __ __ __ __ __ __ __ __ __ __ __ __
 72
    65
 73
     2
 40
7.5
 49
6.0
 74
     0
 49
-1.5
 74
     0
  0
LTYPE
  5
4C
330
5
100
AcDbSymbolTableRecord
100
AcDbLinetypeTableRecord
  2
AM_ISO08W050
 70
     0
  3
____ . ____ . ____ . ____ . ____ . ____ . ____
 72
    65
 73
     4
 40
18.0
 49
12.0
 74
     0
 49
-1.5
 74
     0
 49
3.0
 74
     0
 49
-1.5
 74
     0
  0
LTYPE
  5
4D
330
5
100
AcDbSymbolTableRecord
100
AcDbLinetypeTableRecord
  2
AM_ISO09W050
 70
     0
  3
_____ . . _____ . . _____ . . ____ .. ____
 72
    65
 73
     6
 40
22.5
 49
12.0
 74
     0
 49
-1.5
 74
     0
 49
3.0
 74
     0
 49
-1.5
 74
     0
 49
3.0
 74
     0
 49
-1.5
 74
     0
  0
LTYPE
  5
4E
330
5
100
AcDbSymbolTableRecord
100
AcDbLinetypeTableRecord
  2
AMCONSTR
 70
     0
  3
_______________________
 72
    65
 73
     2
 40
9999.0
 49
9999.0
 74
     0
 49
0.0
 74
     0
  0
LTYPE
  5
4F
330
5
100
AcDbSymbolTableRecord
100
AcDbLinetypeTableRecord
  2
AM_ISO02W050X2
 70
     0
  3
 _ _ _ _ _ _ _ _ _ _ _ _
 72
    65
 73
     2
 40
3.75
 49
3.0
 74
     0
 49
-0.75
 74
     0
  0
LTYPE
  5
50
330
5
100
AcDbSymbolTableRecord
100
AcDbLinetypeTableRecord
  2
AM_ISO08W050X2
 70
     0
  3
__ . __ . __ . __ . __ . __
 72
    65
 73
     4
 40
9.0
 49
6.0
 74
     0
 49
-0.75
 74
     0
 49
1.5
 74
     0
 49
-0.75
 74
     0
  0
LTYPE
  5
53
330
5
100
AcDbSymbolTableRecord
100
AcDbLinetypeTableRecord
  2
AMZIGZAG
 70
     0
  3
/\/-/\/-/\/-/\/-/\/-/\/
 72
    65
 73
     2
 40
11.00009999999999
 49
0.0001
 74
     4
 75
   135
340
52
 46
0.04
 50
0.0
 44
0.0
 45
0.0
 49
-11.0
 74
     0
  0
LTYPE
  5
166
330
5
100
AcDbSymbolTableRecord
100
AcDbLinetypeTableRecord
  2
ACJISTGL
 70
     0
  3
_ _ _ _ _
 72
    65
 73
     2
 40
3.0
 49
2.0
 74
     0
 49
-1.0
 74
     0
  0
LTYPE
  5
26A
330
5
100
AcDbSymbolTableRecord
100
AcDbLinetypeTableRecord
  2
ACJISTGB
 70
     0
  3
__ . . __ . .
 72
    65
 73
     6
 40
9.0
 49
4.0
 74
     0
 49
-1.0
 74
     0
 49
1.0
 74
     0
 49
-1.0
 74
     0
 49
1.0
 74
     0
 49
-1.0
 74
     0
  0
ENDTAB
  0
TABLE
  2
LAYER
  5
2
330
0
100
AcDbSymbolTable
 70
     7
  0
LAYER
  5
10
330
2
100
AcDbSymbolTableRecord
100
AcDbLayerTableRecord
  2
0
 70
     0
 62
     7
  6
CONTINUOUS
  0
LAYER
  5
3F9
330
2
100
AcDbSymbolTableRecord
100
AcDbLayerTableRecord
  2
AM_0
 70
     0
 62
     7
  6
CONTINUOUS
  0
LAYER
  5
BDD
330
2
100
AcDbSymbolTableRecord
100
AcDbLayerTableRecord
  2
AM_11
 70
     0
 62
     3
  6
AM_ISO09W050
  0
LAYER
  5
BDE
330
2
100
AcDbSymbolTableRecord
100
AcDbLayerTableRecord
  2
AM_7
 70
     0
 62
     4
  6
AM_ISO08W050
  0
LAYER
  5
BDF
330
2
100
AcDbSymbolTableRecord
100
AcDbLayerTableRecord
  2
AM_5
 70
     0
 62
     3
  6
CONTINUOUS
  0
LAYER
  5
BE0
330
2
100
AcDbSymbolTableRecord
100
AcDbLayerTableRecord
  2
DEFPOINTS
 70
     0
 62
     7
  6
CONTINUOUS
  0
LAYER
  5
14FF
330
2
100
AcDbSymbolTableRecord
100
AcDbLayerTableRecord
  2
AM_6
 70
     0
 62
     2
  6
CONTINUOUS
  0
ENDTAB
  0
TABLE
  2
STYLE
  5
3
330
0
100
AcDbSymbolTable
 70
     5
  0
STYLE
  5
11
330
3
100
AcDbSymbolTableRecord
100
AcDbTextStyleTableRecord
  2
STANDARD
 70
     0
 40
0.0
 41
1.0
 50
0.0
 71
     0
 42
5.0
  3
simplex.shx
  4
EXTFONT.SHX
  0
STYLE
  5
52
330
3
100
AcDbSymbolTableRecord
100
AcDbTextStyleTableRecord
  2

 70
     1
 40
0.0
 41
1.0
 50
0.0
 71
     0
 42
2.5
  3
ltypeshp.shx
  4

  0
STYLE
  5
6B
330
3
100
AcDbSymbolTableRecord
100
AcDbTextStyleTableRecord
  2
ASAMI
 70
     0
 40
0.0
 41
1.0
 50
0.0
 71
     0
 42
2.5
  3
simplex.shx
  4
EXTFONT.SHX
  0
STYLE
  5
262
330
3
100
AcDbSymbolTableRecord
100
AcDbTextStyleTableRecord
  2
ACJISTS
 70
     0
 40
1.0
 41
1.0
 50
0.0
 71
     0
 42
2.5
  3
simplex.shx
  4
bigfont.shx
  0
STYLE
  5
269
330
3
100
AcDbSymbolTableRecord
100
AcDbTextStyleTableRecord
  2
ACJISGDT
 70
     0
 40
0.0
 41
1.0
 50
0.0
 71
     0
 42
2.5
  3
amgdtans.shx
  4

  0
ENDTAB
  0
TABLE
  2
VIEW
  5
6
330
0
100
AcDbSymbolTable
 70
     0
  0
ENDTAB
  0
TABLE
  2
UCS
  5
7
330
0
100
AcDbSymbolTable
 70
     0
  0
ENDTAB
  0
TABLE
  2
APPID
  5
9
330
0
100
AcDbSymbolTable
 70
    13
  0
APPID
  5
12
330
9
100
AcDbSymbolTableRecord
100
AcDbRegAppTableRecord
  2
ACAD
 70
     0
  0
APPID
  5
30
330
9
100
AcDbSymbolTableRecord
100
AcDbRegAppTableRecord
  2
MCAD_NO_VIS
 70
     0
  0
APPID
  5
31
330
9
100
AcDbSymbolTableRecord
100
AcDbRegAppTableRecord
  2
ACAD_TEMP_GRAPHIC
 70
     0
  0
APPID
  5
2C2
330
9
100
AcDbSymbolTableRecord
100
AcDbRegAppTableRecord
  2
GENIUS_GENDTOL_13
 70
     0
  0
APPID
  5
339
330
9
100
AcDbSymbolTableRecord
100
AcDbRegAppTableRecord
  2
GENIUS_GENODEF_13
 70
     0
  0
APPID
  5
33A
330
9
100
AcDbSymbolTableRecord
100
AcDbRegAppTableRecord
  2
GENIUS_GENOBJ-N-RSBK_13
 70
     0
  0
APPID
  5
33B
330
9
100
AcDbSymbolTableRecord
100
AcDbRegAppTableRecord
  2
GENIUS_GENOBJ-N-LIB_13
 70
     0
  0
APPID
  5
33C
330
9
100
AcDbSymbolTableRecord
100
AcDbRegAppTableRecord
  2
GENIUS_GENSCALE_13
 70
     0
  0
APPID
  5
378
330
9
100
AcDbSymbolTableRecord
100
AcDbRegAppTableRecord
  2
GENIUS_GENDIMSH_14
 70
     0
  0
APPID
  5
BE1
330
9
100
AcDbSymbolTableRecord
100
AcDbRegAppTableRecord
  2
GENIUS_GENFIL_13
 70
     0
  0
APPID
  5
BE2
330
9
100
AcDbSymbolTableRecord
100
AcDbRegAppTableRecord
  2
GENIUS_GENOBJ-N-CHA_13
 70
     0
  0
APPID
  5
151B
330
9
100
AcDbSymbolTableRecord
100
AcDbRegAppTableRecord
  2
DCO15
 70
     0
  0
APPID
  5
1860
330
9
100
AcDbSymbolTableRecord
100
AcDbRegAppTableRecord
  2
GENIUS_GENOBJ-N-CEN_13
 70
     0
  0
ENDTAB
  0
TABLE
  2
DIMSTYLE
  5
A
330
0
100
AcDbSymbolTable
 70
     8
  0
DIMSTYLE
105
58
102
{ACAD_REACTORS
330
10F0
330
12D8
330
B473
330
BE8F
102
}
330
A
100
AcDbSymbolTableRecord
100
AcDbDimStyleTableRecord
  2
AM_JIS
 70
     0
  3

  4
"
  5
OPEN30
  6

  7

 40
1.0
 41
2.5
 42
1.0
 43
12.0
 44
1.0
 45
0.0
 46
0.0
 47
0.1
 48
0.1
140
3.2
141
0.0
142
0.0
143
0.0393701
144
1.0
145
0.0
146
0.71
147
1.5
 71
     0
 72
     0
 73
     0
 74
     0
 75
     0
 76
     0
 77
     3
 78
     8
170
     0
171
     2
172
     1
173
     0
174
     0
175
     0
176
   256
177
   256
178
     2
270
     2
271
     3
272
     3
273
     2
274
     2
340
6B
275
     0
280
     0
281
     0
282
     0
283
     0
284
     0
285
     0
286
     0
287
     3
288
     0
  0
DIMSTYLE
105
5F
330
A
100
AcDbSymbolTableRecord
100
AcDbDimStyleTableRecord
  2
AM_JIS$3
 70
     0
  3

  4
"
  5
OPEN30
  6

  7

 40
1.0
 41
2.5
 42
1.0
 43
10.0
 44
1.0
 45
0.0
 46
0.0
 47
0.1
 48
0.1
140
3.2
141
0.0
142
0.0
143
0.0393701
144
1.0
145
0.0
146
0.71
147
1.5
 71
     0
 72
     0
 73
     0
 74
     1
 75
     0
 76
     0
 77
     3
 78
     8
170
     0
171
     2
172
     0
173
     0
174
     0
175
     0
176
   256
177
   256
178
     2
270
     2
271
     2
272
     3
273
     2
274
     2
340
6B
275
     0
280
     0
281
     0
282
     0
283
     0
284
     0
285
     0
286
     0
287
     0
288
     1
  0
DIMSTYLE
105
60
330
A
100
AcDbSymbolTableRecord
100
AcDbDimStyleTableRecord
  2
AM_JIS$4
 70
     0
  3

  4
"
  5
OPEN30
  6

  7

 40
1.0
 41
2.5
 42
1.0
 43
10.0
 44
1.0
 45
0.0
 46
0.0
 47
0.1
 48
0.1
140
3.2
141
0.0
142
0.0
143
0.0393701
144
1.0
145
0.0
146
0.71
147
1.5
 71
     0
 72
     0
 73
     0
 74
     1
 75
     0
 76
     0
 77
     3
 78
     8
170
     0
171
     2
172
     0
173
     0
174
     0
175
     0
176
   256
177
   256
178
     2
270
     2
271
     2
272
     3
273
     2
274
     2
340
6B
275
     0
280
     0
281
     0
282
     0
283
     0
284
     0
285
     0
286
     0
287
     0
288
     1
  0
DIMSTYLE
105
61
330
A
100
AcDbSymbolTableRecord
100
AcDbDimStyleTableRecord
  2
AM_JIS$6
 70
     0
  3

  4
"
  5
OPEN30
  6

  7

 40
1.0
 41
2.5
 42
1.0
 43
10.0
 44
1.0
 45
0.0
 46
0.0
 47
0.1
 48
0.1
140
3.2
141
0.0
142
0.0
143
0.0393701
144
1.0
145
0.0
146
0.71
147
1.5
 71
     0
 72
     0
 73
     0
 74
     0
 75
     0
 76
     0
 77
     0
 78
     8
170
     0
171
     2
172
     1
173
     0
174
     0
175
     0
176
   256
177
   256
178
     2
270
     2
271
     2
272
     2
273
     2
274
     2
340
6B
275
     0
280
     0
281
     0
282
     0
283
     0
284
     0
285
     0
286
     0
287
     3
288
     0
  0
DIMSTYLE
105
62
330
A
100
AcDbSymbolTableRecord
100
AcDbDimStyleTableRecord
  2
AM_JIS$7
 70
     0
  3

  4
"
  5
OPEN30
  6

  7

 40
1.0
 41
2.5
 42
1.0
 43
10.0
 44
1.0
 45
0.0
 46
0.0
 47
0.1
 48
0.1
140
3.2
141
0.0
142
0.0
143
0.0393701
144
1.0
145
0.0
146
0.71
147
1.5
 71
     0
 72
     0
 73
     0
 74
     0
 75
     0
 76
     0
 77
     3
 78
     8
170
     0
171
     2
172
     1
173
     0
174
     0
175
     0
176
   256
177
   256
178
     2
270
     2
271
     2
272
     3
273
     2
274
     2
340
6B
275
     0
280
     0
281
     0
282
     0
283
     0
284
     0
285
     0
286
     0
287
     3
288
     0
  0
DIMSTYLE
105
63
330
A
100
AcDbSymbolTableRecord
100
AcDbDimStyleTableRecord
  2
AM_JIS$SF
 70
     0
  3

  4
"
  5
OPEN30
  6

  7

 40
1.0
 41
2.5
 42
1.0
 43
10.0
 44
1.0
 45
0.0
 46
0.0
 47
0.1
 48
0.1
140
3.2
141
0.0
142
0.0
143
0.0393701
144
1.0
145
0.0
146
0.71
147
1.5
 71
     0
 72
     0
 73
     0
 74
     0
 75
     1
 76
     1
 77
     3
 78
     8
170
     0
171
     2
172
     1
173
     0
174
     0
175
     0
176
   256
177
   256
178
     2
270
     2
271
     2
272
     2
273
     2
274
     2
340
6B
275
     0
280
     0
281
     0
282
     0
283
     0
284
     0
285
     0
286
     0
287
     3
288
     0
  0
DIMSTYLE
105
68
330
A
100
AcDbSymbolTableRecord
100
AcDbDimStyleTableRecord
  2
AM_JIS$SH
 70
     0
  3

  4
"
  5

  6
GENAXEH
  7
OPEN30
 40
1.0
 41
2.5
 42
1.0
 43
10.0
 44
1.0
 45
0.0
 46
0.0
 47
0.1
 48
0.1
140
3.2
141
0.0
142
0.0
143
0.0393701
144
2.0
145
0.0
146
0.71
147
1.5
 71
     0
 72
     0
 73
     0
 74
     0
 75
     1
 76
     1
 77
     3
 78
     8
170
     0
171
     2
172
     1
173
     1
174
     0
175
     0
176
   256
177
   256
178
     2
270
     2
271
     2
272
     2
273
     2
274
     2
340
6B
275
     0
280
     0
281
     0
282
     0
283
     0
284
     0
285
     0
286
     0
287
     3
288
     0
  0
DIMSTYLE
105
B34
330
A
100
AcDbSymbolTableRecord
100
AcDbDimStyleTableRecord
  2
AM_JIS$2
 70
     0
  3

  4
"
  5
OPEN30
  6

  7

 40
1.0
 41
2.5
 42
1.0
 43
12.0
 44
1.0
 45
0.0
 46
0.0
 47
0.1
 48
0.1
140
3.2
141
0.0
142
0.0
143
0.0393701
144
1.0
145
0.0
146
0.71
147
1.5
 71
     0
 72
     0
 73
     0
 74
     0
 75
     0
 76
     0
 77
     3
 78
     8
170
     0
171
     2
172
     1
173
     0
174
     0
175
     0
176
   256
177
   256
178
     2
270
     2
271
     3
272
     3
273
     2
274
     2
340
6B
275
     0
280
     0
281
     0
282
     0
283
     0
284
     0
285
     0
286
     0
287
     3
288
     0
  0
ENDTAB
  0
TABLE
  2
BLOCK_RECORD
  5
1
330
0
100
AcDbSymbolTable
 70
     9
  0
BLOCK_RECORD
  5
1F
102
{ACAD_XDICTIONARY
360
74
102
}
330
1
100
AcDbSymbolTableRecord
100
AcDbBlockTableRecord
  2
*MODEL_SPACE
  0
BLOCK_RECORD
  5
101
102
{ACAD_XDICTIONARY
360
C0DA
102
}
330
1
100
AcDbSymbolTableRecord
100
AcDbBlockTableRecord
  2
*PAPER_SPACE
  0
BLOCK_RECORD
  5
59
330
1
100
AcDbSymbolTableRecord
100
AcDbBlockTableRecord
  2
_OPEN30
  0
BLOCK_RECORD
  5
64
330
1
100
AcDbSymbolTableRecord
100
AcDbBlockTableRecord
  2
GENAXEH
  0
BLOCK_RECORD
  5
10F1
330
1
100
AcDbSymbolTableRecord
100
AcDbBlockTableRecord
  2
*D5
  0
BLOCK_RECORD
  5
12D9
330
1
100
AcDbSymbolTableRecord
100
AcDbBlockTableRecord
  2
*D6
  0
BLOCK_RECORD
  5
B474
330
1
100
AcDbSymbolTableRecord
100
AcDbBlockTableRecord
  2
*D7
  0
BLOCK_RECORD
  5
BE90
330
1
100
AcDbSymbolTableRecord
100
AcDbBlockTableRecord
  2
*D8
  0
ENDTAB
  0
ENDSEC
  0
SECTION
  2
BLOCKS
  0
BLOCK
  5
20
330
1F
100
AcDbEntity
  8
0
100
AcDbBlockBegin
  2
*MODEL_SPACE
 70
     0
 10
0.0
 20
0.0
 30
0.0
  3
*MODEL_SPACE
  1

  0
ENDBLK
  5
21
330
1F
100
AcDbEntity
  8
0
100
AcDbBlockEnd
  0
BLOCK
  5
103
330
101
100
AcDbEntity
 67
     1
  8
0
100
AcDbBlockBegin
  2
*PAPER_SPACE
 70
     0
 10
0.0
 20
0.0
 30
0.0
  3
*PAPER_SPACE
  1

  0
ENDBLK
  5
104
330
101
100
AcDbEntity
 67
     1
  8
0
100
AcDbBlockEnd
  0
BLOCK
  5
5D
330
59
100
AcDbEntity
  8
0
100
AcDbBlockBegin
  2
_OPEN30
 70
     0
 10
0.0
 20
0.0
 30
0.0
  3
_OPEN30
  1

  0
LINE
  5
5A
330
59
100
AcDbEntity
  8
0
 62
     0
100
AcDbLine
 10
-1.0
 20
0.26794919
 30
0.0
 11
0.0
 21
0.0
 31
0.0
  0
LINE
  5
5B
330
59
100
AcDbEntity
  8
0
 62
     0
100
AcDbLine
 10
0.0
 20
0.0
 30
0.0
 11
-1.0
 21
-0.26794919
 31
0.0
  0
LINE
  5
5C
330
59
100
AcDbEntity
  8
0
 62
     0
100
AcDbLine
 10
0.0
 20
0.0
 30
0.0
 11
-1.0
 21
0.0
 31
0.0
  0
ENDBLK
  5
5E
330
59
100
AcDbEntity
  8
0
100
AcDbBlockEnd
  0
BLOCK
  5
66
330
64
100
AcDbEntity
  8
0
100
AcDbBlockBegin
  2
GENAXEH
 70
     0
 10
0.0
 20
0.0
 30
0.0
  3
GENAXEH
  1

  0
LINE
  5
65
330
64
100
AcDbEntity
  8
0
100
AcDbLine
 10
-1.0
 20
0.0
 30
0.0
 11
1.0
 21
0.0
 31
0.0
  0
ENDBLK
  5
67
330
64
100
AcDbEntity
  8
0
100
AcDbBlockEnd
  0
BLOCK
  5
10FB
330
10F1
100
AcDbEntity
  8
0
100
AcDbBlockBegin
  2
*D5
 70
     1
 10
0.0
 20
0.0
 30
0.0
  3
*D5
  1

  0
LINE
  5
BEB0
330
10F1
100
AcDbEntity
  8
AM_5
100
AcDbLine
 10
-105.0
 20
-9.750000000000051
 30
0.0
 11
-105.0
 21
-37.00000099999997
 31
0.0
  0
LINE
  5
BEB1
330
10F1
100
AcDbEntity
  8
AM_5
100
AcDbLine
 10
-0.0000000000011945
 20
-10.49999999999915
 30
0.0
 11
-0.0000000000011961
 21
-37.00000099999997
 31
0.0
  0
LINE
  5
BEB2
330
10F1
100
AcDbEntity
  8
AM_5
100
AcDbLine
 10
-102.5
 20
-36.00000099999997
 30
0.0
 11
-2.500000000001195
 21
-36.00000099999997
 31
0.0
  0
INSERT
  5
BEB3
330
10F1
100
AcDbEntity
  8
AM_5
100
AcDbBlockReference
  2
_OPEN30
 10
-105.0
 20
-36.00000099999997
 30
0.0
 41
2.5
 42
2.5
 43
2.5
 50
180.0
  0
INSERT
  5
BEB4
330
10F1
100
AcDbEntity
  8
AM_5
100
AcDbBlockReference
  2
_OPEN30
 10
-0.0000000000011961
 20
-36.00000099999997
 30
0.0
 41
2.5
 42
2.5
 43
2.5
  0
MTEXT
  5
BEB5
330
10F1
100
AcDbEntity
  8
AM_5
 62
     2
100
AcDbMText
 10
-52.5000000000006
 20
-32.90000099999997
 30
0.0
 40
3.2
 41
0.0
 71
     5
 72
     1
  1
105
  7
ASAMI
1001
ACAD
1000
MTEXTBEGIN
1070
    73
1070
     1
1070
    44
1040
1.0
1070
    74
1070
     0
1000
MTEXTEND
  0
POINT
  5
BEB6
330
10F1
100
AcDbEntity
  8
DEFPOINTS
 62
     0
100
AcDbPoint
 10
-105.0
 20
-8.750000000000051
 30
0.0
  0
POINT
  5
BEB7
330
10F1
100
AcDbEntity
  8
DEFPOINTS
 62
     0
100
AcDbPoint
 10
-0.0000000000011944
 20
-9.49999999999915
 30
0.0
  0
POINT
  5
BEB8
330
10F1
100
AcDbEntity
  8
DEFPOINTS
 62
     0
100
AcDbPoint
 10
-0.0000000000011961
 20
-36.00000099999997
 30
0.0
  0
ENDBLK
  5
10FC
330
10F1
100
AcDbEntity
  8
0
100
AcDbBlockEnd
  0
BLOCK
  5
12E5
330
12D9
100
AcDbEntity
  8
0
100
AcDbBlockBegin
  2
*D6
 70
     1
 10
0.0
 20
0.0
 30
0.0
  3
*D6
  1

  0
LINE
  5
BEB9
330
12D9
100
AcDbEntity
  8
AM_5
100
AcDbLine
 10
0.0000000000000141
 20
-10.5
 30
0.0
 11
0.0000000000000133
 21
-25.00000100000005
 31
0.0
  0
LINE
  5
BEBA
330
12D9
100
AcDbEntity
  8
AM_5
100
AcDbLine
 10
-40.00000000000038
 20
-10.49999999999765
 30
0.0
 11
-40.00000000000038
 21
-25.00000100000005
 31
0.0
  0
LINE
  5
BEBB
330
12D9
100
AcDbEntity
  8
AM_5
100
AcDbLine
 10
-2.499999999999986
 20
-24.00000100000005
 30
0.0
 11
-37.50000000000038
 21
-24.00000100000005
 31
0.0
  0
INSERT
  5
BEBC
330
12D9
100
AcDbEntity
  8
AM_5
100
AcDbBlockReference
  2
_OPEN30
 10
0.0000000000000133
 20
-24.00000100000005
 30
0.0
 41
2.5
 42
2.5
 43
2.5
  0
INSERT
  5
BEBD
330
12D9
100
AcDbEntity
  8
AM_5
100
AcDbBlockReference
  2
_OPEN30
 10
-40.00000000000038
 20
-24.00000100000005
 30
0.0
 41
2.5
 42
2.5
 43
2.5
 50
180.0
  0
MTEXT
  5
BEBE
330
12D9
100
AcDbEntity
  8
AM_5
 62
     2
100
AcDbMText
 10
-20.00000000000018
 20
-20.90000100000005
 30
0.0
 40
3.2
 41
0.0
 71
     5
 72
     1
  1
40
  7
ASAMI
1001
ACAD
1000
MTEXTBEGIN
1070
    73
1070
     1
1070
    44
1040
1.0
1070
    74
1070
     0
1000
MTEXTEND
  0
POINT
  5
BEBF
330
12D9
100
AcDbEntity
  8
DEFPOINTS
 62
     0
100
AcDbPoint
 10
0.0000000000000142
 20
-9.5
 30
0.0
  0
POINT
  5
BEC0
330
12D9
100
AcDbEntity
  8
DEFPOINTS
 62
     0
100
AcDbPoint
 10
-40.00000000000038
 20
-9.499999999997653
 30
0.0
  0
POINT
  5
BEC1
330
12D9
100
AcDbEntity
  8
DEFPOINTS
 62
     0
100
AcDbPoint
 10
-40.00000000000038
 20
-24.00000100000005
 30
0.0
  0
ENDBLK
  5
12E6
330
12D9
100
AcDbEntity
  8
0
100
AcDbBlockEnd
  0
BLOCK
  5
B47E
330
B474
100
AcDbEntity
  8
0
100
AcDbBlockBegin
  2
*D7
 70
     1
 10
0.0
 20
0.0
 30
0.0
  3
*D7
  1

  0
LINE
  5
B78A
330
B474
100
AcDbEntity
  8
AM_5
100
AcDbLine
 10
-104.75
 20
9.999999999999955
 30
0.0
 11
-125.6386983892743
 21
9.999999999999962
 31
0.0
  0
LINE
  5
B78B
330
B474
100
AcDbEntity
  8
AM_5
100
AcDbLine
 10
-104.7499999999999
 20
-10.00000000000004
 30
0.0
 11
-125.6386983892743
 21
-10.00000000000004
 31
0.0
  0
LINE
  5
B78C
330
B474
100
AcDbEntity
  8
AM_5
100
AcDbLine
 10
-124.6386983892743
 20
7.499999999999961
 30
0.0
 11
-124.6386983892743
 21
-7.500000000000041
 31
0.0
  0
INSERT
  5
B78D
330
B474
100
AcDbEntity
  8
AM_5
100
AcDbBlockReference
  2
_OPEN30
 10
-124.6386983892743
 20
9.999999999999962
 30
0.0
 41
2.5
 42
2.5
 43
2.5
 50
90.0
  0
INSERT
  5
B78E
330
B474
100
AcDbEntity
  8
AM_5
100
AcDbBlockReference
  2
_OPEN30
 10
-124.6386983892743
 20
-10.00000000000004
 30
0.0
 41
2.5
 42
2.5
 43
2.5
 50
270.0
  0
MTEXT
  5
B78F
330
B474
100
AcDbEntity
  8
AM_5
 62
     2
100
AcDbMText
 10
-127.7386983892743
 20
-0.0000000000000247
 30
0.0
 40
3.2
 41
0.0
 71
     5
 72
     1
  1
%%c20
  7
ASAMI
 11
0.0000000000000001
 21
1.0
 31
0.0
1001
ACAD
1000
MTEXTBEGIN
1070
    73
1070
     1
1070
    44
1040
1.0
1070
    74
1070
     0
1000
MTEXTEND
  0
POINT
  5
B790
330
B474
100
AcDbEntity
  8
DEFPOINTS
 62
     0
100
AcDbPoint
 10
-103.75
 20
9.999999999999955
 30
0.0
  0
POINT
  5
B791
330
B474
100
AcDbEntity
  8
DEFPOINTS
 62
     0
100
AcDbPoint
 10
-103.7499999999999
 20
-10.00000000000004
 30
0.0
  0
POINT
  5
B792
330
B474
100
AcDbEntity
  8
DEFPOINTS
 62
     0
100
AcDbPoint
 10
-124.6386983892743
 20
-10.00000000000004
 30
0.0
  0
ENDBLK
  5
B47F
330
B474
100
AcDbEntity
  8
0
100
AcDbBlockEnd
  0
BLOCK
  5
BE9A
330
BE90
100
AcDbEntity
  8
0
100
AcDbBlockBegin
  2
*D8
 70
     1
 10
0.0
 20
0.0
 30
0.0
  3
*D8
  1

  0
LINE
  5
BE9E
330
BE90
100
AcDbEntity
  8
AM_5
100
AcDbLine
 10
1.0
 20
9.5
 30
0.0
 11
17.05105068025213
 21
9.499999999999994
 31
0.0
  0
LINE
  5
BE9F
330
BE90
100
AcDbEntity
  8
AM_5
100
AcDbLine
 10
0.9999999999995463
 20
-9.499999999998706
 30
0.0
 11
17.05105068025213
 21
-9.499999999998712
 31
0.0
  0
LINE
  5
BEA0
330
BE90
100
AcDbEntity
  8
AM_5
100
AcDbLine
 10
16.05105068025213
 20
6.999999999999994
 30
0.0
 11
16.05105068025213
 21
-6.999999999998712
 31
0.0
  0
INSERT
  5
BEA1
330
BE90
100
AcDbEntity
  8
AM_5
100
AcDbBlockReference
  2
_OPEN30
 10
16.05105068025213
 20
9.499999999999994
 30
0.0
 41
2.5
 42
2.5
 43
2.5
 50
90.0
  0
INSERT
  5
BEA2
330
BE90
100
AcDbEntity
  8
AM_5
100
AcDbBlockReference
  2
_OPEN30
 10
16.05105068025213
 20
-9.499999999998712
 30
0.0
 41
2.5
 42
2.5
 43
2.5
 50
270.0
  0
MTEXT
  5
BEA3
330
BE90
100
AcDbEntity
  8
AM_5
 62
     2
100
AcDbMText
 10
12.95105068025213
 20
0.0000000000006442
 30
0.0
 40
3.2
 41
0.0
 71
     5
 72
     1
  1
%%c19
  7
ASAMI
 11
0.0000000000000001
 21
1.0
 31
0.0
1001
ACAD
1000
MTEXTBEGIN
1070
    73
1070
     1
1070
    44
1040
1.0
1070
    74
1070
     0
1000
MTEXTEND
  0
POINT
  5
BEA4
330
BE90
100
AcDbEntity
  8
DEFPOINTS
 62
     0
100
AcDbPoint
 10
0.0
 20
9.5
 30
0.0
  0
POINT
  5
BEA5
330
BE90
100
AcDbEntity
  8
DEFPOINTS
 62
     0
100
AcDbPoint
 10
-0.0000000000004537
 20
-9.499999999998706
 30
0.0
  0
POINT
  5
BEA6
330
BE90
100
AcDbEntity
  8
DEFPOINTS
 62
     0
100
AcDbPoint
 10
16.05105068025213
 20
-9.499999999998712
 30
0.0
  0
ENDBLK
  5
BE9B
330
BE90
100
AcDbEntity
  8
0
100
AcDbBlockEnd
  0
ENDSEC
  0
SECTION
  2
ENTITIES
  0
LINE
  5
C2E
330
1F
100
AcDbEntity
  8
AM_7
  6
AM_ISO08W050X2
100
AcDbLine
 10
2.051049680252134
 20
0.0
 30
0.0
 11
-106.4999999999999
 21
-0.0000000000000461
 31
0.0
  0
DIMENSION
  5
10F0
330
1F
100
AcDbEntity
  8
AM_5
100
AcDbDimension
  2
*D5
 10
-0.0000000000011961
 20
-36.00000099999997
 30
0.0
 11
-52.5000000000006
 21
-32.90000099999997
 31
0.0
 70
    32
  1
<>
  3
AM_JIS
100
AcDbAlignedDimension
 13
-105.0
 23
-8.750000000000051
 33
0.0
 14
-0.0000000000011944
 24
-9.49999999999915
 34
0.0
 50
0.0000000000001132
100
AcDbRotatedDimension
1001
GENIUS_GENDTOL_13
1000

1000
h7
1000

1040
0.0
  0
DIMENSION
  5
12D8
330
1F
100
AcDbEntity
  8
AM_5
100
AcDbDimension
  2
*D6
 10
-40.00000000000038
 20
-24.00000100000005
 30
0.0
 11
-20.00000000000018
 21
-20.90000100000005
 31
0.0
 70
    32
  1
<>
  3
AM_JIS
100
AcDbAlignedDimension
 13
0.0000000000000142
 23
-9.5
 33
0.0
 14
-40.00000000000038
 24
-9.499999999997653
 34
0.0
 50
0.0000000000001132
100
AcDbRotatedDimension
1001
GENIUS_GENDTOL_13
1000

1000
h7
1000

1040
0.0
  0
LINE
  5
A475
330
1F
100
AcDbEntity
  8
AM_7
  6
AM_ISO08W050X2
100
AcDbLine
 10
-105.0
 20
-0.0000000000000461
 30
0.0
 11
-110.6386973892744
 21
-0.0000000000000461
 31
0.0
1001
GENIUS_GENODEF_13
1002
{
1000
HIER
1070
     0
1002
}
1002
{
1000
MANEDIT
1070
     0
1002
}
1002
{
1000
NOSEL
1070
     0
1002
}
1002
{
1000
BEHIND
1070
     0
1002
}
1002
{
1000
REACTOR
1002
}
1001
GENIUS_GENOBJ-N-CEN_13
1002
{
1000
OWNER
1000
GEN
1002
}
  0
TEXT
  5
B375
330
1F
100
AcDbEntity
  8
AM_6
100
AcDbText
 10
-68.45238095238155
 20
-58.50000099999998
 30
0.0
 40
5.0
  1
SSM2190
 72
     4
 11
-52.5000000000006
 21
-56.00000099999998
 31
0.0
100
AcDbText
  0
LINE
  5
B46D
330
1F
100
AcDbEntity
  8
AM_0
100
AcDbLine
 10
-103.75
 20
-10.00000000000005
 30
0.0
 11
-59.0
 21
-10.0
 31
0.0
  0
LINE
  5
B46E
330
1F
100
AcDbEntity
  8
AM_0
100
AcDbLine
 10
-103.7499999999999
 20
9.999999999999957
 30
0.0
 11
-58.99999999999995
 21
10.0
 31
0.0
  0
LINE
  5
B471
330
1F
100
AcDbEntity
  8
AM_0
100
AcDbLine
 10
-105.0
 20
-8.750000000000051
 30
0.0
 11
-104.9999999999999
 21
8.749999999999955
 31
0.0
  0
LINE
  5
B472
330
1F
100
AcDbEntity
  8
AM_0
100
AcDbLine
 10
-103.75
 20
9.999999999999955
 30
0.0
 11
-103.7499999999999
 21
-10.00000000000008
 31
0.0
  0
DIMENSION
  5
B473
330
1F
100
AcDbEntity
  8
AM_5
100
AcDbDimension
  2
*D7
 10
-124.6386983892743
 20
-10.00000000000004
 30
0.0
 11
-124.6386983892743
 21
-0.000000000000025
 31
0.0
 70
   160
  1
%%c<>
  3
AM_JIS
100
AcDbAlignedDimension
 13
-103.75
 23
9.999999999999955
 33
0.0
 14
-103.7499999999999
 24
-10.00000000000004
 34
0.0
 50
270.0
100
AcDbRotatedDimension
1001
GENIUS_GENDTOL_13
1000

1000
h7
1000

1040
0.0
  0
LINE
  5
B495
330
1F
100
AcDbEntity
  8
AM_0
100
AcDbLine
 10
-103.7499999999999
 20
9.999999999999957
 30
0.0
 11
-104.9999999999999
 21
8.749999999999955
 31
0.0
1001
GENIUS_GENFIL_13
1070
     0
1040
1.25
1040
1.25
1040
20.0
1040
0.0
1002
{
1002
}
1001
GENIUS_GENODEF_13
1002
{
1000
HIER
1070
     0
1002
}
1002
{
1000
MANEDIT
1070
     0
1002
}
1002
{
1000
NOSEL
1070
     0
1002
}
1002
{
1000
BEHIND
1070
     0
1002
}
1002
{
1000
REACTOR
1002
}
1001
GENIUS_GENOBJ-N-CHA_13
1002
{
1000
OWNER
1000
GEN
1002
}
  0
LINE
  5
B497
330
1F
100
AcDbEntity
  8
AM_0
100
AcDbLine
 10
-105.0
 20
-8.750000000000051
 30
0.0
 11
-103.75
 21
-10.00000000000005
 31
0.0
1001
GENIUS_GENFIL_13
1070
     0
1040
1.25
1040
1.25
1040
20.0
1040
0.0
1002
{
1002
}
1001
GENIUS_GENODEF_13
1002
{
1000
HIER
1070
     0
1002
}
1002
{
1000
MANEDIT
1070
     0
1002
}
1002
{
1000
NOSEL
1070
     0
1002
}
1002
{
1000
BEHIND
1070
     0
1002
}
1002
{
1000
REACTOR
1002
}
1001
GENIUS_GENOBJ-N-CHA_13
1002
{
1000
OWNER
1000
GEN
1002
}
  0
LINE
  5
B4B2
330
1F
100
AcDbEntity
  8
AM_0
100
AcDbLine
 10
-59.00000000000001
 20
-10.00000000000001
 30
0.0
 11
-58.99999999999996
 21
9.999999999999992
 31
0.0
  0
LINE
  5
B53C
330
1F
100
AcDbEntity
  8
AM_0
100
AcDbLine
 10
-58.99999999999996
 20
9.999999999999996
 30
0.0
 11
-57.62626129027229
 21
9.499999999999863
 31
0.0
  0
LINE
  5
B53E
330
1F
100
AcDbEntity
  8
AM_0
100
AcDbLine
 10
-57.62626129026628
 20
-9.499999999997669
 30
0.0
 11
-59.00000000000001
 21
-10.00000000000001
 31
0.0
  0
LINE
  5
B68B
330
1F
100
AcDbEntity
  8
AM_0
100
AcDbLine
 10
-57.62626129027229
 20
9.499999999999861
 30
0.0
 11
-57.62626129027229
 21
7.932850295647269
 31
0.0
  0
LINE
  5
B82A
330
1F
100
AcDbEntity
  8
AM_0
100
AcDbLine
 10
-40.00000000000038
 20
-9.499999999999923
 30
0.0
 11
-57.62626129026629
 21
-9.499999999997669
 31
0.0
  0
LINE
  5
B833
330
1F
100
AcDbEntity
  8
AM_0
100
AcDbLine
 10
-49.10000000000056
 20
9.499999999999912
 30
0.0
 11
-57.62626129027229
 21
9.499999999999861
 31
0.0
  0
LINE
  5
BB16
330
1F
100
AcDbEntity
  8
AM_0
100
AcDbLine
 10
-57.62626129027228
 20
7.385506268595873
 30
0.0
 11
-57.62626129027226
 21
-9.499999999999843
 31
0.0
  0
LINE
  5
BE72
330
1F
100
AcDbEntity
  8
AM_0
100
AcDbLine
 10
-0.5873697418241335
 20
1.139999999999935
 30
0.0
 11
0.0
 21
1.899999999999999
 31
0.0
  0
LINE
  5
BE73
330
1F
100
AcDbEntity
  8
AM_0
100
AcDbLine
 10
0.0
 20
0.3799999999999783
 30
0.0
 11
-4.12400140428835
 21
5.716061502803345
 31
0.0
  0
LINE
  5
BE74
330
1F
100
AcDbEntity
  8
AM_0
100
AcDbLine
 10
0.0
 20
1.899999999999999
 30
0.0
 11
0.0
 21
9.5
 31
0.0
  0
LINE
  5
BE75
330
1F
100
AcDbEntity
  8
AM_0
100
AcDbLine
 10
-0.6562499999999858
 20
-7.748618350575211
 30
0.0
 11
-0.6562499999999858
 21
-7.646275319151974
 31
0.0
  0
LINE
  5
BE76
330
1F
100
AcDbEntity
  8
AM_0
100
AcDbLine
 10
0.0000000000000142
 20
-9.5
 30
0.0
 11
-0.1837500000000176
 21
-8.993538199481466
 31
0.0
  0
LINE
  5
BE77
330
1F
100
AcDbEntity
  8
AM_0
100
AcDbLine
 10
-0.1837500000000176
 20
-8.993538199481466
 30
0.0
 11
-0.6562499999999858
 21
-7.748618350575211
 31
0.0
  0
LINE
  5
BE78
330
1F
100
AcDbEntity
  8
AM_0
100
AcDbLine
 10
0.0000000000000142
 20
-9.5
 30
0.0
 11
0.0
 21
0.3799999999999783
 31
0.0
  0
LINE
  5
BE79
330
1F
100
AcDbEntity
  8
AM_0
100
AcDbLine
 10
-0.1837500000000176
 20
-8.993538199481466
 30
0.0
 11
-0.1837500000000318
 21
0.6177548417225295
 31
0.0
  0
LINE
  5
BE7B
330
1F
100
AcDbEntity
  8
AM_11
100
AcDbLine
 10
-40.00000000000038
 20
-9.499999999997653
 30
0.0
 11
-40.00000000000039
 21
9.499999999999966
 31
0.0
  0
LINE
  5
BE7C
330
1F
100
AcDbEntity
  8
AM_0
100
AcDbLine
 10
-33.61374376440173
 20
7.639619842954779
 30
0.0
 11
-4.12400140428835
 21
5.716061502803345
 31
0.0
  0
LINE
  5
BE7D
330
1F
100
AcDbEntity
  8
AM_0
100
AcDbLine
 10
-20.17668362952373
 20
-7.289721371586905
 30
0.0
 11
-41.29999999999705
 21
-8.474544811516494
 31
0.0
  0
LINE
  5
BE7E
330
1F
100
AcDbEntity
  8
AM_11
100
AcDbLine
 10
-40.00000000000038
 20
-9.499999999999923
 30
0.0
 11
0.0000000000000142
 21
-9.5
 31
0.0
  0
LINE
  5
BE7F
330
1F
100
AcDbEntity
  8
AM_11
100
AcDbLine
 10
-0.0000000000013429
 20
9.5
 30
0.0
 11
-40.00000000000039
 21
9.499999999999966
 31
0.0
  0
SPLINE
  5
BE80
330
1F
100
AcDbEntity
  8
AM_0
100
AcDbSpline
210
0.0
220
0.0
230
1.0
 70
     8
 71
     3
 72
     8
 73
     4
 74
     0
 42
0.0000000001
 43
0.0000000001
 40
0.0
 40
0.0
 40
0.0
 40
0.0
 40
13.97258598406841
 40
13.97258598406841
 40
13.97258598406841
 40
13.97258598406841
 10
-20.17668362952373
 20
-7.289721371586905
 30
0.0
 10
-28.32735878689701
 20
-7.289721371586905
 30
0.0
 10
-37.71669715333457
 20
-3.668182209186654
 30
0.0
 10
-45.18240602510509
 20
-0.0000000000000926
 30
0.0
  0
SPLINE
  5
BE81
330
1F
100
AcDbEntity
  8
AM_0
100
AcDbSpline
210
0.0
220
0.0
230
1.0
 70
     8
 71
     3
 72
     8
 73
     4
 74
     0
 42
0.0000000001
 43
0.0000000001
 40
0.0
 40
0.0
 40
0.0
 40
0.0
 40
25.35749396135195
 40
25.35749396135195
 40
25.35749396135195
 40
25.35749396135195
 10
-49.10000000000001
 20
9.499999999999952
 30
0.0
 10
-39.14750201288269
 20
9.500000000000172
 30
0.0
 10
-31.47375100644133
 20
4.750000000000179
 30
0.0
 10
-23.79999999999998
 20
0.0000000000001851
 30
0.0
  0
SPLINE
  5
BE82
330
1F
100
AcDbEntity
  8
AM_0
100
AcDbSpline
210
0.0
220
0.0
230
1.0
 70
     8
 71
     3
 72
     8
 73
     4
 74
     0
 42
0.0000000001
 43
0.0000000001
 40
0.3581103616548037
 40
0.3581103616548037
 40
0.3581103616548037
 40
0.3581103616548037
 40
14.43901837670146
 40
14.43901837670146
 40
14.43901837670146
 40
14.43901837670146
 10
-44.85104527450785
 20
9.207106303420035
 30
0.0
 10
-35.7413241963154
 20
8.986979115301091
 30
0.0
 10
-28.24339441391242
 20
4.493489557650583
 30
0.0
 10
-20.7454646315094
 20
0.0000000000000771
 30
0.0
  0
SPLINE
  5
BE83
330
1F
100
AcDbEntity
  8
AM_0
100
AcDbSpline
210
0.0
220
0.0
230
1.0
 70
     8
 71
     3
 72
     8
 73
     4
 74
     0
 42
0.0000000001
 43
0.0000000001
 40
0.0
 40
0.0
 40
0.0
 40
0.0
 40
4.526489316329294
 40
4.526489316329294
 40
4.526489316329294
 40
4.526489316329294
 10
0.0
 20
7.741935104699527
 30
0.0
 10
-0.968217915880162
 20
6.4855420726869
 30
0.0
 10
-2.630109133253027
 20
5.946000214156269
 30
0.0
 10
-4.12400140428835
 20
5.716061502803345
 30
0.0
  0
SPLINE
  5
BE84
330
1F
100
AcDbEntity
  8
AM_0
100
AcDbSpline
210
0.0
220
0.0
230
1.0
 70
     8
 71
     3
 72
     8
 73
     4
 74
     0
 42
0.0000000001
 43
0.0000000001
 40
0.0
 40
0.0
 40
0.0
 40
0.0
 40
7.57842115059705
 40
7.57842115059705
 40
7.57842115059705
 40
7.57842115059705
 10
0.0
 20
9.5
 30
0.0
 10
-4.42074567118162
 20
9.5
 30
0.0
 10
-8.628472860867759
 20
8.200684802366541
 30
0.0
 10
-12.73459248348726
 20
6.281609970933204
 30
0.0
  0
SPLINE
  5
BE85
330
1F
100
AcDbEntity
  8
AM_0
100
AcDbSpline
210
0.0
220
0.0
230
1.0
 70
     8
 71
     3
 72
     8
 73
     4
 74
     0
 42
0.0000000001
 43
0.0000000001
 40
0.7142832446738512
 40
0.7142832446738512
 40
0.7142832446738512
 40
0.7142832446738512
 40
14.36247867694493
 40
14.36247867694493
 40
14.36247867694493
 40
14.36247867694493
 10
-40.3136294074985
 20
8.741135800666121
 30
0.0
 10
-31.883112861873
 20
8.336833367403478
 30
0.0
 10
-24.5556543350831
 20
4.168416683701777
 30
0.0
 10
-17.22819580829323
 20
0.0000000000000771
 30
0.0
  0
SPLINE
  5
BE86
330
1F
100
AcDbEntity
  8
AM_0
100
AcDbSpline
210
0.0
220
0.0
230
1.0
 70
     8
 71
     3
 72
     8
 73
     4
 74
     0
 42
0.0000000001
 43
0.0000000001
 40
0.0
 40
0.0
 40
0.0
 40
0.0
 40
25.35749396135192
 40
25.35749396135192
 40
25.35749396135192
 40
25.35749396135192
 10
0.0000000000000142
 20
-9.5
 30
0.0
 10
-8.452497987117293
 20
-9.500000000000007
 30
0.0
 10
-16.12624899355863
 20
-4.750000000000017
 30
0.0
 10
-23.79999999999998
 20
-0.0000000000000309
 30
0.0
  0
SPLINE
  5
BE87
330
1F
100
AcDbEntity
  8
AM_0
100
AcDbSpline
210
0.0
220
0.0
230
1.0
 70
     8
 71
     3
 72
     8
 73
     4
 74
     0
 42
0.0000000001
 43
0.0000000001
 40
1.870660592686466
 40
1.870660592686466
 40
1.870660592686466
 40
1.870660592686466
 40
14.43901837670146
 40
14.43901837670146
 40
14.43901837670146
 40
14.43901837670146
 10
-0.183749999999975
 20
-8.993538199481356
 30
0.0
 10
-7.360438034650428
 20
-8.021611162992808
 30
0.0
 10
-14.05295133307994
 20
-4.01080558149638
 30
0.0
 10
-20.7454646315094
 20
0.0000000000000771
 30
0.0
  0
SPLINE
  5
BE88
330
1F
100
AcDbEntity
  8
AM_0
100
AcDbSpline
210
0.0
220
0.0
230
1.0
 70
     8
 71
     3
 72
     8
 73
     4
 74
     0
 42
0.0000000001
 43
0.0000000001
 40
4.219358800530717
 40
4.219358800530717
 40
4.219358800530717
 40
4.219358800530717
 40
14.36247867694493
 40
14.36247867694493
 40
14.36247867694493
 40
14.36247867694493
 10
-0.6562499999998864
 20
-7.748618350574779
 30
0.0
 10
-6.336896574557769
 20
-6.195800804208731
 30
0.0
 10
-11.78254619142549
 20
-3.097900402104342
 30
0.0
 10
-17.22819580829323
 20
0.0000000000000771
 30
0.0
  0
SPLINE
  5
BE89
330
1F
100
AcDbEntity
  8
AM_0
100
AcDbSpline
210
0.0
220
0.0
230
1.0
 70
     8
 71
     3
 72
     8
 73
     4
 74
     0
 42
0.0000000001
 43
0.0000000001
 40
0.0
 40
0.0
 40
0.0
 40
0.0
 40
2.238610194515266
 40
2.238610194515266
 40
2.238610194515266
 40
2.238610194515266
 10
-20.17668362952373
 20
-7.289721371586905
 30
0.0
 10
-17.61618177269385
 20
-7.289721371586905
 30
0.0
 10
-15.10207538062333
 20
-6.932320006857811
 30
0.0
 10
-12.61997722021534
 20
-6.328347436552247
 30
0.0
  0
ELLIPSE
  5
BE8A
330
1F
100
AcDbEntity
  8
AM_0
100
AcDbEllipse
 10
24.86184477416968
 20
0.0399708922459321
 30
0.0
 11
0.0000000000001062
 21
28.75178874083267
 31
0.0
210
0.0
220
0.0
230
1.0
 40
0.9210526315789415
 41
1.489874453283517
 42
1.841418545974796
  0
ELLIPSE
  5
BE8B
330
1F
100
AcDbEntity
  8
AM_0
100
AcDbEllipse
 10
-39.7758394408251
 20
0.4316770133605899
 30
0.0
 11
-0.0000000000000689
 21
9.934658492269663
 31
0.0
210
0.0
220
0.0
230
1.0
 40
0.9210526315789469
 41
3.117092700142874
 42
3.685400352353848
  0
ELLIPSE
  5
BE8C
330
1F
100
AcDbEntity
  8
AM_0
100
AcDbEllipse
 10
-40.73925672245809
 20
-6.268032980040185
 30
0.0
 11
6.715774013389962
 21
13.15039663392523
 31
0.0
210
0.0
220
0.0
230
1.0
 40
0.7094413957059416
 41
1.320869011719048
 42
1.806600067762439
  0
ELLIPSE
  5
BE8D
330
1F
100
AcDbEntity
  8
AM_0
100
AcDbEllipse
 10
-39.48683160275628
 20
15.02439828034048
 30
0.0
 11
0.0000000000003411
 21
23.58125621755511
 31
0.0
210
0.0
220
0.0
230
1.0
 40
0.9210526315789433
 41
2.562153585180871
 42
3.058014555005654
  0
ELLIPSE
  5
BE8E
330
1F
100
AcDbEntity
  8
AM_0
100
AcDbEllipse
 10
-38.39281320845174
 20
13.32053761744051
 30
0.0
 11
-0.0000000000000239
 21
22.88715300126358
 31
0.0
210
0.0
220
0.0
230
1.0
 40
0.921052631578949
 41
2.477864006398929
 42
3.065277325949161
  0
DIMENSION
  5
BE8F
330
1F
100
AcDbEntity
  8
AM_5
100
AcDbDimension
  2
*D8
 10
16.05105068025213
 20
-9.499999999998712
 30
0.0
 11
12.95105068025213
 21
0.0000000000006442
 31
0.0
 70
    32
  1
%%c<>
  3
AM_JIS
100
AcDbAlignedDimension
 13
0.0
 23
9.5
 33
0.0
 14
-0.0000000000004537
 24
-9.499999999998706
 34
0.0
 50
90.00000000000005
100
AcDbRotatedDimension
1001
GENIUS_GENDTOL_13
1000

1000
h7
1000

1040
0.0
  0
ELLIPSE
  5
BE9C
330
1F
100
AcDbEntity
  8
AM_0
100
AcDbEllipse
 10
23.73828516906749
 20
152.935114293519
 30
0.0
 11
-0.000000000032327
 21
170.2598178022252
 31
0.0
210
0.0
220
0.0
230
1.0
 40
0.9210526315789682
 41
2.592099274283013
 42
2.686557308635804
  0
SPLINE
  5
BE9D
330
1F
100
AcDbEntity
  8
AM_0
100
AcDbSpline
210
0.0
220
0.0
230
1.0
 70
     8
 71
     3
 72
     8
 73
     4
 74
     0
 42
0.0000000001
 43
0.0000000001
 40
0.0
 40
0.0
 40
0.0
 40
0.0
 40
5.192508374738713
 40
5.192508374738713
 40
5.192508374738713
 40
5.192508374738713
 10
-49.10000000000001
 20
9.499999999999952
 30
0.0
 10
-52.12896321859751
 20
9.499999999999952
 30
0.0
 10
-55.05792316215951
 20
8.89002581299661
 30
0.0
 10
-58.16087171300448
 20
7.739377616064403
 30
0.0
  0
VIEWPORT
  5
110
330
101
100
AcDbEntity
 67
     1
  8
0
100
AcDbViewport
 10
420.5
 20
297.0
 30
0.0
 40
948.9782706766916
 41
628.452
 68
     1
 69
     1
1001
ACAD
1000
MVIEW
1002
{
1070
    16
1010
0.0
1020
0.0
1030
0.0
1010
0.0
1020
0.0
1030
1.0
1040
0.0
1040
628.452
1040
420.5
1040
297.0
1040
50.0
1040
0.0
1040
0.0
1070
     0
1070
   100
1070
     1
1070
     1
1070
     0
1070
     0
1070
     0
1070
     0
1040
0.0
1040
0.0
1040
0.0
1040
10.0
1040
10.0
1040
10.0
1040
10.0
1070
     0
1002
{
1002
}
1002
}
  0
ENDSEC
  0
SECTION
  2
OBJECTS
  0
DICTIONARY
  5
C
330
0
100
AcDbDictionary
  3
ACAD_GROUP
350
D
  3
ACAD_LAYOUT
350
1A
  3
ACAD_MLINESTYLE
350
17
  3
ACAD_PLOTSETTINGS
350
19
  3
ACAD_PLOTSTYLENAME
350
E
  3
ACDBVARIABLEDICTIONARY
350
34
  3
ACMDICTIONARY
350
43
  3
AMG
350
2B
  3
AMGSNAPSETTINGS
350
6E
  3
ASE_INDEX_DICTIONARY
350
151A
  3
DWGPROPS
350
C0A6
  3
ACDBHEADERROUNDTRIPXREC
350
C0B2
  0
DICTIONARY
  5
74
330
1F
100
AcDbDictionary
280
     1
  3
ACAD_INDEX
360
C0A8
  3
ACAD_LAYOUTSELFREF
360
C0D5
  0
DICTIONARY
  5
C0DA
330
101
100
AcDbDictionary
280
     1
  3
ACAD_LAYOUTSELFREF
360
C0DB
  0
DICTIONARY
  5
D
102
{ACAD_REACTORS
330
C
102
}
330
C
100
AcDbDictionary
  0
DICTIONARY
  5
1A
102
{ACAD_REACTORS
330
C
102
}
330
C
100
AcDbDictionary
  0
DICTIONARY
  5
17
102
{ACAD_REACTORS
330
C
102
}
330
C
100
AcDbDictionary
  3
STANDARD
350
18
  0
DICTIONARY
  5
19
102
{ACAD_REACTORS
330
C
102
}
330
C
100
AcDbDictionary
  0
ACDBDICTIONARYWDFLT
  5
E
102
{ACAD_REACTORS
330
C
102
}
330
C
100
AcDbDictionary
281
     1
  3
Normal
350
F
100
AcDbDictionaryWithDefault
340
F
  0
DICTIONARY
  5
34
102
{ACAD_REACTORS
330
C
102
}
330
C
100
AcDbDictionary
  3
INDEXCTL
350
35
  3
SORTENTS
350
B5E
  0
DICTIONARY
  5
43
102
{ACAD_REACTORS
330
C
102
}
330
C
100
AcDbDictionary
  3
ACMSTDDICTIONARY
350
260
  0
DICTIONARY
  5
2B
102
{ACAD_REACTORS
330
C
102
}
330
C
100
AcDbDictionary
  3
ACMGSETTINGS
350
2C
  0
DICTIONARY
  5
6E
102
{ACAD_REACTORS
330
C
102
}
330
C
100
AcDbDictionary
  0
DICTIONARY
  5
151A
102
{ACAD_REACTORS
330
C
102
}
330
C
100
AcDbDictionary
  3
ASEBLOCKHIERARCHYINDEXRECORD
350
151C
1001
DCO15
1040
1471862535.906
  0
XRECORD
  5
C0A6
102
{ACAD_REACTORS
330
C
102
}
330
C
100
AcDbXrecord
  1
DWGPROPS COOKIE
  2

  3

  4

  6

  7

  8

  9

300
AmdtFileType=82
301
=
302
=
303
=
304
=
305
=
306
=
307
=
308
=
309
=
 40
0.4824801041666667
 41
2452838.430434386
 42
2453045.60447919
  1

 90
        1
  0
DICTIONARY
  5
C0B2
102
{ACAD_REACTORS
330
C
102
}
330
C
100
AcDbDictionary
  3
TSTACKALIGN
350
C0B3
  3
TSTACKSIZE
350
C0B4
  3
HYPERLINKBASE
350
C0B5
  3
STYLESHEET
350
C0B6
  3
LAYOUTDICT
350
C0B7
  3
PLOTSETDICT
350
C0B8
  3
PLOTSTYLNAMDICT
350
C0B9
  3
LWETCUNION
350
C0BA
  3
INSUNITS
350
C0BB
  3
CEPSNTYPE
350
C0BC
  3
FINGERPRINTGUID
350
C0BD
  3
VERSIONGUID
350
C0BE
  3
PSVPSCALE
350
C0BF
  3
DIMSTYLEDATA
350
C0C0
  3
PUCSORTHOREF
350
C0C1
  3
PUCSORTHOVIEW
350
C0C2
  3
PUCSBASE
350
C0C3
  3
PUCSORGTOP
350
C0C4
  3
PUCSORGBOTTOM
350
C0C5
  3
PUCSORGLEFT
350
C0C6
  3
PUCSORGRIGHT
350
C0C7
  3
PUCSORGFRONT
350
C0C8
  3
PUCSORGBACK
350
C0C9
  3
UCSORTHOREF
350
C0CA
  3
UCSORTHOVIEW
350
C0CB
  3
UCSBASE
350
C0CC
  3
UCSORGTOP
350
C0CD
  3
UCSORGBOTTOM
350
C0CE
  3
UCSORGLEFT
350
C0CF
  3
UCSORGRIGHT
350
C0D0
  3
UCSORGFRONT
350
C0D1
  3
UCSORGBACK
350
C0D2
  0
DICTIONARY
  5
C0A8
102
{ACAD_REACTORS
330
74
102
}
330
74
100
AcDbDictionary
  3
*A1
350
C0A9
  0
XRECORD
  5
C0D5
102
{ACAD_REACTORS
330
74
102
}
330
74
100
AcDbXrecord
340
1F
  0
XRECORD
  5
C0DB
102
{ACAD_REACTORS
330
C0DA
102
}
330
C0DA
100
AcDbXrecord
340
101
  0
MLINESTYLE
  5
18
102
{ACAD_REACTORS
330
17
102
}
330
17
100
AcDbMlineStyle
  2
STANDARD
 70
     0
  3

 62
   256
 51
90.0
 52
90.0
 71
     2
 49
0.5
 62
   256
  6
BYLAYER
 49
-0.5
 62
   256
  6
BYLAYER
  0
ACDBPLACEHOLDER
  5
F
102
{ACAD_REACTORS
330
E
102
}
330
E
100
AcDbPlaceHolder
280
     0
  0
DICTIONARYVAR
  5
35
102
{ACAD_REACTORS
330
34
102
}
330
34
100
DictionaryVariables
280
     0
  1
1
  0
DICTIONARYVAR
  5
B5E
102
{ACAD_REACTORS
330
34
102
}
330
34
100
DictionaryVariables
280
     0
  1
96
  0
DICTIONARY
  5
260
102
{ACAD_REACTORS
330
43
102
}
330
43
100
AcDbDictionary
  0
DICTIONARY
  5
2C
102
{ACAD_REACTORS
330
2B
102
}
330
2B
100
AcDbDictionary
  3
DWGSETTINGS
350
2D
  0
XRECORD
  5
151C
102
{ACAD_REACTORS
330
151A
102
}
330
151A
100
AcDbXrecord
330
0
330
0
330
0
330
0
330
0
330
0
330
0
330
0
  0
XRECORD
  5
C0B3
102
{ACAD_REACTORS
330
C0B2
102
}
330
C0B2
100
AcDbXrecord
 90
        1
  0
XRECORD
  5
C0B4
102
{ACAD_REACTORS
330
C0B2
102
}
330
C0B2
100
AcDbXrecord
 90
       70
  0
XRECORD
  5
C0B5
102
{ACAD_REACTORS
330
C0B2
102
}
330
C0B2
100
AcDbXrecord
  1

  0
XRECORD
  5
C0B6
102
{ACAD_REACTORS
330
C0B2
102
}
330
C0B2
100
AcDbXrecord
  1
ASAMI.ctb
  0
XRECORD
  5
C0B7
102
{ACAD_REACTORS
330
C0B2
102
}
330
C0B2
100
AcDbXrecord
340
1A
  0
XRECORD
  5
C0B8
102
{ACAD_REACTORS
330
C0B2
102
}
330
C0B2
100
AcDbXrecord
340
19
  0
XRECORD
  5
C0B9
102
{ACAD_REACTORS
330
C0B2
102
}
330
C0B2
100
AcDbXrecord
340
E
  0
XRECORD
  5
C0BA
102
{ACAD_REACTORS
330
C0B2
102
}
330
C0B2
100
AcDbXrecord
 90
    10781
  0
XRECORD
  5
C0BB
102
{ACAD_REACTORS
330
C0B2
102
}
330
C0B2
100
AcDbXrecord
 90
        4
  0
XRECORD
  5
C0BC
102
{ACAD_REACTORS
330
C0B2
102
}
330
C0B2
100
AcDbXrecord
 90
        0
  0
XRECORD
  5
C0BD
102
{ACAD_REACTORS
330
C0B2
102
}
330
C0B2
100
AcDbXrecord
  1
{AFB28963-8C59-40AE-9337-C84526B81ACE}
  0
XRECORD
  5
C0BE
102
{ACAD_REACTORS
330
C0B2
102
}
330
C0B2
100
AcDbXrecord
  1
{E43D4C33-AF3C-4548-97DF-1BF65EED78A9}
  0
XRECORD
  5
C0BF
102
{ACAD_REACTORS
330
C0B2
102
}
330
C0B2
100
AcDbXrecord
 40
0.0
  0
XRECORD
  5
C0C0
102
{ACAD_REACTORS
330
C0B2
102
}
330
C0B2
100
AcDbXrecord
1000
DSTYLE
1002
{
1070
    79
 70
     2
1070
   341
340
59
1070
   342
340
59
1070
   371
 70
    -1
1070
   372
 70
    -1
1002
}
  0
XRECORD
  5
C0C1
102
{ACAD_REACTORS
330
C0B2
102
}
330
C0B2
100
AcDbXrecord
340
0
  0
XRECORD
  5
C0C2
102
{ACAD_REACTORS
330
C0B2
102
}
330
C0B2
100
AcDbXrecord
 70
     0
  0
XRECORD
  5
C0C3
102
{ACAD_REACTORS
330
C0B2
102
}
330
C0B2
100
AcDbXrecord
340
0
  0
XRECORD
  5
C0C4
102
{ACAD_REACTORS
330
C0B2
102
}
330
C0B2
100
AcDbXrecord
 10
0.0
 20
0.0
 30
0.0
  0
XRECORD
  5
C0C5
102
{ACAD_REACTORS
330
C0B2
102
}
330
C0B2
100
AcDbXrecord
 10
0.0
 20
0.0
 30
0.0
  0
XRECORD
  5
C0C6
102
{ACAD_REACTORS
330
C0B2
102
}
330
C0B2
100
AcDbXrecord
 10
0.0
 20
0.0
 30
0.0
  0
XRECORD
  5
C0C7
102
{ACAD_REACTORS
330
C0B2
102
}
330
C0B2
100
AcDbXrecord
 10
0.0
 20
0.0
 30
0.0
  0
XRECORD
  5
C0C8
102
{ACAD_REACTORS
330
C0B2
102
}
330
C0B2
100
AcDbXrecord
 10
0.0
 20
0.0
 30
0.0
  0
XRECORD
  5
C0C9
102
{ACAD_REACTORS
330
C0B2
102
}
330
C0B2
100
AcDbXrecord
 10
0.0
 20
0.0
 30
0.0
  0
XRECORD
  5
C0CA
102
{ACAD_REACTORS
330
C0B2
102
}
330
C0B2
100
AcDbXrecord
340
0
  0
XRECORD
  5
C0CB
102
{ACAD_REACTORS
330
C0B2
102
}
330
C0B2
100
AcDbXrecord
 70
     0
  0
XRECORD
  5
C0CC
102
{ACAD_REACTORS
330
C0B2
102
}
330
C0B2
100
AcDbXrecord
340
0
  0
XRECORD
  5
C0CD
102
{ACAD_REACTORS
330
C0B2
102
}
330
C0B2
100
AcDbXrecord
 10
0.0
 20
0.0
 30
0.0
  0
XRECORD
  5
C0CE
102
{ACAD_REACTORS
330
C0B2
102
}
330
C0B2
100
AcDbXrecord
 10
0.0
 20
0.0
 30
0.0
  0
XRECORD
  5
C0CF
102
{ACAD_REACTORS
330
C0B2
102
}
330
C0B2
100
AcDbXrecord
 10
0.0
 20
0.0
 30
0.0
  0
XRECORD
  5
C0D0
102
{ACAD_REACTORS
330
C0B2
102
}
330
C0B2
100
AcDbXrecord
 10
0.0
 20
0.0
 30
0.0
  0
XRECORD
  5
C0D1
102
{ACAD_REACTORS
330
C0B2
102
}
330
C0B2
100
AcDbXrecord
 10
0.0
 20
0.0
 30
0.0
  0
XRECORD
  5
C0D2
102
{ACAD_REACTORS
330
C0B2
102
}
330
C0B2
100
AcDbXrecord
 10
0.0
 20
0.0
 30
0.0
  0
LAYER_INDEX
  5
C0A9
102
{ACAD_REACTORS
330
C0A8
102
}
330
C0A8
100
AcDbIndex
 40
2453151.843908807
100
AcDbLayerIndex
  8
0
360
C0AA
 90
        0
  8
AM_0
360
C0AB
 90
       40
  8
AM_11
360
C0AC
 90
        3
  8
AM_7
360
C0AD
 90
        2
  8
AM_5
360
C0AE
 90
        4
  8
Defpoints
360
C0AF
 90
        0
  8
AM_6
360
C0B0
 90
        1
  0
XRECORD
  5
2D
102
{ACAD_REACTORS
330
2C
102
}
330
2C
100
AcDbXrecord
  1
VERSION
140
15.0
  1
PRODUCT
  2
AutoCAD Mechanical 2000
  0
IDBUFFER
  5
C0AA
330
0
100
AcDbIdBuffer
  0
IDBUFFER
  5
C0AB
330
0
100
AcDbIdBuffer
330
BE75
330
BE76
330
BE77
330
BE78
330
BE79
330
BE7C
330
BE7D
330
BE80
330
BE81
330
BE82
330
BE83
330
BE84
330
BE85
330
BE86
330
BE87
330
BE88
330
BE89
330
BE8A
330
BE8B
330
BE8C
330
BE8D
330
BE8E
330
BE9C
330
BE9D
330
B46D
330
B46E
330
B471
330
B472
330
B495
330
B497
330
B4B2
330
B53C
330
B53E
330
B68B
330
B82A
330
B833
330
BB16
330
BE72
330
BE73
330
BE74
  0
IDBUFFER
  5
C0AC
330
0
100
AcDbIdBuffer
330
BE7B
330
BE7E
330
BE7F
  0
IDBUFFER
  5
C0AD
330
0
100
AcDbIdBuffer
330
C2E
330
A475
  0
IDBUFFER
  5
C0AE
330
0
100
AcDbIdBuffer
330
10F0
330
12D8
330
B473
330
BE8F
  0
IDBUFFER
  5
C0AF
330
0
100
AcDbIdBuffer
  0
IDBUFFER
  5
C0B0
330
0
100
AcDbIdBuffer
330
B375
  0
ENDSEC
  0
EOF
