  0
SECTION
  2
HEADER
  9
$ACADVER
  1
AC1014
  9
$ACADMAINTVER
 70
     9
  9
$DWGCODEPAGE
  3
ANSI_932
  9
$INSBASE
 10
0.0
 20
0.0
 30
0.0
  9
$EXTMIN
 10
-154.3386983892743
 20
-64.50000099999991
 30
-0.00000001
  9
$EXTMAX
 10
17.0510506802521
 20
16.2435958446452
 30
0.00000001
  9
$LIMMIN
 10
-164.2266027250298
 20
-84.71276883833786
  9
$LIMMAX
 10
34.60488242061524
 20
45.48063328160014
  9
$ORTHOMODE
 70
     0
  9
$REGENMODE
 70
     1
  9
$FILLMODE
 70
     1
  9
$QTEXTMODE
 70
     0
  9
$MIRRTEXT
 70
     0
  9
$DRAGMODE
 70
     2
  9
$LTSCALE
 40
1.0
  9
$OSMODE
 70
    55
  9
$ATTMODE
 70
     1
  9
$TEXTSIZE
 40
5.0
  9
$TRACEWID
 40
1.0
  9
$TEXTSTYLE
  7
STANDARD
  9
$CLAYER
  8
AM_0
  9
$CELTYPE
  6
BYLAYER
  9
$CECOLOR
 62
   256
  9
$CELTSCALE
 40
1.0
  9
$DELOBJ
 70
     1
  9
$DISPSILH
 70
     0
  9
$DIMSCALE
 40
1.0
  9
$DIMASZ
 40
2.5
  9
$DIMEXO
 40
1.0
  9
$DIMDLI
 40
12.0
  9
$DIMRND
 40
0.0
  9
$DIMDLE
 40
0.0
  9
$DIMEXE
 40
1.0
  9
$DIMTP
 40
0.1
  9
$DIMTM
 40
0.1
  9
$DIMTXT
 40
3.2
  9
$DIMCEN
 40
0.0
  9
$DIMTSZ
 40
0.0
  9
$DIMTOL
 70
     0
  9
$DIMLIM
 70
     0
  9
$DIMTIH
 70
     0
  9
$DIMTOH
 70
     0
  9
$DIMSE1
 70
     0
  9
$DIMSE2
 70
     0
  9
$DIMTAD
 70
     3
  9
$DIMZIN
 70
     8
  9
$DIMBLK
  1
OPEN30
  9
$DIMASO
 70
     1
  9
$DIMSHO
 70
     1
  9
$DIMPOST
  1

  9
$DIMAPOST
  1
"
  9
$DIMALT
 70
     0
  9
$DIMALTD
 70
     2
  9
$DIMALTF
 40
0.0393701
  9
$DIMLFAC
 40
1.0
  9
$DIMTOFL
 70
     1
  9
$DIMTVP
 40
0.0
  9
$DIMTIX
 70
     0
  9
$DIMSOXD
 70
     0
  9
$DIMSAH
 70
     0
  9
$DIMBLK1
  1

  9
$DIMBLK2
  1

  9
$DIMSTYLE
  2
AM_JIS
  9
$DIMCLRD
 70
   256
  9
$DIMCLRE
 70
   256
  9
$DIMCLRT
 70
     2
  9
$DIMTFAC
 40
0.71
  9
$DIMGAP
 40
1.5
  9
$DIMJUST
 70
     0
  9
$DIMSD1
 70
     0
  9
$DIMSD2
 70
     0
  9
$DIMTOLJ
 70
     0
  9
$DIMTZIN
 70
     0
  9
$DIMALTZ
 70
     0
  9
$DIMALTTZ
 70
     0
  9
$DIMFIT
 70
     3
  9
$DIMUPT
 70
     0
  9
$DIMUNIT
 70
     2
  9
$DIMDEC
 70
     3
  9
$DIMTDEC
 70
     3
  9
$DIMALTU
 70
     2
  9
$DIMALTTD
 70
     2
  9
$DIMTXSTY
  7
ASAMI
  9
$DIMAUNIT
 70
     0
  9
$LUNITS
 70
     2
  9
$LUPREC
 70
     2
  9
$SKETCHINC
 40
1.0
  9
$FILLETRAD
 40
2.5
  9
$AUNITS
 70
     0
  9
$AUPREC
 70
     0
  9
$MENU
  1
.
  9
$ELEVATION
 40
0.0
  9
$PELEVATION
 40
0.0
  9
$THICKNESS
 40
0.0
  9
$LIMCHECK
 70
     0
  9
$BLIPMODE
 70
     0
  9
$CHAMFERA
 40
1.25
  9
$CHAMFERB
 40
1.25
  9
$CHAMFERC
 40
20.0
  9
$CHAMFERD
 40
0.0
  9
$SKPOLY
 70
     0
  9
$TDCREATE
 40
2452838.430434386
  9
$TDUPDATE
 40
2453151.846003588
  9
$TDINDWG
 40
0.5265405208
  9
$TDUSRTIMER
 40
0.5265405208
  9
$USRTIMER
 70
     1
  9
$ANGBASE
 50
0.0
  9
$ANGDIR
 70
     0
  9
$PDMODE
 70
     0
  9
$PDSIZE
 40
0.0
  9
$PLINEWID
 40
0.0
  9
$COORDS
 70
     1
  9
$SPLFRAME
 70
     0
  9
$SPLINETYPE
 70
     6
  9
$SPLINESEGS
 70
     8
  9
$ATTDIA
 70
     1
  9
$ATTREQ
 70
     1
  9
$HANDLING
 70
 12289
  9
$HANDSEED
  5
D959
  9
$SURFTAB1
 70
     6
  9
$SURFTAB2
 70
     6
  9
$SURFTYPE
 70
     6
  9
$SURFU
 70
     6
  9
$SURFV
 70
     6
  9
$UCSNAME
  2

  9
$UCSORG
 10
0.0
 20
0.0
 30
0.0
  9
$UCSXDIR
 10
1.0
 20
0.0
 30
0.0
  9
$UCSYDIR
 10
0.0
 20
1.0
 30
0.0
  9
$PUCSNAME
  2

  9
$PUCSORG
 10
0.0
 20
0.0
 30
0.0
  9
$PUCSXDIR
 10
1.0
 20
0.0
 30
0.0
  9
$PUCSYDIR
 10
0.0
 20
1.0
 30
0.0
  9
$USERI1
 70
     0
  9
$USERI2
 70
     0
  9
$USERI3
 70
     0
  9
$USERI4
 70
     0
  9
$USERI5
 70
     0
  9
$USERR1
 40
0.0
  9
$USERR2
 40
0.0
  9
$USERR3
 40
0.0
  9
$USERR4
 40
0.0
  9
$USERR5
 40
0.0
  9
$WORLDVIEW
 70
     1
  9
$SHADEDGE
 70
     3
  9
$SHADEDIF
 70
    70
  9
$TILEMODE
 70
     1
  9
$MAXACTVP
 70
    64
  9
$PINSBASE
 10
0.0
 20
0.0
 30
0.0
  9
$PLIMCHECK
 70
     0
  9
$PEXTMIN
 10
1.000000000000000E+20
 20
1.000000000000000E+20
 30
1.000000000000000E+20
  9
$PEXTMAX
 10
-1.000000000000000E+20
 20
-1.000000000000000E+20
 30
-1.000000000000000E+20
  9
$PLIMMIN
 10
0.0
 20
0.0
  9
$PLIMMAX
 10
841.0
 20
594.0
  9
$UNITMODE
 70
     0
  9
$VISRETAIN
 70
     1
  9
$PLINEGEN
 70
     0
  9
$PSLTSCALE
 70
     0
  9
$TREEDEPTH
 70
  3020
  9
$PICKSTYLE
 70
     0
  9
$CMLSTYLE
  2
STANDARD
  9
$CMLJUST
 70
     0
  9
$CMLSCALE
 40
20.0
  9
$PROXYGRAPHICS
 70
     1
  9
$MEASUREMENT
 70
     1
  0
ENDSEC
  0
SECTION
  2
CLASSES
  0
CLASS
  1
ACDBDICTIONARYWDFLT
  2
AcDbDictionaryWithDefault
  3
AutoCAD 2000
 90
        0
280
     0
281
     0
  0
CLASS
  1
ACDBPLACEHOLDER
  2
AcDbPlaceHolder
  3
AutoCAD 2000
 90
        0
280
     0
281
     0
  0
CLASS
  1
LAYOUT
  2
AcDbLayout
  3
AutoCAD 2000
 90
        0
280
     0
281
     0
  0
CLASS
  1
AMGSETTINGSOBJ
  2
AmgSettingsObj
  3
"AcadM|Product Description: AutoCAD Mechanical 2000|Company: Autodesk"
 90
        0
280
     0
281
     0
  0
CLASS
  1
ACME_DOCUMENT
  2
AcMeDbDoc
  3
AcMeServices
 90
        0
280
     0
281
     0
  0
CLASS
  1
ACMESCOPE
  2
AcMeScope
  3
AcMeServices
 90
        0
280
     0
281
     0
  0
CLASS
  1
ACMECOMMANDHISTORY
  2
AcMeCommandHistory
  3
AcMeServices
 90
        0
280
     0
281
     0
  0
CLASS
  1
DICTIONARYVAR
  2
AcDbDictionaryVar
  3
AutoCAD 2000
 90
        0
280
     0
281
     0
  0
CLASS
  1
ACIMSYSVARMAN
  2
AcImSysVarManager
  3
AcMeServices
 90
        0
280
     0
281
     0
  0
CLASS
  1
ACIMREALSYSVAR
  2
AcImRealSysVar
  3
AcMeServices
 90
        0
280
     0
281
     0
  0
CLASS
  1
ACIMINTSYSVAR
  2
AcImIntSysVar
  3
AcMeServices
 90
        0
280
     0
281
     0
  0
CLASS
  1
ACMEDRAWINGMAN
  2
AcMeDrawingMan
  3
AcMeServices
 90
        0
280
     0
281
     0
  0
CLASS
  1
ACMEVIEW
  2
AcMeView
  3
AcMeServices
 90
        0
280
     0
281
     0
  0
CLASS
  1
ACDBENTITYCACHE
  2
AcMeEntityCache
  3
AcMeServices
 90
        0
280
     0
281
     0
  0
CLASS
  1
GSMANAGER
  2
AcMeGSManager
  3
AcMeServices
 90
        0
280
     0
281
     0
  0
CLASS
  1
AmdtInternalReactor
  2
AmdtInternalReactor
  3
AcMeServices
 90
        0
280
     0
281
     0
  0
CLASS
  1
ACMESTATEMGR
  2
AcMeStateMgr
  3
AcMeServices
 90
        0
280
     0
281
     0
  0
CLASS
  1
ACME_DATABASE
  2
AcMeDbDatabase
  3
AcMeServices
 90
        0
280
     0
281
     0
  0
CLASS
  1
ACRFINSADJUSTERMGR
  2
AcRfInsAdjusterMgr
  3
AcMeServices
 90
        0
280
     0
281
     0
  0
CLASS
  1
ACMDATADICTIONARY
  2
AcmDataDictionary
  3
"AcmSymBB|Product Description: AutoCAD Mechanical 2000|Company: Autodesk"
 90
        0
280
     0
281
     0
  0
CLASS
  1
ACMDATAENTRYBLOCK
  2
AcmDataEntryBlock
  3
"AcmSymBB|Product Description: AutoCAD Mechanical 2000|Company: Autodesk"
 90
        0
280
     0
281
     0
  0
CLASS
  1
AMGOBJPROPCFG
  2
AmgObjPropCfg
  3
"AmgLay|Product Description: AutoCAD Mechanical 2000|Company: Autodesk"
 90
        1
280
     0
281
     0
  0
CLASS
  1
ACAMGFILTERDAT
  2
AcAmgFilterDat
  3
"AcadM|Product Description: AutoCAD Mechanical 2000|Company: Autodesk"
 90
        0
280
     0
281
     0
  0
CLASS
  1
LAYER_INDEX
  2
AcDbLayerIndex
  3
AutoCAD 2000
 90
        0
280
     0
281
     0
  0
CLASS
  1
IDBUFFER
  2
AcDbIdBuffer
  3
AutoCAD 2000
 90
        0
280
     0
281
     0
  0
CLASS
  1
ACIMSTRSYSVAR
  2
AcImStrSysVar
  3
AcMeServices
 90
        0
280
     0
281
     0
  0
CLASS
  1
ACMSTANDARDJIS
  2
AcmStandardJIS
  3
"AcmSymBB|Product Description: AutoCAD Mechanical 2000|Company: Autodesk"
 90
        0
280
     0
281
     0
  0
CLASS
  1
ACMSURFSTANDARDJIS
  2
AcmSurfTextStdJIS
  3
"AcmSymBB|Product Description: AutoCAD Mechanical 2000|Company: Autodesk"
 90
        0
280
     0
281
     0
  0
CLASS
  1
ACMFCFSTANDARDJIS
  2
AcmFCFStdJIS
  3
"AcmSymBB|Product Description: AutoCAD Mechanical 2000|Company: Autodesk"
 90
        0
280
     0
281
     0
  0
CLASS
  1
ACMWELDSTANDARDJIS
  2
AcmWeldingStdJIS
  3
"AcmSymBB|Product Description: AutoCAD Mechanical 2000|Company: Autodesk"
 90
        0
280
     0
281
     0
  0
CLASS
  1
ACMIDSTANDARDJIS
  2
AcmIdStdJIS
  3
"AcmSymBB|Product Description: AutoCAD Mechanical 2000|Company: Autodesk"
 90
        0
280
     0
281
     0
  0
CLASS
  1
ACMDATUMSTANDARDJIS
  2
AcmDatumStdJIS
  3
"AcmSymBB|Product Description: AutoCAD Mechanical 2000|Company: Autodesk"
 90
        0
280
     0
281
     0
  0
CLASS
  1
ACMBOMSTANDARDJIS
  2
AcmBOMStdJIS
  3
"AcmSymBB|Product Description: AutoCAD Mechanical 2000|Company: Autodesk"
 90
        0
280
     0
281
     0
  0
CLASS
  1
ACMSTANDARDANSI
  2
AcmStandardANSI
  3
"AcmSymBB|Product Description: AutoCAD Mechanical 2000|Company: Autodesk"
 90
        0
280
     0
281
     0
  0
CLASS
  1
ACMSURFSTANDARDANSI
  2
AcmSurfTextStdANSI
  3
"AcmSymBB|Product Description: AutoCAD Mechanical 2000|Company: Autodesk"
 90
        0
280
     0
281
     0
  0
CLASS
  1
ACMFCFSTANDARDANSI
  2
AcmFCFStdANSI
  3
"AcmSymBB|Product Description: AutoCAD Mechanical 2000|Company: Autodesk"
 90
        0
280
     0
281
     0
  0
CLASS
  1
ACMWELDSTANDARDANSI
  2
AcmWeldingStdANSI
  3
"AcmSymBB|Product Description: AutoCAD Mechanical 2000|Company: Autodesk"
 90
        0
280
     0
281
     0
  0
CLASS
  1
ACMIDSTANDARDANSI
  2
AcmIdStdANSI
  3
"AcmSymBB|Product Description: AutoCAD Mechanical 2000|Company: Autodesk"
 90
        0
280
     0
281
     0
  0
CLASS
  1
ACMDATUMSTANDARDANSI
  2
AcmDatumStdANSI
  3
"AcmSymBB|Product Description: AutoCAD Mechanical 2000|Company: Autodesk"
 90
        0
280
     0
281
     0
  0
CLASS
  1
ACMBOMSTANDARDANSI
  2
AcmBOMStdANSI
  3
"AcmSymBB|Product Description: AutoCAD Mechanical 2000|Company: Autodesk"
 90
        0
280
     0
281
     0
  0
CLASS
  1
ACMSTANDARDBSI
  2
AcmStandardBSI
  3
"AcmSymBB|Product Description: AutoCAD Mechanical 2000|Company: Autodesk"
 90
        0
280
     0
281
     0
  0
CLASS
  1
ACMSURFSTANDARDBSI
  2
AcmSurfTextStdBSI
  3
"AcmSymBB|Product Description: AutoCAD Mechanical 2000|Company: Autodesk"
 90
        0
280
     0
281
     0
  0
CLASS
  1
ACMFCFSTANDARDBSI
  2
AcmFCFStdBSI
  3
"AcmSymBB|Product Description: AutoCAD Mechanical 2000|Company: Autodesk"
 90
        0
280
     0
281
     0
  0
CLASS
  1
ACMWELDSTANDARDBSI
  2
AcmWeldingStdBSI
  3
"AcmSymBB|Product Description: AutoCAD Mechanical 2000|Company: Autodesk"
 90
        0
280
     0
281
     0
  0
CLASS
  1
ACMIDSTANDARDBSI
  2
AcmIdStdBSI
  3
"AcmSymBB|Product Description: AutoCAD Mechanical 2000|Company: Autodesk"
 90
        0
280
     0
281
     0
  0
CLASS
  1
ACMDATUMSTANDARDBSI
  2
AcmDatumStdBSI
  3
"AcmSymBB|Product Description: AutoCAD Mechanical 2000|Company: Autodesk"
 90
        0
280
     0
281
     0
  0
CLASS
  1
ACMBOMSTANDARDBSI
  2
AcmBOMStdBSI
  3
"AcmSymBB|Product Description: AutoCAD Mechanical 2000|Company: Autodesk"
 90
        0
280
     0
281
     0
  0
CLASS
  1
LONG_TRANSACTION
  2
AcDbLongTransaction
  3
AutoCAD 2000
 90
        0
280
     0
281
     0
  0
CLASS
  1
LWPOLYLINE
  2
AcDbPolyline
  3
AutoCAD 2000
 90
        0
280
     0
281
     1
  0
CLASS
  1
HATCH
  2
AcDbHatch
  3
AutoCAD 2000
 90
        0
280
     0
281
     1
  0
CLASS
  1
XRECORD
  2
AcDbXrecord
  3
AutoCAD 2000
 90
        0
280
     0
281
     0
  0
ENDSEC
  0
SECTION
  2
TABLES
  0
TABLE
  2
VPORT
  5
8
330
0
100
AcDbSymbolTable
 70
     3
  0
VPORT
  5
D92E
330
8
100
AcDbSymbolTableRecord
100
AcDbViewportTableRecord
  2
*ACTIVE
 70
     0
 10
0.0
 20
0.0
 11
1.0
 21
1.0
 12
-50.23485976467004
 22
-6.012162527341203
 13
0.0
 23
0.0
 14
2.5
 24
2.5
 15
10.0
 25
10.0
 16
0.0
 26
0.0
 36
1.0
 17
0.0
 27
0.0
 37
0.0
 40
218.6465527196505
 41
1.56570841889117
 42
50.0
 43
0.0
 44
0.0
 50
0.0
 51
0.0
 71
     0
 72
   100
 73
     1
 74
     3
 75
     0
 76
     0
 77
     0
 78
     0
  0
ENDTAB
  0
TABLE
  2
LTYPE
  5
5
330
0
100
AcDbSymbolTable
 70
    10
  0
LTYPE
  5
14
330
5
100
AcDbSymbolTableRecord
100
AcDbLinetypeTableRecord
  2
BYBLOCK
 70
     0
  3

 72
    65
 73
     0
 40
0.0
  0
LTYPE
  5
15
330
5
100
AcDbSymbolTableRecord
100
AcDbLinetypeTableRecord
  2
BYLAYER
 70
     0
  3

 72
    65
 73
     0
 40
0.0
  0
LTYPE
  5
16
330
5
100
AcDbSymbolTableRecord
100
AcDbLinetypeTableRecord
  2
CONTINUOUS
 70
     0
  3
Solid line
 72
    65
 73
     0
 40
0.0
  0
LTYPE
  5
4B
330
5
100
AcDbSymbolTableRecord
100
AcDbLinetypeTableRecord
  2
AM_ISO02W050
 70
     0
  3
__ __ __ __ __ __ __ __ __ __ __ __ __ __ __
 72
    65
 73
     2
 40
7.5
 49
6.0
 74
     0
 49
-1.5
 74
     0
  0
LTYPE
  5
4C
330
5
100
AcDbSymbolTableRecord
100
AcDbLinetypeTableRecord
  2
AM_ISO08W050
 70
     0
  3
____ . ____ . ____ . ____ . ____ . ____ . ____
 72
    65
 73
     4
 40
18.0
 49
12.0
 74
     0
 49
-1.5
 74
     0
 49
3.0
 74
     0
 49
-1.5
 74
     0
  0
LTYPE
  5
4D
330
5
100
AcDbSymbolTableRecord
100
AcDbLinetypeTableRecord
  2
AM_ISO09W050
 70
     0
  3
_____ . . _____ . . _____ . . ____ .. ____
 72
    65
 73
     6
 40
22.5
 49
12.0
 74
     0
 49
-1.5
 74
     0
 49
3.0
 74
     0
 49
-1.5
 74
     0
 49
3.0
 74
     0
 49
-1.5
 74
     0
  0
LTYPE
  5
4E
330
5
100
AcDbSymbolTableRecord
100
AcDbLinetypeTableRecord
  2
AMCONSTR
 70
     0
  3
_______________________
 72
    65
 73
     2
 40
9999.0
 49
9999.0
 74
     0
 49
0.0
 74
     0
  0
LTYPE
  5
4F
330
5
100
AcDbSymbolTableRecord
100
AcDbLinetypeTableRecord
  2
AM_ISO02W050X2
 70
     0
  3
 _ _ _ _ _ _ _ _ _ _ _ _
 72
    65
 73
     2
 40
3.75
 49
3.0
 74
     0
 49
-0.75
 74
     0
  0
LTYPE
  5
50
330
5
100
AcDbSymbolTableRecord
100
AcDbLinetypeTableRecord
  2
AM_ISO08W050X2
 70
     0
  3
__ . __ . __ . __ . __ . __
 72
    65
 73
     4
 40
9.0
 49
6.0
 74
     0
 49
-0.75
 74
     0
 49
1.5
 74
     0
 49
-0.75
 74
     0
  0
LTYPE
  5
53
330
5
100
AcDbSymbolTableRecord
100
AcDbLinetypeTableRecord
  2
AMZIGZAG
 70
     0
  3
/\/-/\/-/\/-/\/-/\/-/\/
 72
    65
 73
     2
 40
11.00009999999999
 49
0.0001
 74
     4
 75
   135
340
52
 46
0.04
 50
0.0
 44
0.0
 45
0.0
 49
-11.0
 74
     0
  0
LTYPE
  5
166
330
5
100
AcDbSymbolTableRecord
100
AcDbLinetypeTableRecord
  2
ACJISTGL
 70
     0
  3
_ _ _ _ _
 72
    65
 73
     2
 40
3.0
 49
2.0
 74
     0
 49
-1.0
 74
     0
  0
LTYPE
  5
26A
330
5
100
AcDbSymbolTableRecord
100
AcDbLinetypeTableRecord
  2
ACJISTGB
 70
     0
  3
__ . . __ . .
 72
    65
 73
     6
 40
9.0
 49
4.0
 74
     0
 49
-1.0
 74
     0
 49
1.0
 74
     0
 49
-1.0
 74
     0
 49
1.0
 74
     0
 49
-1.0
 74
     0
  0
ENDTAB
  0
TABLE
  2
LAYER
  5
2
330
0
100
AcDbSymbolTable
 70
     8
  0
LAYER
  5
10
330
2
100
AcDbSymbolTableRecord
100
AcDbLayerTableRecord
  2
0
 70
     0
 62
     7
  6
CONTINUOUS
  0
LAYER
  5
3F9
330
2
100
AcDbSymbolTableRecord
100
AcDbLayerTableRecord
  2
AM_0
 70
     0
 62
     7
  6
CONTINUOUS
  0
LAYER
  5
BDD
330
2
100
AcDbSymbolTableRecord
100
AcDbLayerTableRecord
  2
AM_11
 70
     0
 62
     3
  6
AM_ISO09W050
  0
LAYER
  5
BDE
330
2
100
AcDbSymbolTableRecord
100
AcDbLayerTableRecord
  2
AM_7
 70
     0
 62
     4
  6
AM_ISO08W050
  0
LAYER
  5
BDF
330
2
100
AcDbSymbolTableRecord
100
AcDbLayerTableRecord
  2
AM_5
 70
     0
 62
     3
  6
CONTINUOUS
  0
LAYER
  5
BE0
330
2
100
AcDbSymbolTableRecord
100
AcDbLayerTableRecord
  2
DEFPOINTS
 70
     0
 62
     7
  6
CONTINUOUS
  0
LAYER
  5
14FF
330
2
100
AcDbSymbolTableRecord
100
AcDbLayerTableRecord
  2
AM_6
 70
     0
 62
     2
  6
CONTINUOUS
  0
LAYER
  5
D43C
330
2
100
AcDbSymbolTableRecord
100
AcDbLayerTableRecord
  2
AM_CL
 70
     0
 62
     1
  6
AMCONSTR
  0
ENDTAB
  0
TABLE
  2
STYLE
  5
3
330
0
100
AcDbSymbolTable
 70
     5
  0
STYLE
  5
11
330
3
100
AcDbSymbolTableRecord
100
AcDbTextStyleTableRecord
  2
STANDARD
 70
     0
 40
0.0
 41
1.0
 50
0.0
 71
     0
 42
5.0
  3
simplex.shx
  4
EXTFONT.SHX
  0
STYLE
  5
52
330
3
100
AcDbSymbolTableRecord
100
AcDbTextStyleTableRecord
  2

 70
     1
 40
0.0
 41
1.0
 50
0.0
 71
     0
 42
2.5
  3
ltypeshp.shx
  4

  0
STYLE
  5
6B
330
3
100
AcDbSymbolTableRecord
100
AcDbTextStyleTableRecord
  2
ASAMI
 70
     0
 40
0.0
 41
1.0
 50
0.0
 71
     0
 42
2.5
  3
simplex.shx
  4
EXTFONT.SHX
  0
STYLE
  5
262
330
3
100
AcDbSymbolTableRecord
100
AcDbTextStyleTableRecord
  2
ACJISTS
 70
     0
 40
1.0
 41
1.0
 50
0.0
 71
     0
 42
2.5
  3
simplex.shx
  4
bigfont.shx
  0
STYLE
  5
269
330
3
100
AcDbSymbolTableRecord
100
AcDbTextStyleTableRecord
  2
ACJISGDT
 70
     0
 40
0.0
 41
1.0
 50
0.0
 71
     0
 42
2.5
  3
amgdtans.shx
  4

  0
ENDTAB
  0
TABLE
  2
VIEW
  5
6
330
0
100
AcDbSymbolTable
 70
     0
  0
ENDTAB
  0
TABLE
  2
UCS
  5
7
330
0
100
AcDbSymbolTable
 70
     0
  0
ENDTAB
  0
TABLE
  2
APPID
  5
9
330
0
100
AcDbSymbolTable
 70
    13
  0
APPID
  5
12
330
9
100
AcDbSymbolTableRecord
100
AcDbRegAppTableRecord
  2
ACAD
 70
     0
  0
APPID
  5
30
330
9
100
AcDbSymbolTableRecord
100
AcDbRegAppTableRecord
  2
MCAD_NO_VIS
 70
     0
  0
APPID
  5
31
330
9
100
AcDbSymbolTableRecord
100
AcDbRegAppTableRecord
  2
ACAD_TEMP_GRAPHIC
 70
     0
  0
APPID
  5
2C2
330
9
100
AcDbSymbolTableRecord
100
AcDbRegAppTableRecord
  2
GENIUS_GENDTOL_13
 70
     0
  0
APPID
  5
339
330
9
100
AcDbSymbolTableRecord
100
AcDbRegAppTableRecord
  2
GENIUS_GENODEF_13
 70
     0
  0
APPID
  5
33A
330
9
100
AcDbSymbolTableRecord
100
AcDbRegAppTableRecord
  2
GENIUS_GENOBJ-N-RSBK_13
 70
     0
  0
APPID
  5
33B
330
9
100
AcDbSymbolTableRecord
100
AcDbRegAppTableRecord
  2
GENIUS_GENOBJ-N-LIB_13
 70
     0
  0
APPID
  5
33C
330
9
100
AcDbSymbolTableRecord
100
AcDbRegAppTableRecord
  2
GENIUS_GENSCALE_13
 70
     0
  0
APPID
  5
378
330
9
100
AcDbSymbolTableRecord
100
AcDbRegAppTableRecord
  2
GENIUS_GENDIMSH_14
 70
     0
  0
APPID
  5
BE1
330
9
100
AcDbSymbolTableRecord
100
AcDbRegAppTableRecord
  2
GENIUS_GENFIL_13
 70
     0
  0
APPID
  5
BE2
330
9
100
AcDbSymbolTableRecord
100
AcDbRegAppTableRecord
  2
GENIUS_GENOBJ-N-CHA_13
 70
     0
  0
APPID
  5
151B
330
9
100
AcDbSymbolTableRecord
100
AcDbRegAppTableRecord
  2
DCO15
 70
     0
  0
APPID
  5
1860
330
9
100
AcDbSymbolTableRecord
100
AcDbRegAppTableRecord
  2
GENIUS_GENOBJ-N-CEN_13
 70
     0
  0
ENDTAB
  0
TABLE
  2
DIMSTYLE
  5
A
330
0
100
AcDbSymbolTable
 70
     8
  0
DIMSTYLE
105
58
102
{ACAD_REACTORS
330
D864
330
D866
330
D86C
330
D88E
102
}
330
A
100
AcDbSymbolTableRecord
100
AcDbDimStyleTableRecord
  2
AM_JIS
 70
     0
  3

  4
"
  5
OPEN30
  6

  7

 40
1.0
 41
2.5
 42
1.0
 43
12.0
 44
1.0
 45
0.0
 46
0.0
 47
0.1
 48
0.1
140
3.2
141
0.0
142
0.0
143
0.0393701
144
1.0
145
0.0
146
0.71
147
1.5
 71
     0
 72
     0
 73
     0
 74
     0
 75
     0
 76
     0
 77
     3
 78
     8
170
     0
171
     2
172
     1
173
     0
174
     0
175
     0
176
   256
177
   256
178
     2
270
     2
271
     3
272
     3
273
     2
274
     2
340
6B
275
     0
280
     0
281
     0
282
     0
283
     0
284
     0
285
     0
286
     0
287
     3
288
     0
  0
DIMSTYLE
105
5F
330
A
100
AcDbSymbolTableRecord
100
AcDbDimStyleTableRecord
  2
AM_JIS$3
 70
     0
  3

  4
"
  5
OPEN30
  6

  7

 40
1.0
 41
2.5
 42
1.0
 43
10.0
 44
1.0
 45
0.0
 46
0.0
 47
0.1
 48
0.1
140
3.2
141
0.0
142
0.0
143
0.0393701
144
1.0
145
0.0
146
0.71
147
1.5
 71
     0
 72
     0
 73
     0
 74
     1
 75
     0
 76
     0
 77
     3
 78
     8
170
     0
171
     2
172
     0
173
     0
174
     0
175
     0
176
   256
177
   256
178
     2
270
     2
271
     2
272
     3
273
     2
274
     2
340
6B
275
     0
280
     0
281
     0
282
     0
283
     0
284
     0
285
     0
286
     0
287
     0
288
     1
  0
DIMSTYLE
105
60
330
A
100
AcDbSymbolTableRecord
100
AcDbDimStyleTableRecord
  2
AM_JIS$4
 70
     0
  3

  4
"
  5
OPEN30
  6

  7

 40
1.0
 41
2.5
 42
1.0
 43
10.0
 44
1.0
 45
0.0
 46
0.0
 47
0.1
 48
0.1
140
3.2
141
0.0
142
0.0
143
0.0393701
144
1.0
145
0.0
146
0.71
147
1.5
 71
     0
 72
     0
 73
     0
 74
     1
 75
     0
 76
     0
 77
     3
 78
     8
170
     0
171
     2
172
     0
173
     0
174
     0
175
     0
176
   256
177
   256
178
     2
270
     2
271
     2
272
     3
273
     2
274
     2
340
6B
275
     0
280
     0
281
     0
282
     0
283
     0
284
     0
285
     0
286
     0
287
     0
288
     1
  0
DIMSTYLE
105
61
330
A
100
AcDbSymbolTableRecord
100
AcDbDimStyleTableRecord
  2
AM_JIS$6
 70
     0
  3

  4
"
  5
OPEN30
  6

  7

 40
1.0
 41
2.5
 42
1.0
 43
10.0
 44
1.0
 45
0.0
 46
0.0
 47
0.1
 48
0.1
140
3.2
141
0.0
142
0.0
143
0.0393701
144
1.0
145
0.0
146
0.71
147
1.5
 71
     0
 72
     0
 73
     0
 74
     0
 75
     0
 76
     0
 77
     0
 78
     8
170
     0
171
     2
172
     1
173
     0
174
     0
175
     0
176
   256
177
   256
178
     2
270
     2
271
     2
272
     2
273
     2
274
     2
340
6B
275
     0
280
     0
281
     0
282
     0
283
     0
284
     0
285
     0
286
     0
287
     3
288
     0
  0
DIMSTYLE
105
62
330
A
100
AcDbSymbolTableRecord
100
AcDbDimStyleTableRecord
  2
AM_JIS$7
 70
     0
  3

  4
"
  5
OPEN30
  6

  7

 40
1.0
 41
2.5
 42
1.0
 43
10.0
 44
1.0
 45
0.0
 46
0.0
 47
0.1
 48
0.1
140
3.2
141
0.0
142
0.0
143
0.0393701
144
1.0
145
0.0
146
0.71
147
1.5
 71
     0
 72
     0
 73
     0
 74
     0
 75
     0
 76
     0
 77
     3
 78
     8
170
     0
171
     2
172
     1
173
     0
174
     0
175
     0
176
   256
177
   256
178
     2
270
     2
271
     2
272
     3
273
     2
274
     2
340
6B
275
     0
280
     0
281
     0
282
     0
283
     0
284
     0
285
     0
286
     0
287
     3
288
     0
  0
DIMSTYLE
105
63
330
A
100
AcDbSymbolTableRecord
100
AcDbDimStyleTableRecord
  2
AM_JIS$SF
 70
     0
  3

  4
"
  5
OPEN30
  6

  7

 40
1.0
 41
2.5
 42
1.0
 43
10.0
 44
1.0
 45
0.0
 46
0.0
 47
0.1
 48
0.1
140
3.2
141
0.0
142
0.0
143
0.0393701
144
1.0
145
0.0
146
0.71
147
1.5
 71
     0
 72
     0
 73
     0
 74
     0
 75
     1
 76
     1
 77
     3
 78
     8
170
     0
171
     2
172
     1
173
     0
174
     0
175
     0
176
   256
177
   256
178
     2
270
     2
271
     2
272
     2
273
     2
274
     2
340
6B
275
     0
280
     0
281
     0
282
     0
283
     0
284
     0
285
     0
286
     0
287
     3
288
     0
  0
DIMSTYLE
105
68
330
A
100
AcDbSymbolTableRecord
100
AcDbDimStyleTableRecord
  2
AM_JIS$SH
 70
     0
  3

  4
"
  5

  6
GENAXEH
  7
OPEN30
 40
1.0
 41
2.5
 42
1.0
 43
10.0
 44
1.0
 45
0.0
 46
0.0
 47
0.1
 48
0.1
140
3.2
141
0.0
142
0.0
143
0.0393701
144
2.0
145
0.0
146
0.71
147
1.5
 71
     0
 72
     0
 73
     0
 74
     0
 75
     1
 76
     1
 77
     3
 78
     8
170
     0
171
     2
172
     1
173
     1
174
     0
175
     0
176
   256
177
   256
178
     2
270
     2
271
     2
272
     2
273
     2
274
     2
340
6B
275
     0
280
     0
281
     0
282
     0
283
     0
284
     0
285
     0
286
     0
287
     3
288
     0
  0
DIMSTYLE
105
B34
330
A
100
AcDbSymbolTableRecord
100
AcDbDimStyleTableRecord
  2
AM_JIS$2
 70
     0
  3

  4
"
  5
OPEN30
  6

  7

 40
1.0
 41
2.5
 42
1.0
 43
12.0
 44
1.0
 45
0.0
 46
0.0
 47
0.1
 48
0.1
140
3.2
141
0.0
142
0.0
143
0.0393701
144
1.0
145
0.0
146
0.71
147
1.5
 71
     0
 72
     0
 73
     0
 74
     0
 75
     0
 76
     0
 77
     3
 78
     8
170
     0
171
     2
172
     1
173
     0
174
     0
175
     0
176
   256
177
   256
178
     2
270
     2
271
     3
272
     3
273
     2
274
     2
340
6B
275
     0
280
     0
281
     0
282
     0
283
     0
284
     0
285
     0
286
     0
287
     3
288
     0
  0
ENDTAB
  0
TABLE
  2
BLOCK_RECORD
  5
1
330
0
100
AcDbSymbolTable
 70
     9
  0
BLOCK_RECORD
  5
1F
102
{ACAD_XDICTIONARY
360
74
102
}
330
1
100
AcDbSymbolTableRecord
100
AcDbBlockTableRecord
  2
*MODEL_SPACE
  0
BLOCK_RECORD
  5
101
102
{ACAD_XDICTIONARY
360
D957
102
}
330
1
100
AcDbSymbolTableRecord
100
AcDbBlockTableRecord
  2
*PAPER_SPACE
  0
BLOCK_RECORD
  5
59
330
1
100
AcDbSymbolTableRecord
100
AcDbBlockTableRecord
  2
_OPEN30
  0
BLOCK_RECORD
  5
64
330
1
100
AcDbSymbolTableRecord
100
AcDbBlockTableRecord
  2
GENAXEH
  0
BLOCK_RECORD
  5
D895
330
1
100
AcDbSymbolTableRecord
100
AcDbBlockTableRecord
  2
*D5
  0
BLOCK_RECORD
  5
D8A1
330
1
100
AcDbSymbolTableRecord
100
AcDbBlockTableRecord
  2
*D6
  0
BLOCK_RECORD
  5
D8AD
330
1
100
AcDbSymbolTableRecord
100
AcDbBlockTableRecord
  2
*D7
  0
BLOCK_RECORD
  5
D8B9
330
1
100
AcDbSymbolTableRecord
100
AcDbBlockTableRecord
  2
*D8
  0
ENDTAB
  0
ENDSEC
  0
SECTION
  2
BLOCKS
  0
BLOCK
  5
20
330
1F
100
AcDbEntity
  8
0
100
AcDbBlockBegin
  2
*MODEL_SPACE
 70
     0
 10
0.0
 20
0.0
 30
0.0
  3
*MODEL_SPACE
  1

  0
ENDBLK
  5
21
330
1F
100
AcDbEntity
  8
0
100
AcDbBlockEnd
  0
BLOCK
  5
103
330
101
100
AcDbEntity
 67
     1
  8
0
100
AcDbBlockBegin
  2
*PAPER_SPACE
 70
     0
 10
0.0
 20
0.0
 30
0.0
  3
*PAPER_SPACE
  1

  0
ENDBLK
  5
104
330
101
100
AcDbEntity
 67
     1
  8
0
100
AcDbBlockEnd
  0
BLOCK
  5
5D
330
59
100
AcDbEntity
  8
0
100
AcDbBlockBegin
  2
_OPEN30
 70
     0
 10
0.0
 20
0.0
 30
0.0
  3
_OPEN30
  1

  0
LINE
  5
5A
330
59
100
AcDbEntity
  8
0
 62
     0
100
AcDbLine
 10
-1.0
 20
0.26794919
 30
0.0
 11
0.0
 21
0.0
 31
0.0
  0
LINE
  5
5B
330
59
100
AcDbEntity
  8
0
 62
     0
100
AcDbLine
 10
0.0
 20
0.0
 30
0.0
 11
-1.0
 21
-0.26794919
 31
0.0
  0
LINE
  5
5C
330
59
100
AcDbEntity
  8
0
 62
     0
100
AcDbLine
 10
0.0
 20
0.0
 30
0.0
 11
-1.0
 21
0.0
 31
0.0
  0
ENDBLK
  5
5E
330
59
100
AcDbEntity
  8
0
100
AcDbBlockEnd
  0
BLOCK
  5
66
330
64
100
AcDbEntity
  8
0
100
AcDbBlockBegin
  2
GENAXEH
 70
     0
 10
0.0
 20
0.0
 30
0.0
  3
GENAXEH
  1

  0
LINE
  5
65
330
64
100
AcDbEntity
  8
0
100
AcDbLine
 10
-1.0
 20
0.0
 30
0.0
 11
1.0
 21
0.0
 31
0.0
  0
ENDBLK
  5
67
330
64
100
AcDbEntity
  8
0
100
AcDbBlockEnd
  0
BLOCK
  5
D89F
330
D895
100
AcDbEntity
  8
0
100
AcDbBlockBegin
  2
*D5
 70
     1
 10
0.0
 20
0.0
 30
0.0
  3
*D5
  1

  0
LINE
  5
D8C5
330
D895
100
AcDbEntity
  8
AM_5
100
AcDbLine
 10
-130.0
 20
-15.75000000000006
 30
0.0
 11
-130.0
 21
-43.00000099999986
 31
0.0
  0
LINE
  5
D8C6
330
D895
100
AcDbEntity
  8
AM_5
100
AcDbLine
 10
-0.0000000000031707
 20
-15.99999999999317
 30
0.0
 11
-0.0000000000031723
 21
-43.00000099999986
 31
0.0
  0
LINE
  5
D8C7
330
D895
100
AcDbEntity
  8
AM_5
100
AcDbLine
 10
-127.5
 20
-42.00000099999987
 30
0.0
 11
-2.500000000003172
 21
-42.00000099999987
 31
0.0
  0
INSERT
  5
D8C8
330
D895
100
AcDbEntity
  8
AM_5
100
AcDbBlockReference
  2
_OPEN30
 10
-130.0
 20
-42.00000099999987
 30
0.0
 41
2.5
 42
2.5
 43
2.5
 50
180.0
  0
INSERT
  5
D8C9
330
D895
100
AcDbEntity
  8
AM_5
100
AcDbBlockReference
  2
_OPEN30
 10
-0.0000000000031723
 20
-42.00000099999987
 30
0.0
 41
2.5
 42
2.5
 43
2.5
  0
MTEXT
  5
D8CA
330
D895
100
AcDbEntity
  8
AM_5
 62
     2
100
AcDbMText
 10
-65.00000000000162
 20
-38.90000099999987
 30
0.0
 40
3.2
 41
0.0
 71
     5
 72
     1
  1
130
  7
ASAMI
1001
ACAD
1000
MTEXTBEGIN
1070
    73
1070
     1
1070
    44
1040
1.0
1070
    74
1070
     0
1000
MTEXTEND
  0
POINT
  5
D8CB
330
D895
100
AcDbEntity
  8
DEFPOINTS
 62
     0
100
AcDbPoint
 10
-130.0
 20
-14.75000000000006
 30
0.0
  0
POINT
  5
D8CC
330
D895
100
AcDbEntity
  8
DEFPOINTS
 62
     0
100
AcDbPoint
 10
-0.0000000000031706
 20
-14.99999999999317
 30
0.0
  0
POINT
  5
D8CD
330
D895
100
AcDbEntity
  8
DEFPOINTS
 62
     0
100
AcDbPoint
 10
-0.0000000000031723
 20
-42.00000099999987
 30
0.0
  0
ENDBLK
  5
D8A0
330
D895
100
AcDbEntity
  8
0
100
AcDbBlockEnd
  0
BLOCK
  5
D8AB
330
D8A1
100
AcDbEntity
  8
0
100
AcDbBlockBegin
  2
*D6
 70
     1
 10
0.0
 20
0.0
 30
0.0
  3
*D6
  1

  0
LINE
  5
D8CE
330
D8A1
100
AcDbEntity
  8
AM_5
100
AcDbLine
 10
-129.75
 20
15.99999999999994
 30
0.0
 11
-150.6386983892743
 21
15.99999999999995
 31
0.0
  0
LINE
  5
D8CF
330
D8A1
100
AcDbEntity
  8
AM_5
100
AcDbLine
 10
-129.75
 20
-16.00000000000006
 30
0.0
 11
-150.6386983892743
 21
-16.00000000000005
 31
0.0
  0
LINE
  5
D8D0
330
D8A1
100
AcDbEntity
  8
AM_5
100
AcDbLine
 10
-149.6386983892743
 20
13.49999999999995
 30
0.0
 11
-149.6386983892743
 21
-13.50000000000005
 31
0.0
  0
INSERT
  5
D8D1
330
D8A1
100
AcDbEntity
  8
AM_5
100
AcDbBlockReference
  2
_OPEN30
 10
-149.6386983892743
 20
15.99999999999995
 30
0.0
 41
2.5
 42
2.5
 43
2.5
 50
90.0
  0
INSERT
  5
D8D2
330
D8A1
100
AcDbEntity
  8
AM_5
100
AcDbBlockReference
  2
_OPEN30
 10
-149.6386983892743
 20
-16.00000000000005
 30
0.0
 41
2.5
 42
2.5
 43
2.5
 50
270.0
  0
MTEXT
  5
D8D3
330
D8A1
100
AcDbEntity
  8
AM_5
 62
     2
100
AcDbMText
 10
-152.7386983892743
 20
-0.0000000000000229
 30
0.0
 40
3.2
 41
0.0
 71
     5
 72
     1
  1
%%c32
  7
ASAMI
 11
0.0000000000000001
 21
1.0
 31
0.0
1001
ACAD
1000
MTEXTBEGIN
1070
    73
1070
     1
1070
    44
1040
1.0
1070
    74
1070
     0
1000
MTEXTEND
  0
POINT
  5
D8D4
330
D8A1
100
AcDbEntity
  8
DEFPOINTS
 62
     0
100
AcDbPoint
 10
-128.75
 20
15.99999999999994
 30
0.0
  0
POINT
  5
D8D5
330
D8A1
100
AcDbEntity
  8
DEFPOINTS
 62
     0
100
AcDbPoint
 10
-128.75
 20
-16.00000000000006
 30
0.0
  0
POINT
  5
D8D6
330
D8A1
100
AcDbEntity
  8
DEFPOINTS
 62
     0
100
AcDbPoint
 10
-149.6386983892743
 20
-16.00000000000005
 30
0.0
  0
ENDBLK
  5
D8AC
330
D8A1
100
AcDbEntity
  8
0
100
AcDbBlockEnd
  0
BLOCK
  5
D8B7
330
D8AD
100
AcDbEntity
  8
0
100
AcDbBlockBegin
  2
*D7
 70
     1
 10
0.0
 20
0.0
 30
0.0
  3
*D7
  1

  0
LINE
  5
D8D7
330
D8AD
100
AcDbEntity
  8
AM_5
100
AcDbLine
 10
-0.000000000001962
 20
-15.99999999999402
 30
0.0
 11
-0.000000000001963
 21
-31.00000099999997
 31
0.0
  0
LINE
  5
D8D8
330
D8AD
100
AcDbEntity
  8
AM_5
100
AcDbLine
 10
-55.00000000000056
 20
-15.99999999999982
 30
0.0
 11
-55.00000000000056
 21
-31.00000099999997
 31
0.0
  0
LINE
  5
D8D9
330
D8AD
100
AcDbEntity
  8
AM_5
100
AcDbLine
 10
-2.500000000001962
 20
-30.00000099999997
 30
0.0
 11
-52.50000000000056
 21
-30.00000099999997
 31
0.0
  0
INSERT
  5
D8DA
330
D8AD
100
AcDbEntity
  8
AM_5
100
AcDbBlockReference
  2
_OPEN30
 10
-0.0000000000019629
 20
-30.00000099999997
 30
0.0
 41
2.5
 42
2.5
 43
2.5
  0
INSERT
  5
D8DB
330
D8AD
100
AcDbEntity
  8
AM_5
100
AcDbBlockReference
  2
_OPEN30
 10
-55.00000000000056
 20
-30.00000099999997
 30
0.0
 41
2.5
 42
2.5
 43
2.5
 50
180.0
  0
MTEXT
  5
D8DC
330
D8AD
100
AcDbEntity
  8
AM_5
 62
     2
100
AcDbMText
 10
-27.50000000000126
 20
-26.90000099999997
 30
0.0
 40
3.2
 41
0.0
 71
     5
 72
     1
  1
55
  7
ASAMI
1001
ACAD
1000
MTEXTBEGIN
1070
    73
1070
     1
1070
    44
1040
1.0
1070
    74
1070
     0
1000
MTEXTEND
  0
POINT
  5
D8DD
330
D8AD
100
AcDbEntity
  8
DEFPOINTS
 62
     0
100
AcDbPoint
 10
-0.000000000001962
 20
-14.99999999999402
 30
0.0
  0
POINT
  5
D8DE
330
D8AD
100
AcDbEntity
  8
DEFPOINTS
 62
     0
100
AcDbPoint
 10
-55.00000000000056
 20
-14.99999999999983
 30
0.0
  0
POINT
  5
D8DF
330
D8AD
100
AcDbEntity
  8
DEFPOINTS
 62
     0
100
AcDbPoint
 10
-55.00000000000056
 20
-30.00000099999997
 30
0.0
  0
ENDBLK
  5
D8B8
330
D8AD
100
AcDbEntity
  8
0
100
AcDbBlockEnd
  0
BLOCK
  5
D8C3
330
D8B9
100
AcDbEntity
  8
0
100
AcDbBlockBegin
  2
*D8
 70
     1
 10
0.0
 20
0.0
 30
0.0
  3
*D8
  1

  0
LINE
  5
D8E0
330
D8B9
100
AcDbEntity
  8
AM_5
100
AcDbLine
 10
1.0
 20
15.0
 30
0.0
 11
17.0510506802521
 21
14.99999999999999
 31
0.0
  0
LINE
  5
D8E1
330
D8B9
100
AcDbEntity
  8
AM_5
100
AcDbLine
 10
0.9999999999991715
 20
-15.0
 30
0.0
 11
17.0510506802521
 21
-15.0
 31
0.0
  0
LINE
  5
D8E2
330
D8B9
100
AcDbEntity
  8
AM_5
100
AcDbLine
 10
16.0510506802521
 20
12.49999999999999
 30
0.0
 11
16.0510506802521
 21
-12.5
 31
0.0
  0
INSERT
  5
D8E3
330
D8B9
100
AcDbEntity
  8
AM_5
100
AcDbBlockReference
  2
_OPEN30
 10
16.0510506802521
 20
14.99999999999999
 30
0.0
 41
2.5
 42
2.5
 43
2.5
 50
90.0
  0
INSERT
  5
D8E4
330
D8B9
100
AcDbEntity
  8
AM_5
100
AcDbBlockReference
  2
_OPEN30
 10
16.0510506802521
 20
-15.0
 30
0.0
 41
2.5
 42
2.5
 43
2.5
 50
270.0
  0
MTEXT
  5
D8E5
330
D8B9
100
AcDbEntity
  8
AM_5
 62
     2
100
AcDbMText
 10
12.9510506802521
 20
-0.0000000000000024
 30
0.0
 40
3.2
 41
0.0
 71
     5
 72
     1
  1
%%c30
  7
ASAMI
 11
0.0000000000000001
 21
1.0
 31
0.0
1001
ACAD
1000
MTEXTBEGIN
1070
    73
1070
     1
1070
    44
1040
1.0
1070
    74
1070
     0
1000
MTEXTEND
  0
POINT
  5
D8E6
330
D8B9
100
AcDbEntity
  8
DEFPOINTS
 62
     0
100
AcDbPoint
 10
0.0
 20
15.0
 30
0.0
  0
POINT
  5
D8E7
330
D8B9
100
AcDbEntity
  8
DEFPOINTS
 62
     0
100
AcDbPoint
 10
-0.0000000000008285
 20
-15.0
 30
0.0
  0
POINT
  5
D8E8
330
D8B9
100
AcDbEntity
  8
DEFPOINTS
 62
     0
100
AcDbPoint
 10
16.0510506802521
 20
-15.0
 30
0.0
  0
ENDBLK
  5
D8C4
330
D8B9
100
AcDbEntity
  8
0
100
AcDbBlockEnd
  0
ENDSEC
  0
SECTION
  2
ENTITIES
  0
TEXT
  5
B375
330
1F
100
AcDbEntity
  8
AM_6
100
AcDbText
 10
-81.42857142857303
 20
-64.50000099999987
 30
0.0
 40
5.0
  1
SSM2300
 72
     4
 11
-65.0000000000016
 21
-62.00000099999987
 31
0.0
100
AcDbText
  0
ELLIPSE
  5
D85E
330
1F
100
AcDbEntity
  8
AM_0
100
AcDbEllipse
 10
-54.08906791695369
 20
24.15608783710819
 30
0.0
 11
5.35824293120942
 21
37.41733816734369
 31
0.0
210
0.0
220
0.0
230
0.9999999999999998
 40
0.5810400354553736
 41
2.689970421839205
 42
3.247329336323177
  0
ELLIPSE
  5
D85F
330
1F
100
AcDbEntity
  8
AM_0
100
AcDbEllipse
 10
-52.70401886921797
 20
21.03242781701145
 30
0.0
 11
5.003321932950917
 21
35.92347075262564
 31
0.0
210
0.0
220
0.0
230
1.0
 40
0.6155043088649128
 41
2.599460539958523
 42
3.262674468709247
  0
SPLINE
  5
D860
330
1F
100
AcDbEntity
  8
AM_0
100
AcDbSpline
210
0.0
220
0.0
230
1.0
 70
     8
 71
     3
 72
     8
 73
     4
 74
     0
 42
0.0000000001
 43
0.0000000001
 40
0.0
 40
0.0
 40
0.0
 40
0.0
 40
12.84322795799952
 40
12.84322795799952
 40
12.84322795799952
 40
12.84322795799952
 10
-32.82383375645889
 20
-11.51008637618979
 30
0.0
 10
-43.52652372145863
 20
-11.51008637618979
 30
0.0
 10
-53.66178763730627
 20
-6.67887944065788
 30
0.0
 10
-70.49608486422574
 20
6.566189121590189
 30
0.0
  0
ARC
  5
D861
330
1F
100
AcDbEntity
  8
AM_0
100
AcDbCircle
 10
-54.5851554333343
 20
-4.039995252469653
 30
0.0
 40
19.12194609163402
100
AcDbArc
 50
95.30644313401555
 51
146.3126796564971
  0
LINE
  5
D862
330
1F
100
AcDbEntity
  8
AM_0
100
AcDbLine
 10
-128.75
 20
-16.00000000000006
 30
0.0
 11
-72.50000000000006
 21
-16.0
 31
0.0
  0
LINE
  5
D863
330
1F
100
AcDbEntity
  8
AM_0
100
AcDbLine
 10
-128.7499999999999
 20
15.99999999999995
 30
0.0
 11
-72.50000000000006
 21
16.00000000000001
 31
0.0
  0
DIMENSION
  5
D864
330
1F
100
AcDbEntity
  8
AM_5
100
AcDbDimension
  2
*D5
 10
-0.0000000000031723
 20
-42.00000099999987
 30
0.0
 11
-65.00000000000162
 21
-38.90000099999987
 31
0.0
 70
    32
  1
<>
  3
AM_JIS
100
AcDbAlignedDimension
 13
-130.0
 23
-14.75000000000006
 33
0.0
 14
-0.0000000000031706
 24
-14.99999999999317
 34
0.0
 50
0.0000000000001132
100
AcDbRotatedDimension
1001
GENIUS_GENDTOL_13
1000

1000
h7
1000

1040
0.0
  0
LINE
  5
D865
330
1F
100
AcDbEntity
  8
AM_7
  6
AM_ISO08W050X2
100
AcDbLine
 10
2.051049680252134
 20
0.0
 30
0.0
 11
-131.4999999999999
 21
-0.0000000000000567
 31
0.0
  0
DIMENSION
  5
D866
330
1F
100
AcDbEntity
  8
AM_5
100
AcDbDimension
  2
*D6
 10
-149.6386983892743
 20
-16.00000000000005
 30
0.0
 11
-149.6386983892743
 21
-0.0000000000000232
 31
0.0
 70
   160
  1
%%c<>
  3
AM_JIS
100
AcDbAlignedDimension
 13
-128.75
 23
15.99999999999994
 33
0.0
 14
-128.75
 24
-16.00000000000006
 34
0.0
 50
270.0
100
AcDbRotatedDimension
1001
GENIUS_GENDTOL_13
1000

1000
h7
1000

1040
0.0
  0
LINE
  5
D867
330
1F
100
AcDbEntity
  8
AM_0
100
AcDbLine
 10
-128.75
 20
15.99999999999994
 30
0.0
 11
-128.75
 21
-16.00000000000012
 31
0.0
  0
LINE
  5
D868
330
1F
100
AcDbEntity
  8
AM_0
100
AcDbLine
 10
-130.0
 20
-14.75000000000006
 30
0.0
 11
-129.9999999999999
 21
14.74999999999995
 31
0.0
  0
LINE
  5
D869
330
1F
100
AcDbEntity
  8
AM_0
100
AcDbLine
 10
-130.0
 20
-14.75000000000006
 30
0.0
 11
-128.75
 21
-16.00000000000006
 31
0.0
1001
GENIUS_GENFIL_13
1070
     0
1040
1.25
1040
1.25
1040
20.0
1040
0.0
1002
{
1002
}
1001
GENIUS_GENODEF_13
1002
{
1000
HIER
1070
     0
1002
}
1002
{
1000
MANEDIT
1070
     0
1002
}
1002
{
1000
NOSEL
1070
     0
1002
}
1002
{
1000
BEHIND
1070
     0
1002
}
1002
{
1000
REACTOR
1002
}
1001
GENIUS_GENOBJ-N-CHA_13
1002
{
1000
OWNER
1000
GEN
1002
}
  0
LINE
  5
D86A
330
1F
100
AcDbEntity
  8
AM_7
  6
AM_ISO08W050X2
100
AcDbLine
 10
-130.0
 20
-0.0000000000000567
 30
0.0
 11
-135.6386973892744
 21
-0.0000000000000567
 31
0.0
1001
GENIUS_GENODEF_13
1002
{
1000
HIER
1070
     0
1002
}
1002
{
1000
MANEDIT
1070
     0
1002
}
1002
{
1000
NOSEL
1070
     0
1002
}
1002
{
1000
BEHIND
1070
     0
1002
}
1002
{
1000
REACTOR
1002
}
1001
GENIUS_GENOBJ-N-CEN_13
1002
{
1000
OWNER
1000
GEN
1002
}
  0
LINE
  5
D86B
330
1F
100
AcDbEntity
  8
AM_0
100
AcDbLine
 10
-128.7499999999999
 20
15.99999999999995
 30
0.0
 11
-129.9999999999999
 21
14.74999999999995
 31
0.0
1001
GENIUS_GENFIL_13
1070
     0
1040
1.25
1040
1.25
1040
20.0
1040
0.0
1002
{
1002
}
1001
GENIUS_GENODEF_13
1002
{
1000
HIER
1070
     0
1002
}
1002
{
1000
MANEDIT
1070
     0
1002
}
1002
{
1000
NOSEL
1070
     0
1002
}
1002
{
1000
BEHIND
1070
     0
1002
}
1002
{
1000
REACTOR
1002
}
1001
GENIUS_GENOBJ-N-CHA_13
1002
{
1000
OWNER
1000
GEN
1002
}
  0
DIMENSION
  5
D86C
330
1F
100
AcDbEntity
  8
AM_5
100
AcDbDimension
  2
*D7
 10
-55.00000000000056
 20
-30.00000099999997
 30
0.0
 11
-27.50000000000126
 21
-26.90000099999997
 31
0.0
 70
    32
  1
<>
  3
AM_JIS
100
AcDbAlignedDimension
 13
-0.000000000001962
 23
-14.99999999999402
 33
0.0
 14
-55.00000000000056
 24
-14.99999999999983
 34
0.0
 50
0.0000000000001132
100
AcDbRotatedDimension
1001
GENIUS_GENDTOL_13
1000

1000
h7
1000

1040
0.0
  0
ELLIPSE
  5
D86D
330
1F
100
AcDbEntity
  8
AM_0
100
AcDbEllipse
 10
-34.59949251261332
 20
-26.98621395246942
 30
0.0
 11
-31.13847009696303
 21
23.41433437407835
 31
0.0
210
0.0
220
0.0
230
0.9999999999999998
 40
0.7562144736504238
 41
-0.1794592654281448
 42
0.1794592654281442
  0
SPLINE
  5
D86E
330
1F
100
AcDbEntity
  8
AM_0
100
AcDbSpline
210
0.0
220
0.0
230
1.0
 70
     8
 71
     3
 72
     8
 73
     4
 74
     0
 42
0.0000000001
 43
0.0000000001
 40
1.404846708766566
 40
1.404846708766566
 40
1.404846708766566
 40
1.404846708766566
 40
14.48999654934396
 40
14.48999654934396
 40
14.48999654934396
 40
14.48999654934396
 10
-58.00525288288032
 20
14.76272464783995
 30
0.0
 10
-53.6091850224323
 20
13.6506764006347
 30
0.0
 10
-42.87627376889222
 20
7.314195952353808
 30
0.0
 10
-33.11555902662121
 20
0.0000000000003411
 30
0.0
  0
ELLIPSE
  5
D86F
330
1F
100
AcDbEntity
  8
AM_0
100
AcDbEllipse
 10
35.51692110595666
 20
0.0631119351251215
 30
0.0
 11
-0.0000000000003645
 21
45.39756116973534
 31
0.0
210
0.0
220
0.0
230
1.0
 40
0.8333333333333371
 41
1.489874453283504
 42
1.841418545974789
  0
ELLIPSE
  5
D870
330
1F
100
AcDbEntity
  8
AM_0
100
AcDbEllipse
 10
-54.67977062975126
 20
0.6815952842534596
 30
0.0
 11
-0.0000000000002526
 21
15.68630288253087
 31
0.0
210
0.0
220
0.0
230
1.0
 40
0.8333333333333264
 41
3.11709270014286
 42
3.694936940561177
  0
SPLINE
  5
D871
330
1F
100
AcDbEntity
  8
AM_0
100
AcDbSpline
210
0.0
220
0.0
230
1.0
 70
     8
 71
     3
 72
     8
 73
     4
 74
     0
 42
0.0000000001
 43
0.0000000001
 40
0.0
 40
0.0
 40
0.0
 40
0.0
 40
2.238610194515266
 40
2.238610194515266
 40
2.238610194515266
 40
2.238610194515266
 10
-32.82383375645889
 20
-11.51008637618979
 30
0.0
 10
-25.16597396099121
 20
-11.5100863761898
 30
0.0
 10
-21.57439340089047
 20
-10.9457684318807
 30
0.0
 10
-18.02853888602192
 20
-9.992127531398239
 30
0.0
  0
SPLINE
  5
D872
330
1F
100
AcDbEntity
  8
AM_0
100
AcDbSpline
210
0.0
220
0.0
230
1.0
 70
     8
 71
     3
 72
     8
 73
     4
 74
     0
 42
0.0000000001
 43
0.0000000001
 40
4.219358800530717
 40
4.219358800530717
 40
4.219358800530717
 40
4.219358800530717
 40
14.36247867694493
 40
14.36247867694493
 40
14.36247867694493
 40
14.36247867694493
 10
-0.9374999999998863
 20
-12.23466055353912
 30
0.0
 10
-9.052709392225381
 20
-9.78284337506642
 30
0.0
 10
-16.83220884489355
 20
-4.891421687533124
 30
0.0
 10
-24.61170829756179
 20
0.0000000000001705
 30
0.0
  0
SPLINE
  5
D873
330
1F
100
AcDbEntity
  8
AM_0
100
AcDbSpline
210
0.0
220
0.0
230
1.0
 70
     8
 71
     3
 72
     8
 73
     4
 74
     0
 42
0.0000000001
 43
0.0000000001
 40
1.870660592686466
 40
1.870660592686466
 40
1.870660592686466
 40
1.870660592686466
 40
14.43901837670146
 40
14.43901837670146
 40
14.43901837670146
 40
14.43901837670146
 10
-0.2624999999999886
 20
-14.2003234728653
 30
0.0
 10
-10.51491147807206
 20
-12.66570183630443
 30
0.0
 10
-20.07564476154277
 20
-6.332850918152132
 30
0.0
 10
-28.93382379529942
 20
0.0000000000001705
 30
0.0
  0
SPLINE
  5
D874
330
1F
100
AcDbEntity
  8
AM_0
100
AcDbSpline
210
0.0
220
0.0
230
1.0
 70
     8
 71
     3
 72
     8
 73
     4
 74
     0
 42
0.0000000001
 43
0.0000000001
 40
0.0
 40
0.0
 40
0.0
 40
0.0
 40
14.48999654934396
 40
14.48999654934396
 40
14.48999654934396
 40
14.48999654934396
 10
0.0
 20
-15.0
 30
0.0
 10
-12.07499712445331
 20
-15.0
 30
0.0
 10
-23.03749856222669
 20
-7.5
 30
0.0
 10
-33.11555902662121
 20
0.0
 30
0.0
  0
SPLINE
  5
D875
330
1F
100
AcDbEntity
  8
AM_0
100
AcDbSpline
210
0.0
220
0.0
230
1.0
 70
     8
 71
     3
 72
     8
 73
     4
 74
     0
 42
0.0000000001
 43
0.0000000001
 40
0.7142832446738512
 40
0.7142832446738512
 40
0.7142832446738512
 40
0.7142832446738512
 40
14.36247867694493
 40
14.36247867694493
 40
14.36247867694493
 40
14.36247867694493
 10
-52.55069781935593
 20
13.80179336947287
 30
0.0
 10
-45.54730408838998
 20
13.16342110642659
 30
0.0
 10
-35.07950619297588
 20
6.581710553213383
 30
0.0
 10
-24.61170829756179
 20
0.0000000000001705
 30
0.0
  0
SPLINE
  5
D876
330
1F
100
AcDbEntity
  8
AM_0
100
AcDbSpline
210
0.0
220
0.0
230
1.0
 70
     8
 71
     3
 72
     8
 73
     4
 74
     0
 42
0.0000000001
 43
0.0000000001
 40
0.0
 40
0.0
 40
0.0
 40
0.0
 40
7.57842115059705
 40
7.57842115059705
 40
7.57842115059705
 40
7.57842115059705
 10
0.0
 20
15.0
 30
0.0
 10
-6.31535095883089
 20
15.0
 30
0.0
 10
-12.32638980123965
 20
12.94844968794717
 30
0.0
 10
-18.19227497641043
 20
9.91833153305248
 30
0.0
  0
SPLINE
  5
D877
330
1F
100
AcDbEntity
  8
AM_0
100
AcDbSpline
210
0.0
220
0.0
230
1.0
 70
     8
 71
     3
 72
     8
 73
     4
 74
     0
 42
0.0000000001
 43
0.0000000001
 40
0.0
 40
0.0
 40
0.0
 40
0.0
 40
2.586565323616739
 40
2.586565323616739
 40
2.586565323616739
 40
2.586565323616739
 10
0.0
 20
12.22410806005189
 30
0.0
 10
-1.383168451257347
 20
10.24032958845302
 30
0.0
 10
-3.757298761790025
 20
9.388421390773061
 30
0.0
 10
-5.891430577554785
 20
9.025360267584233
 30
0.0
  0
SPLINE
  5
D878
330
1F
100
AcDbEntity
  8
AM_0
100
AcDbSpline
210
0.0
220
0.0
230
1.0
 70
     8
 71
     3
 72
     8
 73
     4
 74
     0
 42
0.0000000001
 43
0.0000000001
 40
0.3581103616548037
 40
0.3581103616548037
 40
0.3581103616548037
 40
0.3581103616548037
 40
14.43901837670146
 40
14.43901837670146
 40
14.43901837670146
 40
14.43901837670146
 10
-56.35360195989119
 20
15.0
 30
0.0
 10
-51.05903456616482
 20
14.18996702415967
 30
0.0
 10
-40.34770630558916
 20
7.09498351207992
 30
0.0
 10
-28.93382379529942
 20
0.0000000000001705
 30
0.0
  0
LINE
  5
D879
330
1F
100
AcDbEntity
  8
AM_11
100
AcDbLine
 10
-0.0000000000018758
 20
15.0
 30
0.0
 11
-55.00000000000056
 21
15.0
 31
0.0
  0
LINE
  5
D87A
330
1F
100
AcDbEntity
  8
AM_11
100
AcDbLine
 10
-55.00000000000056
 20
-14.99999999999983
 30
0.0
 11
0.0
 21
-15.0
 31
0.0
  0
LINE
  5
D87B
330
1F
100
AcDbEntity
  8
AM_0
100
AcDbLine
 10
0.0
 20
0.5999999999999659
 30
0.0
 11
-5.891430577554785
 21
9.025360267584233
 31
0.0
  0
LINE
  5
D87C
330
1F
100
AcDbEntity
  8
AM_0
100
AcDbLine
 10
-32.82383375645889
 20
-11.51008637618979
 30
0.0
 11
-57.12284846718114
 21
-13.3808602287102
 31
0.0
  0
LINE
  5
D87D
330
1F
100
AcDbEntity
  8
AM_0
100
AcDbLine
 10
-45.73056238307674
 20
11.91745440275097
 30
0.0
 11
-5.891430577554785
 21
9.025360267584233
 31
0.0
  0
LINE
  5
D880
330
1F
100
AcDbEntity
  8
AM_11
100
AcDbLine
 10
-55.00000000000063
 20
-14.99999999999625
 30
0.0
 11
-55.00000000000056
 21
15.0
 31
0.0
  0
LINE
  5
D881
330
1F
100
AcDbEntity
  8
AM_0
100
AcDbLine
 10
-69.75252258054533
 20
-14.99999999999991
 30
0.0
 11
-55.00000000000056
 21
-14.99999999999983
 31
0.0
  0
LINE
  5
D882
330
1F
100
AcDbEntity
  8
AM_0
100
AcDbLine
 10
-69.75252258054533
 20
14.99999999999991
 30
0.0
 11
-69.75252258054533
 21
7.604737297188222
 31
0.0
  0
LINE
  5
D884
330
1F
100
AcDbEntity
  8
AM_0
100
AcDbLine
 10
-72.50000000000006
 20
-15.99999999999996
 30
0.0
 11
-72.50000000000006
 21
15.99999999999996
 31
0.0
  0
LINE
  5
D885
330
1F
100
AcDbEntity
  8
AM_0
100
AcDbLine
 10
-69.75252258054533
 20
-14.99999999999991
 30
0.0
 11
-72.50000000000006
 21
-15.99999999999996
 31
0.0
  0
LINE
  5
D888
330
1F
100
AcDbEntity
  8
AM_0
100
AcDbLine
 10
-57.75252258054528
 20
14.99999999999999
 30
0.0
 11
-56.35360195989113
 21
14.99999999999999
 31
0.0
  0
LINE
  5
D88D
330
1F
100
AcDbEntity
  8
AM_0
100
AcDbLine
 10
-0.2624999999999886
 20
-14.20032347286547
 30
0.0
 11
-0.2624999999999886
 21
0.9754023816671519
 31
0.0
  0
DIMENSION
  5
D88E
330
1F
100
AcDbEntity
  8
AM_5
100
AcDbDimension
  2
*D8
 10
16.0510506802521
 20
-15.0
 30
0.0
 11
12.9510506802521
 21
-0.0000000000000024
 31
0.0
 70
    32
  1
%%c<>
  3
AM_JIS
100
AcDbAlignedDimension
 13
0.0
 23
15.0
 33
0.0
 14
-0.0000000000008285
 24
-15.0
 34
0.0
 50
90.0
100
AcDbRotatedDimension
1001
GENIUS_GENDTOL_13
1000

1000
h7
1000

1040
0.0
  0
LINE
  5
D88F
330
1F
100
AcDbEntity
  8
AM_0
100
AcDbLine
 10
0.0
 20
-15.0
 30
0.0
 11
0.0
 21
0.5999999999999659
 31
0.0
  0
LINE
  5
D890
330
1F
100
AcDbEntity
  8
AM_0
100
AcDbLine
 10
0.0
 20
-15.0
 30
0.0
 11
-0.2624999999999886
 21
-14.20032347286547
 31
0.0
  0
LINE
  5
D891
330
1F
100
AcDbEntity
  8
AM_0
100
AcDbLine
 10
-0.2624999999999886
 20
-14.20032347286547
 30
0.0
 11
-0.9375
 21
-12.23466055353981
 31
0.0
  0
LINE
  5
D892
330
1F
100
AcDbEntity
  8
AM_0
100
AcDbLine
 10
-0.9375
 20
-12.23466055353981
 30
0.0
 11
-0.9375
 21
-12.07306629339785
 31
0.0
  0
LINE
  5
D893
330
1F
100
AcDbEntity
  8
AM_0
100
AcDbLine
 10
0.0
 20
3.0
 30
0.0
 11
0.0
 21
15.0
 31
0.0
  0
LINE
  5
D894
330
1F
100
AcDbEntity
  8
AM_0
100
AcDbLine
 10
-0.8390996311773619
 20
1.799999999999897
 30
0.0
 11
0.0
 21
3.0
 31
0.0
  0
LINE
  5
D908
330
1F
100
AcDbEntity
  8
AM_0
100
AcDbLine
 10
-69.75252258054533
 20
14.99999999999991
 30
0.0
 11
-72.50000000000006
 21
15.99999999999996
 31
0.0
  0
LINE
  5
D90A
330
1F
100
AcDbEntity
  8
AM_0
100
AcDbLine
 10
-69.75252258054533
 20
14.99999999999991
 30
0.0
 11
-55.00000000000056
 21
14.99999999999983
 31
0.0
  0
LINE
  5
D90B
330
1F
100
AcDbEntity
  8
AM_0
100
AcDbLine
 10
-69.75252258054533
 20
5.983236358533524
 30
0.0
 11
-69.75252258054533
 21
-14.99999999999991
 31
0.0
  0
VIEWPORT
  5
110
330
101
100
AcDbEntity
 67
     1
  8
0
100
AcDbViewport
 10
420.5
 20
297.0
 30
0.0
 40
948.9782706766916
 41
628.452
 68
     1
 69
     1
1001
ACAD
1000
MVIEW
1002
{
1070
    16
1010
0.0
1020
0.0
1030
0.0
1010
0.0
1020
0.0
1030
1.0
1040
0.0
1040
628.452
1040
420.5
1040
297.0
1040
50.0
1040
0.0
1040
0.0
1070
     0
1070
   100
1070
     1
1070
     1
1070
     0
1070
     0
1070
     0
1070
     0
1040
0.0
1040
0.0
1040
0.0
1040
10.0
1040
10.0
1040
10.0
1040
10.0
1070
     0
1002
{
1002
}
1002
}
  0
ENDSEC
  0
SECTION
  2
OBJECTS
  0
DICTIONARY
  5
C
330
0
100
AcDbDictionary
  3
ACAD_GROUP
350
D
  3
ACAD_LAYOUT
350
1A
  3
ACAD_MLINESTYLE
350
17
  3
ACAD_PLOTSETTINGS
350
19
  3
ACAD_PLOTSTYLENAME
350
E
  3
ACDBVARIABLEDICTIONARY
350
34
  3
ACMDICTIONARY
350
43
  3
AMG
350
2B
  3
AMGSNAPSETTINGS
350
6E
  3
ASE_INDEX_DICTIONARY
350
151A
  3
DWGPROPS
350
D922
  3
ACDBHEADERROUNDTRIPXREC
350
D92F
  0
DICTIONARY
  5
74
330
1F
100
AcDbDictionary
280
     1
  3
ACAD_INDEX
360
D924
  3
ACAD_LAYOUTSELFREF
360
D952
  0
DICTIONARY
  5
D957
330
101
100
AcDbDictionary
280
     1
  3
ACAD_LAYOUTSELFREF
360
D958
  0
DICTIONARY
  5
D
102
{ACAD_REACTORS
330
C
102
}
330
C
100
AcDbDictionary
  0
DICTIONARY
  5
1A
102
{ACAD_REACTORS
330
C
102
}
330
C
100
AcDbDictionary
  0
DICTIONARY
  5
17
102
{ACAD_REACTORS
330
C
102
}
330
C
100
AcDbDictionary
  3
STANDARD
350
18
  0
DICTIONARY
  5
19
102
{ACAD_REACTORS
330
C
102
}
330
C
100
AcDbDictionary
  0
ACDBDICTIONARYWDFLT
  5
E
102
{ACAD_REACTORS
330
C
102
}
330
C
100
AcDbDictionary
281
     1
  3
Normal
350
F
100
AcDbDictionaryWithDefault
340
F
  0
DICTIONARY
  5
34
102
{ACAD_REACTORS
330
C
102
}
330
C
100
AcDbDictionary
  3
INDEXCTL
350
35
  3
SORTENTS
350
B5E
  0
DICTIONARY
  5
43
102
{ACAD_REACTORS
330
C
102
}
330
C
100
AcDbDictionary
  3
ACMSTDDICTIONARY
350
260
  0
DICTIONARY
  5
2B
102
{ACAD_REACTORS
330
C
102
}
330
C
100
AcDbDictionary
  3
ACMGSETTINGS
350
2C
  0
DICTIONARY
  5
6E
102
{ACAD_REACTORS
330
C
102
}
330
C
100
AcDbDictionary
  0
DICTIONARY
  5
151A
102
{ACAD_REACTORS
330
C
102
}
330
C
100
AcDbDictionary
  3
ASEBLOCKHIERARCHYINDEXRECORD
350
151C
1001
DCO15
1040
1471862535.906
  0
XRECORD
  5
D922
102
{ACAD_REACTORS
330
C
102
}
330
C
100
AcDbXrecord
  1
DWGPROPS COOKIE
  2

  3

  4

  6

  7

  8

  9

300
AmdtFileType=82
301
=
302
=
303
=
304
=
305
=
306
=
307
=
308
=
309
=
 40
0.5263164467592593
 41
2452838.430434386
 42
2453045.604653969
  1

 90
        1
  0
DICTIONARY
  5
D92F
102
{ACAD_REACTORS
330
C
102
}
330
C
100
AcDbDictionary
  3
TSTACKALIGN
350
D930
  3
TSTACKSIZE
350
D931
  3
HYPERLINKBASE
350
D932
  3
STYLESHEET
350
D933
  3
LAYOUTDICT
350
D934
  3
PLOTSETDICT
350
D935
  3
PLOTSTYLNAMDICT
350
D936
  3
LWETCUNION
350
D937
  3
INSUNITS
350
D938
  3
CEPSNTYPE
350
D939
  3
FINGERPRINTGUID
350
D93A
  3
VERSIONGUID
350
D93B
  3
PSVPSCALE
350
D93C
  3
DIMSTYLEDATA
350
D93D
  3
PUCSORTHOREF
350
D93E
  3
PUCSORTHOVIEW
350
D93F
  3
PUCSBASE
350
D940
  3
PUCSORGTOP
350
D941
  3
PUCSORGBOTTOM
350
D942
  3
PUCSORGLEFT
350
D943
  3
PUCSORGRIGHT
350
D944
  3
PUCSORGFRONT
350
D945
  3
PUCSORGBACK
350
D946
  3
UCSORTHOREF
350
D947
  3
UCSORTHOVIEW
350
D948
  3
UCSBASE
350
D949
  3
UCSORGTOP
350
D94A
  3
UCSORGBOTTOM
350
D94B
  3
UCSORGLEFT
350
D94C
  3
UCSORGRIGHT
350
D94D
  3
UCSORGFRONT
350
D94E
  3
UCSORGBACK
350
D94F
  0
DICTIONARY
  5
D924
102
{ACAD_REACTORS
330
74
102
}
330
74
100
AcDbDictionary
  3
*A1
350
D925
  0
XRECORD
  5
D952
102
{ACAD_REACTORS
330
74
102
}
330
74
100
AcDbXrecord
340
1F
  0
XRECORD
  5
D958
102
{ACAD_REACTORS
330
D957
102
}
330
D957
100
AcDbXrecord
340
101
  0
MLINESTYLE
  5
18
102
{ACAD_REACTORS
330
17
102
}
330
17
100
AcDbMlineStyle
  2
STANDARD
 70
     0
  3

 62
   256
 51
90.0
 52
90.0
 71
     2
 49
0.5
 62
   256
  6
BYLAYER
 49
-0.5
 62
   256
  6
BYLAYER
  0
ACDBPLACEHOLDER
  5
F
102
{ACAD_REACTORS
330
E
102
}
330
E
100
AcDbPlaceHolder
280
     0
  0
DICTIONARYVAR
  5
35
102
{ACAD_REACTORS
330
34
102
}
330
34
100
DictionaryVariables
280
     0
  1
1
  0
DICTIONARYVAR
  5
B5E
102
{ACAD_REACTORS
330
34
102
}
330
34
100
DictionaryVariables
280
     0
  1
96
  0
DICTIONARY
  5
260
102
{ACAD_REACTORS
330
43
102
}
330
43
100
AcDbDictionary
  0
DICTIONARY
  5
2C
102
{ACAD_REACTORS
330
2B
102
}
330
2B
100
AcDbDictionary
  3
DWGSETTINGS
350
2D
  0
XRECORD
  5
151C
102
{ACAD_REACTORS
330
151A
102
}
330
151A
100
AcDbXrecord
330
0
330
0
330
0
330
0
330
0
330
0
330
0
330
0
  0
XRECORD
  5
D930
102
{ACAD_REACTORS
330
D92F
102
}
330
D92F
100
AcDbXrecord
 90
        1
  0
XRECORD
  5
D931
102
{ACAD_REACTORS
330
D92F
102
}
330
D92F
100
AcDbXrecord
 90
       70
  0
XRECORD
  5
D932
102
{ACAD_REACTORS
330
D92F
102
}
330
D92F
100
AcDbXrecord
  1

  0
XRECORD
  5
D933
102
{ACAD_REACTORS
330
D92F
102
}
330
D92F
100
AcDbXrecord
  1
ASAMI.ctb
  0
XRECORD
  5
D934
102
{ACAD_REACTORS
330
D92F
102
}
330
D92F
100
AcDbXrecord
340
1A
  0
XRECORD
  5
D935
102
{ACAD_REACTORS
330
D92F
102
}
330
D92F
100
AcDbXrecord
340
19
  0
XRECORD
  5
D936
102
{ACAD_REACTORS
330
D92F
102
}
330
D92F
100
AcDbXrecord
340
E
  0
XRECORD
  5
D937
102
{ACAD_REACTORS
330
D92F
102
}
330
D92F
100
AcDbXrecord
 90
    10781
  0
XRECORD
  5
D938
102
{ACAD_REACTORS
330
D92F
102
}
330
D92F
100
AcDbXrecord
 90
        4
  0
XRECORD
  5
D939
102
{ACAD_REACTORS
330
D92F
102
}
330
D92F
100
AcDbXrecord
 90
        0
  0
XRECORD
  5
D93A
102
{ACAD_REACTORS
330
D92F
102
}
330
D92F
100
AcDbXrecord
  1
{AFB28963-8C59-40AE-9337-C84526B81ACE}
  0
XRECORD
  5
D93B
102
{ACAD_REACTORS
330
D92F
102
}
330
D92F
100
AcDbXrecord
  1
{3E4EBA64-A081-4C86-831E-B0DE45DB6831}
  0
XRECORD
  5
D93C
102
{ACAD_REACTORS
330
D92F
102
}
330
D92F
100
AcDbXrecord
 40
0.0
  0
XRECORD
  5
D93D
102
{ACAD_REACTORS
330
D92F
102
}
330
D92F
100
AcDbXrecord
1000
DSTYLE
1002
{
1070
    79
 70
     2
1070
   341
340
59
1070
   342
340
59
1070
   371
 70
    -1
1070
   372
 70
    -1
1002
}
  0
XRECORD
  5
D93E
102
{ACAD_REACTORS
330
D92F
102
}
330
D92F
100
AcDbXrecord
340
0
  0
XRECORD
  5
D93F
102
{ACAD_REACTORS
330
D92F
102
}
330
D92F
100
AcDbXrecord
 70
     0
  0
XRECORD
  5
D940
102
{ACAD_REACTORS
330
D92F
102
}
330
D92F
100
AcDbXrecord
340
0
  0
XRECORD
  5
D941
102
{ACAD_REACTORS
330
D92F
102
}
330
D92F
100
AcDbXrecord
 10
0.0
 20
0.0
 30
0.0
  0
XRECORD
  5
D942
102
{ACAD_REACTORS
330
D92F
102
}
330
D92F
100
AcDbXrecord
 10
0.0
 20
0.0
 30
0.0
  0
XRECORD
  5
D943
102
{ACAD_REACTORS
330
D92F
102
}
330
D92F
100
AcDbXrecord
 10
0.0
 20
0.0
 30
0.0
  0
XRECORD
  5
D944
102
{ACAD_REACTORS
330
D92F
102
}
330
D92F
100
AcDbXrecord
 10
0.0
 20
0.0
 30
0.0
  0
XRECORD
  5
D945
102
{ACAD_REACTORS
330
D92F
102
}
330
D92F
100
AcDbXrecord
 10
0.0
 20
0.0
 30
0.0
  0
XRECORD
  5
D946
102
{ACAD_REACTORS
330
D92F
102
}
330
D92F
100
AcDbXrecord
 10
0.0
 20
0.0
 30
0.0
  0
XRECORD
  5
D947
102
{ACAD_REACTORS
330
D92F
102
}
330
D92F
100
AcDbXrecord
340
0
  0
XRECORD
  5
D948
102
{ACAD_REACTORS
330
D92F
102
}
330
D92F
100
AcDbXrecord
 70
     0
  0
XRECORD
  5
D949
102
{ACAD_REACTORS
330
D92F
102
}
330
D92F
100
AcDbXrecord
340
0
  0
XRECORD
  5
D94A
102
{ACAD_REACTORS
330
D92F
102
}
330
D92F
100
AcDbXrecord
 10
0.0
 20
0.0
 30
0.0
  0
XRECORD
  5
D94B
102
{ACAD_REACTORS
330
D92F
102
}
330
D92F
100
AcDbXrecord
 10
0.0
 20
0.0
 30
0.0
  0
XRECORD
  5
D94C
102
{ACAD_REACTORS
330
D92F
102
}
330
D92F
100
AcDbXrecord
 10
0.0
 20
0.0
 30
0.0
  0
XRECORD
  5
D94D
102
{ACAD_REACTORS
330
D92F
102
}
330
D92F
100
AcDbXrecord
 10
0.0
 20
0.0
 30
0.0
  0
XRECORD
  5
D94E
102
{ACAD_REACTORS
330
D92F
102
}
330
D92F
100
AcDbXrecord
 10
0.0
 20
0.0
 30
0.0
  0
XRECORD
  5
D94F
102
{ACAD_REACTORS
330
D92F
102
}
330
D92F
100
AcDbXrecord
 10
0.0
 20
0.0
 30
0.0
  0
LAYER_INDEX
  5
D925
102
{ACAD_REACTORS
330
D924
102
}
330
D924
100
AcDbIndex
 40
2453151.846003588
100
AcDbLayerIndex
  8
0
360
D926
 90
        0
  8
AM_0
360
D927
 90
       40
  8
AM_11
360
D928
 90
        3
  8
AM_7
360
D929
 90
        2
  8
AM_5
360
D92A
 90
        4
  8
Defpoints
360
D92B
 90
        0
  8
AM_6
360
D92C
 90
        1
  8
AM_CL
360
D92D
 90
        0
  0
XRECORD
  5
2D
102
{ACAD_REACTORS
330
2C
102
}
330
2C
100
AcDbXrecord
  1
VERSION
140
15.0
  1
PRODUCT
  2
AutoCAD Mechanical 2000
  0
IDBUFFER
  5
D926
330
0
100
AcDbIdBuffer
  0
IDBUFFER
  5
D927
330
0
100
AcDbIdBuffer
330
D873
330
D874
330
D875
330
D876
330
D877
330
D878
330
D87B
330
D87C
330
D87D
330
D881
330
D882
330
D884
330
D885
330
D888
330
D88D
330
D88F
330
D890
330
D891
330
D892
330
D893
330
D894
330
D908
330
D90A
330
D90B
330
D85E
330
D85F
330
D860
330
D861
330
D862
330
D863
330
D867
330
D868
330
D869
330
D86B
330
D86D
330
D86E
330
D86F
330
D870
330
D871
330
D872
  0
IDBUFFER
  5
D928
330
0
100
AcDbIdBuffer
330
D879
330
D87A
330
D880
  0
IDBUFFER
  5
D929
330
0
100
AcDbIdBuffer
330
D865
330
D86A
  0
IDBUFFER
  5
D92A
330
0
100
AcDbIdBuffer
330
D864
330
D866
330
D86C
330
D88E
  0
IDBUFFER
  5
D92B
330
0
100
AcDbIdBuffer
  0
IDBUFFER
  5
D92C
330
0
100
AcDbIdBuffer
330
B375
  0
IDBUFFER
  5
D92D
330
0
100
AcDbIdBuffer
  0
ENDSEC
  0
EOF
