  0
SECTION
  2
HEADER
  9
$ACADVER
  1
AC1014
  9
$ACADMAINTVER
 70
     9
  9
$DWGCODEPAGE
  3
ANSI_932
  9
$INSBASE
 10
0.0
 20
0.0
 30
0.0
  9
$EXTMIN
 10
-51.41123869649856
 20
-26.25000100000021
 30
-0.00000001
  9
$EXTMAX
 10
8.629789688840503
 20
3.499999999999997
 30
0.00000001
  9
$LIMMIN
 10
-55.21293687177774
 20
-30.39286754296972
  9
$LIMMAX
 10
14.31831916953609
 20
14.21355299160433
  9
$ORTHOMODE
 70
     0
  9
$REGENMODE
 70
     1
  9
$FILLMODE
 70
     1
  9
$QTEXTMODE
 70
     0
  9
$MIRRTEXT
 70
     0
  9
$DRAGMODE
 70
     2
  9
$LTSCALE
 40
1.0
  9
$OSMODE
 70
    55
  9
$ATTMODE
 70
     1
  9
$TEXTSIZE
 40
2.5
  9
$TRACEWID
 40
1.0
  9
$TEXTSTYLE
  7
STANDARD
  9
$CLAYER
  8
AM_0
  9
$CELTYPE
  6
BYLAYER
  9
$CECOLOR
 62
   256
  9
$CELTSCALE
 40
1.0
  9
$DELOBJ
 70
     1
  9
$DISPSILH
 70
     0
  9
$DIMSCALE
 40
0.5
  9
$DIMASZ
 40
2.5
  9
$DIMEXO
 40
1.0
  9
$DIMDLI
 40
12.0
  9
$DIMRND
 40
0.0
  9
$DIMDLE
 40
0.0
  9
$DIMEXE
 40
1.0
  9
$DIMTP
 40
0.1
  9
$DIMTM
 40
0.1
  9
$DIMTXT
 40
3.2
  9
$DIMCEN
 40
0.0
  9
$DIMTSZ
 40
0.0
  9
$DIMTOL
 70
     0
  9
$DIMLIM
 70
     0
  9
$DIMTIH
 70
     0
  9
$DIMTOH
 70
     0
  9
$DIMSE1
 70
     0
  9
$DIMSE2
 70
     0
  9
$DIMTAD
 70
     3
  9
$DIMZIN
 70
     8
  9
$DIMBLK
  1
OPEN30
  9
$DIMASO
 70
     1
  9
$DIMSHO
 70
     1
  9
$DIMPOST
  1

  9
$DIMAPOST
  1
"
  9
$DIMALT
 70
     0
  9
$DIMALTD
 70
     2
  9
$DIMALTF
 40
0.0393701
  9
$DIMLFAC
 40
1.0
  9
$DIMTOFL
 70
     1
  9
$DIMTVP
 40
0.0
  9
$DIMTIX
 70
     0
  9
$DIMSOXD
 70
     0
  9
$DIMSAH
 70
     0
  9
$DIMBLK1
  1

  9
$DIMBLK2
  1

  9
$DIMSTYLE
  2
AM_JIS
  9
$DIMCLRD
 70
   256
  9
$DIMCLRE
 70
   256
  9
$DIMCLRT
 70
     2
  9
$DIMTFAC
 40
0.71
  9
$DIMGAP
 40
1.5
  9
$DIMJUST
 70
     0
  9
$DIMSD1
 70
     0
  9
$DIMSD2
 70
     0
  9
$DIMTOLJ
 70
     0
  9
$DIMTZIN
 70
     0
  9
$DIMALTZ
 70
     0
  9
$DIMALTTZ
 70
     0
  9
$DIMFIT
 70
     3
  9
$DIMUPT
 70
     0
  9
$DIMUNIT
 70
     2
  9
$DIMDEC
 70
     3
  9
$DIMTDEC
 70
     3
  9
$DIMALTU
 70
     2
  9
$DIMALTTD
 70
     2
  9
$DIMTXSTY
  7
ASAMI
  9
$DIMAUNIT
 70
     0
  9
$LUNITS
 70
     2
  9
$LUPREC
 70
     2
  9
$SKETCHINC
 40
1.0
  9
$FILLETRAD
 40
2.5
  9
$AUNITS
 70
     0
  9
$AUPREC
 70
     0
  9
$MENU
  1
.
  9
$ELEVATION
 40
0.0
  9
$PELEVATION
 40
0.0
  9
$THICKNESS
 40
0.0
  9
$LIMCHECK
 70
     0
  9
$BLIPMODE
 70
     0
  9
$CHAMFERA
 40
0.25
  9
$CHAMFERB
 40
0.25
  9
$CHAMFERC
 40
20.0
  9
$CHAMFERD
 40
0.0
  9
$SKPOLY
 70
     0
  9
$TDCREATE
 40
2452836.771637361
  9
$TDUPDATE
 40
2453151.795030069
  9
$TDINDWG
 40
0.0477833102
  9
$TDUSRTIMER
 40
0.0477833102
  9
$USRTIMER
 70
     1
  9
$ANGBASE
 50
0.0
  9
$ANGDIR
 70
     0
  9
$PDMODE
 70
     0
  9
$PDSIZE
 40
0.0
  9
$PLINEWID
 40
0.0
  9
$COORDS
 70
     1
  9
$SPLFRAME
 70
     0
  9
$SPLINETYPE
 70
     6
  9
$SPLINESEGS
 70
     8
  9
$ATTDIA
 70
     1
  9
$ATTREQ
 70
     1
  9
$HANDLING
 70
 12289
  9
$HANDSEED
  5
1A2D
  9
$SURFTAB1
 70
     6
  9
$SURFTAB2
 70
     6
  9
$SURFTYPE
 70
     6
  9
$SURFU
 70
     6
  9
$SURFV
 70
     6
  9
$UCSNAME
  2

  9
$UCSORG
 10
0.0
 20
0.0
 30
0.0
  9
$UCSXDIR
 10
1.0
 20
0.0
 30
0.0
  9
$UCSYDIR
 10
0.0
 20
1.0
 30
0.0
  9
$PUCSNAME
  2

  9
$PUCSORG
 10
0.0
 20
0.0
 30
0.0
  9
$PUCSXDIR
 10
1.0
 20
0.0
 30
0.0
  9
$PUCSYDIR
 10
0.0
 20
1.0
 30
0.0
  9
$USERI1
 70
     0
  9
$USERI2
 70
     0
  9
$USERI3
 70
     0
  9
$USERI4
 70
     0
  9
$USERI5
 70
     0
  9
$USERR1
 40
0.0
  9
$USERR2
 40
0.0
  9
$USERR3
 40
0.0
  9
$USERR4
 40
0.0
  9
$USERR5
 40
0.0
  9
$WORLDVIEW
 70
     1
  9
$SHADEDGE
 70
     3
  9
$SHADEDIF
 70
    70
  9
$TILEMODE
 70
     1
  9
$MAXACTVP
 70
    64
  9
$PINSBASE
 10
0.0
 20
0.0
 30
0.0
  9
$PLIMCHECK
 70
     0
  9
$PEXTMIN
 10
1.000000000000000E+20
 20
1.000000000000000E+20
 30
1.000000000000000E+20
  9
$PEXTMAX
 10
-1.000000000000000E+20
 20
-1.000000000000000E+20
 30
-1.000000000000000E+20
  9
$PLIMMIN
 10
0.0
 20
0.0
  9
$PLIMMAX
 10
841.0
 20
594.0
  9
$UNITMODE
 70
     0
  9
$VISRETAIN
 70
     1
  9
$PLINEGEN
 70
     0
  9
$PSLTSCALE
 70
     0
  9
$TREEDEPTH
 70
  3020
  9
$PICKSTYLE
 70
     0
  9
$CMLSTYLE
  2
STANDARD
  9
$CMLJUST
 70
     0
  9
$CMLSCALE
 40
20.0
  9
$PROXYGRAPHICS
 70
     1
  9
$MEASUREMENT
 70
     1
  0
ENDSEC
  0
SECTION
  2
CLASSES
  0
CLASS
  1
ACDBDICTIONARYWDFLT
  2
AcDbDictionaryWithDefault
  3
AutoCAD 2000
 90
        0
280
     0
281
     0
  0
CLASS
  1
ACDBPLACEHOLDER
  2
AcDbPlaceHolder
  3
AutoCAD 2000
 90
        0
280
     0
281
     0
  0
CLASS
  1
LAYOUT
  2
AcDbLayout
  3
AutoCAD 2000
 90
        0
280
     0
281
     0
  0
CLASS
  1
AMGSETTINGSOBJ
  2
AmgSettingsObj
  3
"AcadM|Product Description: AutoCAD Mechanical 2000|Company: Autodesk"
 90
        0
280
     0
281
     0
  0
CLASS
  1
ACME_DOCUMENT
  2
AcMeDbDoc
  3
AcMeServices
 90
        0
280
     0
281
     0
  0
CLASS
  1
ACMESCOPE
  2
AcMeScope
  3
AcMeServices
 90
        0
280
     0
281
     0
  0
CLASS
  1
ACMECOMMANDHISTORY
  2
AcMeCommandHistory
  3
AcMeServices
 90
        0
280
     0
281
     0
  0
CLASS
  1
DICTIONARYVAR
  2
AcDbDictionaryVar
  3
AutoCAD 2000
 90
        0
280
     0
281
     0
  0
CLASS
  1
ACIMSYSVARMAN
  2
AcImSysVarManager
  3
AcMeServices
 90
        0
280
     0
281
     0
  0
CLASS
  1
ACIMREALSYSVAR
  2
AcImRealSysVar
  3
AcMeServices
 90
        0
280
     0
281
     0
  0
CLASS
  1
ACIMINTSYSVAR
  2
AcImIntSysVar
  3
AcMeServices
 90
        0
280
     0
281
     0
  0
CLASS
  1
ACMEDRAWINGMAN
  2
AcMeDrawingMan
  3
AcMeServices
 90
        0
280
     0
281
     0
  0
CLASS
  1
ACMEVIEW
  2
AcMeView
  3
AcMeServices
 90
        0
280
     0
281
     0
  0
CLASS
  1
ACDBENTITYCACHE
  2
AcMeEntityCache
  3
AcMeServices
 90
        0
280
     0
281
     0
  0
CLASS
  1
GSMANAGER
  2
AcMeGSManager
  3
AcMeServices
 90
        0
280
     0
281
     0
  0
CLASS
  1
AmdtInternalReactor
  2
AmdtInternalReactor
  3
AcMeServices
 90
        0
280
     0
281
     0
  0
CLASS
  1
ACMESTATEMGR
  2
AcMeStateMgr
  3
AcMeServices
 90
        0
280
     0
281
     0
  0
CLASS
  1
ACME_DATABASE
  2
AcMeDbDatabase
  3
AcMeServices
 90
        0
280
     0
281
     0
  0
CLASS
  1
ACRFINSADJUSTERMGR
  2
AcRfInsAdjusterMgr
  3
AcMeServices
 90
        0
280
     0
281
     0
  0
CLASS
  1
ACMDATADICTIONARY
  2
AcmDataDictionary
  3
"AcmSymBB|Product Description: AutoCAD Mechanical 2000|Company: Autodesk"
 90
        0
280
     0
281
     0
  0
CLASS
  1
ACMDATAENTRYBLOCK
  2
AcmDataEntryBlock
  3
"AcmSymBB|Product Description: AutoCAD Mechanical 2000|Company: Autodesk"
 90
        0
280
     0
281
     0
  0
CLASS
  1
AMGOBJPROPCFG
  2
AmgObjPropCfg
  3
"AmgLay|Product Description: AutoCAD Mechanical 2000|Company: Autodesk"
 90
        1
280
     0
281
     0
  0
CLASS
  1
ACAMGFILTERDAT
  2
AcAmgFilterDat
  3
"AcadM|Product Description: AutoCAD Mechanical 2000|Company: Autodesk"
 90
        0
280
     0
281
     0
  0
CLASS
  1
LAYER_INDEX
  2
AcDbLayerIndex
  3
AutoCAD 2000
 90
        0
280
     0
281
     0
  0
CLASS
  1
IDBUFFER
  2
AcDbIdBuffer
  3
AutoCAD 2000
 90
        0
280
     0
281
     0
  0
CLASS
  1
ACIMSTRSYSVAR
  2
AcImStrSysVar
  3
AcMeServices
 90
        0
280
     0
281
     0
  0
CLASS
  1
ACMSTANDARDJIS
  2
AcmStandardJIS
  3
"AcmSymBB|Product Description: AutoCAD Mechanical 2000|Company: Autodesk"
 90
        0
280
     0
281
     0
  0
CLASS
  1
ACMSURFSTANDARDJIS
  2
AcmSurfTextStdJIS
  3
"AcmSymBB|Product Description: AutoCAD Mechanical 2000|Company: Autodesk"
 90
        0
280
     0
281
     0
  0
CLASS
  1
ACMFCFSTANDARDJIS
  2
AcmFCFStdJIS
  3
"AcmSymBB|Product Description: AutoCAD Mechanical 2000|Company: Autodesk"
 90
        0
280
     0
281
     0
  0
CLASS
  1
ACMWELDSTANDARDJIS
  2
AcmWeldingStdJIS
  3
"AcmSymBB|Product Description: AutoCAD Mechanical 2000|Company: Autodesk"
 90
        0
280
     0
281
     0
  0
CLASS
  1
ACMIDSTANDARDJIS
  2
AcmIdStdJIS
  3
"AcmSymBB|Product Description: AutoCAD Mechanical 2000|Company: Autodesk"
 90
        0
280
     0
281
     0
  0
CLASS
  1
ACMDATUMSTANDARDJIS
  2
AcmDatumStdJIS
  3
"AcmSymBB|Product Description: AutoCAD Mechanical 2000|Company: Autodesk"
 90
        0
280
     0
281
     0
  0
CLASS
  1
ACMBOMSTANDARDJIS
  2
AcmBOMStdJIS
  3
"AcmSymBB|Product Description: AutoCAD Mechanical 2000|Company: Autodesk"
 90
        0
280
     0
281
     0
  0
CLASS
  1
ACMSTANDARDANSI
  2
AcmStandardANSI
  3
"AcmSymBB|Product Description: AutoCAD Mechanical 2000|Company: Autodesk"
 90
        0
280
     0
281
     0
  0
CLASS
  1
ACMSURFSTANDARDANSI
  2
AcmSurfTextStdANSI
  3
"AcmSymBB|Product Description: AutoCAD Mechanical 2000|Company: Autodesk"
 90
        0
280
     0
281
     0
  0
CLASS
  1
ACMFCFSTANDARDANSI
  2
AcmFCFStdANSI
  3
"AcmSymBB|Product Description: AutoCAD Mechanical 2000|Company: Autodesk"
 90
        0
280
     0
281
     0
  0
CLASS
  1
ACMWELDSTANDARDANSI
  2
AcmWeldingStdANSI
  3
"AcmSymBB|Product Description: AutoCAD Mechanical 2000|Company: Autodesk"
 90
        0
280
     0
281
     0
  0
CLASS
  1
ACMIDSTANDARDANSI
  2
AcmIdStdANSI
  3
"AcmSymBB|Product Description: AutoCAD Mechanical 2000|Company: Autodesk"
 90
        0
280
     0
281
     0
  0
CLASS
  1
ACMDATUMSTANDARDANSI
  2
AcmDatumStdANSI
  3
"AcmSymBB|Product Description: AutoCAD Mechanical 2000|Company: Autodesk"
 90
        0
280
     0
281
     0
  0
CLASS
  1
ACMBOMSTANDARDANSI
  2
AcmBOMStdANSI
  3
"AcmSymBB|Product Description: AutoCAD Mechanical 2000|Company: Autodesk"
 90
        0
280
     0
281
     0
  0
CLASS
  1
ACMSTANDARDBSI
  2
AcmStandardBSI
  3
"AcmSymBB|Product Description: AutoCAD Mechanical 2000|Company: Autodesk"
 90
        0
280
     0
281
     0
  0
CLASS
  1
ACMSURFSTANDARDBSI
  2
AcmSurfTextStdBSI
  3
"AcmSymBB|Product Description: AutoCAD Mechanical 2000|Company: Autodesk"
 90
        0
280
     0
281
     0
  0
CLASS
  1
ACMFCFSTANDARDBSI
  2
AcmFCFStdBSI
  3
"AcmSymBB|Product Description: AutoCAD Mechanical 2000|Company: Autodesk"
 90
        0
280
     0
281
     0
  0
CLASS
  1
ACMWELDSTANDARDBSI
  2
AcmWeldingStdBSI
  3
"AcmSymBB|Product Description: AutoCAD Mechanical 2000|Company: Autodesk"
 90
        0
280
     0
281
     0
  0
CLASS
  1
ACMIDSTANDARDBSI
  2
AcmIdStdBSI
  3
"AcmSymBB|Product Description: AutoCAD Mechanical 2000|Company: Autodesk"
 90
        0
280
     0
281
     0
  0
CLASS
  1
ACMDATUMSTANDARDBSI
  2
AcmDatumStdBSI
  3
"AcmSymBB|Product Description: AutoCAD Mechanical 2000|Company: Autodesk"
 90
        0
280
     0
281
     0
  0
CLASS
  1
ACMBOMSTANDARDBSI
  2
AcmBOMStdBSI
  3
"AcmSymBB|Product Description: AutoCAD Mechanical 2000|Company: Autodesk"
 90
        0
280
     0
281
     0
  0
CLASS
  1
LONG_TRANSACTION
  2
AcDbLongTransaction
  3
AutoCAD 2000
 90
        0
280
     0
281
     0
  0
CLASS
  1
LWPOLYLINE
  2
AcDbPolyline
  3
AutoCAD 2000
 90
        0
280
     0
281
     1
  0
CLASS
  1
HATCH
  2
AcDbHatch
  3
AutoCAD 2000
 90
        0
280
     0
281
     1
  0
CLASS
  1
XRECORD
  2
AcDbXrecord
  3
AutoCAD 2000
 90
        0
280
     0
281
     0
  0
ENDSEC
  0
SECTION
  2
TABLES
  0
TABLE
  2
VPORT
  5
8
330
0
100
AcDbSymbolTable
 70
     3
  0
VPORT
  5
1A02
330
8
100
AcDbSymbolTableRecord
100
AcDbViewportTableRecord
  2
*ACTIVE
 70
     0
 10
0.0
 20
0.0
 11
1.0
 21
1.0
 12
-17.79996501307327
 22
-5.814558342055917
 13
0.0
 23
0.0
 14
2.5
 24
2.5
 15
10.0
 25
10.0
 16
0.0
 26
0.0
 36
1.0
 17
0.0
 27
0.0
 37
0.0
 40
82.47091358993953
 41
1.56570841889117
 42
50.0
 43
0.0
 44
0.0
 50
0.0
 51
0.0
 71
     0
 72
   100
 73
     1
 74
     3
 75
     0
 76
     0
 77
     0
 78
     0
  0
ENDTAB
  0
TABLE
  2
LTYPE
  5
5
330
0
100
AcDbSymbolTable
 70
    10
  0
LTYPE
  5
14
330
5
100
AcDbSymbolTableRecord
100
AcDbLinetypeTableRecord
  2
BYBLOCK
 70
     0
  3

 72
    65
 73
     0
 40
0.0
  0
LTYPE
  5
15
330
5
100
AcDbSymbolTableRecord
100
AcDbLinetypeTableRecord
  2
BYLAYER
 70
     0
  3

 72
    65
 73
     0
 40
0.0
  0
LTYPE
  5
16
330
5
100
AcDbSymbolTableRecord
100
AcDbLinetypeTableRecord
  2
CONTINUOUS
 70
     0
  3
Solid line
 72
    65
 73
     0
 40
0.0
  0
LTYPE
  5
4B
330
5
100
AcDbSymbolTableRecord
100
AcDbLinetypeTableRecord
  2
AM_ISO02W050
 70
     0
  3
__ __ __ __ __ __ __ __ __ __ __ __ __ __ __
 72
    65
 73
     2
 40
7.5
 49
6.0
 74
     0
 49
-1.5
 74
     0
  0
LTYPE
  5
4C
330
5
100
AcDbSymbolTableRecord
100
AcDbLinetypeTableRecord
  2
AM_ISO08W050
 70
     0
  3
____ . ____ . ____ . ____ . ____ . ____ . ____
 72
    65
 73
     4
 40
18.0
 49
12.0
 74
     0
 49
-1.5
 74
     0
 49
3.0
 74
     0
 49
-1.5
 74
     0
  0
LTYPE
  5
4D
330
5
100
AcDbSymbolTableRecord
100
AcDbLinetypeTableRecord
  2
AM_ISO09W050
 70
     0
  3
_____ . . _____ . . _____ . . ____ .. ____
 72
    65
 73
     6
 40
22.5
 49
12.0
 74
     0
 49
-1.5
 74
     0
 49
3.0
 74
     0
 49
-1.5
 74
     0
 49
3.0
 74
     0
 49
-1.5
 74
     0
  0
LTYPE
  5
4E
330
5
100
AcDbSymbolTableRecord
100
AcDbLinetypeTableRecord
  2
AMCONSTR
 70
     0
  3
_______________________
 72
    65
 73
     2
 40
9999.0
 49
9999.0
 74
     0
 49
0.0
 74
     0
  0
LTYPE
  5
4F
330
5
100
AcDbSymbolTableRecord
100
AcDbLinetypeTableRecord
  2
AM_ISO02W050X2
 70
     0
  3
 _ _ _ _ _ _ _ _ _ _ _ _
 72
    65
 73
     2
 40
3.75
 49
3.0
 74
     0
 49
-0.75
 74
     0
  0
LTYPE
  5
50
330
5
100
AcDbSymbolTableRecord
100
AcDbLinetypeTableRecord
  2
AM_ISO08W050X2
 70
     0
  3
__ . __ . __ . __ . __ . __
 72
    65
 73
     4
 40
9.0
 49
6.0
 74
     0
 49
-0.75
 74
     0
 49
1.5
 74
     0
 49
-0.75
 74
     0
  0
LTYPE
  5
53
330
5
100
AcDbSymbolTableRecord
100
AcDbLinetypeTableRecord
  2
AMZIGZAG
 70
     0
  3
/\/-/\/-/\/-/\/-/\/-/\/
 72
    65
 73
     2
 40
11.00009999999999
 49
0.0001
 74
     4
 75
   135
340
52
 46
0.04
 50
0.0
 44
0.0
 45
0.0
 49
-11.0
 74
     0
  0
LTYPE
  5
166
330
5
100
AcDbSymbolTableRecord
100
AcDbLinetypeTableRecord
  2
ACJISTGL
 70
     0
  3
_ _ _ _ _
 72
    65
 73
     2
 40
3.0
 49
2.0
 74
     0
 49
-1.0
 74
     0
  0
LTYPE
  5
26A
330
5
100
AcDbSymbolTableRecord
100
AcDbLinetypeTableRecord
  2
ACJISTGB
 70
     0
  3
__ . . __ . .
 72
    65
 73
     6
 40
9.0
 49
4.0
 74
     0
 49
-1.0
 74
     0
 49
1.0
 74
     0
 49
-1.0
 74
     0
 49
1.0
 74
     0
 49
-1.0
 74
     0
  0
ENDTAB
  0
TABLE
  2
LAYER
  5
2
330
0
100
AcDbSymbolTable
 70
     7
  0
LAYER
  5
10
330
2
100
AcDbSymbolTableRecord
100
AcDbLayerTableRecord
  2
0
 70
     0
 62
     7
  6
CONTINUOUS
  0
LAYER
  5
3F9
330
2
100
AcDbSymbolTableRecord
100
AcDbLayerTableRecord
  2
AM_0
 70
     0
 62
     7
  6
CONTINUOUS
  0
LAYER
  5
BD4
330
2
100
AcDbSymbolTableRecord
100
AcDbLayerTableRecord
  2
AM_11
 70
     0
 62
     3
  6
AM_ISO09W050
  0
LAYER
  5
BD5
330
2
100
AcDbSymbolTableRecord
100
AcDbLayerTableRecord
  2
AM_7
 70
     0
 62
     4
  6
AM_ISO08W050
  0
LAYER
  5
BD6
330
2
100
AcDbSymbolTableRecord
100
AcDbLayerTableRecord
  2
AM_5
 70
     0
 62
     3
  6
CONTINUOUS
  0
LAYER
  5
BD7
330
2
100
AcDbSymbolTableRecord
100
AcDbLayerTableRecord
  2
DEFPOINTS
 70
     0
 62
     7
  6
CONTINUOUS
  0
LAYER
  5
E59
330
2
100
AcDbSymbolTableRecord
100
AcDbLayerTableRecord
  2
AM_6
 70
     0
 62
     2
  6
CONTINUOUS
  0
ENDTAB
  0
TABLE
  2
STYLE
  5
3
330
0
100
AcDbSymbolTable
 70
     5
  0
STYLE
  5
11
330
3
100
AcDbSymbolTableRecord
100
AcDbTextStyleTableRecord
  2
STANDARD
 70
     0
 40
0.0
 41
1.0
 50
0.0
 71
     0
 42
2.5
  3
simplex.shx
  4
EXTFONT.SHX
  0
STYLE
  5
52
330
3
100
AcDbSymbolTableRecord
100
AcDbTextStyleTableRecord
  2

 70
     1
 40
0.0
 41
1.0
 50
0.0
 71
     0
 42
2.5
  3
ltypeshp.shx
  4

  0
STYLE
  5
6B
330
3
100
AcDbSymbolTableRecord
100
AcDbTextStyleTableRecord
  2
ASAMI
 70
     0
 40
0.0
 41
1.0
 50
0.0
 71
     0
 42
2.5
  3
simplex.shx
  4
EXTFONT.SHX
  0
STYLE
  5
262
330
3
100
AcDbSymbolTableRecord
100
AcDbTextStyleTableRecord
  2
ACJISTS
 70
     0
 40
1.0
 41
1.0
 50
0.0
 71
     0
 42
2.5
  3
simplex.shx
  4
bigfont.shx
  0
STYLE
  5
269
330
3
100
AcDbSymbolTableRecord
100
AcDbTextStyleTableRecord
  2
ACJISGDT
 70
     0
 40
0.0
 41
1.0
 50
0.0
 71
     0
 42
2.5
  3
amgdtans.shx
  4

  0
ENDTAB
  0
TABLE
  2
VIEW
  5
6
330
0
100
AcDbSymbolTable
 70
     0
  0
ENDTAB
  0
TABLE
  2
UCS
  5
7
330
0
100
AcDbSymbolTable
 70
     0
  0
ENDTAB
  0
TABLE
  2
APPID
  5
9
330
0
100
AcDbSymbolTable
 70
    12
  0
APPID
  5
12
330
9
100
AcDbSymbolTableRecord
100
AcDbRegAppTableRecord
  2
ACAD
 70
     0
  0
APPID
  5
30
330
9
100
AcDbSymbolTableRecord
100
AcDbRegAppTableRecord
  2
MCAD_NO_VIS
 70
     0
  0
APPID
  5
31
330
9
100
AcDbSymbolTableRecord
100
AcDbRegAppTableRecord
  2
ACAD_TEMP_GRAPHIC
 70
     0
  0
APPID
  5
2C2
330
9
100
AcDbSymbolTableRecord
100
AcDbRegAppTableRecord
  2
GENIUS_GENDTOL_13
 70
     0
  0
APPID
  5
339
330
9
100
AcDbSymbolTableRecord
100
AcDbRegAppTableRecord
  2
GENIUS_GENODEF_13
 70
     0
  0
APPID
  5
33A
330
9
100
AcDbSymbolTableRecord
100
AcDbRegAppTableRecord
  2
GENIUS_GENOBJ-N-RSBK_13
 70
     0
  0
APPID
  5
33B
330
9
100
AcDbSymbolTableRecord
100
AcDbRegAppTableRecord
  2
GENIUS_GENOBJ-N-LIB_13
 70
     0
  0
APPID
  5
33C
330
9
100
AcDbSymbolTableRecord
100
AcDbRegAppTableRecord
  2
GENIUS_GENSCALE_13
 70
     0
  0
APPID
  5
378
330
9
100
AcDbSymbolTableRecord
100
AcDbRegAppTableRecord
  2
GENIUS_GENDIMSH_14
 70
     0
  0
APPID
  5
BD8
330
9
100
AcDbSymbolTableRecord
100
AcDbRegAppTableRecord
  2
GENIUS_GENOBJ-N-CEN_13
 70
     0
  0
APPID
  5
BD9
330
9
100
AcDbSymbolTableRecord
100
AcDbRegAppTableRecord
  2
GENIUS_GENFIL_13
 70
     0
  0
APPID
  5
BDA
330
9
100
AcDbSymbolTableRecord
100
AcDbRegAppTableRecord
  2
GENIUS_GENOBJ-N-CHA_13
 70
     0
  0
ENDTAB
  0
TABLE
  2
DIMSTYLE
  5
A
330
0
100
AcDbSymbolTable
 70
     8
  0
DIMSTYLE
105
58
102
{ACAD_REACTORS
330
153E
330
15E6
330
16EA
330
177A
102
}
330
A
100
AcDbSymbolTableRecord
100
AcDbDimStyleTableRecord
  2
AM_JIS
 70
     0
  3

  4
"
  5
OPEN30
  6

  7

 40
0.5
 41
2.5
 42
1.0
 43
12.0
 44
1.0
 45
0.0
 46
0.0
 47
0.1
 48
0.1
140
3.2
141
0.0
142
0.0
143
0.0393701
144
1.0
145
0.0
146
0.71
147
1.5
 71
     0
 72
     0
 73
     0
 74
     0
 75
     0
 76
     0
 77
     3
 78
     8
170
     0
171
     2
172
     1
173
     0
174
     0
175
     0
176
   256
177
   256
178
     2
270
     2
271
     3
272
     3
273
     2
274
     2
340
6B
275
     0
280
     0
281
     0
282
     0
283
     0
284
     0
285
     0
286
     0
287
     3
288
     0
  0
DIMSTYLE
105
5F
330
A
100
AcDbSymbolTableRecord
100
AcDbDimStyleTableRecord
  2
AM_JIS$3
 70
     0
  3

  4
"
  5
OPEN30
  6

  7

 40
0.5
 41
2.5
 42
1.0
 43
10.0
 44
1.0
 45
0.0
 46
0.0
 47
0.1
 48
0.1
140
3.2
141
0.0
142
0.0
143
0.0393701
144
1.0
145
0.0
146
0.71
147
1.5
 71
     0
 72
     0
 73
     0
 74
     1
 75
     0
 76
     0
 77
     3
 78
     8
170
     0
171
     2
172
     0
173
     0
174
     0
175
     0
176
   256
177
   256
178
     2
270
     2
271
     2
272
     3
273
     2
274
     2
340
6B
275
     0
280
     0
281
     0
282
     0
283
     0
284
     0
285
     0
286
     0
287
     0
288
     1
  0
DIMSTYLE
105
60
330
A
100
AcDbSymbolTableRecord
100
AcDbDimStyleTableRecord
  2
AM_JIS$4
 70
     0
  3

  4
"
  5
OPEN30
  6

  7

 40
0.5
 41
2.5
 42
1.0
 43
10.0
 44
1.0
 45
0.0
 46
0.0
 47
0.1
 48
0.1
140
3.2
141
0.0
142
0.0
143
0.0393701
144
1.0
145
0.0
146
0.71
147
1.5
 71
     0
 72
     0
 73
     0
 74
     1
 75
     0
 76
     0
 77
     3
 78
     8
170
     0
171
     2
172
     0
173
     0
174
     0
175
     0
176
   256
177
   256
178
     2
270
     2
271
     2
272
     3
273
     2
274
     2
340
6B
275
     0
280
     0
281
     0
282
     0
283
     0
284
     0
285
     0
286
     0
287
     0
288
     1
  0
DIMSTYLE
105
61
330
A
100
AcDbSymbolTableRecord
100
AcDbDimStyleTableRecord
  2
AM_JIS$6
 70
     0
  3

  4
"
  5
OPEN30
  6

  7

 40
0.5
 41
2.5
 42
1.0
 43
10.0
 44
1.0
 45
0.0
 46
0.0
 47
0.1
 48
0.1
140
3.2
141
0.0
142
0.0
143
0.0393701
144
1.0
145
0.0
146
0.71
147
1.5
 71
     0
 72
     0
 73
     0
 74
     0
 75
     0
 76
     0
 77
     0
 78
     8
170
     0
171
     2
172
     1
173
     0
174
     0
175
     0
176
   256
177
   256
178
     2
270
     2
271
     2
272
     2
273
     2
274
     2
340
6B
275
     0
280
     0
281
     0
282
     0
283
     0
284
     0
285
     0
286
     0
287
     3
288
     0
  0
DIMSTYLE
105
62
330
A
100
AcDbSymbolTableRecord
100
AcDbDimStyleTableRecord
  2
AM_JIS$7
 70
     0
  3

  4
"
  5
OPEN30
  6

  7

 40
0.5
 41
2.5
 42
1.0
 43
10.0
 44
1.0
 45
0.0
 46
0.0
 47
0.1
 48
0.1
140
3.2
141
0.0
142
0.0
143
0.0393701
144
1.0
145
0.0
146
0.71
147
1.5
 71
     0
 72
     0
 73
     0
 74
     0
 75
     0
 76
     0
 77
     3
 78
     8
170
     0
171
     2
172
     1
173
     0
174
     0
175
     0
176
   256
177
   256
178
     2
270
     2
271
     2
272
     3
273
     2
274
     2
340
6B
275
     0
280
     0
281
     0
282
     0
283
     0
284
     0
285
     0
286
     0
287
     3
288
     0
  0
DIMSTYLE
105
63
330
A
100
AcDbSymbolTableRecord
100
AcDbDimStyleTableRecord
  2
AM_JIS$SF
 70
     0
  3

  4
"
  5
OPEN30
  6

  7

 40
0.5
 41
2.5
 42
1.0
 43
10.0
 44
1.0
 45
0.0
 46
0.0
 47
0.1
 48
0.1
140
3.2
141
0.0
142
0.0
143
0.0393701
144
1.0
145
0.0
146
0.71
147
1.5
 71
     0
 72
     0
 73
     0
 74
     0
 75
     1
 76
     1
 77
     3
 78
     8
170
     0
171
     2
172
     1
173
     0
174
     0
175
     0
176
   256
177
   256
178
     2
270
     2
271
     2
272
     2
273
     2
274
     2
340
6B
275
     0
280
     0
281
     0
282
     0
283
     0
284
     0
285
     0
286
     0
287
     3
288
     0
  0
DIMSTYLE
105
68
330
A
100
AcDbSymbolTableRecord
100
AcDbDimStyleTableRecord
  2
AM_JIS$SH
 70
     0
  3

  4
"
  5

  6
GENAXEH
  7
OPEN30
 40
0.5
 41
2.5
 42
1.0
 43
10.0
 44
1.0
 45
0.0
 46
0.0
 47
0.1
 48
0.1
140
3.2
141
0.0
142
0.0
143
0.0393701
144
2.0
145
0.0
146
0.71
147
1.5
 71
     0
 72
     0
 73
     0
 74
     0
 75
     1
 76
     1
 77
     3
 78
     8
170
     0
171
     2
172
     1
173
     1
174
     0
175
     0
176
   256
177
   256
178
     2
270
     2
271
     2
272
     2
273
     2
274
     2
340
6B
275
     0
280
     0
281
     0
282
     0
283
     0
284
     0
285
     0
286
     0
287
     3
288
     0
  0
DIMSTYLE
105
B34
330
A
100
AcDbSymbolTableRecord
100
AcDbDimStyleTableRecord
  2
AM_JIS$2
 70
     0
  3

  4
"
  5
OPEN30
  6

  7

 40
0.5
 41
2.5
 42
1.0
 43
12.0
 44
1.0
 45
0.0
 46
0.0
 47
0.1
 48
0.1
140
3.2
141
0.0
142
0.0
143
0.0393701
144
1.0
145
0.0
146
0.71
147
1.5
 71
     0
 72
     0
 73
     0
 74
     0
 75
     0
 76
     0
 77
     3
 78
     8
170
     0
171
     2
172
     1
173
     0
174
     0
175
     0
176
   256
177
   256
178
     2
270
     2
271
     3
272
     3
273
     2
274
     2
340
6B
275
     0
280
     0
281
     0
282
     0
283
     0
284
     0
285
     0
286
     0
287
     3
288
     0
  0
ENDTAB
  0
TABLE
  2
BLOCK_RECORD
  5
1
330
0
100
AcDbSymbolTable
 70
     9
  0
BLOCK_RECORD
  5
1F
102
{ACAD_XDICTIONARY
360
74
102
}
330
1
100
AcDbSymbolTableRecord
100
AcDbBlockTableRecord
  2
*MODEL_SPACE
  0
BLOCK_RECORD
  5
101
102
{ACAD_XDICTIONARY
360
1A2B
102
}
330
1
100
AcDbSymbolTableRecord
100
AcDbBlockTableRecord
  2
*PAPER_SPACE
  0
BLOCK_RECORD
  5
59
330
1
100
AcDbSymbolTableRecord
100
AcDbBlockTableRecord
  2
_OPEN30
  0
BLOCK_RECORD
  5
64
330
1
100
AcDbSymbolTableRecord
100
AcDbBlockTableRecord
  2
GENAXEH
  0
BLOCK_RECORD
  5
153F
330
1
100
AcDbSymbolTableRecord
100
AcDbBlockTableRecord
  2
*D5
  0
BLOCK_RECORD
  5
15E7
330
1
100
AcDbSymbolTableRecord
100
AcDbBlockTableRecord
  2
*D6
  0
BLOCK_RECORD
  5
16EB
330
1
100
AcDbSymbolTableRecord
100
AcDbBlockTableRecord
  2
*D7
  0
BLOCK_RECORD
  5
177B
330
1
100
AcDbSymbolTableRecord
100
AcDbBlockTableRecord
  2
*D8
  0
ENDTAB
  0
ENDSEC
  0
SECTION
  2
BLOCKS
  0
BLOCK
  5
20
330
1F
100
AcDbEntity
  8
0
100
AcDbBlockBegin
  2
*MODEL_SPACE
 70
     0
 10
0.0
 20
0.0
 30
0.0
  3
*MODEL_SPACE
  1

  0
ENDBLK
  5
21
330
1F
100
AcDbEntity
  8
0
100
AcDbBlockEnd
  0
BLOCK
  5
103
330
101
100
AcDbEntity
 67
     1
  8
0
100
AcDbBlockBegin
  2
*PAPER_SPACE
 70
     0
 10
0.0
 20
0.0
 30
0.0
  3
*PAPER_SPACE
  1

  0
ENDBLK
  5
104
330
101
100
AcDbEntity
 67
     1
  8
0
100
AcDbBlockEnd
  0
BLOCK
  5
5D
330
59
100
AcDbEntity
  8
0
100
AcDbBlockBegin
  2
_OPEN30
 70
     0
 10
0.0
 20
0.0
 30
0.0
  3
_OPEN30
  1

  0
LINE
  5
5A
330
59
100
AcDbEntity
  8
0
 62
     0
100
AcDbLine
 10
-1.0
 20
0.26794919
 30
0.0
 11
0.0
 21
0.0
 31
0.0
  0
LINE
  5
5B
330
59
100
AcDbEntity
  8
0
 62
     0
100
AcDbLine
 10
0.0
 20
0.0
 30
0.0
 11
-1.0
 21
-0.26794919
 31
0.0
  0
LINE
  5
5C
330
59
100
AcDbEntity
  8
0
 62
     0
100
AcDbLine
 10
0.0
 20
0.0
 30
0.0
 11
-1.0
 21
0.0
 31
0.0
  0
ENDBLK
  5
5E
330
59
100
AcDbEntity
  8
0
100
AcDbBlockEnd
  0
BLOCK
  5
66
330
64
100
AcDbEntity
  8
0
100
AcDbBlockBegin
  2
GENAXEH
 70
     0
 10
0.0
 20
0.0
 30
0.0
  3
GENAXEH
  1

  0
LINE
  5
65
330
64
100
AcDbEntity
  8
0
100
AcDbLine
 10
-1.0
 20
0.0
 30
0.0
 11
1.0
 21
0.0
 31
0.0
  0
ENDBLK
  5
67
330
64
100
AcDbEntity
  8
0
100
AcDbBlockEnd
  0
BLOCK
  5
154B
330
153F
100
AcDbEntity
  8
0
100
AcDbBlockBegin
  2
*D5
 70
     1
 10
0.0
 20
0.0
 30
0.0
  3
*D5
  1

  0
LINE
  5
18A3
330
153F
100
AcDbEntity
  8
AM_5
100
AcDbLine
 10
-40.25
 20
1.999999999999872
 30
0.0
 11
-49.56123869649855
 21
1.999999999999874
 31
0.0
  0
LINE
  5
18A4
330
153F
100
AcDbEntity
  8
AM_5
100
AcDbLine
 10
-40.25
 20
-2.000000000000127
 30
0.0
 11
-49.56123869649855
 21
-2.000000000000125
 31
0.0
  0
LINE
  5
18A5
330
153F
100
AcDbEntity
  8
AM_5
100
AcDbLine
 10
-49.06123869649856
 20
0.7499999999998748
 30
0.0
 11
-49.06123869649856
 21
-0.7500000000001254
 31
0.0
  0
LINE
  5
18A6
330
153F
100
AcDbEntity
  8
AM_5
100
AcDbLine
 10
-49.06123869649856
 20
-2.000000000000125
 30
0.0
 11
-49.06123869649856
 21
-7.340476190476315
 31
0.0
  0
INSERT
  5
18A7
330
153F
100
AcDbEntity
  8
AM_5
100
AcDbBlockReference
  2
_OPEN30
 10
-49.06123869649856
 20
1.999999999999874
 30
0.0
 41
1.25
 42
1.25
 43
1.25
 50
90.0
  0
INSERT
  5
18A8
330
153F
100
AcDbEntity
  8
AM_5
100
AcDbBlockReference
  2
_OPEN30
 10
-49.06123869649856
 20
-2.000000000000125
 30
0.0
 41
1.25
 42
1.25
 43
1.25
 50
270.0
  0
MTEXT
  5
18A9
330
153F
100
AcDbEntity
  8
AM_5
 62
     2
100
AcDbMText
 10
-50.61123869649855
 20
-5.295238095238228
 30
0.0
 40
1.6
 41
0.0
 71
     5
 72
     1
  1
%%c4
  7
ASAMI
 11
0.0000000000000001
 21
1.0
 31
0.0
1001
ACAD
1000
MTEXTBEGIN
1070
    73
1070
     1
1070
    44
1040
1.0
1070
    74
1070
     0
1000
MTEXTEND
  0
POINT
  5
18AA
330
153F
100
AcDbEntity
  8
DEFPOINTS
 62
     0
100
AcDbPoint
 10
-39.75
 20
1.999999999999872
 30
0.0
  0
POINT
  5
18AB
330
153F
100
AcDbEntity
  8
DEFPOINTS
 62
     0
100
AcDbPoint
 10
-39.75
 20
-2.000000000000127
 30
0.0
  0
POINT
  5
18AC
330
153F
100
AcDbEntity
  8
DEFPOINTS
 62
     0
100
AcDbPoint
 10
-49.06123869649856
 20
-2.000000000000125
 30
0.0
  0
ENDBLK
  5
154C
330
153F
100
AcDbEntity
  8
0
100
AcDbBlockEnd
  0
BLOCK
  5
15F3
330
15E7
100
AcDbEntity
  8
0
100
AcDbBlockBegin
  2
*D6
 70
     1
 10
0.0
 20
0.0
 30
0.0
  3
*D6
  1

  0
LINE
  5
1820
330
15E7
100
AcDbEntity
  8
AM_5
100
AcDbLine
 10
0.5
 20
0.9999999999999998
 30
0.0
 11
8.629789688840503
 21
0.9999999999999975
 31
0.0
  0
LINE
  5
1821
330
15E7
100
AcDbEntity
  8
AM_5
100
AcDbLine
 10
0.4999999999994094
 20
-1.0
 30
0.0
 11
8.629789688840503
 21
-1.000000000000002
 31
0.0
  0
LINE
  5
1822
330
15E7
100
AcDbEntity
  8
AM_5
100
AcDbLine
 10
8.129789688840503
 20
2.249999999999997
 30
0.0
 11
8.129789688840503
 21
3.499999999999997
 31
0.0
  0
LINE
  5
1823
330
15E7
100
AcDbEntity
  8
AM_5
100
AcDbLine
 10
8.129789688840503
 20
-2.250000000000002
 30
0.0
 11
8.129789688840501
 21
-7.514285714285716
 31
0.0
  0
LINE
  5
1824
330
15E7
100
AcDbEntity
  8
AM_5
100
AcDbLine
 10
8.129789688840503
 20
0.9999999999999978
 30
0.0
 11
8.129789688840503
 21
-1.000000000000002
 31
0.0
  0
INSERT
  5
1825
330
15E7
100
AcDbEntity
  8
AM_5
100
AcDbBlockReference
  2
_OPEN30
 10
8.129789688840503
 20
0.9999999999999978
 30
0.0
 41
1.25
 42
1.25
 43
1.25
 50
270.0
  0
INSERT
  5
1826
330
15E7
100
AcDbEntity
  8
AM_5
100
AcDbBlockReference
  2
_OPEN30
 10
8.129789688840503
 20
-1.000000000000002
 30
0.0
 41
1.25
 42
1.25
 43
1.25
 50
90.0
  0
MTEXT
  5
1827
330
15E7
100
AcDbEntity
  8
AM_5
 62
     2
100
AcDbMText
 10
6.579789688840502
 20
-5.507142857142858
 30
0.0
 40
1.6
 41
0.0
 71
     5
 72
     1
  1
%%c2
  7
ASAMI
 11
0.0000000000000001
 21
1.0
 31
0.0
1001
ACAD
1000
MTEXTBEGIN
1070
    73
1070
     1
1070
    44
1040
1.0
1070
    74
1070
     0
1000
MTEXTEND
  0
POINT
  5
1828
330
15E7
100
AcDbEntity
  8
DEFPOINTS
 62
     0
100
AcDbPoint
 10
0.0
 20
1.0
 30
0.0
  0
POINT
  5
1829
330
15E7
100
AcDbEntity
  8
DEFPOINTS
 62
     0
100
AcDbPoint
 10
-0.0000000000005906
 20
-1.0
 30
0.0
  0
POINT
  5
182A
330
15E7
100
AcDbEntity
  8
DEFPOINTS
 62
     0
100
AcDbPoint
 10
8.129789688840503
 20
-1.000000000000002
 30
0.0
  0
ENDBLK
  5
15F4
330
15E7
100
AcDbEntity
  8
0
100
AcDbBlockEnd
  0
BLOCK
  5
16F5
330
16EB
100
AcDbEntity
  8
0
100
AcDbBlockBegin
  2
*D7
 70
     1
 10
0.0
 20
0.0
 30
0.0
  3
*D7
  1

  0
LINE
  5
1817
330
16EB
100
AcDbEntity
  8
AM_5
100
AcDbLine
 10
-0.0000000000005907
 20
-1.5
 30
0.0
 11
-0.0000000000005912
 21
-9.500001000000109
 31
0.0
  0
LINE
  5
1818
330
16EB
100
AcDbEntity
  8
AM_5
100
AcDbLine
 10
-6.000000000000017
 20
-1.500000000000003
 30
0.0
 11
-6.000000000000018
 21
-9.500001000000109
 31
0.0
  0
LINE
  5
1819
330
16EB
100
AcDbEntity
  8
AM_5
100
AcDbLine
 10
-1.250000000000591
 20
-9.000001000000109
 30
0.0
 11
-4.750000000000018
 21
-9.000001000000109
 31
0.0
  0
INSERT
  5
181A
330
16EB
100
AcDbEntity
  8
AM_5
100
AcDbBlockReference
  2
_OPEN30
 10
-0.0000000000005911
 20
-9.000001000000109
 30
0.0
 41
1.25
 42
1.25
 43
1.25
  0
INSERT
  5
181B
330
16EB
100
AcDbEntity
  8
AM_5
100
AcDbBlockReference
  2
_OPEN30
 10
-6.000000000000018
 20
-9.000001000000109
 30
0.0
 41
1.25
 42
1.25
 43
1.25
 50
180.0
  0
MTEXT
  5
181C
330
16EB
100
AcDbEntity
  8
AM_5
 62
     2
100
AcDbMText
 10
-3.000000000000304
 20
-7.450001000000109
 30
0.0
 40
1.6
 41
0.0
 71
     5
 72
     1
  1
6
  7
ASAMI
1001
ACAD
1000
MTEXTBEGIN
1070
    73
1070
     1
1070
    44
1040
1.0
1070
    74
1070
     0
1000
MTEXTEND
  0
POINT
  5
181D
330
16EB
100
AcDbEntity
  8
DEFPOINTS
 62
     0
100
AcDbPoint
 10
-0.0000000000005906
 20
-1.0
 30
0.0
  0
POINT
  5
181E
330
16EB
100
AcDbEntity
  8
DEFPOINTS
 62
     0
100
AcDbPoint
 10
-6.000000000000017
 20
-1.000000000000003
 30
0.0
  0
POINT
  5
181F
330
16EB
100
AcDbEntity
  8
DEFPOINTS
 62
     0
100
AcDbPoint
 10
-6.000000000000018
 20
-9.000001000000109
 30
0.0
  0
ENDBLK
  5
16F6
330
16EB
100
AcDbEntity
  8
0
100
AcDbBlockEnd
  0
BLOCK
  5
1785
330
177B
100
AcDbEntity
  8
0
100
AcDbBlockBegin
  2
*D8
 70
     1
 10
0.0
 20
0.0
 30
0.0
  3
*D8
  1

  0
LINE
  5
1890
330
177B
100
AcDbEntity
  8
AM_5
100
AcDbLine
 10
0.0
 20
-1.5
 30
0.0
 11
-0.0000000000000009
 21
-15.5000010000002
 31
0.0
  0
LINE
  5
1891
330
177B
100
AcDbEntity
  8
AM_5
100
AcDbLine
 10
-40.0
 20
-2.250000000000127
 30
0.0
 11
-40.0
 21
-15.5000010000002
 31
0.0
  0
LINE
  5
1892
330
177B
100
AcDbEntity
  8
AM_5
100
AcDbLine
 10
-1.25
 20
-15.0000010000002
 30
0.0
 11
-38.75
 21
-15.0000010000002
 31
0.0
  0
INSERT
  5
1893
330
177B
100
AcDbEntity
  8
AM_5
100
AcDbBlockReference
  2
_OPEN30
 10
-0.0000000000000009
 20
-15.0000010000002
 30
0.0
 41
1.25
 42
1.25
 43
1.25
  0
INSERT
  5
1894
330
177B
100
AcDbEntity
  8
AM_5
100
AcDbBlockReference
  2
_OPEN30
 10
-40.0
 20
-15.0000010000002
 30
0.0
 41
1.25
 42
1.25
 43
1.25
 50
180.0
  0
MTEXT
  5
1895
330
177B
100
AcDbEntity
  8
AM_5
 62
     2
100
AcDbMText
 10
-20.0
 20
-13.4500010000002
 30
0.0
 40
1.6
 41
0.0
 71
     5
 72
     1
  1
40
  7
ASAMI
1001
ACAD
1000
MTEXTBEGIN
1070
    73
1070
     1
1070
    44
1040
1.0
1070
    74
1070
     0
1000
MTEXTEND
  0
POINT
  5
1896
330
177B
100
AcDbEntity
  8
DEFPOINTS
 62
     0
100
AcDbPoint
 10
0.0
 20
-1.0
 30
0.0
  0
POINT
  5
1897
330
177B
100
AcDbEntity
  8
DEFPOINTS
 62
     0
100
AcDbPoint
 10
-40.0
 20
-1.750000000000127
 30
0.0
  0
POINT
  5
1898
330
177B
100
AcDbEntity
  8
DEFPOINTS
 62
     0
100
AcDbPoint
 10
-40.0
 20
-15.0000010000002
 30
0.0
  0
ENDBLK
  5
1786
330
177B
100
AcDbEntity
  8
0
100
AcDbBlockEnd
  0
ENDSEC
  0
SECTION
  2
ENTITIES
  0
TEXT
  5
E5A
330
1F
100
AcDbEntity
  8
AM_6
100
AcDbText
 10
-28.21428571428571
 20
-26.2500010000002
 30
0.0
 40
2.5
  1
SSM4020
 72
     4
 11
-19.99999999999999
 21
-25.0000010000002
 31
0.0
100
AcDbText
  0
SPLINE
  5
13BE
330
1F
100
AcDbEntity
  8
AM_0
100
AcDbSpline
210
0.0
220
0.0
230
1.0
 70
     8
 71
     3
 72
     8
 73
     4
 74
     0
 42
0.0000000001
 43
0.0000000001
 40
0.0
 40
0.0
 40
0.0
 40
0.0
 40
1.412269715655734
 40
1.412269715655734
 40
1.412269715655734
 40
1.412269715655734
 10
-5.720000000000034
 20
-0.9862137491824896
 30
0.0
 10
-5.814151314377088
 20
-0.9862137491824896
 30
0.0
 10
-5.907457180461637
 20
-0.9814640212586951
 30
0.0
 10
-5.999999999999996
 20
-0.9724274983650005
 30
0.0
  0
SPLINE
  5
13BF
330
1F
100
AcDbEntity
  8
AM_0
100
AcDbSpline
210
0.0
220
0.0
230
1.0
 70
     8
 71
     3
 72
     8
 73
     4
 74
     2
 42
0.0000000001
 43
0.0000000001
 44
0.0000000001
 12
-1.0
 22
-0.0000000000000008
 32
0.0
 40
0.0
 40
0.0
 40
0.0
 40
0.0
 40
2.897999309868792
 40
2.897999309868792
 40
2.897999309868792
 40
2.897999309868792
 10
-2.720000000000041
 20
-0.9999999999999786
 30
0.0
 10
-3.685999769956305
 20
-0.9999999999999793
 30
0.0
 10
-4.562999884978172
 20
-0.4999999999999791
 30
0.0
 10
-5.44000000000004
 20
0.0000000000000213
 30
0.0
 11
-2.720000000000041
 21
-0.9999999999999786
 31
0.0
 11
-5.44000000000004
 21
0.0000000000000213
 31
0.0
  0
SPLINE
  5
13C0
330
1F
100
AcDbEntity
  8
AM_0
100
AcDbSpline
210
0.0
220
0.0
230
1.0
 70
     8
 71
     3
 72
     8
 73
     4
 74
     2
 42
0.0000000001
 43
0.0000000001
 44
0.0000000001
 12
1.0
 22
0.0000000000000006
 32
0.0
 40
0.0
 40
0.0
 40
0.0
 40
0.0
 40
2.897999309868792
 40
2.897999309868792
 40
2.897999309868792
 40
2.897999309868792
 10
-5.440000000000001
 20
1.000000000000021
 30
0.0
 10
-4.474000230043737
 20
1.000000000000021
 30
0.0
 10
-3.597000115021869
 20
0.5000000000000217
 30
0.0
 10
-2.720000000000002
 20
0.0000000000000213
 30
0.0
 11
-5.440000000000001
 21
1.000000000000021
 31
0.0
 11
-2.720000000000002
 21
0.0000000000000213
 31
0.0
  0
SPLINE
  5
13C1
330
1F
100
AcDbEntity
  8
AM_0
100
AcDbSpline
210
0.0
220
0.0
230
1.0
 70
     8
 71
     3
 72
     8
 73
     4
 74
     0
 42
0.0000000001
 43
0.0000000001
 40
0.0
 40
0.0
 40
0.0
 40
0.0
 40
2.130230809022907
 40
2.130230809022907
 40
2.130230809022907
 40
2.130230809022907
 10
-5.44000000000004
 20
-1.000000000000003
 30
0.0
 10
-5.297984612731841
 20
-1.000000000000003
 30
0.0
 10
-5.157892782559319
 20
-0.9891934575640348
 30
0.0
 10
-5.019441719864524
 20
-0.9691690845705132
 30
0.0
  0
SPLINE
  5
13C2
330
1F
100
AcDbEntity
  8
AM_0
100
AcDbSpline
210
0.0
220
0.0
230
1.0
 70
     8
 71
     3
 72
     8
 73
     4
 74
     0
 42
0.0000000001
 43
0.0000000001
 40
0.0
 40
0.0
 40
0.0
 40
0.0
 40
6.769478140335353
 40
6.769478140335353
 40
6.769478140335353
 40
6.769478140335353
 10
-4.688936663804984
 20
-0.9234889007605175
 30
0.0
 10
-5.140235206494004
 20
-0.9234889007605175
 30
0.0
 10
-5.574595079873706
 20
-0.8209111266286051
 30
0.0
 10
-5.999999999999996
 20
-0.6641036396771299
 30
0.0
  0
SPLINE
  5
13C4
330
1F
100
AcDbEntity
  8
AM_0
100
AcDbSpline
210
0.0
220
0.0
230
1.0
 70
     8
 71
     3
 72
     8
 73
     4
 74
     0
 42
0.0000000001
 43
0.0000000001
 40
4.48458745047074
 40
4.48458745047074
 40
4.48458745047074
 40
4.48458745047074
 40
14.36247867694493
 40
14.36247867694493
 40
14.36247867694493
 40
14.36247867694493
 10
-6.532022514608872
 20
0.80248309603434
 30
0.0
 10
-5.901108860543942
 20
0.635135697378761
 30
0.0
 10
-5.295022762174458
 20
0.3175678486893823
 30
0.0
 10
-4.688936663804984
 20
0.0000000000000107
 30
0.0
  0
SPLINE
  5
13C6
330
1F
100
AcDbEntity
  8
AM_0
100
AcDbSpline
210
0.0
220
0.0
230
1.0
 70
     8
 71
     3
 72
     8
 73
     4
 74
     0
 42
0.0000000001
 43
0.0000000001
 40
0.0
 40
0.0
 40
0.0
 40
0.0
 40
2.764560748519282
 40
2.764560748519282
 40
2.764560748519282
 40
2.764560748519282
 10
-2.37091024360112
 20
-0.9700567340670787
 30
0.0
 10
-2.186606193699834
 20
-0.9700567340670787
 30
0.0
 10
-2.005377875224436
 20
-0.9522762297020115
 30
0.0
 10
-1.826636394515318
 20
-0.9201195579686221
 30
0.0
  0
SPLINE
  5
13C8
330
1F
100
AcDbEntity
  8
AM_0
100
AcDbSpline
210
0.0
220
0.0
230
1.0
 70
     8
 71
     3
 72
     8
 73
     4
 74
     0
 42
0.0000000001
 43
0.0000000001
 40
0.7142832446738512
 40
0.7142832446738512
 40
0.7142832446738512
 40
0.7142832446738512
 40
14.36247867694493
 40
14.36247867694493
 40
14.36247867694493
 40
14.36247867694493
 10
-5.019441719864445
 20
0.9691690845705345
 30
0.0
 10
-3.643784327071202
 20
0.8775614070951078
 30
0.0
 10
-2.806360495438074
 20
0.4387807035475575
 30
0.0
 10
-1.968936663804942
 20
0.0000000000000107
 30
0.0
  0
SPLINE
  5
13C9
330
1F
100
AcDbEntity
  8
AM_0
100
AcDbSpline
210
0.0
220
0.0
230
1.0
 70
     8
 71
     3
 72
     8
 73
     4
 74
     2
 42
0.0000000001
 43
0.0000000001
 44
0.0000000001
 12
-1.0
 22
-0.0000000000000008
 32
0.0
 40
0.0
 40
0.0
 40
0.0
 40
0.0
 40
2.872495735388986
 40
2.872495735388986
 40
2.872495735388986
 40
2.872495735388986
 10
-1.968936663804985
 20
-0.923488900760514
 30
0.0
 10
-2.92643524226798
 20
-0.9234889007605147
 30
0.0
 10
-3.807685953036482
 20
-0.4617444503802414
 30
0.0
 10
-4.688936663804984
 20
0.000000000000032
 30
0.0
 11
-1.968936663804985
 21
-0.923488900760514
 31
0.0
 11
-4.688936663804984
 21
0.000000000000032
 31
0.0
  0
SPLINE
  5
13CA
330
1F
100
AcDbEntity
  8
AM_0
100
AcDbSpline
210
0.0
220
0.0
230
1.0
 70
     8
 71
     3
 72
     8
 73
     4
 74
     2
 42
0.0000000001
 43
0.0000000001
 44
0.0000000001
 12
-1.0
 22
-0.0000000000000008
 32
0.0
 40
0.0
 40
0.0
 40
0.0
 40
0.0
 40
2.897999309868795
 40
2.897999309868795
 40
2.897999309868795
 40
2.897999309868795
 10
0.0
 20
-1.0
 30
0.0
 10
-0.965999769956265
 20
-1.0
 30
0.0
 10
-1.842999884978133
 20
-0.5000000000000004
 30
0.0
 10
-2.720000000000002
 20
0.0
 30
0.0
 11
0.0
 21
-1.0
 31
0.0
 11
-2.720000000000002
 21
0.0
 31
0.0
  0
SPLINE
  5
13CB
330
1F
100
AcDbEntity
  8
AM_0
100
AcDbSpline
210
0.0
220
0.0
230
1.0
 70
     8
 71
     3
 72
     8
 73
     4
 74
     2
 42
0.0000000001
 43
0.0000000001
 44
0.0000000001
 12
1.0
 22
0.0000000000000006
 32
0.0
 40
0.0
 40
0.0
 40
0.0
 40
0.0
 40
2.89799930986879
 40
2.89799930986879
 40
2.89799930986879
 40
2.89799930986879
 10
-2.720000000000002
 20
1.000000000000021
 30
0.0
 10
-1.754000230043738
 20
1.000000000000021
 30
0.0
 10
-0.8770001150218712
 20
0.5000000000000233
 30
0.0
 10
-0.0000000000000036
 20
0.0000000000000249
 30
0.0
 11
-2.720000000000002
 21
1.000000000000021
 31
0.0
 11
-0.0000000000000036
 21
0.0000000000000249
 31
0.0
  0
SPLINE
  5
13CD
330
1F
100
AcDbEntity
  8
AM_0
100
AcDbSpline
210
0.0
220
0.0
230
1.0
 70
     8
 71
     3
 72
     8
 73
     4
 74
     0
 42
0.0000000001
 43
0.0000000001
 40
4.542668862435135
 40
4.542668862435135
 40
4.542668862435135
 40
4.542668862435135
 40
14.36247867694493
 40
14.36247867694493
 40
14.36247867694493
 40
14.36247867694493
 10
-0.1369999999997233
 20
-0.7995233310913222
 30
0.0
 10
-0.7638919673711122
 20
-0.631401137314569
 30
0.0
 10
-1.366414315588027
 20
-0.3157005686572774
 30
0.0
 10
-1.968936663804942
 20
0.0000000000000107
 30
0.0
  0
SPLINE
  5
13CE
330
1F
100
AcDbEntity
  8
AM_0
100
AcDbSpline
210
0.0
220
0.0
230
1.0
 70
     8
 71
     3
 72
     8
 73
     4
 74
     0
 42
0.0000000001
 43
0.0000000001
 40
0.0
 40
0.0
 40
0.0
 40
0.0
 40
5.635889483499127
 40
5.635889483499127
 40
5.635889483499127
 40
5.635889483499127
 10
-0.0000000000000036
 20
1.0
 30
0.0
 10
-0.375725965566609
 20
1.0
 30
0.0
 10
-0.737987850767226
 20
0.9243588057958298
 30
0.0
 10
-1.094716483048612
 20
0.7916405921550592
 30
0.0
  0
SPLINE
  5
13CF
330
1F
100
AcDbEntity
  8
AM_0
100
AcDbSpline
210
0.0
220
0.0
230
1.0
 70
     8
 71
     3
 72
     8
 73
     4
 74
     2
 42
0.0000000001
 43
0.0000000001
 44
0.0000000001
 12
-0.6417012268563095
 22
-0.7669547153848835
 32
0.0
 13
-0.9900999427831042
 23
-0.140364180975397
 33
0.0
 40
0.0
 40
0.0
 40
0.0
 40
0.0
 40
0.5173130647233411
 40
0.5173130647233411
 40
0.5173130647233411
 40
0.5173130647233411
 10
-0.0000000000000036
 20
0.8149405373367955
 30
0.0
 10
-0.110653476100592
 20
0.682688639230205
 30
0.0
 10
-0.3005839009432005
 20
0.6258947593848711
 30
0.0
 10
-0.4713144462043779
 20
0.6016906845056163
 30
0.0
 11
-0.0000000000000036
 21
0.8149405373367955
 31
0.0
 11
-0.4713144462043779
 21
0.6016906845056163
 31
0.0
  0
SPLINE
  5
13D0
330
1F
100
AcDbEntity
  8
AM_0
100
AcDbSpline
210
0.0
220
0.0
230
1.0
 70
     8
 71
     3
 72
     8
 73
     4
 74
     0
 42
0.0000000001
 43
0.0000000001
 40
0.7142832446738512
 40
0.7142832446738512
 40
0.7142832446738512
 40
0.7142832446738512
 40
9.361146747480315
 40
9.361146747480315
 40
9.361146747480315
 40
9.361146747480315
 10
-2.299441719864447
 20
0.9691690845705345
 30
0.0
 10
-1.254631206777297
 20
0.8931566877943168
 30
0.0
 10
-0.7088882702896094
 20
0.7071539765599262
 30
0.0
 10
-0.1727690409259956
 20
0.4628716898961898
 30
0.0
  0
SPLINE
  5
13D1
330
1F
100
AcDbEntity
  8
AM_0
100
AcDbSpline
210
0.0
220
0.0
230
1.0
 70
     8
 71
     3
 72
     8
 73
     4
 74
     0
 42
0.0000000001
 43
0.0000000001
 40
0.0
 40
0.0
 40
0.0
 40
0.0
 40
4.451443990518192
 40
4.451443990518192
 40
4.451443990518192
 40
4.451443990518192
 10
-1.968936663804985
 20
-0.9234889007605389
 30
0.0
 10
-1.672173731103768
 20
-0.9234889007605389
 30
0.0
 10
-1.382735176170509
 20
-0.8791336828494848
 30
0.0
 10
-1.098350913309499
 20
-0.8041705097846936
 30
0.0
  0
SPLINE
  5
13D4
330
1F
100
AcDbEntity
  8
AM_0
100
AcDbSpline
210
0.0
220
0.0
230
1.0
 70
     8
 71
     3
 72
     8
 73
     4
 74
     0
 42
0.0000000001
 43
0.0000000001
 40
0.0
 40
0.0
 40
0.0
 40
0.0
 40
5.635889483499305
 40
5.635889483499305
 40
5.635889483499305
 40
5.635889483499305
 10
-2.720000000000041
 20
1.000000000000021
 30
0.0
 10
-3.095725965566668
 20
1.000000000000021
 30
0.0
 10
-3.457987850767288
 20
0.9243588057958511
 30
0.0
 10
-3.812022514608838
 20
0.8024970876742578
 30
0.0
  0
SPLINE
  5
13D5
330
1F
100
AcDbEntity
  8
AM_0
100
AcDbSpline
210
0.0
220
0.0
230
1.0
 70
     8
 71
     3
 72
     8
 73
     4
 74
     0
 42
0.0000000001
 43
0.0000000001
 40
0.0
 40
0.0
 40
0.0
 40
0.0
 40
2.130230809022907
 40
2.130230809022907
 40
2.130230809022907
 40
2.130230809022907
 10
-2.720000000000041
 20
-1.0
 30
0.0
 10
-2.577984612731842
 20
-1.0
 30
0.0
 10
-2.43789278255932
 20
-0.9891934575640348
 30
0.0
 10
-2.299441719864525
 20
-0.9691690845705132
 30
0.0
  0
SPLINE
  5
13D6
330
1F
100
AcDbEntity
  8
AM_0
100
AcDbSpline
210
0.0
220
0.0
230
1.0
 70
     8
 71
     3
 72
     8
 73
     4
 74
     0
 42
0.0000000001
 43
0.0000000001
 40
0.0
 40
0.0
 40
0.0
 40
0.0
 40
4.451443990518192
 40
4.451443990518192
 40
4.451443990518192
 40
4.451443990518192
 10
-4.688936663804984
 20
-0.9234889007605389
 30
0.0
 10
-4.392173731103763
 20
-0.9234889007605389
 30
0.0
 10
-4.102735176170508
 20
-0.8791336828494884
 30
0.0
 10
-3.818350913309497
 20
-0.8041705097846971
 30
0.0
  0
SPLINE
  5
13D7
330
1F
100
AcDbEntity
  8
AM_0
100
AcDbSpline
210
0.0
220
0.0
230
1.0
 70
     8
 71
     3
 72
     8
 73
     4
 74
     0
 42
0.0000000001
 43
0.0000000001
 40
0.0
 40
0.0
 40
0.0
 40
0.0
 40
2.764560748519282
 40
2.764560748519282
 40
2.764560748519282
 40
2.764560748519282
 10
-5.090910243601118
 20
-0.9700567340670787
 30
0.0
 10
-4.906606193699833
 20
-0.9700567340670787
 30
0.0
 10
-4.725377875224435
 20
-0.9522762297020115
 30
0.0
 10
-4.546636394515314
 20
-0.9201195579686221
 30
0.0
  0
SPLINE
  5
13D8
330
1F
100
AcDbEntity
  8
AM_0
100
AcDbSpline
210
0.0
220
0.0
230
1.0
 70
     8
 71
     3
 72
     8
 73
     4
 74
     0
 42
0.0000000001
 43
0.0000000001
 40
0.0
 40
0.0
 40
0.0
 40
0.0
 40
1.412269715655931
 40
1.412269715655931
 40
1.412269715655931
 40
1.412269715655931
 10
-5.44000000000004
 20
-0.9999999999999786
 30
0.0
 10
-5.534151314377101
 20
-0.9999999999999786
 30
0.0
 10
-5.627457180461664
 20
-0.9952502720761877
 30
0.0
 10
-5.720000000000041
 20
-0.9862137491824896
 30
0.0
  0
SPLINE
  5
13D9
330
1F
100
AcDbEntity
  8
AM_0
100
AcDbSpline
210
0.0
220
0.0
230
1.0
 70
     8
 71
     3
 72
     8
 73
     4
 74
     0
 42
0.0000000001
 43
0.0000000001
 40
11.41055204919593
 40
11.41055204919593
 40
11.41055204919593
 40
11.41055204919593
 40
14.48999654934393
 40
14.48999654934393
 40
14.48999654934393
 40
14.48999654934393
 10
-6.000000000000007
 20
0.3139838017958212
 30
0.0
 10
-5.812763812832766
 20
0.2125221003097941
 30
0.0
 10
-5.626381906416401
 20
0.1062610501549059
 30
0.0
 10
-5.44000000000004
 20
0.0000000000000213
 30
0.0
  0
LINE
  5
13DC
330
1F
100
AcDbEntity
  8
AM_7
  6
AM_ISO08W050X2
100
AcDbLine
 10
1.129788688840505
 20
-0.000000000000095
 30
0.0
 11
-42.06123769649856
 21
-0.0000000000001279
 31
0.0
1001
GENIUS_GENODEF_13
1002
{
1000
HIER
1070
     0
1002
}
1002
{
1000
MANEDIT
1070
     0
1002
}
1002
{
1000
NOSEL
1070
     0
1002
}
1002
{
1000
BEHIND
1070
     0
1002
}
1002
{
1000
REACTOR
1002
}
1001
GENIUS_GENOBJ-N-CEN_13
1002
{
1000
OWNER
1000
GEN
1002
}
  0
LINE
  5
13DD
330
1F
100
AcDbEntity
  8
AM_11
100
AcDbLine
 10
-6.000000000000021
 20
-1.000000000000003
 30
0.0
 11
0.0
 21
-1.0
 31
0.0
  0
LINE
  5
13DE
330
1F
100
AcDbEntity
  8
AM_11
100
AcDbLine
 10
-0.0000000000001563
 20
1.0
 30
0.0
 11
-6.000000000000053
 21
0.9999999999999964
 31
0.0
  0
LINE
  5
13DF
330
1F
100
AcDbEntity
  8
AM_0
100
AcDbLine
 10
0.0
 20
0.0
 30
0.0
 11
0.0
 21
1.0
 31
0.0
  0
ARC
  5
13E0
330
1F
100
AcDbEntity
  8
AM_0
100
AcDbCircle
 10
0.3971346364054398
 20
-0.5087760329435796
 30
0.0
 40
0.6081396231032102
100
AcDbArc
 50
159.3923269732582
 51
208.5609268810354
  0
LINE
  5
13E2
330
1F
100
AcDbEntity
  8
AM_0
100
AcDbLine
 10
0.0
 20
-1.0
 30
0.0
 11
0.0
 21
-0.1999999999999993
 31
0.0
  0
LINE
  5
13E3
330
1F
100
AcDbEntity
  8
AM_0
100
AcDbLine
 10
-0.172091597138234
 20
-0.2947309530333086
 30
0.0
 11
-0.0209999999999973
 21
-0.2653795709126356
 31
0.0
  0
LINE
  5
13E4
330
1F
100
AcDbEntity
  8
AM_0
100
AcDbLine
 10
0.0
 20
0.0
 30
0.0
 11
-0.4713144462043779
 21
0.0
 31
0.0
  0
LINE
  5
13E5
330
1F
100
AcDbEntity
  8
AM_0
100
AcDbLine
 10
-0.4713144462043779
 20
-0.1600000000000037
 30
0.0
 11
-0.0230940107675863
 21
-0.1600000000000037
 31
0.0
  0
LINE
  5
13E6
330
1F
100
AcDbEntity
  8
AM_0
100
AcDbLine
 10
0.0
 20
-0.1999999999999993
 30
0.0
 11
-0.1154700538379316
 21
0.0000000000000107
 31
0.0
  0
LINE
  5
13E7
330
1F
100
AcDbEntity
  8
AM_0
100
AcDbLine
 10
0.0
 20
0.0
 30
0.0
 11
-0.0210000000000008
 21
0.2000000000000242
 31
0.0
  0
LINE
  5
13E8
330
1F
100
AcDbEntity
  8
AM_0
100
AcDbLine
 10
0.0
 20
0.0
 30
0.0
 11
-0.0177685218287955
 21
-0.1692240174171502
 31
0.0
  0
LINE
  5
13E9
330
1F
100
AcDbEntity
  8
AM_0
100
AcDbLine
 10
-0.4713144462043779
 20
0.0
 30
0.0
 11
-0.4713144462043779
 21
-0.1600000000000037
 31
0.0
  0
LINE
  5
13EA
330
1F
100
AcDbEntity
  8
AM_0
100
AcDbLine
 10
-0.4713144462043779
 20
-0.1600000000000037
 30
0.0
 11
-0.172091597138234
 21
-0.2947309530333086
 31
0.0
  0
LINE
  5
13EB
330
1F
100
AcDbEntity
  8
AM_0
100
AcDbLine
 10
-0.0209999999999973
 20
-0.2653795709126356
 30
0.0
 11
0.0
 21
-0.1999999999999993
 31
0.0
  0
LINE
  5
13EC
330
1F
100
AcDbEntity
  8
AM_0
100
AcDbLine
 10
-0.2135048395491736
 20
0.5334281628020783
 30
0.0
 11
-0.4713144462043779
 21
0.6016906845056163
 31
0.0
  0
LINE
  5
13ED
330
1F
100
AcDbEntity
  8
AM_0
100
AcDbLine
 10
-0.0210000000000008
 20
0.2000000000000242
 30
0.0
 11
-0.2135048395491736
 21
0.5334281628020783
 31
0.0
  0
LINE
  5
13EE
330
1F
100
AcDbEntity
  8
AM_0
100
AcDbLine
 10
0.0
 20
-1.0
 30
0.0
 11
-0.0209999999999973
 21
-0.9466882315243658
 31
0.0
  0
LINE
  5
13EF
330
1F
100
AcDbEntity
  8
AM_0
100
AcDbLine
 10
-0.0209999999999973
 20
-0.9466882315243552
 30
0.0
 11
-0.1370000000000004
 21
-0.7995233310923809
 31
0.0
  0
POLYLINE
  5
13F0
330
1F
100
AcDbEntity
  8
AM_0
100
AcDb2dPolyline
 66
     1
 10
0.0
 20
0.0
 30
0.0
 70
     2
  0
VERTEX
  5
13F1
330
13F0
100
AcDbEntity
  8
AM_0
100
AcDbVertex
100
AcDb2dVertex
 10
-6.532022514608872
 20
0.8024830960343365
 30
0.0
 42
-0.0080850818469205
  0
VERTEX
  5
13F2
330
13F0
100
AcDbEntity
  8
AM_0
100
AcDbVertex
100
AcDb2dVertex
 10
-6.63229759468831
 20
0.8338925574722075
 30
0.0
 42
-0.0113772357485858
 70
     1
  0
VERTEX
  5
13F3
330
13F0
100
AcDbEntity
  8
AM_0
100
AcDbVertex
100
AcDb2dVertex
 10
-6.703740791947069
 20
0.8593741203383444
 30
0.0
 42
-0.0082896290467094
  0
VERTEX
  5
13F4
330
13F0
100
AcDbEntity
  8
AM_0
100
AcDbVertex
100
AcDb2dVertex
 10
-6.931441730725186
 20
0.9508322851355757
 30
0.0
 42
-0.2726804491113656
 70
     1
  0
VERTEX
  5
13F5
330
13F0
100
AcDbEntity
  8
AM_0
100
AcDbVertex
100
AcDb2dVertex
 10
-6.936226699368667
 20
0.9572608132137929
 30
0.0
 42
-0.4014058829339297
  0
VERTEX
  5
13F6
330
13F0
100
AcDbEntity
  8
AM_0
100
AcDbVertex
100
AcDb2dVertex
 10
-6.927552230009819
 20
0.9685308085240436
 30
0.0
 42
-0.0313656446754737
 70
     1
  0
VERTEX
  5
13F7
330
13F0
100
AcDbEntity
  8
AM_0
100
AcDbVertex
100
AcDb2dVertex
 10
-6.771265580638822
 20
0.9824239649341137
 30
0.0
 42
-0.0039726403541645
  0
VERTEX
  5
13F8
330
13F0
100
AcDbEntity
  8
AM_0
100
AcDbVertex
100
AcDb2dVertex
 10
-6.628938241844078
 20
0.984987034090178
 30
0.0
 42
0.0019401889352083
 70
     1
  0
VERTEX
  5
13F9
330
13F0
100
AcDbEntity
  8
AM_0
100
AcDbVertex
100
AcDb2dVertex
 10
-6.337499999999995
 20
0.989050371317667
 30
0.0
 42
0.0036525506412497
  0
VERTEX
  5
13FA
330
13F0
100
AcDbEntity
  8
AM_0
100
AcDbVertex
100
AcDb2dVertex
 10
-6.222895984895554
 20
0.9919306210906455
 30
0.0
 42
0.0018773371428962
 70
     1
  0
VERTEX
  5
13FB
330
13F0
100
AcDbEntity
  8
AM_0
100
AcDbVertex
100
AcDb2dVertex
 10
-5.999999999999996
 20
0.9999999999999964
 30
0.0
  0
SEQEND
  5
13FC
330
13F0
100
AcDbEntity
  8
AM_0
  0
LINE
  5
13FD
330
1F
100
AcDbEntity
  8
AM_11
100
AcDbLine
 10
-6.000000000000017
 20
-1.000000000000003
 30
0.0
 11
-5.999999999999996
 21
0.9999999999999964
 31
0.0
  0
LWPOLYLINE
  5
13FE
330
1F
100
AcDbEntity
  8
AM_0
100
AcDbPolyline
 90
        7
 70
     0
 43
0.0
 10
-5.999999999999996
 20
0.313983801795839
 10
-6.337499999999995
 20
0.3855299402469967
 10
-6.787499999999997
 20
0.3620202369908512
 10
-6.899999999999995
 20
0.2281185241641914
 10
-6.787499999999997
 20
-0.008718945780096
 10
-6.337499999999995
 20
-0.4439716775067524
 10
-5.999999999999996
 20
-0.6641036396771299
  0
LINE
  5
1400
330
1F
100
AcDbEntity
  8
AM_0
100
AcDbLine
 10
-6.0
 20
0.6270255572039448
 30
0.0
 11
-5.999999999999996
 21
0.313983801795839
 31
0.0
  0
ARC
  5
1401
330
1F
100
AcDbEntity
  8
AM_0
100
AcDbCircle
 10
-5.99675327452633
 20
-3.107277896422104
 30
0.0
 40
2.134852866899929
100
AcDbArc
 50
90.08713656171535
 51
99.21891394236292
  0
LINE
  5
1402
330
1F
100
AcDbEntity
  8
AM_0
100
AcDbLine
 10
-5.999999999999996
 20
-0.6641036396771299
 30
0.0
 11
-6.000000000000017
 21
-0.9724274983650076
 31
0.0
  0
LINE
  5
14B3
330
1F
100
AcDbEntity
  8
AM_0
100
AcDbLine
 10
-12.5
 20
-2.000000000000127
 30
0.0
 11
-39.75
 21
-2.000000000000127
 31
0.0
  0
LINE
  5
14B4
330
1F
100
AcDbEntity
  8
AM_0
100
AcDbLine
 10
-40.0
 20
-1.750000000000127
 30
0.0
 11
-40.0
 21
1.749999999999872
 31
0.0
  0
LINE
  5
14B5
330
1F
100
AcDbEntity
  8
AM_0
100
AcDbLine
 10
-39.75
 20
1.999999999999872
 30
0.0
 11
-12.5
 21
1.999999999999872
 31
0.0
  0
LINE
  5
14B6
330
1F
100
AcDbEntity
  8
AM_0
100
AcDbLine
 10
-12.5
 20
1.999999999999872
 30
0.0
 11
-6.828718180383003
 21
1.0
 31
0.0
  0
LINE
  5
14B7
330
1F
100
AcDbEntity
  8
AM_0
100
AcDbLine
 10
-12.5
 20
-2.000000000000127
 30
0.0
 11
-6.828718180383003
 21
-1.000000000000255
 31
0.0
  0
LINE
  5
14C0
330
1F
100
AcDbEntity
  8
AM_0
100
AcDbLine
 10
-12.5
 20
1.999999999999872
 30
0.0
 11
-12.5
 21
-2.000000000000127
 31
0.0
  0
LINE
  5
14C3
330
1F
100
AcDbEntity
  8
AM_0
100
AcDbLine
 10
-5.440000000000001
 20
1.000000000000021
 30
0.0
 11
-6.828718180383003
 21
0.9999999999999928
 31
0.0
  0
LINE
  5
14C4
330
1F
100
AcDbEntity
  8
AM_0
100
AcDbLine
 10
-6.338771739761281
 20
-1.0
 30
0.0
 11
-6.828718180383006
 21
-1.0
 31
0.0
  0
LINE
  5
14C5
330
1F
100
AcDbEntity
  8
AM_0
100
AcDbLine
 10
-6.828718180383003
 20
0.9999999999999964
 30
0.0
 11
-6.828718180383003
 21
0.9796106443363967
 31
0.0
  0
LINE
  5
14C6
330
1F
100
AcDbEntity
  8
AM_0
100
AcDbLine
 10
-6.828718180383003
 20
0.9084861669115369
 30
0.0
 11
-6.828718180383003
 21
0.3129608151874486
 31
0.0
  0
LINE
  5
14C7
330
1F
100
AcDbEntity
  8
AM_0
100
AcDbLine
 10
-6.828718180383003
 20
0.0780544725098444
 30
0.0
 11
-6.828718180383003
 21
-1.000000000000252
 31
0.0
  0
DIMENSION
  5
153E
330
1F
100
AcDbEntity
  8
AM_5
100
AcDbDimension
  2
*D5
 10
-49.06123869649856
 20
-2.000000000000125
 30
0.0
 11
-50.61123869649855
 21
-5.295238095238228
 31
0.0
 70
    32
  1
%%c<>
  3
AM_JIS
100
AcDbAlignedDimension
 13
-39.75
 23
1.999999999999872
 33
0.0
 14
-39.75
 24
-2.000000000000127
 34
0.0
 50
270.0
100
AcDbRotatedDimension
1001
GENIUS_GENDTOL_13
1000

1000
h7
1000

1040
0.0
  0
DIMENSION
  5
15E6
330
1F
100
AcDbEntity
  8
AM_5
100
AcDbDimension
  2
*D6
 10
8.129789688840503
 20
-1.000000000000002
 30
0.0
 11
6.579789688840502
 21
-5.507142857142858
 31
0.0
 70
    32
  1
%%c<>
  3
AM_JIS
100
AcDbAlignedDimension
 13
0.0
 23
1.0
 33
0.0
 14
-0.0000000000005906
 24
-1.0
 34
0.0
 50
90.00000000000005
100
AcDbRotatedDimension
1001
GENIUS_GENDTOL_13
1000

1000
h7
1000

1040
0.0
  0
DIMENSION
  5
16EA
330
1F
100
AcDbEntity
  8
AM_5
100
AcDbDimension
  2
*D7
 10
-6.000000000000018
 20
-9.000001000000109
 30
0.0
 11
-3.000000000000304
 21
-7.450001000000109
 31
0.0
 70
    32
  1
<>
  3
AM_JIS
100
AcDbAlignedDimension
 13
-0.0000000000005906
 23
-1.0
 33
0.0
 14
-6.000000000000017
 24
-1.000000000000003
 34
0.0
 50
0.0000000000001641
100
AcDbRotatedDimension
1001
GENIUS_GENDTOL_13
1000

1000
h7
1000

1040
0.0
  0
DIMENSION
  5
177A
330
1F
100
AcDbEntity
  8
AM_5
100
AcDbDimension
  2
*D8
 10
-40.0
 20
-15.0000010000002
 30
0.0
 11
-20.0
 21
-13.4500010000002
 31
0.0
 70
    32
  1
<>
  3
AM_JIS
100
AcDbAlignedDimension
 13
0.0
 23
-1.0
 33
0.0
 14
-40.0
 24
-1.750000000000127
 34
0.0
 50
0.0000000000001641
100
AcDbRotatedDimension
1001
GENIUS_GENDTOL_13
1000

1000
h7
1000

1040
0.0
  0
LINE
  5
188B
330
1F
100
AcDbEntity
  8
AM_0
100
AcDbLine
 10
-39.75
 20
1.999999999999872
 30
0.0
 11
-40.0
 21
1.749999999999872
 31
0.0
1001
GENIUS_GENFIL_13
1070
     0
1040
0.25
1040
0.25
1040
20.0
1040
0.0
1002
{
1002
}
1001
GENIUS_GENODEF_13
1002
{
1000
HIER
1070
     0
1002
}
1002
{
1000
MANEDIT
1070
     0
1002
}
1002
{
1000
NOSEL
1070
     0
1002
}
1002
{
1000
BEHIND
1070
     0
1002
}
1002
{
1000
REACTOR
1002
}
1001
GENIUS_GENOBJ-N-CHA_13
1002
{
1000
OWNER
1000
GEN
1002
}
  0
LINE
  5
188E
330
1F
100
AcDbEntity
  8
AM_0
100
AcDbLine
 10
-40.0
 20
-1.750000000000127
 30
0.0
 11
-39.75
 21
-2.000000000000127
 31
0.0
1001
GENIUS_GENFIL_13
1070
     0
1040
0.25
1040
0.25
1040
20.0
1040
0.0
1002
{
1002
}
1001
GENIUS_GENODEF_13
1002
{
1000
HIER
1070
     0
1002
}
1002
{
1000
MANEDIT
1070
     0
1002
}
1002
{
1000
NOSEL
1070
     0
1002
}
1002
{
1000
BEHIND
1070
     0
1002
}
1002
{
1000
REACTOR
1002
}
1001
GENIUS_GENOBJ-N-CHA_13
1002
{
1000
OWNER
1000
GEN
1002
}
  0
LINE
  5
188F
330
1F
100
AcDbEntity
  8
AM_0
100
AcDbLine
 10
-39.75
 20
1.999999999999872
 30
0.0
 11
-39.75
 21
-2.000000000000127
 31
0.0
  0
VIEWPORT
  5
110
330
101
100
AcDbEntity
 67
     1
  8
0
100
AcDbViewport
 10
420.5
 20
297.0
 30
0.0
 40
948.9782706766916
 41
628.452
 68
     1
 69
     1
1001
ACAD
1000
MVIEW
1002
{
1070
    16
1010
0.0
1020
0.0
1030
0.0
1010
0.0
1020
0.0
1030
1.0
1040
0.0
1040
628.452
1040
420.5
1040
297.0
1040
50.0
1040
0.0
1040
0.0
1070
     0
1070
   100
1070
     1
1070
     1
1070
     0
1070
     0
1070
     0
1070
     0
1040
0.0
1040
0.0
1040
0.0
1040
10.0
1040
10.0
1040
10.0
1040
10.0
1070
     0
1002
{
1002
}
1002
}
  0
ENDSEC
  0
SECTION
  2
OBJECTS
  0
DICTIONARY
  5
C
330
0
100
AcDbDictionary
  3
ACAD_GROUP
350
D
  3
ACAD_LAYOUT
350
1A
  3
ACAD_MLINESTYLE
350
17
  3
ACAD_PLOTSETTINGS
350
19
  3
ACAD_PLOTSTYLENAME
350
E
  3
ACDBVARIABLEDICTIONARY
350
34
  3
ACMDICTIONARY
350
43
  3
AMG
350
2B
  3
AMGSNAPSETTINGS
350
6E
  3
DWGPROPS
350
19F7
  3
ACDBHEADERROUNDTRIPXREC
350
1A03
  0
DICTIONARY
  5
74
330
1F
100
AcDbDictionary
280
     1
  3
ACAD_INDEX
360
19F9
  3
ACAD_LAYOUTSELFREF
360
1A26
  0
DICTIONARY
  5
1A2B
330
101
100
AcDbDictionary
280
     1
  3
ACAD_LAYOUTSELFREF
360
1A2C
  0
DICTIONARY
  5
D
102
{ACAD_REACTORS
330
C
102
}
330
C
100
AcDbDictionary
  0
DICTIONARY
  5
1A
102
{ACAD_REACTORS
330
C
102
}
330
C
100
AcDbDictionary
  0
DICTIONARY
  5
17
102
{ACAD_REACTORS
330
C
102
}
330
C
100
AcDbDictionary
  3
STANDARD
350
18
  0
DICTIONARY
  5
19
102
{ACAD_REACTORS
330
C
102
}
330
C
100
AcDbDictionary
  0
ACDBDICTIONARYWDFLT
  5
E
102
{ACAD_REACTORS
330
C
102
}
330
C
100
AcDbDictionary
281
     1
  3
Normal
350
F
100
AcDbDictionaryWithDefault
340
F
  0
DICTIONARY
  5
34
102
{ACAD_REACTORS
330
C
102
}
330
C
100
AcDbDictionary
  3
INDEXCTL
350
35
  3
SORTENTS
350
B5E
  0
DICTIONARY
  5
43
102
{ACAD_REACTORS
330
C
102
}
330
C
100
AcDbDictionary
  3
ACMSTDDICTIONARY
350
260
  0
DICTIONARY
  5
2B
102
{ACAD_REACTORS
330
C
102
}
330
C
100
AcDbDictionary
  3
ACMGSETTINGS
350
2C
  0
DICTIONARY
  5
6E
102
{ACAD_REACTORS
330
C
102
}
330
C
100
AcDbDictionary
  0
XRECORD
  5
19F7
102
{ACAD_REACTORS
330
C
102
}
330
C
100
AcDbXrecord
  1
DWGPROPS COOKIE
  2

  3

  4

  6

  7

  8

  9

300
AmdtFileType=82
301
=
302
=
303
=
304
=
305
=
306
=
307
=
308
=
309
=
 40
0.0475718981481482
 41
2452836.771637361
 42
2453045.61375978
  1

 90
        1
  0
DICTIONARY
  5
1A03
102
{ACAD_REACTORS
330
C
102
}
330
C
100
AcDbDictionary
  3
TSTACKALIGN
350
1A04
  3
TSTACKSIZE
350
1A05
  3
HYPERLINKBASE
350
1A06
  3
STYLESHEET
350
1A07
  3
LAYOUTDICT
350
1A08
  3
PLOTSETDICT
350
1A09
  3
PLOTSTYLNAMDICT
350
1A0A
  3
LWETCUNION
350
1A0B
  3
INSUNITS
350
1A0C
  3
CEPSNTYPE
350
1A0D
  3
FINGERPRINTGUID
350
1A0E
  3
VERSIONGUID
350
1A0F
  3
PSVPSCALE
350
1A10
  3
DIMSTYLEDATA
350
1A11
  3
PUCSORTHOREF
350
1A12
  3
PUCSORTHOVIEW
350
1A13
  3
PUCSBASE
350
1A14
  3
PUCSORGTOP
350
1A15
  3
PUCSORGBOTTOM
350
1A16
  3
PUCSORGLEFT
350
1A17
  3
PUCSORGRIGHT
350
1A18
  3
PUCSORGFRONT
350
1A19
  3
PUCSORGBACK
350
1A1A
  3
UCSORTHOREF
350
1A1B
  3
UCSORTHOVIEW
350
1A1C
  3
UCSBASE
350
1A1D
  3
UCSORGTOP
350
1A1E
  3
UCSORGBOTTOM
350
1A1F
  3
UCSORGLEFT
350
1A20
  3
UCSORGRIGHT
350
1A21
  3
UCSORGFRONT
350
1A22
  3
UCSORGBACK
350
1A23
  0
DICTIONARY
  5
19F9
102
{ACAD_REACTORS
330
74
102
}
330
74
100
AcDbDictionary
  3
*A1
350
19FA
  0
XRECORD
  5
1A26
102
{ACAD_REACTORS
330
74
102
}
330
74
100
AcDbXrecord
340
1F
  0
XRECORD
  5
1A2C
102
{ACAD_REACTORS
330
1A2B
102
}
330
1A2B
100
AcDbXrecord
340
101
  0
MLINESTYLE
  5
18
102
{ACAD_REACTORS
330
17
102
}
330
17
100
AcDbMlineStyle
  2
STANDARD
 70
     0
  3

 62
   256
 51
90.0
 52
90.0
 71
     2
 49
0.5
 62
   256
  6
BYLAYER
 49
-0.5
 62
   256
  6
BYLAYER
  0
ACDBPLACEHOLDER
  5
F
102
{ACAD_REACTORS
330
E
102
}
330
E
100
AcDbPlaceHolder
280
     0
  0
DICTIONARYVAR
  5
35
102
{ACAD_REACTORS
330
34
102
}
330
34
100
DictionaryVariables
280
     0
  1
1
  0
DICTIONARYVAR
  5
B5E
102
{ACAD_REACTORS
330
34
102
}
330
34
100
DictionaryVariables
280
     0
  1
96
  0
DICTIONARY
  5
260
102
{ACAD_REACTORS
330
43
102
}
330
43
100
AcDbDictionary
  0
DICTIONARY
  5
2C
102
{ACAD_REACTORS
330
2B
102
}
330
2B
100
AcDbDictionary
  3
DWGSETTINGS
350
2D
  0
XRECORD
  5
1A04
102
{ACAD_REACTORS
330
1A03
102
}
330
1A03
100
AcDbXrecord
 90
        1
  0
XRECORD
  5
1A05
102
{ACAD_REACTORS
330
1A03
102
}
330
1A03
100
AcDbXrecord
 90
       70
  0
XRECORD
  5
1A06
102
{ACAD_REACTORS
330
1A03
102
}
330
1A03
100
AcDbXrecord
  1

  0
XRECORD
  5
1A07
102
{ACAD_REACTORS
330
1A03
102
}
330
1A03
100
AcDbXrecord
  1
ASAMI.ctb
  0
XRECORD
  5
1A08
102
{ACAD_REACTORS
330
1A03
102
}
330
1A03
100
AcDbXrecord
340
1A
  0
XRECORD
  5
1A09
102
{ACAD_REACTORS
330
1A03
102
}
330
1A03
100
AcDbXrecord
340
19
  0
XRECORD
  5
1A0A
102
{ACAD_REACTORS
330
1A03
102
}
330
1A03
100
AcDbXrecord
340
E
  0
XRECORD
  5
1A0B
102
{ACAD_REACTORS
330
1A03
102
}
330
1A03
100
AcDbXrecord
 90
    10781
  0
XRECORD
  5
1A0C
102
{ACAD_REACTORS
330
1A03
102
}
330
1A03
100
AcDbXrecord
 90
        4
  0
XRECORD
  5
1A0D
102
{ACAD_REACTORS
330
1A03
102
}
330
1A03
100
AcDbXrecord
 90
        0
  0
XRECORD
  5
1A0E
102
{ACAD_REACTORS
330
1A03
102
}
330
1A03
100
AcDbXrecord
  1
{AFB28963-8C59-40AE-9337-C84526B81ACE}
  0
XRECORD
  5
1A0F
102
{ACAD_REACTORS
330
1A03
102
}
330
1A03
100
AcDbXrecord
  1
{51345D6D-EEDE-4188-9DFB-061355AF3C4B}
  0
XRECORD
  5
1A10
102
{ACAD_REACTORS
330
1A03
102
}
330
1A03
100
AcDbXrecord
 40
0.0
  0
XRECORD
  5
1A11
102
{ACAD_REACTORS
330
1A03
102
}
330
1A03
100
AcDbXrecord
1000
DSTYLE
1002
{
1070
    79
 70
     2
1070
   341
340
59
1070
   342
340
59
1070
   371
 70
    -1
1070
   372
 70
    -1
1002
}
  0
XRECORD
  5
1A12
102
{ACAD_REACTORS
330
1A03
102
}
330
1A03
100
AcDbXrecord
340
0
  0
XRECORD
  5
1A13
102
{ACAD_REACTORS
330
1A03
102
}
330
1A03
100
AcDbXrecord
 70
     0
  0
XRECORD
  5
1A14
102
{ACAD_REACTORS
330
1A03
102
}
330
1A03
100
AcDbXrecord
340
0
  0
XRECORD
  5
1A15
102
{ACAD_REACTORS
330
1A03
102
}
330
1A03
100
AcDbXrecord
 10
0.0
 20
0.0
 30
0.0
  0
XRECORD
  5
1A16
102
{ACAD_REACTORS
330
1A03
102
}
330
1A03
100
AcDbXrecord
 10
0.0
 20
0.0
 30
0.0
  0
XRECORD
  5
1A17
102
{ACAD_REACTORS
330
1A03
102
}
330
1A03
100
AcDbXrecord
 10
0.0
 20
0.0
 30
0.0
  0
XRECORD
  5
1A18
102
{ACAD_REACTORS
330
1A03
102
}
330
1A03
100
AcDbXrecord
 10
0.0
 20
0.0
 30
0.0
  0
XRECORD
  5
1A19
102
{ACAD_REACTORS
330
1A03
102
}
330
1A03
100
AcDbXrecord
 10
0.0
 20
0.0
 30
0.0
  0
XRECORD
  5
1A1A
102
{ACAD_REACTORS
330
1A03
102
}
330
1A03
100
AcDbXrecord
 10
0.0
 20
0.0
 30
0.0
  0
XRECORD
  5
1A1B
102
{ACAD_REACTORS
330
1A03
102
}
330
1A03
100
AcDbXrecord
340
0
  0
XRECORD
  5
1A1C
102
{ACAD_REACTORS
330
1A03
102
}
330
1A03
100
AcDbXrecord
 70
     0
  0
XRECORD
  5
1A1D
102
{ACAD_REACTORS
330
1A03
102
}
330
1A03
100
AcDbXrecord
340
0
  0
XRECORD
  5
1A1E
102
{ACAD_REACTORS
330
1A03
102
}
330
1A03
100
AcDbXrecord
 10
0.0
 20
0.0
 30
0.0
  0
XRECORD
  5
1A1F
102
{ACAD_REACTORS
330
1A03
102
}
330
1A03
100
AcDbXrecord
 10
0.0
 20
0.0
 30
0.0
  0
XRECORD
  5
1A20
102
{ACAD_REACTORS
330
1A03
102
}
330
1A03
100
AcDbXrecord
 10
0.0
 20
0.0
 30
0.0
  0
XRECORD
  5
1A21
102
{ACAD_REACTORS
330
1A03
102
}
330
1A03
100
AcDbXrecord
 10
0.0
 20
0.0
 30
0.0
  0
XRECORD
  5
1A22
102
{ACAD_REACTORS
330
1A03
102
}
330
1A03
100
AcDbXrecord
 10
0.0
 20
0.0
 30
0.0
  0
XRECORD
  5
1A23
102
{ACAD_REACTORS
330
1A03
102
}
330
1A03
100
AcDbXrecord
 10
0.0
 20
0.0
 30
0.0
  0
LAYER_INDEX
  5
19FA
102
{ACAD_REACTORS
330
19F9
102
}
330
19F9
100
AcDbIndex
 40
2453151.795030069
100
AcDbLayerIndex
  8
0
360
19FB
 90
        0
  8
AM_0
360
19FC
 90
       57
  8
AM_11
360
19FD
 90
        3
  8
AM_7
360
19FE
 90
        1
  8
AM_5
360
19FF
 90
        4
  8
Defpoints
360
1A00
 90
        0
  8
AM_6
360
1A01
 90
        1
  0
XRECORD
  5
2D
102
{ACAD_REACTORS
330
2C
102
}
330
2C
100
AcDbXrecord
  1
VERSION
140
15.0
  1
PRODUCT
  2
AutoCAD Mechanical 2000
  0
IDBUFFER
  5
19FB
330
0
100
AcDbIdBuffer
  0
IDBUFFER
  5
19FC
330
0
100
AcDbIdBuffer
330
14C0
330
14C3
330
14C4
330
14C5
330
14C6
330
14C7
330
188B
330
188E
330
188F
330
13BE
330
13BF
330
13C0
330
13C1
330
13C2
330
13C4
330
13C6
330
13C8
330
13C9
330
13CA
330
13CB
330
13CD
330
13CE
330
13CF
330
13D0
330
13D1
330
13D4
330
13D5
330
13D6
330
13D7
330
13D8
330
13D9
330
13DF
330
13E0
330
13E2
330
13E3
330
13E4
330
13E5
330
13E6
330
13E7
330
13E8
330
13E9
330
13EA
330
13EB
330
13EC
330
13ED
330
13EE
330
13EF
330
13F0
330
13FE
330
1400
330
1401
330
1402
330
14B3
330
14B4
330
14B5
330
14B6
330
14B7
  0
IDBUFFER
  5
19FD
330
0
100
AcDbIdBuffer
330
13DD
330
13DE
330
13FD
  0
IDBUFFER
  5
19FE
330
0
100
AcDbIdBuffer
330
13DC
  0
IDBUFFER
  5
19FF
330
0
100
AcDbIdBuffer
330
153E
330
15E6
330
16EA
330
177A
  0
IDBUFFER
  5
1A00
330
0
100
AcDbIdBuffer
  0
IDBUFFER
  5
1A01
330
0
100
AcDbIdBuffer
330
E5A
  0
ENDSEC
  0
EOF
