  0
SECTION
  2
HEADER
  9
$ACADVER
  1
AC1014
  9
$ACADMAINTVER
 70
     9
  9
$DWGCODEPAGE
  3
ANSI_932
  9
$INSBASE
 10
0.0
 20
0.0
 30
0.0
  9
$EXTMIN
 10
-56.41123869649856
 20
-27.25000100000022
 30
-0.00000001
  9
$EXTMAX
 10
8.629789688840501
 20
4.249999999999998
 30
0.00000001
  9
$LIMMIN
 10
-58.16772450626811
 20
-30.39236064720908
  9
$LIMMAX
 10
11.26166947156443
 20
9.970318479273956
  9
$ORTHOMODE
 70
     0
  9
$REGENMODE
 70
     1
  9
$FILLMODE
 70
     1
  9
$QTEXTMODE
 70
     0
  9
$MIRRTEXT
 70
     0
  9
$DRAGMODE
 70
     2
  9
$LTSCALE
 40
1.0
  9
$OSMODE
 70
    55
  9
$ATTMODE
 70
     1
  9
$TEXTSIZE
 40
2.5
  9
$TRACEWID
 40
1.0
  9
$TEXTSTYLE
  7
STANDARD
  9
$CLAYER
  8
AM_0
  9
$CELTYPE
  6
BYLAYER
  9
$CECOLOR
 62
   256
  9
$CELTSCALE
 40
1.0
  9
$DELOBJ
 70
     1
  9
$DISPSILH
 70
     0
  9
$DIMSCALE
 40
0.5
  9
$DIMASZ
 40
2.5
  9
$DIMEXO
 40
1.0
  9
$DIMDLI
 40
12.0
  9
$DIMRND
 40
0.0
  9
$DIMDLE
 40
0.0
  9
$DIMEXE
 40
1.0
  9
$DIMTP
 40
0.1
  9
$DIMTM
 40
0.1
  9
$DIMTXT
 40
3.2
  9
$DIMCEN
 40
0.0
  9
$DIMTSZ
 40
0.0
  9
$DIMTOL
 70
     0
  9
$DIMLIM
 70
     0
  9
$DIMTIH
 70
     0
  9
$DIMTOH
 70
     0
  9
$DIMSE1
 70
     0
  9
$DIMSE2
 70
     0
  9
$DIMTAD
 70
     3
  9
$DIMZIN
 70
     8
  9
$DIMBLK
  1
OPEN30
  9
$DIMASO
 70
     1
  9
$DIMSHO
 70
     1
  9
$DIMPOST
  1

  9
$DIMAPOST
  1
"
  9
$DIMALT
 70
     0
  9
$DIMALTD
 70
     2
  9
$DIMALTF
 40
0.0393701
  9
$DIMLFAC
 40
1.0
  9
$DIMTOFL
 70
     1
  9
$DIMTVP
 40
0.0
  9
$DIMTIX
 70
     0
  9
$DIMSOXD
 70
     0
  9
$DIMSAH
 70
     0
  9
$DIMBLK1
  1

  9
$DIMBLK2
  1

  9
$DIMSTYLE
  2
AM_JIS
  9
$DIMCLRD
 70
   256
  9
$DIMCLRE
 70
   256
  9
$DIMCLRT
 70
     2
  9
$DIMTFAC
 40
0.71
  9
$DIMGAP
 40
1.5
  9
$DIMJUST
 70
     0
  9
$DIMSD1
 70
     0
  9
$DIMSD2
 70
     0
  9
$DIMTOLJ
 70
     0
  9
$DIMTZIN
 70
     0
  9
$DIMALTZ
 70
     0
  9
$DIMALTTZ
 70
     0
  9
$DIMFIT
 70
     3
  9
$DIMUPT
 70
     0
  9
$DIMUNIT
 70
     2
  9
$DIMDEC
 70
     3
  9
$DIMTDEC
 70
     3
  9
$DIMALTU
 70
     2
  9
$DIMALTTD
 70
     2
  9
$DIMTXSTY
  7
ASAMI
  9
$DIMAUNIT
 70
     0
  9
$LUNITS
 70
     2
  9
$LUPREC
 70
     2
  9
$SKETCHINC
 40
1.0
  9
$FILLETRAD
 40
2.5
  9
$AUNITS
 70
     0
  9
$AUPREC
 70
     0
  9
$MENU
  1
.
  9
$ELEVATION
 40
0.0
  9
$PELEVATION
 40
0.0
  9
$THICKNESS
 40
0.0
  9
$LIMCHECK
 70
     0
  9
$BLIPMODE
 70
     0
  9
$CHAMFERA
 40
0.5
  9
$CHAMFERB
 40
0.5
  9
$CHAMFERC
 40
20.0
  9
$CHAMFERD
 40
0.0
  9
$SKPOLY
 70
     0
  9
$TDCREATE
 40
2452836.771637361
  9
$TDUPDATE
 40
2453151.788435393
  9
$TDINDWG
 40
0.0933023032
  9
$TDUSRTIMER
 40
0.0933023032
  9
$USRTIMER
 70
     1
  9
$ANGBASE
 50
0.0
  9
$ANGDIR
 70
     0
  9
$PDMODE
 70
     0
  9
$PDSIZE
 40
0.0
  9
$PLINEWID
 40
0.0
  9
$COORDS
 70
     1
  9
$SPLFRAME
 70
     0
  9
$SPLINETYPE
 70
     6
  9
$SPLINESEGS
 70
     8
  9
$ATTDIA
 70
     1
  9
$ATTREQ
 70
     1
  9
$HANDLING
 70
 12289
  9
$HANDSEED
  5
239D
  9
$SURFTAB1
 70
     6
  9
$SURFTAB2
 70
     6
  9
$SURFTYPE
 70
     6
  9
$SURFU
 70
     6
  9
$SURFV
 70
     6
  9
$UCSNAME
  2

  9
$UCSORG
 10
0.0
 20
0.0
 30
0.0
  9
$UCSXDIR
 10
1.0
 20
0.0
 30
0.0
  9
$UCSYDIR
 10
0.0
 20
1.0
 30
0.0
  9
$PUCSNAME
  2

  9
$PUCSORG
 10
0.0
 20
0.0
 30
0.0
  9
$PUCSXDIR
 10
1.0
 20
0.0
 30
0.0
  9
$PUCSYDIR
 10
0.0
 20
1.0
 30
0.0
  9
$USERI1
 70
     0
  9
$USERI2
 70
     0
  9
$USERI3
 70
     0
  9
$USERI4
 70
     0
  9
$USERI5
 70
     0
  9
$USERR1
 40
0.0
  9
$USERR2
 40
0.0
  9
$USERR3
 40
0.0
  9
$USERR4
 40
0.0
  9
$USERR5
 40
0.0
  9
$WORLDVIEW
 70
     1
  9
$SHADEDGE
 70
     3
  9
$SHADEDIF
 70
    70
  9
$TILEMODE
 70
     1
  9
$MAXACTVP
 70
    64
  9
$PINSBASE
 10
0.0
 20
0.0
 30
0.0
  9
$PLIMCHECK
 70
     0
  9
$PEXTMIN
 10
1.000000000000000E+20
 20
1.000000000000000E+20
 30
1.000000000000000E+20
  9
$PEXTMAX
 10
-1.000000000000000E+20
 20
-1.000000000000000E+20
 30
-1.000000000000000E+20
  9
$PLIMMIN
 10
0.0
 20
0.0
  9
$PLIMMAX
 10
841.0
 20
594.0
  9
$UNITMODE
 70
     0
  9
$VISRETAIN
 70
     1
  9
$PLINEGEN
 70
     0
  9
$PSLTSCALE
 70
     0
  9
$TREEDEPTH
 70
  3020
  9
$PICKSTYLE
 70
     0
  9
$CMLSTYLE
  2
STANDARD
  9
$CMLJUST
 70
     0
  9
$CMLSCALE
 40
20.0
  9
$PROXYGRAPHICS
 70
     1
  9
$MEASUREMENT
 70
     1
  0
ENDSEC
  0
SECTION
  2
CLASSES
  0
CLASS
  1
ACDBDICTIONARYWDFLT
  2
AcDbDictionaryWithDefault
  3
AutoCAD 2000
 90
        0
280
     0
281
     0
  0
CLASS
  1
ACDBPLACEHOLDER
  2
AcDbPlaceHolder
  3
AutoCAD 2000
 90
        0
280
     0
281
     0
  0
CLASS
  1
LAYOUT
  2
AcDbLayout
  3
AutoCAD 2000
 90
        0
280
     0
281
     0
  0
CLASS
  1
AMGSETTINGSOBJ
  2
AmgSettingsObj
  3
"AcadM|Product Description: AutoCAD Mechanical 2000|Company: Autodesk"
 90
        0
280
     0
281
     0
  0
CLASS
  1
ACME_DOCUMENT
  2
AcMeDbDoc
  3
AcMeServices
 90
        0
280
     0
281
     0
  0
CLASS
  1
ACMESCOPE
  2
AcMeScope
  3
AcMeServices
 90
        0
280
     0
281
     0
  0
CLASS
  1
ACMECOMMANDHISTORY
  2
AcMeCommandHistory
  3
AcMeServices
 90
        0
280
     0
281
     0
  0
CLASS
  1
DICTIONARYVAR
  2
AcDbDictionaryVar
  3
AutoCAD 2000
 90
        0
280
     0
281
     0
  0
CLASS
  1
ACIMSYSVARMAN
  2
AcImSysVarManager
  3
AcMeServices
 90
        0
280
     0
281
     0
  0
CLASS
  1
ACIMREALSYSVAR
  2
AcImRealSysVar
  3
AcMeServices
 90
        0
280
     0
281
     0
  0
CLASS
  1
ACIMINTSYSVAR
  2
AcImIntSysVar
  3
AcMeServices
 90
        0
280
     0
281
     0
  0
CLASS
  1
ACMEDRAWINGMAN
  2
AcMeDrawingMan
  3
AcMeServices
 90
        0
280
     0
281
     0
  0
CLASS
  1
ACMEVIEW
  2
AcMeView
  3
AcMeServices
 90
        0
280
     0
281
     0
  0
CLASS
  1
ACDBENTITYCACHE
  2
AcMeEntityCache
  3
AcMeServices
 90
        0
280
     0
281
     0
  0
CLASS
  1
GSMANAGER
  2
AcMeGSManager
  3
AcMeServices
 90
        0
280
     0
281
     0
  0
CLASS
  1
AmdtInternalReactor
  2
AmdtInternalReactor
  3
AcMeServices
 90
        0
280
     0
281
     0
  0
CLASS
  1
ACMESTATEMGR
  2
AcMeStateMgr
  3
AcMeServices
 90
        0
280
     0
281
     0
  0
CLASS
  1
ACME_DATABASE
  2
AcMeDbDatabase
  3
AcMeServices
 90
        0
280
     0
281
     0
  0
CLASS
  1
ACRFINSADJUSTERMGR
  2
AcRfInsAdjusterMgr
  3
AcMeServices
 90
        0
280
     0
281
     0
  0
CLASS
  1
ACMDATADICTIONARY
  2
AcmDataDictionary
  3
"AcmSymBB|Product Description: AutoCAD Mechanical 2000|Company: Autodesk"
 90
        0
280
     0
281
     0
  0
CLASS
  1
ACMDATAENTRYBLOCK
  2
AcmDataEntryBlock
  3
"AcmSymBB|Product Description: AutoCAD Mechanical 2000|Company: Autodesk"
 90
        0
280
     0
281
     0
  0
CLASS
  1
AMGOBJPROPCFG
  2
AmgObjPropCfg
  3
"AmgLay|Product Description: AutoCAD Mechanical 2000|Company: Autodesk"
 90
        1
280
     0
281
     0
  0
CLASS
  1
ACAMGFILTERDAT
  2
AcAmgFilterDat
  3
"AcadM|Product Description: AutoCAD Mechanical 2000|Company: Autodesk"
 90
        0
280
     0
281
     0
  0
CLASS
  1
LAYER_INDEX
  2
AcDbLayerIndex
  3
AutoCAD 2000
 90
        0
280
     0
281
     0
  0
CLASS
  1
IDBUFFER
  2
AcDbIdBuffer
  3
AutoCAD 2000
 90
        0
280
     0
281
     0
  0
CLASS
  1
ACIMSTRSYSVAR
  2
AcImStrSysVar
  3
AcMeServices
 90
        0
280
     0
281
     0
  0
CLASS
  1
ACMSTANDARDJIS
  2
AcmStandardJIS
  3
"AcmSymBB|Product Description: AutoCAD Mechanical 2000|Company: Autodesk"
 90
        0
280
     0
281
     0
  0
CLASS
  1
ACMSURFSTANDARDJIS
  2
AcmSurfTextStdJIS
  3
"AcmSymBB|Product Description: AutoCAD Mechanical 2000|Company: Autodesk"
 90
        0
280
     0
281
     0
  0
CLASS
  1
ACMFCFSTANDARDJIS
  2
AcmFCFStdJIS
  3
"AcmSymBB|Product Description: AutoCAD Mechanical 2000|Company: Autodesk"
 90
        0
280
     0
281
     0
  0
CLASS
  1
ACMWELDSTANDARDJIS
  2
AcmWeldingStdJIS
  3
"AcmSymBB|Product Description: AutoCAD Mechanical 2000|Company: Autodesk"
 90
        0
280
     0
281
     0
  0
CLASS
  1
ACMIDSTANDARDJIS
  2
AcmIdStdJIS
  3
"AcmSymBB|Product Description: AutoCAD Mechanical 2000|Company: Autodesk"
 90
        0
280
     0
281
     0
  0
CLASS
  1
ACMDATUMSTANDARDJIS
  2
AcmDatumStdJIS
  3
"AcmSymBB|Product Description: AutoCAD Mechanical 2000|Company: Autodesk"
 90
        0
280
     0
281
     0
  0
CLASS
  1
ACMBOMSTANDARDJIS
  2
AcmBOMStdJIS
  3
"AcmSymBB|Product Description: AutoCAD Mechanical 2000|Company: Autodesk"
 90
        0
280
     0
281
     0
  0
CLASS
  1
ACMSTANDARDANSI
  2
AcmStandardANSI
  3
"AcmSymBB|Product Description: AutoCAD Mechanical 2000|Company: Autodesk"
 90
        0
280
     0
281
     0
  0
CLASS
  1
ACMSURFSTANDARDANSI
  2
AcmSurfTextStdANSI
  3
"AcmSymBB|Product Description: AutoCAD Mechanical 2000|Company: Autodesk"
 90
        0
280
     0
281
     0
  0
CLASS
  1
ACMFCFSTANDARDANSI
  2
AcmFCFStdANSI
  3
"AcmSymBB|Product Description: AutoCAD Mechanical 2000|Company: Autodesk"
 90
        0
280
     0
281
     0
  0
CLASS
  1
ACMWELDSTANDARDANSI
  2
AcmWeldingStdANSI
  3
"AcmSymBB|Product Description: AutoCAD Mechanical 2000|Company: Autodesk"
 90
        0
280
     0
281
     0
  0
CLASS
  1
ACMIDSTANDARDANSI
  2
AcmIdStdANSI
  3
"AcmSymBB|Product Description: AutoCAD Mechanical 2000|Company: Autodesk"
 90
        0
280
     0
281
     0
  0
CLASS
  1
ACMDATUMSTANDARDANSI
  2
AcmDatumStdANSI
  3
"AcmSymBB|Product Description: AutoCAD Mechanical 2000|Company: Autodesk"
 90
        0
280
     0
281
     0
  0
CLASS
  1
ACMBOMSTANDARDANSI
  2
AcmBOMStdANSI
  3
"AcmSymBB|Product Description: AutoCAD Mechanical 2000|Company: Autodesk"
 90
        0
280
     0
281
     0
  0
CLASS
  1
ACMSTANDARDBSI
  2
AcmStandardBSI
  3
"AcmSymBB|Product Description: AutoCAD Mechanical 2000|Company: Autodesk"
 90
        0
280
     0
281
     0
  0
CLASS
  1
ACMSURFSTANDARDBSI
  2
AcmSurfTextStdBSI
  3
"AcmSymBB|Product Description: AutoCAD Mechanical 2000|Company: Autodesk"
 90
        0
280
     0
281
     0
  0
CLASS
  1
ACMFCFSTANDARDBSI
  2
AcmFCFStdBSI
  3
"AcmSymBB|Product Description: AutoCAD Mechanical 2000|Company: Autodesk"
 90
        0
280
     0
281
     0
  0
CLASS
  1
ACMWELDSTANDARDBSI
  2
AcmWeldingStdBSI
  3
"AcmSymBB|Product Description: AutoCAD Mechanical 2000|Company: Autodesk"
 90
        0
280
     0
281
     0
  0
CLASS
  1
ACMIDSTANDARDBSI
  2
AcmIdStdBSI
  3
"AcmSymBB|Product Description: AutoCAD Mechanical 2000|Company: Autodesk"
 90
        0
280
     0
281
     0
  0
CLASS
  1
ACMDATUMSTANDARDBSI
  2
AcmDatumStdBSI
  3
"AcmSymBB|Product Description: AutoCAD Mechanical 2000|Company: Autodesk"
 90
        0
280
     0
281
     0
  0
CLASS
  1
ACMBOMSTANDARDBSI
  2
AcmBOMStdBSI
  3
"AcmSymBB|Product Description: AutoCAD Mechanical 2000|Company: Autodesk"
 90
        0
280
     0
281
     0
  0
CLASS
  1
LONG_TRANSACTION
  2
AcDbLongTransaction
  3
AutoCAD 2000
 90
        0
280
     0
281
     0
  0
CLASS
  1
LWPOLYLINE
  2
AcDbPolyline
  3
AutoCAD 2000
 90
        0
280
     0
281
     1
  0
CLASS
  1
HATCH
  2
AcDbHatch
  3
AutoCAD 2000
 90
        0
280
     0
281
     1
  0
CLASS
  1
XRECORD
  2
AcDbXrecord
  3
AutoCAD 2000
 90
        0
280
     0
281
     0
  0
ENDSEC
  0
SECTION
  2
TABLES
  0
TABLE
  2
VPORT
  5
8
330
0
100
AcDbSymbolTable
 70
     3
  0
VPORT
  5
2372
330
8
100
AcDbSymbolTableRecord
100
AcDbViewportTableRecord
  2
*ACTIVE
 70
     0
 10
0.0
 20
0.0
 11
1.0
 21
1.0
 12
-22.69231100640196
 22
-6.009887749683368
 13
0.0
 23
0.0
 14
2.5
 24
2.5
 15
10.0
 25
10.0
 16
0.0
 26
0.0
 36
1.0
 17
0.0
 27
0.0
 37
0.0
 40
58.25309864672384
 41
1.56570841889117
 42
50.0
 43
0.0
 44
0.0
 50
0.0
 51
0.0
 71
     0
 72
   100
 73
     1
 74
     3
 75
     0
 76
     0
 77
     0
 78
     0
  0
ENDTAB
  0
TABLE
  2
LTYPE
  5
5
330
0
100
AcDbSymbolTable
 70
    10
  0
LTYPE
  5
14
330
5
100
AcDbSymbolTableRecord
100
AcDbLinetypeTableRecord
  2
BYBLOCK
 70
     0
  3

 72
    65
 73
     0
 40
0.0
  0
LTYPE
  5
15
330
5
100
AcDbSymbolTableRecord
100
AcDbLinetypeTableRecord
  2
BYLAYER
 70
     0
  3

 72
    65
 73
     0
 40
0.0
  0
LTYPE
  5
16
330
5
100
AcDbSymbolTableRecord
100
AcDbLinetypeTableRecord
  2
CONTINUOUS
 70
     0
  3
Solid line
 72
    65
 73
     0
 40
0.0
  0
LTYPE
  5
4B
330
5
100
AcDbSymbolTableRecord
100
AcDbLinetypeTableRecord
  2
AM_ISO02W050
 70
     0
  3
__ __ __ __ __ __ __ __ __ __ __ __ __ __ __
 72
    65
 73
     2
 40
7.5
 49
6.0
 74
     0
 49
-1.5
 74
     0
  0
LTYPE
  5
4C
330
5
100
AcDbSymbolTableRecord
100
AcDbLinetypeTableRecord
  2
AM_ISO08W050
 70
     0
  3
____ . ____ . ____ . ____ . ____ . ____ . ____
 72
    65
 73
     4
 40
18.0
 49
12.0
 74
     0
 49
-1.5
 74
     0
 49
3.0
 74
     0
 49
-1.5
 74
     0
  0
LTYPE
  5
4D
330
5
100
AcDbSymbolTableRecord
100
AcDbLinetypeTableRecord
  2
AM_ISO09W050
 70
     0
  3
_____ . . _____ . . _____ . . ____ .. ____
 72
    65
 73
     6
 40
22.5
 49
12.0
 74
     0
 49
-1.5
 74
     0
 49
3.0
 74
     0
 49
-1.5
 74
     0
 49
3.0
 74
     0
 49
-1.5
 74
     0
  0
LTYPE
  5
4E
330
5
100
AcDbSymbolTableRecord
100
AcDbLinetypeTableRecord
  2
AMCONSTR
 70
     0
  3
_______________________
 72
    65
 73
     2
 40
9999.0
 49
9999.0
 74
     0
 49
0.0
 74
     0
  0
LTYPE
  5
4F
330
5
100
AcDbSymbolTableRecord
100
AcDbLinetypeTableRecord
  2
AM_ISO02W050X2
 70
     0
  3
 _ _ _ _ _ _ _ _ _ _ _ _
 72
    65
 73
     2
 40
3.75
 49
3.0
 74
     0
 49
-0.75
 74
     0
  0
LTYPE
  5
50
330
5
100
AcDbSymbolTableRecord
100
AcDbLinetypeTableRecord
  2
AM_ISO08W050X2
 70
     0
  3
__ . __ . __ . __ . __ . __
 72
    65
 73
     4
 40
9.0
 49
6.0
 74
     0
 49
-0.75
 74
     0
 49
1.5
 74
     0
 49
-0.75
 74
     0
  0
LTYPE
  5
53
330
5
100
AcDbSymbolTableRecord
100
AcDbLinetypeTableRecord
  2
AMZIGZAG
 70
     0
  3
/\/-/\/-/\/-/\/-/\/-/\/
 72
    65
 73
     2
 40
11.00009999999999
 49
0.0001
 74
     4
 75
   135
340
52
 46
0.04
 50
0.0
 44
0.0
 45
0.0
 49
-11.0
 74
     0
  0
LTYPE
  5
166
330
5
100
AcDbSymbolTableRecord
100
AcDbLinetypeTableRecord
  2
ACJISTGL
 70
     0
  3
_ _ _ _ _
 72
    65
 73
     2
 40
3.0
 49
2.0
 74
     0
 49
-1.0
 74
     0
  0
LTYPE
  5
26A
330
5
100
AcDbSymbolTableRecord
100
AcDbLinetypeTableRecord
  2
ACJISTGB
 70
     0
  3
__ . . __ . .
 72
    65
 73
     6
 40
9.0
 49
4.0
 74
     0
 49
-1.0
 74
     0
 49
1.0
 74
     0
 49
-1.0
 74
     0
 49
1.0
 74
     0
 49
-1.0
 74
     0
  0
ENDTAB
  0
TABLE
  2
LAYER
  5
2
330
0
100
AcDbSymbolTable
 70
     7
  0
LAYER
  5
10
330
2
100
AcDbSymbolTableRecord
100
AcDbLayerTableRecord
  2
0
 70
     0
 62
     7
  6
CONTINUOUS
  0
LAYER
  5
3F9
330
2
100
AcDbSymbolTableRecord
100
AcDbLayerTableRecord
  2
AM_0
 70
     0
 62
     7
  6
CONTINUOUS
  0
LAYER
  5
BD4
330
2
100
AcDbSymbolTableRecord
100
AcDbLayerTableRecord
  2
AM_11
 70
     0
 62
     3
  6
AM_ISO09W050
  0
LAYER
  5
BD5
330
2
100
AcDbSymbolTableRecord
100
AcDbLayerTableRecord
  2
AM_7
 70
     0
 62
     4
  6
AM_ISO08W050
  0
LAYER
  5
BD6
330
2
100
AcDbSymbolTableRecord
100
AcDbLayerTableRecord
  2
AM_5
 70
     0
 62
     3
  6
CONTINUOUS
  0
LAYER
  5
BD7
330
2
100
AcDbSymbolTableRecord
100
AcDbLayerTableRecord
  2
DEFPOINTS
 70
     0
 62
     7
  6
CONTINUOUS
  0
LAYER
  5
E59
330
2
100
AcDbSymbolTableRecord
100
AcDbLayerTableRecord
  2
AM_6
 70
     0
 62
     2
  6
CONTINUOUS
  0
ENDTAB
  0
TABLE
  2
STYLE
  5
3
330
0
100
AcDbSymbolTable
 70
     5
  0
STYLE
  5
11
330
3
100
AcDbSymbolTableRecord
100
AcDbTextStyleTableRecord
  2
STANDARD
 70
     0
 40
0.0
 41
1.0
 50
0.0
 71
     0
 42
2.5
  3
simplex.shx
  4
EXTFONT.SHX
  0
STYLE
  5
52
330
3
100
AcDbSymbolTableRecord
100
AcDbTextStyleTableRecord
  2

 70
     1
 40
0.0
 41
1.0
 50
0.0
 71
     0
 42
2.5
  3
ltypeshp.shx
  4

  0
STYLE
  5
6B
330
3
100
AcDbSymbolTableRecord
100
AcDbTextStyleTableRecord
  2
ASAMI
 70
     0
 40
0.0
 41
1.0
 50
0.0
 71
     0
 42
2.5
  3
simplex.shx
  4
EXTFONT.SHX
  0
STYLE
  5
262
330
3
100
AcDbSymbolTableRecord
100
AcDbTextStyleTableRecord
  2
ACJISTS
 70
     0
 40
1.0
 41
1.0
 50
0.0
 71
     0
 42
2.5
  3
simplex.shx
  4
bigfont.shx
  0
STYLE
  5
269
330
3
100
AcDbSymbolTableRecord
100
AcDbTextStyleTableRecord
  2
ACJISGDT
 70
     0
 40
0.0
 41
1.0
 50
0.0
 71
     0
 42
2.5
  3
amgdtans.shx
  4

  0
ENDTAB
  0
TABLE
  2
VIEW
  5
6
330
0
100
AcDbSymbolTable
 70
     0
  0
ENDTAB
  0
TABLE
  2
UCS
  5
7
330
0
100
AcDbSymbolTable
 70
     0
  0
ENDTAB
  0
TABLE
  2
APPID
  5
9
330
0
100
AcDbSymbolTable
 70
    12
  0
APPID
  5
12
330
9
100
AcDbSymbolTableRecord
100
AcDbRegAppTableRecord
  2
ACAD
 70
     0
  0
APPID
  5
30
330
9
100
AcDbSymbolTableRecord
100
AcDbRegAppTableRecord
  2
MCAD_NO_VIS
 70
     0
  0
APPID
  5
31
330
9
100
AcDbSymbolTableRecord
100
AcDbRegAppTableRecord
  2
ACAD_TEMP_GRAPHIC
 70
     0
  0
APPID
  5
2C2
330
9
100
AcDbSymbolTableRecord
100
AcDbRegAppTableRecord
  2
GENIUS_GENDTOL_13
 70
     0
  0
APPID
  5
339
330
9
100
AcDbSymbolTableRecord
100
AcDbRegAppTableRecord
  2
GENIUS_GENODEF_13
 70
     0
  0
APPID
  5
33A
330
9
100
AcDbSymbolTableRecord
100
AcDbRegAppTableRecord
  2
GENIUS_GENOBJ-N-RSBK_13
 70
     0
  0
APPID
  5
33B
330
9
100
AcDbSymbolTableRecord
100
AcDbRegAppTableRecord
  2
GENIUS_GENOBJ-N-LIB_13
 70
     0
  0
APPID
  5
33C
330
9
100
AcDbSymbolTableRecord
100
AcDbRegAppTableRecord
  2
GENIUS_GENSCALE_13
 70
     0
  0
APPID
  5
378
330
9
100
AcDbSymbolTableRecord
100
AcDbRegAppTableRecord
  2
GENIUS_GENDIMSH_14
 70
     0
  0
APPID
  5
BD8
330
9
100
AcDbSymbolTableRecord
100
AcDbRegAppTableRecord
  2
GENIUS_GENOBJ-N-CEN_13
 70
     0
  0
APPID
  5
BD9
330
9
100
AcDbSymbolTableRecord
100
AcDbRegAppTableRecord
  2
GENIUS_GENFIL_13
 70
     0
  0
APPID
  5
BDA
330
9
100
AcDbSymbolTableRecord
100
AcDbRegAppTableRecord
  2
GENIUS_GENOBJ-N-CHA_13
 70
     0
  0
ENDTAB
  0
TABLE
  2
DIMSTYLE
  5
A
330
0
100
AcDbSymbolTable
 70
     8
  0
DIMSTYLE
105
58
102
{ACAD_REACTORS
330
16EA
330
177A
330
1B04
330
1936
102
}
330
A
100
AcDbSymbolTableRecord
100
AcDbDimStyleTableRecord
  2
AM_JIS
 70
     0
  3

  4
"
  5
OPEN30
  6

  7

 40
0.5
 41
2.5
 42
1.0
 43
12.0
 44
1.0
 45
0.0
 46
0.0
 47
0.1
 48
0.1
140
3.2
141
0.0
142
0.0
143
0.0393701
144
1.0
145
0.0
146
0.71
147
1.5
 71
     0
 72
     0
 73
     0
 74
     0
 75
     0
 76
     0
 77
     3
 78
     8
170
     0
171
     2
172
     1
173
     0
174
     0
175
     0
176
   256
177
   256
178
     2
270
     2
271
     3
272
     3
273
     2
274
     2
340
6B
275
     0
280
     0
281
     0
282
     0
283
     0
284
     0
285
     0
286
     0
287
     3
288
     0
  0
DIMSTYLE
105
5F
330
A
100
AcDbSymbolTableRecord
100
AcDbDimStyleTableRecord
  2
AM_JIS$3
 70
     0
  3

  4
"
  5
OPEN30
  6

  7

 40
0.5
 41
2.5
 42
1.0
 43
10.0
 44
1.0
 45
0.0
 46
0.0
 47
0.1
 48
0.1
140
3.2
141
0.0
142
0.0
143
0.0393701
144
1.0
145
0.0
146
0.71
147
1.5
 71
     0
 72
     0
 73
     0
 74
     1
 75
     0
 76
     0
 77
     3
 78
     8
170
     0
171
     2
172
     0
173
     0
174
     0
175
     0
176
   256
177
   256
178
     2
270
     2
271
     2
272
     3
273
     2
274
     2
340
6B
275
     0
280
     0
281
     0
282
     0
283
     0
284
     0
285
     0
286
     0
287
     0
288
     1
  0
DIMSTYLE
105
60
330
A
100
AcDbSymbolTableRecord
100
AcDbDimStyleTableRecord
  2
AM_JIS$4
 70
     0
  3

  4
"
  5
OPEN30
  6

  7

 40
0.5
 41
2.5
 42
1.0
 43
10.0
 44
1.0
 45
0.0
 46
0.0
 47
0.1
 48
0.1
140
3.2
141
0.0
142
0.0
143
0.0393701
144
1.0
145
0.0
146
0.71
147
1.5
 71
     0
 72
     0
 73
     0
 74
     1
 75
     0
 76
     0
 77
     3
 78
     8
170
     0
171
     2
172
     0
173
     0
174
     0
175
     0
176
   256
177
   256
178
     2
270
     2
271
     2
272
     3
273
     2
274
     2
340
6B
275
     0
280
     0
281
     0
282
     0
283
     0
284
     0
285
     0
286
     0
287
     0
288
     1
  0
DIMSTYLE
105
61
330
A
100
AcDbSymbolTableRecord
100
AcDbDimStyleTableRecord
  2
AM_JIS$6
 70
     0
  3

  4
"
  5
OPEN30
  6

  7

 40
0.5
 41
2.5
 42
1.0
 43
10.0
 44
1.0
 45
0.0
 46
0.0
 47
0.1
 48
0.1
140
3.2
141
0.0
142
0.0
143
0.0393701
144
1.0
145
0.0
146
0.71
147
1.5
 71
     0
 72
     0
 73
     0
 74
     0
 75
     0
 76
     0
 77
     0
 78
     8
170
     0
171
     2
172
     1
173
     0
174
     0
175
     0
176
   256
177
   256
178
     2
270
     2
271
     2
272
     2
273
     2
274
     2
340
6B
275
     0
280
     0
281
     0
282
     0
283
     0
284
     0
285
     0
286
     0
287
     3
288
     0
  0
DIMSTYLE
105
62
330
A
100
AcDbSymbolTableRecord
100
AcDbDimStyleTableRecord
  2
AM_JIS$7
 70
     0
  3

  4
"
  5
OPEN30
  6

  7

 40
0.5
 41
2.5
 42
1.0
 43
10.0
 44
1.0
 45
0.0
 46
0.0
 47
0.1
 48
0.1
140
3.2
141
0.0
142
0.0
143
0.0393701
144
1.0
145
0.0
146
0.71
147
1.5
 71
     0
 72
     0
 73
     0
 74
     0
 75
     0
 76
     0
 77
     3
 78
     8
170
     0
171
     2
172
     1
173
     0
174
     0
175
     0
176
   256
177
   256
178
     2
270
     2
271
     2
272
     3
273
     2
274
     2
340
6B
275
     0
280
     0
281
     0
282
     0
283
     0
284
     0
285
     0
286
     0
287
     3
288
     0
  0
DIMSTYLE
105
63
330
A
100
AcDbSymbolTableRecord
100
AcDbDimStyleTableRecord
  2
AM_JIS$SF
 70
     0
  3

  4
"
  5
OPEN30
  6

  7

 40
0.5
 41
2.5
 42
1.0
 43
10.0
 44
1.0
 45
0.0
 46
0.0
 47
0.1
 48
0.1
140
3.2
141
0.0
142
0.0
143
0.0393701
144
1.0
145
0.0
146
0.71
147
1.5
 71
     0
 72
     0
 73
     0
 74
     0
 75
     1
 76
     1
 77
     3
 78
     8
170
     0
171
     2
172
     1
173
     0
174
     0
175
     0
176
   256
177
   256
178
     2
270
     2
271
     2
272
     2
273
     2
274
     2
340
6B
275
     0
280
     0
281
     0
282
     0
283
     0
284
     0
285
     0
286
     0
287
     3
288
     0
  0
DIMSTYLE
105
68
330
A
100
AcDbSymbolTableRecord
100
AcDbDimStyleTableRecord
  2
AM_JIS$SH
 70
     0
  3

  4
"
  5

  6
GENAXEH
  7
OPEN30
 40
0.5
 41
2.5
 42
1.0
 43
10.0
 44
1.0
 45
0.0
 46
0.0
 47
0.1
 48
0.1
140
3.2
141
0.0
142
0.0
143
0.0393701
144
2.0
145
0.0
146
0.71
147
1.5
 71
     0
 72
     0
 73
     0
 74
     0
 75
     1
 76
     1
 77
     3
 78
     8
170
     0
171
     2
172
     1
173
     1
174
     0
175
     0
176
   256
177
   256
178
     2
270
     2
271
     2
272
     2
273
     2
274
     2
340
6B
275
     0
280
     0
281
     0
282
     0
283
     0
284
     0
285
     0
286
     0
287
     3
288
     0
  0
DIMSTYLE
105
B34
330
A
100
AcDbSymbolTableRecord
100
AcDbDimStyleTableRecord
  2
AM_JIS$2
 70
     0
  3

  4
"
  5
OPEN30
  6

  7

 40
0.5
 41
2.5
 42
1.0
 43
12.0
 44
1.0
 45
0.0
 46
0.0
 47
0.1
 48
0.1
140
3.2
141
0.0
142
0.0
143
0.0393701
144
1.0
145
0.0
146
0.71
147
1.5
 71
     0
 72
     0
 73
     0
 74
     0
 75
     0
 76
     0
 77
     3
 78
     8
170
     0
171
     2
172
     1
173
     0
174
     0
175
     0
176
   256
177
   256
178
     2
270
     2
271
     3
272
     3
273
     2
274
     2
340
6B
275
     0
280
     0
281
     0
282
     0
283
     0
284
     0
285
     0
286
     0
287
     3
288
     0
  0
ENDTAB
  0
TABLE
  2
BLOCK_RECORD
  5
1
330
0
100
AcDbSymbolTable
 70
     9
  0
BLOCK_RECORD
  5
1F
102
{ACAD_XDICTIONARY
360
74
102
}
330
1
100
AcDbSymbolTableRecord
100
AcDbBlockTableRecord
  2
*MODEL_SPACE
  0
BLOCK_RECORD
  5
101
102
{ACAD_XDICTIONARY
360
239B
102
}
330
1
100
AcDbSymbolTableRecord
100
AcDbBlockTableRecord
  2
*PAPER_SPACE
  0
BLOCK_RECORD
  5
59
330
1
100
AcDbSymbolTableRecord
100
AcDbBlockTableRecord
  2
_OPEN30
  0
BLOCK_RECORD
  5
64
330
1
100
AcDbSymbolTableRecord
100
AcDbBlockTableRecord
  2
GENAXEH
  0
BLOCK_RECORD
  5
16EB
330
1
100
AcDbSymbolTableRecord
100
AcDbBlockTableRecord
  2
*D5
  0
BLOCK_RECORD
  5
177B
330
1
100
AcDbSymbolTableRecord
100
AcDbBlockTableRecord
  2
*D6
  0
BLOCK_RECORD
  5
1937
330
1
100
AcDbSymbolTableRecord
100
AcDbBlockTableRecord
  2
*D7
  0
BLOCK_RECORD
  5
1B05
330
1
100
AcDbSymbolTableRecord
100
AcDbBlockTableRecord
  2
*D8
  0
ENDTAB
  0
ENDSEC
  0
SECTION
  2
BLOCKS
  0
BLOCK
  5
20
330
1F
100
AcDbEntity
  8
0
100
AcDbBlockBegin
  2
*MODEL_SPACE
 70
     0
 10
0.0
 20
0.0
 30
0.0
  3
*MODEL_SPACE
  1

  0
ENDBLK
  5
21
330
1F
100
AcDbEntity
  8
0
100
AcDbBlockEnd
  0
BLOCK
  5
103
330
101
100
AcDbEntity
 67
     1
  8
0
100
AcDbBlockBegin
  2
*PAPER_SPACE
 70
     0
 10
0.0
 20
0.0
 30
0.0
  3
*PAPER_SPACE
  1

  0
ENDBLK
  5
104
330
101
100
AcDbEntity
 67
     1
  8
0
100
AcDbBlockEnd
  0
BLOCK
  5
5D
330
59
100
AcDbEntity
  8
0
100
AcDbBlockBegin
  2
_OPEN30
 70
     0
 10
0.0
 20
0.0
 30
0.0
  3
_OPEN30
  1

  0
LINE
  5
5A
330
59
100
AcDbEntity
  8
0
 62
     0
100
AcDbLine
 10
-1.0
 20
0.26794919
 30
0.0
 11
0.0
 21
0.0
 31
0.0
  0
LINE
  5
5B
330
59
100
AcDbEntity
  8
0
 62
     0
100
AcDbLine
 10
0.0
 20
0.0
 30
0.0
 11
-1.0
 21
-0.26794919
 31
0.0
  0
LINE
  5
5C
330
59
100
AcDbEntity
  8
0
 62
     0
100
AcDbLine
 10
0.0
 20
0.0
 30
0.0
 11
-1.0
 21
0.0
 31
0.0
  0
ENDBLK
  5
5E
330
59
100
AcDbEntity
  8
0
100
AcDbBlockEnd
  0
BLOCK
  5
66
330
64
100
AcDbEntity
  8
0
100
AcDbBlockBegin
  2
GENAXEH
 70
     0
 10
0.0
 20
0.0
 30
0.0
  3
GENAXEH
  1

  0
LINE
  5
65
330
64
100
AcDbEntity
  8
0
100
AcDbLine
 10
-1.0
 20
0.0
 30
0.0
 11
1.0
 21
0.0
 31
0.0
  0
ENDBLK
  5
67
330
64
100
AcDbEntity
  8
0
100
AcDbBlockEnd
  0
BLOCK
  5
16F5
330
16EB
100
AcDbEntity
  8
0
100
AcDbBlockBegin
  2
*D5
 70
     1
 10
0.0
 20
0.0
 30
0.0
  3
*D5
  1

  0
LINE
  5
20D1
330
16EB
100
AcDbEntity
  8
AM_5
100
AcDbLine
 10
-0.0000000000000001
 20
-2.250000000001672
 30
0.0
 11
-0.0000000000000006
 21
-10.5000010000001
 31
0.0
  0
LINE
  5
20D2
330
16EB
100
AcDbEntity
  8
AM_5
100
AcDbLine
 10
-8.000000000000023
 20
-2.250000000000007
 30
0.0
 11
-8.000000000000023
 21
-10.5000010000001
 31
0.0
  0
LINE
  5
20D3
330
16EB
100
AcDbEntity
  8
AM_5
100
AcDbLine
 10
-1.25
 20
-10.0000010000001
 30
0.0
 11
-6.750000000000023
 21
-10.0000010000001
 31
0.0
  0
INSERT
  5
20D4
330
16EB
100
AcDbEntity
  8
AM_5
100
AcDbBlockReference
  2
_OPEN30
 10
-0.0000000000000005
 20
-10.0000010000001
 30
0.0
 41
1.25
 42
1.25
 43
1.25
  0
INSERT
  5
20D5
330
16EB
100
AcDbEntity
  8
AM_5
100
AcDbBlockReference
  2
_OPEN30
 10
-8.000000000000023
 20
-10.0000010000001
 30
0.0
 41
1.25
 42
1.25
 43
1.25
 50
180.0
  0
MTEXT
  5
20D6
330
16EB
100
AcDbEntity
  8
AM_5
 62
     2
100
AcDbMText
 10
-4.000000000000011
 20
-8.450001000000106
 30
0.0
 40
1.6
 41
0.0
 71
     5
 72
     1
  1
8
  7
ASAMI
1001
ACAD
1000
MTEXTBEGIN
1070
    73
1070
     1
1070
    44
1040
1.0
1070
    74
1070
     0
1000
MTEXTEND
  0
POINT
  5
20D7
330
16EB
100
AcDbEntity
  8
DEFPOINTS
 62
     0
100
AcDbPoint
 10
0.0
 20
-1.750000000001672
 30
0.0
  0
POINT
  5
20D8
330
16EB
100
AcDbEntity
  8
DEFPOINTS
 62
     0
100
AcDbPoint
 10
-8.000000000000023
 20
-1.750000000000007
 30
0.0
  0
POINT
  5
20D9
330
16EB
100
AcDbEntity
  8
DEFPOINTS
 62
     0
100
AcDbPoint
 10
-8.000000000000023
 20
-10.0000010000001
 30
0.0
  0
ENDBLK
  5
16F6
330
16EB
100
AcDbEntity
  8
0
100
AcDbBlockEnd
  0
BLOCK
  5
1785
330
177B
100
AcDbEntity
  8
0
100
AcDbBlockBegin
  2
*D6
 70
     1
 10
0.0
 20
0.0
 30
0.0
  3
*D6
  1

  0
LINE
  5
2153
330
177B
100
AcDbEntity
  8
AM_5
100
AcDbLine
 10
0.0000000000005906
 20
-2.250000000001672
 30
0.0
 11
0.0000000000005897
 21
-16.50000100000021
 31
0.0
  0
LINE
  5
2154
330
177B
100
AcDbEntity
  8
AM_5
100
AcDbLine
 10
-45.0
 20
-3.000000000000132
 30
0.0
 11
-45.0
 21
-16.50000100000021
 31
0.0
  0
LINE
  5
2155
330
177B
100
AcDbEntity
  8
AM_5
100
AcDbLine
 10
-1.24999999999941
 20
-16.00000100000021
 30
0.0
 11
-43.75
 21
-16.00000100000021
 31
0.0
  0
INSERT
  5
2156
330
177B
100
AcDbEntity
  8
AM_5
100
AcDbBlockReference
  2
_OPEN30
 10
0.0000000000005897
 20
-16.00000100000021
 30
0.0
 41
1.25
 42
1.25
 43
1.25
  0
INSERT
  5
2157
330
177B
100
AcDbEntity
  8
AM_5
100
AcDbBlockReference
  2
_OPEN30
 10
-45.0
 20
-16.00000100000021
 30
0.0
 41
1.25
 42
1.25
 43
1.25
 50
180.0
  0
MTEXT
  5
2158
330
177B
100
AcDbEntity
  8
AM_5
 62
     2
100
AcDbMText
 10
-22.4999999999997
 20
-14.4500010000002
 30
0.0
 40
1.6
 41
0.0
 71
     5
 72
     1
  1
45
  7
ASAMI
1001
ACAD
1000
MTEXTBEGIN
1070
    73
1070
     1
1070
    44
1040
1.0
1070
    74
1070
     0
1000
MTEXTEND
  0
POINT
  5
2159
330
177B
100
AcDbEntity
  8
DEFPOINTS
 62
     0
100
AcDbPoint
 10
0.0000000000005906
 20
-1.750000000001672
 30
0.0
  0
POINT
  5
215A
330
177B
100
AcDbEntity
  8
DEFPOINTS
 62
     0
100
AcDbPoint
 10
-45.0
 20
-2.500000000000132
 30
0.0
  0
POINT
  5
215B
330
177B
100
AcDbEntity
  8
DEFPOINTS
 62
     0
100
AcDbPoint
 10
-45.0
 20
-16.00000100000021
 30
0.0
  0
ENDBLK
  5
1786
330
177B
100
AcDbEntity
  8
0
100
AcDbBlockEnd
  0
BLOCK
  5
1943
330
1937
100
AcDbEntity
  8
0
100
AcDbBlockBegin
  2
*D7
 70
     1
 10
0.0
 20
0.0
 30
0.0
  3
*D7
  1

  0
LINE
  5
20B4
330
1937
100
AcDbEntity
  8
AM_5
100
AcDbLine
 10
0.4999999999991313
 20
1.75
 30
0.0
 11
8.629789688840501
 21
1.749999999999997
 31
0.0
  0
LINE
  5
20B5
330
1937
100
AcDbEntity
  8
AM_5
100
AcDbLine
 10
0.5000000000005906
 20
-1.750000000001672
 30
0.0
 11
8.629789688840501
 21
-1.750000000001674
 31
0.0
  0
LINE
  5
20B6
330
1937
100
AcDbEntity
  8
AM_5
100
AcDbLine
 10
8.129789688840501
 20
2.999999999999997
 30
0.0
 11
8.129789688840503
 21
4.249999999999998
 31
0.0
  0
LINE
  5
20B7
330
1937
100
AcDbEntity
  8
AM_5
100
AcDbLine
 10
8.129789688840501
 20
-3.000000000001674
 30
0.0
 11
8.129789688840499
 21
-10.55000000000167
 31
0.0
  0
LINE
  5
20B8
330
1937
100
AcDbEntity
  8
AM_5
100
AcDbLine
 10
8.129789688840501
 20
1.749999999999997
 30
0.0
 11
8.129789688840501
 21
-1.750000000001674
 31
0.0
  0
INSERT
  5
20B9
330
1937
100
AcDbEntity
  8
AM_5
100
AcDbBlockReference
  2
_OPEN30
 10
8.129789688840501
 20
1.749999999999997
 30
0.0
 41
1.25
 42
1.25
 43
1.25
 50
270.0
  0
INSERT
  5
20BA
330
1937
100
AcDbEntity
  8
AM_5
100
AcDbBlockReference
  2
_OPEN30
 10
8.129789688840501
 20
-1.750000000001674
 30
0.0
 41
1.25
 42
1.25
 43
1.25
 50
90.0
  0
MTEXT
  5
20BB
330
1937
100
AcDbEntity
  8
AM_5
 62
     2
100
AcDbMText
 10
6.5797896888405
 20
-7.400000000001671
 30
0.0
 40
1.6
 41
0.0
 71
     5
 72
     1
  1
%%c3.5
  7
ASAMI
 11
0.0000000000000001
 21
1.0
 31
0.0
1001
ACAD
1000
MTEXTBEGIN
1070
    73
1070
     1
1070
    44
1040
1.0
1070
    74
1070
     0
1000
MTEXTEND
  0
POINT
  5
20BC
330
1937
100
AcDbEntity
  8
DEFPOINTS
 62
     0
100
AcDbPoint
 10
-0.0000000000008687
 20
1.75
 30
0.0
  0
POINT
  5
20BD
330
1937
100
AcDbEntity
  8
DEFPOINTS
 62
     0
100
AcDbPoint
 10
0.0000000000005906
 20
-1.750000000001672
 30
0.0
  0
POINT
  5
20BE
330
1937
100
AcDbEntity
  8
DEFPOINTS
 62
     0
100
AcDbPoint
 10
8.129789688840501
 20
-1.750000000001674
 30
0.0
  0
ENDBLK
  5
1944
330
1937
100
AcDbEntity
  8
0
100
AcDbBlockEnd
  0
BLOCK
  5
1B0F
330
1B05
100
AcDbEntity
  8
0
100
AcDbBlockBegin
  2
*D8
 70
     1
 10
0.0
 20
0.0
 30
0.0
  3
*D8
  1

  0
LINE
  5
215C
330
1B05
100
AcDbEntity
  8
AM_5
100
AcDbLine
 10
-45.0
 20
2.999999999999866
 30
0.0
 11
-54.56123869649855
 21
2.999999999999869
 31
0.0
  0
LINE
  5
215D
330
1B05
100
AcDbEntity
  8
AM_5
100
AcDbLine
 10
-45.0
 20
-3.000000000000133
 30
0.0
 11
-54.56123869649855
 21
-3.00000000000013
 31
0.0
  0
LINE
  5
215E
330
1B05
100
AcDbEntity
  8
AM_5
100
AcDbLine
 10
-54.06123869649856
 20
1.749999999999869
 30
0.0
 11
-54.06123869649856
 21
-1.75000000000013
 31
0.0
  0
INSERT
  5
215F
330
1B05
100
AcDbEntity
  8
AM_5
100
AcDbBlockReference
  2
_OPEN30
 10
-54.06123869649856
 20
2.999999999999869
 30
0.0
 41
1.25
 42
1.25
 43
1.25
 50
90.0
  0
INSERT
  5
2160
330
1B05
100
AcDbEntity
  8
AM_5
100
AcDbBlockReference
  2
_OPEN30
 10
-54.06123869649856
 20
-3.00000000000013
 30
0.0
 41
1.25
 42
1.25
 43
1.25
 50
270.0
  0
MTEXT
  5
2161
330
1B05
100
AcDbEntity
  8
AM_5
 62
     2
100
AcDbMText
 10
-55.61123869649855
 20
-0.0000000000001391
 30
0.0
 40
1.6
 41
0.0
 71
     5
 72
     1
  1
%%c6
  7
ASAMI
 11
0.0000000000000001
 21
1.0
 31
0.0
1001
ACAD
1000
MTEXTBEGIN
1070
    73
1070
     1
1070
    44
1040
1.0
1070
    74
1070
     0
1000
MTEXTEND
  0
POINT
  5
2162
330
1B05
100
AcDbEntity
  8
DEFPOINTS
 62
     0
100
AcDbPoint
 10
-44.5
 20
2.999999999999866
 30
0.0
  0
POINT
  5
2163
330
1B05
100
AcDbEntity
  8
DEFPOINTS
 62
     0
100
AcDbPoint
 10
-44.5
 20
-3.000000000000133
 30
0.0
  0
POINT
  5
2164
330
1B05
100
AcDbEntity
  8
DEFPOINTS
 62
     0
100
AcDbPoint
 10
-54.06123869649856
 20
-3.00000000000013
 30
0.0
  0
ENDBLK
  5
1B10
330
1B05
100
AcDbEntity
  8
0
100
AcDbBlockEnd
  0
ENDSEC
  0
SECTION
  2
ENTITIES
  0
TEXT
  5
E5A
330
1F
100
AcDbEntity
  8
AM_6
100
AcDbText
 10
-33.09523809523779
 20
-27.25000100000021
 30
0.0
 40
2.5
  1
SSM4035ZX
 72
     4
 11
-22.49999999999969
 21
-26.00000100000021
 31
0.0
100
AcDbText
  0
LINE
  5
13DC
330
1F
100
AcDbEntity
  8
AM_7
  6
AM_ISO08W050X2
100
AcDbLine
 10
1.129788688840505
 20
-0.000000000000095
 30
0.0
 11
-47.06123769649856
 21
-0.0000000000001332
 31
0.0
1001
GENIUS_GENODEF_13
1002
{
1000
HIER
1070
     0
1002
}
1002
{
1000
MANEDIT
1070
     0
1002
}
1002
{
1000
NOSEL
1070
     0
1002
}
1002
{
1000
BEHIND
1070
     0
1002
}
1002
{
1000
REACTOR
1002
}
1001
GENIUS_GENOBJ-N-CEN_13
1002
{
1000
OWNER
1000
GEN
1002
}
  0
DIMENSION
  5
16EA
330
1F
100
AcDbEntity
  8
AM_5
100
AcDbDimension
  2
*D5
 10
-8.000000000000023
 20
-10.0000010000001
 30
0.0
 11
-4.000000000000011
 21
-8.450001000000106
 31
0.0
 70
    32
  1
<>
  3
AM_JIS
100
AcDbAlignedDimension
 13
0.0
 23
-1.750000000001672
 33
0.0
 14
-8.000000000000023
 24
-1.750000000000007
 34
0.0
 50
0.0000000000001641
100
AcDbRotatedDimension
1001
GENIUS_GENDTOL_13
1000

1000
h7
1000

1040
0.0
  0
DIMENSION
  5
177A
330
1F
100
AcDbEntity
  8
AM_5
100
AcDbDimension
  2
*D6
 10
-45.0
 20
-16.00000100000021
 30
0.0
 11
-22.4999999999997
 21
-14.4500010000002
 31
0.0
 70
    32
  1
<>
  3
AM_JIS
100
AcDbAlignedDimension
 13
0.0000000000005906
 23
-1.750000000001672
 33
0.0
 14
-45.0
 24
-2.500000000000132
 34
0.0
 50
0.0000000000001641
100
AcDbRotatedDimension
1001
GENIUS_GENDTOL_13
1000

1000
h7
1000

1040
0.0
  0
DIMENSION
  5
1936
330
1F
100
AcDbEntity
  8
AM_5
100
AcDbDimension
  2
*D7
 10
8.129789688840501
 20
-1.750000000001674
 30
0.0
 11
6.5797896888405
 21
-7.400000000001671
 31
0.0
 70
    32
  1
%%c<>
  3
AM_JIS
100
AcDbAlignedDimension
 13
-0.0000000000008687
 23
1.75
 33
0.0
 14
0.0000000000005906
 24
-1.750000000001672
 34
0.0
 50
90.00000000000003
100
AcDbRotatedDimension
1001
GENIUS_GENDTOL_13
1000

1000
h7
1000

1040
0.0
  0
LINE
  5
1A51
330
1F
100
AcDbEntity
  8
AM_0
100
AcDbLine
 10
-9.1674471780381
 20
1.749999999999991
 30
0.0
 11
-11.83493649053934
 21
1.749999999999987
 31
0.0
  0
LINE
  5
1A5B
330
1F
100
AcDbEntity
  8
AM_0
100
AcDbLine
 10
-9.697478768728483
 20
-1.750000000000008
 30
0.0
 11
-11.83493649053827
 21
-1.75000000000001
 31
0.0
  0
DIMENSION
  5
1B04
330
1F
100
AcDbEntity
  8
AM_5
100
AcDbDimension
  2
*D8
 10
-54.06123869649856
 20
-3.00000000000013
 30
0.0
 11
-55.61123869649855
 21
-0.0000000000001391
 31
0.0
 70
    32
  1
%%c<>
  3
AM_JIS
100
AcDbAlignedDimension
 13
-44.5
 23
2.999999999999866
 33
0.0
 14
-44.5
 24
-3.000000000000133
 34
0.0
 50
270.0
100
AcDbRotatedDimension
1001
GENIUS_GENDTOL_13
1000

1000
h7
1000

1040
0.0
  0
LINE
  5
1B11
330
1F
100
AcDbEntity
  8
AM_0
100
AcDbLine
 10
-16.5
 20
-3.000000000000128
 30
0.0
 11
-44.5
 21
-3.000000000000132
 31
0.0
  0
LINE
  5
1B12
330
1F
100
AcDbEntity
  8
AM_0
100
AcDbLine
 10
-44.5
 20
2.999999999999866
 30
0.0
 11
-16.5
 21
2.999999999999871
 31
0.0
  0
LINE
  5
1B15
330
1F
100
AcDbEntity
  8
AM_0
100
AcDbLine
 10
-45.0
 20
-2.500000000000132
 30
0.0
 11
-45.0
 21
2.499999999999866
 31
0.0
  0
LINE
  5
1B37
330
1F
100
AcDbEntity
  8
AM_0
100
AcDbLine
 10
-16.5
 20
-3.000000000000132
 30
0.0
 11
-16.5
 21
2.999999999999867
 31
0.0
  0
LINE
  5
1BD6
330
1F
100
AcDbEntity
  8
AM_0
100
AcDbLine
 10
-16.5
 20
2.99999999999987
 30
0.0
 11
-11.83493649053934
 21
1.749999999999986
 31
0.0
  0
LINE
  5
1BD7
330
1F
100
AcDbEntity
  8
AM_0
100
AcDbLine
 10
-11.83493649053934
 20
1.749999999999986
 30
0.0
 11
-11.83493649053827
 21
-1.750000000000011
 31
0.0
  0
LINE
  5
1BD8
330
1F
100
AcDbEntity
  8
AM_0
100
AcDbLine
 10
-11.83493649053827
 20
-1.749999999999964
 30
0.0
 11
-16.49999999999998
 21
-3.000000000000129
 31
0.0
  0
SPLINE
  5
1EF6
330
1F
100
AcDbEntity
  8
AM_0
100
AcDbSpline
210
0.0
220
0.0
230
1.0
 70
     8
 71
     3
 72
     8
 73
     4
 74
     0
 42
0.0000000001
 43
0.0000000001
 40
0.0
 40
0.0
 40
0.0
 40
0.0
 40
4.451443990518192
 40
4.451443990518192
 40
4.451443990518192
 40
4.451443990518192
 10
-8.874999999999985
 20
-1.573849075165412
 30
0.0
 10
-7.986304029431574
 20
-1.569346711236942
 30
0.0
 10
-7.479786558298371
 20
-1.491725079892603
 30
0.0
 10
-6.982114098291603
 20
-1.360539527029215
 30
0.0
  0
SPLINE
  5
1EF7
330
1F
100
AcDbEntity
  8
AM_0
100
AcDbSpline
210
0.0
220
0.0
230
1.0
 70
     8
 71
     3
 72
     8
 73
     4
 74
     0
 42
0.0000000001
 43
0.0000000001
 40
0.0
 40
0.0
 40
0.0
 40
0.0
 40
2.130230809022907
 40
2.130230809022907
 40
2.130230809022907
 40
2.130230809022907
 10
-4.760000000000134
 20
-1.750000000000005
 30
0.0
 10
-4.51147307228079
 20
-1.750000000000005
 30
0.0
 10
-4.26631236947887
 20
-1.731088550737062
 30
0.0
 10
-4.024023009762983
 20
-1.6960458979984
 30
0.0
  0
SPLINE
  5
1EF8
330
1F
100
AcDbEntity
  8
AM_0
100
AcDbSpline
210
0.0
220
0.0
230
1.0
 70
     8
 71
     3
 72
     8
 73
     4
 74
     0
 42
0.0000000001
 43
0.0000000001
 40
0.0
 40
0.0
 40
0.0
 40
0.0
 40
5.635889483499305
 40
5.635889483499305
 40
5.635889483499305
 40
5.635889483499305
 10
-4.760000000000137
 20
1.750000000000035
 30
0.0
 10
-5.41752043974173
 20
1.750000000000035
 30
0.0
 10
-6.051478738842817
 20
1.617627910142729
 30
0.0
 10
-6.70229201315033
 20
1.38632619914123
 30
0.0
  0
SPLINE
  5
1EFB
330
1F
100
AcDbEntity
  8
AM_0
100
AcDbSpline
210
0.0
220
0.0
230
1.0
 70
     8
 71
     3
 72
     8
 73
     4
 74
     0
 42
0.0000000001
 43
0.0000000001
 40
0.0
 40
0.0
 40
0.0
 40
0.0
 40
4.451443990518192
 40
4.451443990518192
 40
4.451443990518192
 40
4.451443990518192
 10
-3.445639161658785
 20
-1.616105576330944
 30
0.0
 10
-2.926304029431657
 20
-1.616105576330944
 30
0.0
 10
-2.419786558298454
 20
-1.538483944986605
 30
0.0
 10
-1.922114098291687
 20
-1.407298392123218
 30
0.0
  0
SPLINE
  5
1EFC
330
1F
100
AcDbEntity
  8
AM_0
100
AcDbSpline
210
0.0
220
0.0
230
1.0
 70
     8
 71
     3
 72
     8
 73
     4
 74
     0
 42
0.0000000001
 43
0.0000000001
 40
0.7142832446738512
 40
0.7142832446738512
 40
0.7142832446738512
 40
0.7142832446738512
 40
9.361146747480315
 40
9.361146747480315
 40
9.361146747480315
 40
9.361146747480315
 10
-4.024023009762847
 20
1.69604589799843
 30
0.0
 10
-2.195604611860332
 20
1.563024203640051
 30
0.0
 10
-1.240554473006879
 20
1.237519458979868
 30
0.0
 10
-0.3023458216205572
 20
0.810025457318332
 30
0.0
  0
SPLINE
  5
1EFD
330
1F
100
AcDbEntity
  8
AM_0
100
AcDbSpline
210
0.0
220
0.0
230
1.0
 70
     8
 71
     3
 72
     8
 73
     4
 74
     2
 42
0.0000000001
 43
0.0000000001
 44
0.0000000001
 12
-0.6417012268563094
 22
-0.7669547153848835
 32
0.0
 13
-0.9900999427831042
 23
-0.140364180975397
 33
0.0
 40
0.0
 40
0.0
 40
0.0
 40
0.0
 40
0.9052978632658499
 40
0.9052978632658499
 40
0.9052978632658499
 40
0.9052978632658499
 10
-0.0000000000000693
 20
1.426145940339385
 30
0.0
 10
-0.1936435831760997
 20
1.19470511865285
 30
0.0
 10
-0.5260218266506682
 20
1.095315828923521
 30
0.0
 10
-0.8248002808577297
 20
1.052958697884825
 30
0.0
 11
-0.0000000000000693
 21
1.426145940339385
 31
0.0
 11
-0.8248002808577297
 21
1.052958697884825
 31
0.0
  0
SPLINE
  5
1EFE
330
1F
100
AcDbEntity
  8
AM_0
100
AcDbSpline
210
0.0
220
0.0
230
1.0
 70
     8
 71
     3
 72
     8
 73
     4
 74
     0
 42
0.0000000001
 43
0.0000000001
 40
0.0
 40
0.0
 40
0.0
 40
0.0
 40
5.635889483499127
 40
5.635889483499127
 40
5.635889483499127
 40
5.635889483499127
 10
-0.0000000000000693
 20
1.75
 30
0.0
 10
-0.6575204397416333
 20
1.75
 30
0.0
 10
-1.291478738842709
 20
1.617627910142697
 30
0.0
 10
-1.911039400565409
 20
1.40436990342993
 30
0.0
  0
SPLINE
  5
1EFF
330
1F
100
AcDbEntity
  8
AM_0
100
AcDbSpline
210
0.0
220
0.0
230
1.0
 70
     8
 71
     3
 72
     8
 73
     4
 74
     0
 42
0.0000000001
 43
0.0000000001
 40
4.542668862435135
 40
4.542668862435135
 40
4.542668862435135
 40
4.542668862435135
 40
14.36247867694493
 40
14.36247867694493
 40
14.36247867694493
 40
14.36247867694493
 10
-0.2397499999995816
 20
-1.39916582940982
 30
0.0
 10
-1.336810942899507
 20
-1.104951990300502
 30
0.0
 10
-2.391225052279112
 20
-0.5524759951502425
 30
0.0
 10
-3.445639161658717
 20
0.0000000000000142
 30
0.0
  0
SPLINE
  5
1F01
330
1F
100
AcDbEntity
  8
AM_0
100
AcDbSpline
210
0.0
220
0.0
230
1.0
 70
     8
 71
     3
 72
     8
 73
     4
 74
     2
 42
0.0000000001
 43
0.0000000001
 44
0.0000000001
 12
1.0
 22
0.0000000000000006
 32
0.0
 40
0.0
 40
0.0
 40
0.0
 40
0.0
 40
5.071498792270386
 40
5.071498792270386
 40
5.071498792270386
 40
5.071498792270386
 10
-4.760000000000067
 20
1.750000000000035
 30
0.0
 10
-3.069500402576605
 20
1.750000000000036
 30
0.0
 10
-1.534750201288336
 20
0.875000000000038
 30
0.0
 10
-0.0000000000000675
 20
0.0000000000000391
 30
0.0
 11
-4.760000000000067
 21
1.750000000000035
 31
0.0
 11
-0.0000000000000675
 21
0.0000000000000391
 31
0.0
  0
SPLINE
  5
1F02
330
1F
100
AcDbEntity
  8
AM_0
100
AcDbSpline
210
0.0
220
0.0
230
1.0
 70
     8
 71
     3
 72
     8
 73
     4
 74
     2
 42
0.0000000001
 43
0.0000000001
 44
0.0000000001
 12
-1.0
 22
-0.0000000000000008
 32
0.0
 40
0.0
 40
0.0
 40
0.0
 40
0.0
 40
5.071498792270385
 40
5.071498792270385
 40
5.071498792270385
 40
5.071498792270385
 10
-0.0000000000000675
 20
-1.750000000000001
 30
0.0
 10
-1.690499597423529
 20
-1.750000000000003
 30
0.0
 10
-3.225249798711797
 20
-0.8750000000000033
 30
0.0
 10
-4.760000000000066
 20
-0.0000000000000036
 30
0.0
 11
-0.0000000000000675
 21
-1.750000000000001
 31
0.0
 11
-4.760000000000066
 21
-0.0000000000000036
 31
0.0
  0
SPLINE
  5
1F03
330
1F
100
AcDbEntity
  8
AM_0
100
AcDbSpline
210
0.0
220
0.0
230
1.0
 70
     8
 71
     3
 72
     8
 73
     4
 74
     0
 42
0.0000000001
 43
0.0000000001
 40
0.0
 40
0.0
 40
0.0
 40
0.0
 40
12.79333816032526
 40
12.79333816032526
 40
12.79333816032526
 40
12.79333816032526
 10
-3.445639161658785
 20
-1.616105576330905
 30
0.0
 10
-4.938195280363401
 20
-1.616105576330905
 30
0.0
 10
-6.324880959350039
 20
-0.9749717390547942
 30
0.0
 10
-8.000000000000069
 20
-0.2170333918294389
 30
0.0
  0
SPLINE
  5
1F04
330
1F
100
AcDbEntity
  8
AM_0
100
AcDbSpline
210
0.0
220
0.0
230
1.0
 70
     8
 71
     3
 72
     8
 73
     4
 74
     0
 42
0.0000000001
 43
0.0000000001
 40
1.090140354492627
 40
1.090140354492627
 40
1.090140354492627
 40
1.090140354492627
 40
14.36247867694493
 40
14.36247867694493
 40
14.36247867694493
 40
14.36247867694493
 10
-9.167447178038061
 20
1.749999999999989
 30
0.0
 10
-6.295906337093217
 20
1.493439987367754
 30
0.0
 10
-4.870772749375972
 20
0.746719993683886
 30
0.0
 10
-3.445639161658717
 20
0.0000000000000142
 30
0.0
  0
SPLINE
  5
1F06
330
1F
100
AcDbEntity
  8
AM_0
100
AcDbSpline
210
0.0
220
0.0
230
1.0
 70
     8
 71
     3
 72
     8
 73
     4
 74
     0
 42
0.0000000001
 43
0.0000000001
 40
0.0
 40
0.0
 40
0.0
 40
0.0
 40
2.764560748519282
 40
2.764560748519282
 40
2.764560748519282
 40
2.764560748519282
 10
-4.149092926302021
 20
-1.697599284617389
 30
0.0
 10
-3.826560838974775
 20
-1.697599284617389
 30
0.0
 10
-3.509411281642826
 20
-1.666483401978522
 30
0.0
 10
-3.19661369040187
 20
-1.610209226445091
 30
0.0
  0
SPLINE
  5
1F07
330
1F
100
AcDbEntity
  8
AM_0
100
AcDbSpline
210
0.0
220
0.0
230
1.0
 70
     8
 71
     3
 72
     8
 73
     4
 74
     0
 42
0.0000000001
 43
0.0000000001
 40
5.360156850992435
 40
5.360156850992435
 40
5.360156850992435
 40
5.360156850992435
 40
14.48999654934396
 40
14.48999654934396
 40
14.48999654934396
 40
14.48999654934396
 10
-8.000000000000049
 20
1.481842487672807
 30
0.0
 10
-6.694027143078864
 20
1.10263790731124
 30
0.0
 10
-5.727013571539464
 20
0.5513189536556382
 30
0.0
 10
-4.760000000000066
 20
0.0000000000000355
 30
0.0
  0
SPLINE
  5
1F08
330
1F
100
AcDbEntity
  8
AM_0
100
AcDbSpline
210
0.0
220
0.0
230
1.0
 70
     8
 71
     3
 72
     8
 73
     4
 74
     0
 42
0.0000000001
 43
0.0000000001
 40
0.0
 40
0.0
 40
0.0
 40
0.0
 40
9.068166399416787
 40
9.068166399416787
 40
9.068166399416787
 40
9.068166399416787
 10
-4.760000000000134
 20
-1.749999999999966
 30
0.0
 10
-5.817952746598759
 20
-1.749999999999966
 30
0.0
 10
-6.81490564293565
 20
-1.407302883327393
 30
0.0
 10
-8.000000000000056
 20
-0.932265516859168
 30
0.0
  0
LINE
  5
1F0B
330
1F
100
AcDbEntity
  8
AM_11
100
AcDbLine
 10
-0.0000000000003375
 20
1.75
 30
0.0
 11
-8.000000000000069
 21
1.749999999999992
 31
0.0
  0
LINE
  5
1F0C
330
1F
100
AcDbEntity
  8
AM_11
100
AcDbLine
 10
-8.000000000000067
 20
-1.750000000000007
 30
0.0
 11
-0.0000000000000675
 21
-1.750000000000001
 31
0.0
  0
ARC
  5
1F0D
330
1F
100
AcDbEntity
  8
AM_0
100
AcDbCircle
 10
0.6949856137094521
 20
-0.8903580576512677
 30
0.0
 40
1.064244340430617
100
AcDbArc
 50
159.3923269732581
 51
208.5609268810354
  0
LINE
  5
1F0E
330
1F
100
AcDbEntity
  8
AM_0
100
AcDbLine
 10
-0.0000000000000675
 20
-1.750000000000001
 30
0.0
 11
-0.0000000000000675
 21
-0.3500000000000014
 31
0.0
  0
LINE
  5
1F10
330
1F
100
AcDbEntity
  8
AM_0
100
AcDbLine
 10
-0.0367500000000654
 20
0.3500000000000369
 30
0.0
 11
-0.3736334692111178
 21
0.933499284903636
 31
0.0
  0
LINE
  5
1F11
330
1F
100
AcDbEntity
  8
AM_0
100
AcDbLine
 10
-0.0000000000000675
 20
0.0
 30
0.0
 11
-0.0000000000000693
 21
1.75
 31
0.0
  0
LINE
  5
1F12
330
1F
100
AcDbEntity
  8
AM_0
100
AcDbLine
 10
-0.3736334692111178
 20
0.933499284903636
 30
0.0
 11
-0.8248002808577297
 21
1.052958697884825
 31
0.0
  0
LINE
  5
1F13
330
1F
100
AcDbEntity
  8
AM_0
100
AcDbLine
 10
-0.0367500000000654
 20
-0.464414249097116
 30
0.0
 11
-0.0000000000000675
 21
-0.3500000000000014
 31
0.0
  0
LINE
  5
1F14
330
1F
100
AcDbEntity
  8
AM_0
100
AcDbLine
 10
-0.8248002808577279
 20
-0.2800000000000047
 30
0.0
 11
-0.3011602949919769
 21
-0.515779167808292
 31
0.0
  0
LINE
  5
1F15
330
1F
100
AcDbEntity
  8
AM_0
100
AcDbLine
 10
-0.8248002808577279
 20
-0.0000000000000036
 30
0.0
 11
-0.8248002808577279
 21
-0.2800000000000047
 31
0.0
  0
LINE
  5
1F16
330
1F
100
AcDbEntity
  8
AM_0
100
AcDbLine
 10
-0.0000000000000675
 20
0.0
 30
0.0
 11
-0.031094913200457
 21
-0.2961420304800146
 31
0.0
  0
LINE
  5
1F17
330
1F
100
AcDbEntity
  8
AM_0
100
AcDbLine
 10
-0.0000000000000675
 20
-0.3500000000000014
 30
0.0
 11
-0.2020725942164461
 21
0.0000000000000178
 31
0.0
  0
LINE
  5
1F18
330
1F
100
AcDbEntity
  8
AM_0
100
AcDbLine
 10
-0.8248002808577279
 20
-0.2800000000000047
 30
0.0
 11
-0.0404145188433418
 21
-0.2800000000000047
 31
0.0
  0
LINE
  5
1F19
330
1F
100
AcDbEntity
  8
AM_0
100
AcDbLine
 10
-0.0000000000000675
 20
0.0
 30
0.0
 11
-0.8248002808577279
 21
-0.0000000000000036
 31
0.0
  0
LINE
  5
1F1A
330
1F
100
AcDbEntity
  8
AM_0
100
AcDbLine
 10
-0.3011602949919769
 20
-0.515779167808292
 30
0.0
 11
-0.0367500000000654
 21
-0.464414249097116
 31
0.0
  0
LINE
  5
1F1B
330
1F
100
AcDbEntity
  8
AM_0
100
AcDbLine
 10
-0.0000000000000675
 20
0.0
 30
0.0
 11
-0.0367500000000654
 21
0.3500000000000369
 31
0.0
  0
LINE
  5
1F1C
330
1F
100
AcDbEntity
  8
AM_0
100
AcDbLine
 10
-0.0000000000000675
 20
-1.750000000000001
 30
0.0
 11
-0.0367500000000636
 21
-1.656704405167641
 31
0.0
  0
LINE
  5
1F1D
330
1F
100
AcDbEntity
  8
AM_0
100
AcDbLine
 10
-0.0367500000000636
 20
-1.656704405167619
 30
0.0
 11
-0.2397500000000683
 21
-1.39916582941167
 31
0.0
  0
POLYLINE
  5
1F1E
330
1F
100
AcDbEntity
  8
AM_0
100
AcDb2dPolyline
 66
     1
 10
0.0
 20
0.0
 30
0.0
 70
     2
  0
VERTEX
  5
1F1F
330
1F1E
100
AcDbEntity
  8
AM_0
100
AcDbVertex
100
AcDb2dVertex
 10
-8.874999999999985
 20
-1.57384907516541
 30
0.0
 42
-0.0230918143391583
  0
VERTEX
  5
1F20
330
1F1E
100
AcDbEntity
  8
AM_0
100
AcDbVertex
100
AcDb2dVertex
 10
-9.076781210855834
 20
-1.522711574908365
 30
0.0
 42
-0.0355587143075394
 70
     1
  0
VERTEX
  5
1F21
330
1F1E
100
AcDbEntity
  8
AM_0
100
AcDbVertex
100
AcDb2dVertex
 10
-9.203124999999985
 20
-1.474365110171364
 30
0.0
 42
-0.0216088548285507
  0
VERTEX
  5
1F22
330
1F1E
100
AcDbEntity
  8
AM_0
100
AcDbVertex
100
AcDb2dVertex
 10
-9.497903477994873
 20
-1.320987880195405
 30
0.0
 42
-0.0414110700152503
 70
     1
  0
VERTEX
  5
1F23
330
1F1E
100
AcDbEntity
  8
AM_0
100
AcDbVertex
100
AcDb2dVertex
 10
-9.640624999999985
 20
-1.222136916324689
 30
0.0
 42
-0.0653031023268945
  0
VERTEX
  5
1F24
330
1F1E
100
AcDbEntity
  8
AM_0
100
AcDbVertex
100
AcDb2dVertex
 10
-9.732561358485559
 20
-1.123815077491059
 30
0.0
 42
-0.1569363594221426
 70
     1
  0
VERTEX
  5
1F25
330
1F1E
100
AcDbEntity
  8
AM_0
100
AcDbVertex
100
AcDb2dVertex
 10
-9.749999999999985
 20
-1.069392687472053
 30
0.0
 42
-0.1617045000652558
  0
VERTEX
  5
1F26
330
1F1E
100
AcDbEntity
  8
AM_0
100
AcDbVertex
100
AcDb2dVertex
 10
-9.732260134432584
 20
-1.016194749175241
 30
0.0
 42
-0.0680210806811403
 70
     1
  0
VERTEX
  5
1F27
330
1F1E
100
AcDbEntity
  8
AM_0
100
AcDbVertex
100
AcDb2dVertex
 10
-9.640624999999985
 20
-0.9232566901832885
 30
0.0
 42
-0.0450747416233525
  0
VERTEX
  5
1F28
330
1F1E
100
AcDbEntity
  8
AM_0
100
AcDbVertex
100
AcDb2dVertex
 10
-9.49924687256288
 20
-0.8333272171928403
 30
0.0
 42
-0.0231467319857815
 70
     1
  0
VERTEX
  5
1F29
330
1F1E
100
AcDbEntity
  8
AM_0
100
AcDbVertex
100
AcDb2dVertex
 10
-9.203124999999985
 20
-0.6974614225921521
 30
0.0
 42
-0.0364444523572374
  0
VERTEX
  5
1F2A
330
1F1E
100
AcDbEntity
  8
AM_0
100
AcDbVertex
100
AcDb2dVertex
 10
-9.074520575121534
 20
-0.6561211793877391
 30
0.0
 42
-0.0242139410122645
 70
     1
  0
VERTEX
  5
1F2B
330
1F1E
100
AcDbEntity
  8
AM_0
100
AcDbVertex
100
AcDb2dVertex
 10
-8.874999999999985
 20
-0.6178021522897517
 30
0.0
  0
SEQEND
  5
1F2C
330
1F1E
100
AcDbEntity
  8
AM_0
  0
LINE
  5
1F2D
330
1F
100
AcDbEntity
  8
AM_11
100
AcDbLine
 10
-8.000000000000069
 20
1.749999999999992
 30
0.0
 11
-8.000000000000067
 21
-1.750000000000007
 31
0.0
  0
POLYLINE
  5
1F2E
330
1F
100
AcDbEntity
  8
AM_0
100
AcDb2dPolyline
 66
     1
 10
0.0
 20
0.0
 30
0.0
 70
     2
  0
VERTEX
  5
1F2F
330
1F2E
100
AcDbEntity
  8
AM_0
100
AcDbVertex
100
AcDb2dVertex
 10
-8.000000000000049
 20
1.481842487672807
 30
0.0
 42
0.0113495642762015
  0
VERTEX
  5
1F30
330
1F2E
100
AcDbEntity
  8
AM_0
100
AcDbVertex
100
AcDb2dVertex
 10
-8.408001980382486
 20
1.542932277550253
 30
0.0
 42
0.0187918863228812
 70
     1
  0
VERTEX
  5
1F31
330
1F2E
100
AcDbEntity
  8
AM_0
100
AcDbVertex
100
AcDb2dVertex
 10
-8.656250000000049
 20
1.56492162122883
 30
0.0
 42
0.0075788461628208
  0
VERTEX
  5
1F32
330
1F2E
100
AcDbEntity
  8
AM_0
100
AcDbVertex
100
AcDb2dVertex
 10
-9.316172259557383
 20
1.588431914623477
 30
0.0
 42
0.0232722457202398
 70
     1
  0
VERTEX
  5
1F33
330
1F2E
100
AcDbEntity
  8
AM_0
100
AcDbVertex
100
AcDb2dVertex
 10
-9.531250000000049
 20
1.582820833710755
 30
0.0
 42
0.0542958387243925
  0
VERTEX
  5
1F34
330
1F2E
100
AcDbEntity
  8
AM_0
100
AcDbVertex
100
AcDb2dVertex
 10
-9.736686963782414
 20
1.545203217624639
 30
0.0
 42
0.4413285869607302
 70
     1
  0
VERTEX
  5
1F35
330
1F2E
100
AcDbEntity
  8
AM_0
100
AcDbVertex
100
AcDb2dVertex
 10
-9.750000000000049
 20
1.517640912636654
 30
0.0
 42
0.0678159998049314
  0
VERTEX
  5
1F36
330
1F2E
100
AcDbEntity
  8
AM_0
100
AcDbVertex
100
AcDb2dVertex
 10
-9.733609856338091
 20
1.488794257799469
 30
0.0
 42
0.006836731909696
 70
     1
  0
VERTEX
  5
1F37
330
1F2E
100
AcDbEntity
  8
AM_0
100
AcDbVertex
100
AcDb2dVertex
 10
-9.531250000000049
 20
1.231151900383824
 30
0.0
 42
0.0061465077983929
  0
VERTEX
  5
1F38
330
1F2E
100
AcDbEntity
  8
AM_0
100
AcDbVertex
100
AcDb2dVertex
 10
-9.226222290528532
 20
0.8628933967126357
 30
0.0
 42
0.0040253861954876
 70
     1
  0
VERTEX
  5
1F39
330
1F2E
100
AcDbEntity
  8
AM_0
100
AcDbVertex
100
AcDb2dVertex
 10
-8.749132557911408
 20
0.3101889783376421
 30
0.0
 42
0.0594163782683759
  0
VERTEX
  5
1F3A
330
1F2E
100
AcDbEntity
  8
AM_0
100
AcDbVertex
100
AcDb2dVertex
 10
-8.533436093744711
 20
0.1163997690348495
 30
0.0
 42
0.0273113651513278
 70
     1
  0
VERTEX
  5
1F3B
330
1F2E
100
AcDbEntity
  8
AM_0
100
AcDbVertex
100
AcDb2dVertex
 10
-8.000000000000047
 20
-0.2170333918294176
 30
0.0
  0
SEQEND
  5
1F3C
330
1F2E
100
AcDbEntity
  8
AM_0
  0
LINE
  5
1F3D
330
1F
100
AcDbEntity
  8
AM_0
100
AcDbLine
 10
-8.00000000000011
 20
1.481842487672881
 30
0.0
 11
-8.000000000000069
 21
1.624181315810361
 31
0.0
  0
ARC
  5
1F3E
330
1F
100
AcDbEntity
  8
AM_0
100
AcDbCircle
 10
-9.813720891828996
 20
-4.604393359488042
 30
0.0
 40
4.095620388423096
100
AcDbArc
 50
63.71451956009241
 51
76.74995547900955
  0
LINE
  5
1F3F
330
1F
100
AcDbEntity
  8
AM_0
100
AcDbLine
 10
-8.000000000000067
 20
-0.2170333918294398
 30
0.0
 11
-8.000000000000078
 21
-0.9322655168591307
 31
0.0
  0
ARC
  5
1F41
330
1F
100
AcDbEntity
  8
AM_0
100
AcDbCircle
 10
-9.927272702595175
 20
1.331169565031821
 30
0.0
 40
3.089726709681677
100
AcDbArc
 50
274.2652286476525
 51
289.9116936476419
  0
LINE
  5
2144
330
1F
100
AcDbEntity
  8
AM_0
100
AcDbLine
 10
-44.5
 20
2.999999999999866
 30
0.0
 11
-45.0
 21
2.499999999999866
 31
0.0
1001
GENIUS_GENFIL_13
1070
     0
1040
0.5
1040
0.5
1040
20.0
1040
0.0
1002
{
1002
}
1001
GENIUS_GENODEF_13
1002
{
1000
HIER
1070
     0
1002
}
1002
{
1000
MANEDIT
1070
     0
1002
}
1002
{
1000
NOSEL
1070
     0
1002
}
1002
{
1000
BEHIND
1070
     0
1002
}
1002
{
1000
REACTOR
1002
}
1001
GENIUS_GENOBJ-N-CHA_13
1002
{
1000
OWNER
1000
GEN
1002
}
  0
LINE
  5
2147
330
1F
100
AcDbEntity
  8
AM_0
100
AcDbLine
 10
-45.0
 20
-2.500000000000132
 30
0.0
 11
-44.5
 21
-3.000000000000132
 31
0.0
1001
GENIUS_GENFIL_13
1070
     0
1040
0.5
1040
0.5
1040
20.0
1040
0.0
1002
{
1002
}
1001
GENIUS_GENODEF_13
1002
{
1000
HIER
1070
     0
1002
}
1002
{
1000
MANEDIT
1070
     0
1002
}
1002
{
1000
NOSEL
1070
     0
1002
}
1002
{
1000
BEHIND
1070
     0
1002
}
1002
{
1000
REACTOR
1002
}
1001
GENIUS_GENOBJ-N-CHA_13
1002
{
1000
OWNER
1000
GEN
1002
}
  0
LINE
  5
2148
330
1F
100
AcDbEntity
  8
AM_0
100
AcDbLine
 10
-44.5
 20
2.999999999999866
 30
0.0
 11
-44.5
 21
-3.000000000000132
 31
0.0
  0
VIEWPORT
  5
110
330
101
100
AcDbEntity
 67
     1
  8
0
100
AcDbViewport
 10
420.5
 20
297.0
 30
0.0
 40
948.9782706766916
 41
628.452
 68
     1
 69
     1
1001
ACAD
1000
MVIEW
1002
{
1070
    16
1010
0.0
1020
0.0
1030
0.0
1010
0.0
1020
0.0
1030
1.0
1040
0.0
1040
628.452
1040
420.5
1040
297.0
1040
50.0
1040
0.0
1040
0.0
1070
     0
1070
   100
1070
     1
1070
     1
1070
     0
1070
     0
1070
     0
1070
     0
1040
0.0
1040
0.0
1040
0.0
1040
10.0
1040
10.0
1040
10.0
1040
10.0
1070
     0
1002
{
1002
}
1002
}
  0
ENDSEC
  0
SECTION
  2
OBJECTS
  0
DICTIONARY
  5
C
330
0
100
AcDbDictionary
  3
ACAD_GROUP
350
D
  3
ACAD_LAYOUT
350
1A
  3
ACAD_MLINESTYLE
350
17
  3
ACAD_PLOTSETTINGS
350
19
  3
ACAD_PLOTSTYLENAME
350
E
  3
ACDBVARIABLEDICTIONARY
350
34
  3
ACMDICTIONARY
350
43
  3
AMG
350
2B
  3
AMGSNAPSETTINGS
350
6E
  3
DWGPROPS
350
2367
  3
ACDBHEADERROUNDTRIPXREC
350
2373
  0
DICTIONARY
  5
74
330
1F
100
AcDbDictionary
280
     1
  3
ACAD_INDEX
360
2369
  3
ACAD_LAYOUTSELFREF
360
2396
  0
DICTIONARY
  5
239B
330
101
100
AcDbDictionary
280
     1
  3
ACAD_LAYOUTSELFREF
360
239C
  0
DICTIONARY
  5
D
102
{ACAD_REACTORS
330
C
102
}
330
C
100
AcDbDictionary
  0
DICTIONARY
  5
1A
102
{ACAD_REACTORS
330
C
102
}
330
C
100
AcDbDictionary
  0
DICTIONARY
  5
17
102
{ACAD_REACTORS
330
C
102
}
330
C
100
AcDbDictionary
  3
STANDARD
350
18
  0
DICTIONARY
  5
19
102
{ACAD_REACTORS
330
C
102
}
330
C
100
AcDbDictionary
  0
ACDBDICTIONARYWDFLT
  5
E
102
{ACAD_REACTORS
330
C
102
}
330
C
100
AcDbDictionary
281
     1
  3
Normal
350
F
100
AcDbDictionaryWithDefault
340
F
  0
DICTIONARY
  5
34
102
{ACAD_REACTORS
330
C
102
}
330
C
100
AcDbDictionary
  3
INDEXCTL
350
35
  3
SORTENTS
350
B5E
  0
DICTIONARY
  5
43
102
{ACAD_REACTORS
330
C
102
}
330
C
100
AcDbDictionary
  3
ACMSTDDICTIONARY
350
260
  0
DICTIONARY
  5
2B
102
{ACAD_REACTORS
330
C
102
}
330
C
100
AcDbDictionary
  3
ACMGSETTINGS
350
2C
  0
DICTIONARY
  5
6E
102
{ACAD_REACTORS
330
C
102
}
330
C
100
AcDbDictionary
  0
XRECORD
  5
2367
102
{ACAD_REACTORS
330
C
102
}
330
C
100
AcDbXrecord
  1
DWGPROPS COOKIE
  2

  3

  4

  6

  7

  8

  9

300
AmdtFileType=82
301
=
302
=
303
=
304
=
305
=
306
=
307
=
308
=
309
=
 40
0.0930952314814815
 41
2452836.771637361
 42
2453045.616235787
  1

 90
        1
  0
DICTIONARY
  5
2373
102
{ACAD_REACTORS
330
C
102
}
330
C
100
AcDbDictionary
  3
TSTACKALIGN
350
2374
  3
TSTACKSIZE
350
2375
  3
HYPERLINKBASE
350
2376
  3
STYLESHEET
350
2377
  3
LAYOUTDICT
350
2378
  3
PLOTSETDICT
350
2379
  3
PLOTSTYLNAMDICT
350
237A
  3
LWETCUNION
350
237B
  3
INSUNITS
350
237C
  3
CEPSNTYPE
350
237D
  3
FINGERPRINTGUID
350
237E
  3
VERSIONGUID
350
237F
  3
PSVPSCALE
350
2380
  3
DIMSTYLEDATA
350
2381
  3
PUCSORTHOREF
350
2382
  3
PUCSORTHOVIEW
350
2383
  3
PUCSBASE
350
2384
  3
PUCSORGTOP
350
2385
  3
PUCSORGBOTTOM
350
2386
  3
PUCSORGLEFT
350
2387
  3
PUCSORGRIGHT
350
2388
  3
PUCSORGFRONT
350
2389
  3
PUCSORGBACK
350
238A
  3
UCSORTHOREF
350
238B
  3
UCSORTHOVIEW
350
238C
  3
UCSBASE
350
238D
  3
UCSORGTOP
350
238E
  3
UCSORGBOTTOM
350
238F
  3
UCSORGLEFT
350
2390
  3
UCSORGRIGHT
350
2391
  3
UCSORGFRONT
350
2392
  3
UCSORGBACK
350
2393
  0
DICTIONARY
  5
2369
102
{ACAD_REACTORS
330
74
102
}
330
74
100
AcDbDictionary
  3
*A1
350
236A
  0
XRECORD
  5
2396
102
{ACAD_REACTORS
330
74
102
}
330
74
100
AcDbXrecord
340
1F
  0
XRECORD
  5
239C
102
{ACAD_REACTORS
330
239B
102
}
330
239B
100
AcDbXrecord
340
101
  0
MLINESTYLE
  5
18
102
{ACAD_REACTORS
330
17
102
}
330
17
100
AcDbMlineStyle
  2
STANDARD
 70
     0
  3

 62
   256
 51
90.0
 52
90.0
 71
     2
 49
0.5
 62
   256
  6
BYLAYER
 49
-0.5
 62
   256
  6
BYLAYER
  0
ACDBPLACEHOLDER
  5
F
102
{ACAD_REACTORS
330
E
102
}
330
E
100
AcDbPlaceHolder
280
     0
  0
DICTIONARYVAR
  5
35
102
{ACAD_REACTORS
330
34
102
}
330
34
100
DictionaryVariables
280
     0
  1
1
  0
DICTIONARYVAR
  5
B5E
102
{ACAD_REACTORS
330
34
102
}
330
34
100
DictionaryVariables
280
     0
  1
96
  0
DICTIONARY
  5
260
102
{ACAD_REACTORS
330
43
102
}
330
43
100
AcDbDictionary
  0
DICTIONARY
  5
2C
102
{ACAD_REACTORS
330
2B
102
}
330
2B
100
AcDbDictionary
  3
DWGSETTINGS
350
2D
  0
XRECORD
  5
2374
102
{ACAD_REACTORS
330
2373
102
}
330
2373
100
AcDbXrecord
 90
        1
  0
XRECORD
  5
2375
102
{ACAD_REACTORS
330
2373
102
}
330
2373
100
AcDbXrecord
 90
       70
  0
XRECORD
  5
2376
102
{ACAD_REACTORS
330
2373
102
}
330
2373
100
AcDbXrecord
  1

  0
XRECORD
  5
2377
102
{ACAD_REACTORS
330
2373
102
}
330
2373
100
AcDbXrecord
  1
ASAMI.ctb
  0
XRECORD
  5
2378
102
{ACAD_REACTORS
330
2373
102
}
330
2373
100
AcDbXrecord
340
1A
  0
XRECORD
  5
2379
102
{ACAD_REACTORS
330
2373
102
}
330
2373
100
AcDbXrecord
340
19
  0
XRECORD
  5
237A
102
{ACAD_REACTORS
330
2373
102
}
330
2373
100
AcDbXrecord
340
E
  0
XRECORD
  5
237B
102
{ACAD_REACTORS
330
2373
102
}
330
2373
100
AcDbXrecord
 90
    10781
  0
XRECORD
  5
237C
102
{ACAD_REACTORS
330
2373
102
}
330
2373
100
AcDbXrecord
 90
        4
  0
XRECORD
  5
237D
102
{ACAD_REACTORS
330
2373
102
}
330
2373
100
AcDbXrecord
 90
        0
  0
XRECORD
  5
237E
102
{ACAD_REACTORS
330
2373
102
}
330
2373
100
AcDbXrecord
  1
{AFB28963-8C59-40AE-9337-C84526B81ACE}
  0
XRECORD
  5
237F
102
{ACAD_REACTORS
330
2373
102
}
330
2373
100
AcDbXrecord
  1
{CCB6D986-13EE-4D19-98E3-CA6063C64D4E}
  0
XRECORD
  5
2380
102
{ACAD_REACTORS
330
2373
102
}
330
2373
100
AcDbXrecord
 40
0.0
  0
XRECORD
  5
2381
102
{ACAD_REACTORS
330
2373
102
}
330
2373
100
AcDbXrecord
1000
DSTYLE
1002
{
1070
    79
 70
     2
1070
   341
340
59
1070
   342
340
59
1070
   371
 70
    -1
1070
   372
 70
    -1
1002
}
  0
XRECORD
  5
2382
102
{ACAD_REACTORS
330
2373
102
}
330
2373
100
AcDbXrecord
340
0
  0
XRECORD
  5
2383
102
{ACAD_REACTORS
330
2373
102
}
330
2373
100
AcDbXrecord
 70
     0
  0
XRECORD
  5
2384
102
{ACAD_REACTORS
330
2373
102
}
330
2373
100
AcDbXrecord
340
0
  0
XRECORD
  5
2385
102
{ACAD_REACTORS
330
2373
102
}
330
2373
100
AcDbXrecord
 10
0.0
 20
0.0
 30
0.0
  0
XRECORD
  5
2386
102
{ACAD_REACTORS
330
2373
102
}
330
2373
100
AcDbXrecord
 10
0.0
 20
0.0
 30
0.0
  0
XRECORD
  5
2387
102
{ACAD_REACTORS
330
2373
102
}
330
2373
100
AcDbXrecord
 10
0.0
 20
0.0
 30
0.0
  0
XRECORD
  5
2388
102
{ACAD_REACTORS
330
2373
102
}
330
2373
100
AcDbXrecord
 10
0.0
 20
0.0
 30
0.0
  0
XRECORD
  5
2389
102
{ACAD_REACTORS
330
2373
102
}
330
2373
100
AcDbXrecord
 10
0.0
 20
0.0
 30
0.0
  0
XRECORD
  5
238A
102
{ACAD_REACTORS
330
2373
102
}
330
2373
100
AcDbXrecord
 10
0.0
 20
0.0
 30
0.0
  0
XRECORD
  5
238B
102
{ACAD_REACTORS
330
2373
102
}
330
2373
100
AcDbXrecord
340
0
  0
XRECORD
  5
238C
102
{ACAD_REACTORS
330
2373
102
}
330
2373
100
AcDbXrecord
 70
     0
  0
XRECORD
  5
238D
102
{ACAD_REACTORS
330
2373
102
}
330
2373
100
AcDbXrecord
340
0
  0
XRECORD
  5
238E
102
{ACAD_REACTORS
330
2373
102
}
330
2373
100
AcDbXrecord
 10
0.0
 20
0.0
 30
0.0
  0
XRECORD
  5
238F
102
{ACAD_REACTORS
330
2373
102
}
330
2373
100
AcDbXrecord
 10
0.0
 20
0.0
 30
0.0
  0
XRECORD
  5
2390
102
{ACAD_REACTORS
330
2373
102
}
330
2373
100
AcDbXrecord
 10
0.0
 20
0.0
 30
0.0
  0
XRECORD
  5
2391
102
{ACAD_REACTORS
330
2373
102
}
330
2373
100
AcDbXrecord
 10
0.0
 20
0.0
 30
0.0
  0
XRECORD
  5
2392
102
{ACAD_REACTORS
330
2373
102
}
330
2373
100
AcDbXrecord
 10
0.0
 20
0.0
 30
0.0
  0
XRECORD
  5
2393
102
{ACAD_REACTORS
330
2373
102
}
330
2373
100
AcDbXrecord
 10
0.0
 20
0.0
 30
0.0
  0
LAYER_INDEX
  5
236A
102
{ACAD_REACTORS
330
2369
102
}
330
2369
100
AcDbIndex
 40
2453151.788435393
100
AcDbLayerIndex
  8
0
360
236B
 90
        0
  8
AM_0
360
236C
 90
       49
  8
AM_11
360
236D
 90
        3
  8
AM_7
360
236E
 90
        1
  8
AM_5
360
236F
 90
        4
  8
Defpoints
360
2370
 90
        0
  8
AM_6
360
2371
 90
        1
  0
XRECORD
  5
2D
102
{ACAD_REACTORS
330
2C
102
}
330
2C
100
AcDbXrecord
  1
VERSION
140
15.0
  1
PRODUCT
  2
AutoCAD Mechanical 2000
  0
IDBUFFER
  5
236B
330
0
100
AcDbIdBuffer
  0
IDBUFFER
  5
236C
330
0
100
AcDbIdBuffer
330
2148
330
1A51
330
1A5B
330
1B11
330
1B12
330
1B15
330
1B37
330
1BD6
330
1BD7
330
1BD8
330
1EF6
330
1EF7
330
1EF8
330
1EFB
330
1EFC
330
1EFD
330
1EFE
330
1EFF
330
1F01
330
1F02
330
1F03
330
1F04
330
1F06
330
1F07
330
1F08
330
1F0D
330
1F0E
330
1F10
330
1F11
330
1F12
330
1F13
330
1F14
330
1F15
330
1F16
330
1F17
330
1F18
330
1F19
330
1F1A
330
1F1B
330
1F1C
330
1F1D
330
1F1E
330
1F2E
330
1F3D
330
1F3E
330
1F3F
330
1F41
330
2144
330
2147
  0
IDBUFFER
  5
236D
330
0
100
AcDbIdBuffer
330
1F0B
330
1F0C
330
1F2D
  0
IDBUFFER
  5
236E
330
0
100
AcDbIdBuffer
330
13DC
  0
IDBUFFER
  5
236F
330
0
100
AcDbIdBuffer
330
16EA
330
177A
330
1936
330
1B04
  0
IDBUFFER
  5
2370
330
0
100
AcDbIdBuffer
  0
IDBUFFER
  5
2371
330
0
100
AcDbIdBuffer
330
E5A
  0
ENDSEC
  0
EOF
