  0
SECTION
  2
HEADER
  9
$ACADVER
  1
AC1014
  9
$ACADMAINTVER
 70
     9
  9
$DWGCODEPAGE
  3
ANSI_932
  9
$INSBASE
 10
0.0
 20
0.0
 30
0.0
  9
$EXTMIN
 10
-56.41123869649856
 20
-27.25000100000022
 30
-0.00000001
  9
$EXTMAX
 10
8.629789688840498
 20
2.999999999999871
 30
0.00000001
  9
$LIMMIN
 10
-57.72075051586011
 20
-33.34285469054634
  9
$LIMMAX
 10
12.11175656447233
 20
10.1987394589199
  9
$ORTHOMODE
 70
     0
  9
$REGENMODE
 70
     1
  9
$FILLMODE
 70
     1
  9
$QTEXTMODE
 70
     0
  9
$MIRRTEXT
 70
     0
  9
$DRAGMODE
 70
     2
  9
$LTSCALE
 40
1.0
  9
$OSMODE
 70
    55
  9
$ATTMODE
 70
     1
  9
$TEXTSIZE
 40
2.5
  9
$TRACEWID
 40
1.0
  9
$TEXTSTYLE
  7
STANDARD
  9
$CLAYER
  8
AM_0
  9
$CELTYPE
  6
BYLAYER
  9
$CECOLOR
 62
   256
  9
$CELTSCALE
 40
1.0
  9
$DELOBJ
 70
     1
  9
$DISPSILH
 70
     0
  9
$DIMSCALE
 40
0.5
  9
$DIMASZ
 40
2.5
  9
$DIMEXO
 40
1.0
  9
$DIMDLI
 40
12.0
  9
$DIMRND
 40
0.0
  9
$DIMDLE
 40
0.0
  9
$DIMEXE
 40
1.0
  9
$DIMTP
 40
0.1
  9
$DIMTM
 40
0.1
  9
$DIMTXT
 40
3.2
  9
$DIMCEN
 40
0.0
  9
$DIMTSZ
 40
0.0
  9
$DIMTOL
 70
     0
  9
$DIMLIM
 70
     0
  9
$DIMTIH
 70
     0
  9
$DIMTOH
 70
     0
  9
$DIMSE1
 70
     0
  9
$DIMSE2
 70
     0
  9
$DIMTAD
 70
     3
  9
$DIMZIN
 70
     8
  9
$DIMBLK
  1
OPEN30
  9
$DIMASO
 70
     1
  9
$DIMSHO
 70
     1
  9
$DIMPOST
  1

  9
$DIMAPOST
  1
"
  9
$DIMALT
 70
     0
  9
$DIMALTD
 70
     2
  9
$DIMALTF
 40
0.0393701
  9
$DIMLFAC
 40
1.0
  9
$DIMTOFL
 70
     1
  9
$DIMTVP
 40
0.0
  9
$DIMTIX
 70
     0
  9
$DIMSOXD
 70
     0
  9
$DIMSAH
 70
     0
  9
$DIMBLK1
  1

  9
$DIMBLK2
  1

  9
$DIMSTYLE
  2
AM_JIS
  9
$DIMCLRD
 70
   256
  9
$DIMCLRE
 70
   256
  9
$DIMCLRT
 70
     2
  9
$DIMTFAC
 40
0.71
  9
$DIMGAP
 40
1.5
  9
$DIMJUST
 70
     0
  9
$DIMSD1
 70
     0
  9
$DIMSD2
 70
     0
  9
$DIMTOLJ
 70
     0
  9
$DIMTZIN
 70
     0
  9
$DIMALTZ
 70
     0
  9
$DIMALTTZ
 70
     0
  9
$DIMFIT
 70
     3
  9
$DIMUPT
 70
     0
  9
$DIMUNIT
 70
     2
  9
$DIMDEC
 70
     3
  9
$DIMTDEC
 70
     3
  9
$DIMALTU
 70
     2
  9
$DIMALTTD
 70
     2
  9
$DIMTXSTY
  7
ASAMI
  9
$DIMAUNIT
 70
     0
  9
$LUNITS
 70
     2
  9
$LUPREC
 70
     2
  9
$SKETCHINC
 40
1.0
  9
$FILLETRAD
 40
2.5
  9
$AUNITS
 70
     0
  9
$AUPREC
 70
     0
  9
$MENU
  1
.
  9
$ELEVATION
 40
0.0
  9
$PELEVATION
 40
0.0
  9
$THICKNESS
 40
0.0
  9
$LIMCHECK
 70
     0
  9
$BLIPMODE
 70
     0
  9
$CHAMFERA
 40
0.5
  9
$CHAMFERB
 40
0.5
  9
$CHAMFERC
 40
20.0
  9
$CHAMFERD
 40
0.0
  9
$SKPOLY
 70
     0
  9
$TDCREATE
 40
2452836.771637361
  9
$TDUPDATE
 40
2453151.788677361
  9
$TDINDWG
 40
0.1046525579
  9
$TDUSRTIMER
 40
0.1046525579
  9
$USRTIMER
 70
     1
  9
$ANGBASE
 50
0.0
  9
$ANGDIR
 70
     0
  9
$PDMODE
 70
     0
  9
$PDSIZE
 40
0.0
  9
$PLINEWID
 40
0.0
  9
$COORDS
 70
     1
  9
$SPLFRAME
 70
     0
  9
$SPLINETYPE
 70
     6
  9
$SPLINESEGS
 70
     8
  9
$ATTDIA
 70
     1
  9
$ATTREQ
 70
     1
  9
$HANDLING
 70
 12289
  9
$HANDSEED
  5
27BD
  9
$SURFTAB1
 70
     6
  9
$SURFTAB2
 70
     6
  9
$SURFTYPE
 70
     6
  9
$SURFU
 70
     6
  9
$SURFV
 70
     6
  9
$UCSNAME
  2

  9
$UCSORG
 10
0.0
 20
0.0
 30
0.0
  9
$UCSXDIR
 10
1.0
 20
0.0
 30
0.0
  9
$UCSYDIR
 10
0.0
 20
1.0
 30
0.0
  9
$PUCSNAME
  2

  9
$PUCSORG
 10
0.0
 20
0.0
 30
0.0
  9
$PUCSXDIR
 10
1.0
 20
0.0
 30
0.0
  9
$PUCSYDIR
 10
0.0
 20
1.0
 30
0.0
  9
$USERI1
 70
     0
  9
$USERI2
 70
     0
  9
$USERI3
 70
     0
  9
$USERI4
 70
     0
  9
$USERI5
 70
     0
  9
$USERR1
 40
0.0
  9
$USERR2
 40
0.0
  9
$USERR3
 40
0.0
  9
$USERR4
 40
0.0
  9
$USERR5
 40
0.0
  9
$WORLDVIEW
 70
     1
  9
$SHADEDGE
 70
     3
  9
$SHADEDIF
 70
    70
  9
$TILEMODE
 70
     1
  9
$MAXACTVP
 70
    64
  9
$PINSBASE
 10
0.0
 20
0.0
 30
0.0
  9
$PLIMCHECK
 70
     0
  9
$PEXTMIN
 10
1.000000000000000E+20
 20
1.000000000000000E+20
 30
1.000000000000000E+20
  9
$PEXTMAX
 10
-1.000000000000000E+20
 20
-1.000000000000000E+20
 30
-1.000000000000000E+20
  9
$PLIMMIN
 10
0.0
 20
0.0
  9
$PLIMMAX
 10
841.0
 20
594.0
  9
$UNITMODE
 70
     0
  9
$VISRETAIN
 70
     1
  9
$PLINEGEN
 70
     0
  9
$PSLTSCALE
 70
     0
  9
$TREEDEPTH
 70
  3020
  9
$PICKSTYLE
 70
     0
  9
$CMLSTYLE
  2
STANDARD
  9
$CMLJUST
 70
     0
  9
$CMLSCALE
 40
20.0
  9
$PROXYGRAPHICS
 70
     1
  9
$MEASUREMENT
 70
     1
  0
ENDSEC
  0
SECTION
  2
CLASSES
  0
CLASS
  1
ACDBDICTIONARYWDFLT
  2
AcDbDictionaryWithDefault
  3
AutoCAD 2000
 90
        0
280
     0
281
     0
  0
CLASS
  1
ACDBPLACEHOLDER
  2
AcDbPlaceHolder
  3
AutoCAD 2000
 90
        0
280
     0
281
     0
  0
CLASS
  1
LAYOUT
  2
AcDbLayout
  3
AutoCAD 2000
 90
        0
280
     0
281
     0
  0
CLASS
  1
AMGSETTINGSOBJ
  2
AmgSettingsObj
  3
"AcadM|Product Description: AutoCAD Mechanical 2000|Company: Autodesk"
 90
        0
280
     0
281
     0
  0
CLASS
  1
ACME_DOCUMENT
  2
AcMeDbDoc
  3
AcMeServices
 90
        0
280
     0
281
     0
  0
CLASS
  1
ACMESCOPE
  2
AcMeScope
  3
AcMeServices
 90
        0
280
     0
281
     0
  0
CLASS
  1
ACMECOMMANDHISTORY
  2
AcMeCommandHistory
  3
AcMeServices
 90
        0
280
     0
281
     0
  0
CLASS
  1
DICTIONARYVAR
  2
AcDbDictionaryVar
  3
AutoCAD 2000
 90
        0
280
     0
281
     0
  0
CLASS
  1
ACIMSYSVARMAN
  2
AcImSysVarManager
  3
AcMeServices
 90
        0
280
     0
281
     0
  0
CLASS
  1
ACIMREALSYSVAR
  2
AcImRealSysVar
  3
AcMeServices
 90
        0
280
     0
281
     0
  0
CLASS
  1
ACIMINTSYSVAR
  2
AcImIntSysVar
  3
AcMeServices
 90
        0
280
     0
281
     0
  0
CLASS
  1
ACMEDRAWINGMAN
  2
AcMeDrawingMan
  3
AcMeServices
 90
        0
280
     0
281
     0
  0
CLASS
  1
ACMEVIEW
  2
AcMeView
  3
AcMeServices
 90
        0
280
     0
281
     0
  0
CLASS
  1
ACDBENTITYCACHE
  2
AcMeEntityCache
  3
AcMeServices
 90
        0
280
     0
281
     0
  0
CLASS
  1
GSMANAGER
  2
AcMeGSManager
  3
AcMeServices
 90
        0
280
     0
281
     0
  0
CLASS
  1
AmdtInternalReactor
  2
AmdtInternalReactor
  3
AcMeServices
 90
        0
280
     0
281
     0
  0
CLASS
  1
ACMESTATEMGR
  2
AcMeStateMgr
  3
AcMeServices
 90
        0
280
     0
281
     0
  0
CLASS
  1
ACME_DATABASE
  2
AcMeDbDatabase
  3
AcMeServices
 90
        0
280
     0
281
     0
  0
CLASS
  1
ACRFINSADJUSTERMGR
  2
AcRfInsAdjusterMgr
  3
AcMeServices
 90
        0
280
     0
281
     0
  0
CLASS
  1
ACMDATADICTIONARY
  2
AcmDataDictionary
  3
"AcmSymBB|Product Description: AutoCAD Mechanical 2000|Company: Autodesk"
 90
        0
280
     0
281
     0
  0
CLASS
  1
ACMDATAENTRYBLOCK
  2
AcmDataEntryBlock
  3
"AcmSymBB|Product Description: AutoCAD Mechanical 2000|Company: Autodesk"
 90
        0
280
     0
281
     0
  0
CLASS
  1
AMGOBJPROPCFG
  2
AmgObjPropCfg
  3
"AmgLay|Product Description: AutoCAD Mechanical 2000|Company: Autodesk"
 90
        1
280
     0
281
     0
  0
CLASS
  1
ACAMGFILTERDAT
  2
AcAmgFilterDat
  3
"AcadM|Product Description: AutoCAD Mechanical 2000|Company: Autodesk"
 90
        0
280
     0
281
     0
  0
CLASS
  1
LAYER_INDEX
  2
AcDbLayerIndex
  3
AutoCAD 2000
 90
        0
280
     0
281
     0
  0
CLASS
  1
IDBUFFER
  2
AcDbIdBuffer
  3
AutoCAD 2000
 90
        0
280
     0
281
     0
  0
CLASS
  1
ACIMSTRSYSVAR
  2
AcImStrSysVar
  3
AcMeServices
 90
        0
280
     0
281
     0
  0
CLASS
  1
ACMSTANDARDJIS
  2
AcmStandardJIS
  3
"AcmSymBB|Product Description: AutoCAD Mechanical 2000|Company: Autodesk"
 90
        0
280
     0
281
     0
  0
CLASS
  1
ACMSURFSTANDARDJIS
  2
AcmSurfTextStdJIS
  3
"AcmSymBB|Product Description: AutoCAD Mechanical 2000|Company: Autodesk"
 90
        0
280
     0
281
     0
  0
CLASS
  1
ACMFCFSTANDARDJIS
  2
AcmFCFStdJIS
  3
"AcmSymBB|Product Description: AutoCAD Mechanical 2000|Company: Autodesk"
 90
        0
280
     0
281
     0
  0
CLASS
  1
ACMWELDSTANDARDJIS
  2
AcmWeldingStdJIS
  3
"AcmSymBB|Product Description: AutoCAD Mechanical 2000|Company: Autodesk"
 90
        0
280
     0
281
     0
  0
CLASS
  1
ACMIDSTANDARDJIS
  2
AcmIdStdJIS
  3
"AcmSymBB|Product Description: AutoCAD Mechanical 2000|Company: Autodesk"
 90
        0
280
     0
281
     0
  0
CLASS
  1
ACMDATUMSTANDARDJIS
  2
AcmDatumStdJIS
  3
"AcmSymBB|Product Description: AutoCAD Mechanical 2000|Company: Autodesk"
 90
        0
280
     0
281
     0
  0
CLASS
  1
ACMBOMSTANDARDJIS
  2
AcmBOMStdJIS
  3
"AcmSymBB|Product Description: AutoCAD Mechanical 2000|Company: Autodesk"
 90
        0
280
     0
281
     0
  0
CLASS
  1
ACMSTANDARDANSI
  2
AcmStandardANSI
  3
"AcmSymBB|Product Description: AutoCAD Mechanical 2000|Company: Autodesk"
 90
        0
280
     0
281
     0
  0
CLASS
  1
ACMSURFSTANDARDANSI
  2
AcmSurfTextStdANSI
  3
"AcmSymBB|Product Description: AutoCAD Mechanical 2000|Company: Autodesk"
 90
        0
280
     0
281
     0
  0
CLASS
  1
ACMFCFSTANDARDANSI
  2
AcmFCFStdANSI
  3
"AcmSymBB|Product Description: AutoCAD Mechanical 2000|Company: Autodesk"
 90
        0
280
     0
281
     0
  0
CLASS
  1
ACMWELDSTANDARDANSI
  2
AcmWeldingStdANSI
  3
"AcmSymBB|Product Description: AutoCAD Mechanical 2000|Company: Autodesk"
 90
        0
280
     0
281
     0
  0
CLASS
  1
ACMIDSTANDARDANSI
  2
AcmIdStdANSI
  3
"AcmSymBB|Product Description: AutoCAD Mechanical 2000|Company: Autodesk"
 90
        0
280
     0
281
     0
  0
CLASS
  1
ACMDATUMSTANDARDANSI
  2
AcmDatumStdANSI
  3
"AcmSymBB|Product Description: AutoCAD Mechanical 2000|Company: Autodesk"
 90
        0
280
     0
281
     0
  0
CLASS
  1
ACMBOMSTANDARDANSI
  2
AcmBOMStdANSI
  3
"AcmSymBB|Product Description: AutoCAD Mechanical 2000|Company: Autodesk"
 90
        0
280
     0
281
     0
  0
CLASS
  1
ACMSTANDARDBSI
  2
AcmStandardBSI
  3
"AcmSymBB|Product Description: AutoCAD Mechanical 2000|Company: Autodesk"
 90
        0
280
     0
281
     0
  0
CLASS
  1
ACMSURFSTANDARDBSI
  2
AcmSurfTextStdBSI
  3
"AcmSymBB|Product Description: AutoCAD Mechanical 2000|Company: Autodesk"
 90
        0
280
     0
281
     0
  0
CLASS
  1
ACMFCFSTANDARDBSI
  2
AcmFCFStdBSI
  3
"AcmSymBB|Product Description: AutoCAD Mechanical 2000|Company: Autodesk"
 90
        0
280
     0
281
     0
  0
CLASS
  1
ACMWELDSTANDARDBSI
  2
AcmWeldingStdBSI
  3
"AcmSymBB|Product Description: AutoCAD Mechanical 2000|Company: Autodesk"
 90
        0
280
     0
281
     0
  0
CLASS
  1
ACMIDSTANDARDBSI
  2
AcmIdStdBSI
  3
"AcmSymBB|Product Description: AutoCAD Mechanical 2000|Company: Autodesk"
 90
        0
280
     0
281
     0
  0
CLASS
  1
ACMDATUMSTANDARDBSI
  2
AcmDatumStdBSI
  3
"AcmSymBB|Product Description: AutoCAD Mechanical 2000|Company: Autodesk"
 90
        0
280
     0
281
     0
  0
CLASS
  1
ACMBOMSTANDARDBSI
  2
AcmBOMStdBSI
  3
"AcmSymBB|Product Description: AutoCAD Mechanical 2000|Company: Autodesk"
 90
        0
280
     0
281
     0
  0
CLASS
  1
LONG_TRANSACTION
  2
AcDbLongTransaction
  3
AutoCAD 2000
 90
        0
280
     0
281
     0
  0
CLASS
  1
LWPOLYLINE
  2
AcDbPolyline
  3
AutoCAD 2000
 90
        0
280
     0
281
     1
  0
CLASS
  1
HATCH
  2
AcDbHatch
  3
AutoCAD 2000
 90
        0
280
     0
281
     1
  0
CLASS
  1
XRECORD
  2
AcDbXrecord
  3
AutoCAD 2000
 90
        0
280
     0
281
     0
  0
ENDSEC
  0
SECTION
  2
TABLES
  0
TABLE
  2
VPORT
  5
8
330
0
100
AcDbSymbolTable
 70
     3
  0
VPORT
  5
2792
330
8
100
AcDbSymbolTableRecord
100
AcDbViewportTableRecord
  2
*ACTIVE
 70
     0
 10
0.0
 20
0.0
 11
1.0
 21
1.0
 12
-15.02146271195036
 22
-3.201867481497728
 13
0.0
 23
0.0
 14
2.5
 24
2.5
 15
10.0
 25
10.0
 16
0.0
 26
0.0
 36
1.0
 17
0.0
 27
0.0
 37
0.0
 40
73.98040141238173
 41
1.56570841889117
 42
50.0
 43
0.0
 44
0.0
 50
0.0
 51
0.0
 71
     0
 72
   100
 73
     1
 74
     3
 75
     0
 76
     0
 77
     0
 78
     0
  0
ENDTAB
  0
TABLE
  2
LTYPE
  5
5
330
0
100
AcDbSymbolTable
 70
    10
  0
LTYPE
  5
14
330
5
100
AcDbSymbolTableRecord
100
AcDbLinetypeTableRecord
  2
BYBLOCK
 70
     0
  3

 72
    65
 73
     0
 40
0.0
  0
LTYPE
  5
15
330
5
100
AcDbSymbolTableRecord
100
AcDbLinetypeTableRecord
  2
BYLAYER
 70
     0
  3

 72
    65
 73
     0
 40
0.0
  0
LTYPE
  5
16
330
5
100
AcDbSymbolTableRecord
100
AcDbLinetypeTableRecord
  2
CONTINUOUS
 70
     0
  3
Solid line
 72
    65
 73
     0
 40
0.0
  0
LTYPE
  5
4B
330
5
100
AcDbSymbolTableRecord
100
AcDbLinetypeTableRecord
  2
AM_ISO02W050
 70
     0
  3
__ __ __ __ __ __ __ __ __ __ __ __ __ __ __
 72
    65
 73
     2
 40
7.5
 49
6.0
 74
     0
 49
-1.5
 74
     0
  0
LTYPE
  5
4C
330
5
100
AcDbSymbolTableRecord
100
AcDbLinetypeTableRecord
  2
AM_ISO08W050
 70
     0
  3
____ . ____ . ____ . ____ . ____ . ____ . ____
 72
    65
 73
     4
 40
18.0
 49
12.0
 74
     0
 49
-1.5
 74
     0
 49
3.0
 74
     0
 49
-1.5
 74
     0
  0
LTYPE
  5
4D
330
5
100
AcDbSymbolTableRecord
100
AcDbLinetypeTableRecord
  2
AM_ISO09W050
 70
     0
  3
_____ . . _____ . . _____ . . ____ .. ____
 72
    65
 73
     6
 40
22.5
 49
12.0
 74
     0
 49
-1.5
 74
     0
 49
3.0
 74
     0
 49
-1.5
 74
     0
 49
3.0
 74
     0
 49
-1.5
 74
     0
  0
LTYPE
  5
4E
330
5
100
AcDbSymbolTableRecord
100
AcDbLinetypeTableRecord
  2
AMCONSTR
 70
     0
  3
_______________________
 72
    65
 73
     2
 40
9999.0
 49
9999.0
 74
     0
 49
0.0
 74
     0
  0
LTYPE
  5
4F
330
5
100
AcDbSymbolTableRecord
100
AcDbLinetypeTableRecord
  2
AM_ISO02W050X2
 70
     0
  3
 _ _ _ _ _ _ _ _ _ _ _ _
 72
    65
 73
     2
 40
3.75
 49
3.0
 74
     0
 49
-0.75
 74
     0
  0
LTYPE
  5
50
330
5
100
AcDbSymbolTableRecord
100
AcDbLinetypeTableRecord
  2
AM_ISO08W050X2
 70
     0
  3
__ . __ . __ . __ . __ . __
 72
    65
 73
     4
 40
9.0
 49
6.0
 74
     0
 49
-0.75
 74
     0
 49
1.5
 74
     0
 49
-0.75
 74
     0
  0
LTYPE
  5
53
330
5
100
AcDbSymbolTableRecord
100
AcDbLinetypeTableRecord
  2
AMZIGZAG
 70
     0
  3
/\/-/\/-/\/-/\/-/\/-/\/
 72
    65
 73
     2
 40
11.00009999999999
 49
0.0001
 74
     4
 75
   135
340
52
 46
0.04
 50
0.0
 44
0.0
 45
0.0
 49
-11.0
 74
     0
  0
LTYPE
  5
166
330
5
100
AcDbSymbolTableRecord
100
AcDbLinetypeTableRecord
  2
ACJISTGL
 70
     0
  3
_ _ _ _ _
 72
    65
 73
     2
 40
3.0
 49
2.0
 74
     0
 49
-1.0
 74
     0
  0
LTYPE
  5
26A
330
5
100
AcDbSymbolTableRecord
100
AcDbLinetypeTableRecord
  2
ACJISTGB
 70
     0
  3
__ . . __ . .
 72
    65
 73
     6
 40
9.0
 49
4.0
 74
     0
 49
-1.0
 74
     0
 49
1.0
 74
     0
 49
-1.0
 74
     0
 49
1.0
 74
     0
 49
-1.0
 74
     0
  0
ENDTAB
  0
TABLE
  2
LAYER
  5
2
330
0
100
AcDbSymbolTable
 70
     7
  0
LAYER
  5
10
330
2
100
AcDbSymbolTableRecord
100
AcDbLayerTableRecord
  2
0
 70
     0
 62
     7
  6
CONTINUOUS
  0
LAYER
  5
3F9
330
2
100
AcDbSymbolTableRecord
100
AcDbLayerTableRecord
  2
AM_0
 70
     0
 62
     7
  6
CONTINUOUS
  0
LAYER
  5
BD4
330
2
100
AcDbSymbolTableRecord
100
AcDbLayerTableRecord
  2
AM_11
 70
     0
 62
     3
  6
AM_ISO09W050
  0
LAYER
  5
BD5
330
2
100
AcDbSymbolTableRecord
100
AcDbLayerTableRecord
  2
AM_7
 70
     0
 62
     4
  6
AM_ISO08W050
  0
LAYER
  5
BD6
330
2
100
AcDbSymbolTableRecord
100
AcDbLayerTableRecord
  2
AM_5
 70
     0
 62
     3
  6
CONTINUOUS
  0
LAYER
  5
BD7
330
2
100
AcDbSymbolTableRecord
100
AcDbLayerTableRecord
  2
DEFPOINTS
 70
     0
 62
     7
  6
CONTINUOUS
  0
LAYER
  5
E59
330
2
100
AcDbSymbolTableRecord
100
AcDbLayerTableRecord
  2
AM_6
 70
     0
 62
     2
  6
CONTINUOUS
  0
ENDTAB
  0
TABLE
  2
STYLE
  5
3
330
0
100
AcDbSymbolTable
 70
     5
  0
STYLE
  5
11
330
3
100
AcDbSymbolTableRecord
100
AcDbTextStyleTableRecord
  2
STANDARD
 70
     0
 40
0.0
 41
1.0
 50
0.0
 71
     0
 42
2.5
  3
simplex.shx
  4
EXTFONT.SHX
  0
STYLE
  5
52
330
3
100
AcDbSymbolTableRecord
100
AcDbTextStyleTableRecord
  2

 70
     1
 40
0.0
 41
1.0
 50
0.0
 71
     0
 42
2.5
  3
ltypeshp.shx
  4

  0
STYLE
  5
6B
330
3
100
AcDbSymbolTableRecord
100
AcDbTextStyleTableRecord
  2
ASAMI
 70
     0
 40
0.0
 41
1.0
 50
0.0
 71
     0
 42
2.5
  3
simplex.shx
  4
EXTFONT.SHX
  0
STYLE
  5
262
330
3
100
AcDbSymbolTableRecord
100
AcDbTextStyleTableRecord
  2
ACJISTS
 70
     0
 40
1.0
 41
1.0
 50
0.0
 71
     0
 42
2.5
  3
simplex.shx
  4
bigfont.shx
  0
STYLE
  5
269
330
3
100
AcDbSymbolTableRecord
100
AcDbTextStyleTableRecord
  2
ACJISGDT
 70
     0
 40
0.0
 41
1.0
 50
0.0
 71
     0
 42
2.5
  3
amgdtans.shx
  4

  0
ENDTAB
  0
TABLE
  2
VIEW
  5
6
330
0
100
AcDbSymbolTable
 70
     0
  0
ENDTAB
  0
TABLE
  2
UCS
  5
7
330
0
100
AcDbSymbolTable
 70
     0
  0
ENDTAB
  0
TABLE
  2
APPID
  5
9
330
0
100
AcDbSymbolTable
 70
    12
  0
APPID
  5
12
330
9
100
AcDbSymbolTableRecord
100
AcDbRegAppTableRecord
  2
ACAD
 70
     0
  0
APPID
  5
30
330
9
100
AcDbSymbolTableRecord
100
AcDbRegAppTableRecord
  2
MCAD_NO_VIS
 70
     0
  0
APPID
  5
31
330
9
100
AcDbSymbolTableRecord
100
AcDbRegAppTableRecord
  2
ACAD_TEMP_GRAPHIC
 70
     0
  0
APPID
  5
2C2
330
9
100
AcDbSymbolTableRecord
100
AcDbRegAppTableRecord
  2
GENIUS_GENDTOL_13
 70
     0
  0
APPID
  5
339
330
9
100
AcDbSymbolTableRecord
100
AcDbRegAppTableRecord
  2
GENIUS_GENODEF_13
 70
     0
  0
APPID
  5
33A
330
9
100
AcDbSymbolTableRecord
100
AcDbRegAppTableRecord
  2
GENIUS_GENOBJ-N-RSBK_13
 70
     0
  0
APPID
  5
33B
330
9
100
AcDbSymbolTableRecord
100
AcDbRegAppTableRecord
  2
GENIUS_GENOBJ-N-LIB_13
 70
     0
  0
APPID
  5
33C
330
9
100
AcDbSymbolTableRecord
100
AcDbRegAppTableRecord
  2
GENIUS_GENSCALE_13
 70
     0
  0
APPID
  5
378
330
9
100
AcDbSymbolTableRecord
100
AcDbRegAppTableRecord
  2
GENIUS_GENDIMSH_14
 70
     0
  0
APPID
  5
BD8
330
9
100
AcDbSymbolTableRecord
100
AcDbRegAppTableRecord
  2
GENIUS_GENOBJ-N-CEN_13
 70
     0
  0
APPID
  5
BD9
330
9
100
AcDbSymbolTableRecord
100
AcDbRegAppTableRecord
  2
GENIUS_GENFIL_13
 70
     0
  0
APPID
  5
BDA
330
9
100
AcDbSymbolTableRecord
100
AcDbRegAppTableRecord
  2
GENIUS_GENOBJ-N-CHA_13
 70
     0
  0
ENDTAB
  0
TABLE
  2
DIMSTYLE
  5
A
330
0
100
AcDbSymbolTable
 70
     8
  0
DIMSTYLE
105
58
102
{ACAD_REACTORS
330
16EA
330
177A
330
1936
330
1E9D
102
}
330
A
100
AcDbSymbolTableRecord
100
AcDbDimStyleTableRecord
  2
AM_JIS
 70
     0
  3

  4
"
  5
OPEN30
  6

  7

 40
0.5
 41
2.5
 42
1.0
 43
12.0
 44
1.0
 45
0.0
 46
0.0
 47
0.1
 48
0.1
140
3.2
141
0.0
142
0.0
143
0.0393701
144
1.0
145
0.0
146
0.71
147
1.5
 71
     0
 72
     0
 73
     0
 74
     0
 75
     0
 76
     0
 77
     3
 78
     8
170
     0
171
     2
172
     1
173
     0
174
     0
175
     0
176
   256
177
   256
178
     2
270
     2
271
     3
272
     3
273
     2
274
     2
340
6B
275
     0
280
     0
281
     0
282
     0
283
     0
284
     0
285
     0
286
     0
287
     3
288
     0
  0
DIMSTYLE
105
5F
330
A
100
AcDbSymbolTableRecord
100
AcDbDimStyleTableRecord
  2
AM_JIS$3
 70
     0
  3

  4
"
  5
OPEN30
  6

  7

 40
0.5
 41
2.5
 42
1.0
 43
10.0
 44
1.0
 45
0.0
 46
0.0
 47
0.1
 48
0.1
140
3.2
141
0.0
142
0.0
143
0.0393701
144
1.0
145
0.0
146
0.71
147
1.5
 71
     0
 72
     0
 73
     0
 74
     1
 75
     0
 76
     0
 77
     3
 78
     8
170
     0
171
     2
172
     0
173
     0
174
     0
175
     0
176
   256
177
   256
178
     2
270
     2
271
     2
272
     3
273
     2
274
     2
340
6B
275
     0
280
     0
281
     0
282
     0
283
     0
284
     0
285
     0
286
     0
287
     0
288
     1
  0
DIMSTYLE
105
60
330
A
100
AcDbSymbolTableRecord
100
AcDbDimStyleTableRecord
  2
AM_JIS$4
 70
     0
  3

  4
"
  5
OPEN30
  6

  7

 40
0.5
 41
2.5
 42
1.0
 43
10.0
 44
1.0
 45
0.0
 46
0.0
 47
0.1
 48
0.1
140
3.2
141
0.0
142
0.0
143
0.0393701
144
1.0
145
0.0
146
0.71
147
1.5
 71
     0
 72
     0
 73
     0
 74
     1
 75
     0
 76
     0
 77
     3
 78
     8
170
     0
171
     2
172
     0
173
     0
174
     0
175
     0
176
   256
177
   256
178
     2
270
     2
271
     2
272
     3
273
     2
274
     2
340
6B
275
     0
280
     0
281
     0
282
     0
283
     0
284
     0
285
     0
286
     0
287
     0
288
     1
  0
DIMSTYLE
105
61
330
A
100
AcDbSymbolTableRecord
100
AcDbDimStyleTableRecord
  2
AM_JIS$6
 70
     0
  3

  4
"
  5
OPEN30
  6

  7

 40
0.5
 41
2.5
 42
1.0
 43
10.0
 44
1.0
 45
0.0
 46
0.0
 47
0.1
 48
0.1
140
3.2
141
0.0
142
0.0
143
0.0393701
144
1.0
145
0.0
146
0.71
147
1.5
 71
     0
 72
     0
 73
     0
 74
     0
 75
     0
 76
     0
 77
     0
 78
     8
170
     0
171
     2
172
     1
173
     0
174
     0
175
     0
176
   256
177
   256
178
     2
270
     2
271
     2
272
     2
273
     2
274
     2
340
6B
275
     0
280
     0
281
     0
282
     0
283
     0
284
     0
285
     0
286
     0
287
     3
288
     0
  0
DIMSTYLE
105
62
330
A
100
AcDbSymbolTableRecord
100
AcDbDimStyleTableRecord
  2
AM_JIS$7
 70
     0
  3

  4
"
  5
OPEN30
  6

  7

 40
0.5
 41
2.5
 42
1.0
 43
10.0
 44
1.0
 45
0.0
 46
0.0
 47
0.1
 48
0.1
140
3.2
141
0.0
142
0.0
143
0.0393701
144
1.0
145
0.0
146
0.71
147
1.5
 71
     0
 72
     0
 73
     0
 74
     0
 75
     0
 76
     0
 77
     3
 78
     8
170
     0
171
     2
172
     1
173
     0
174
     0
175
     0
176
   256
177
   256
178
     2
270
     2
271
     2
272
     3
273
     2
274
     2
340
6B
275
     0
280
     0
281
     0
282
     0
283
     0
284
     0
285
     0
286
     0
287
     3
288
     0
  0
DIMSTYLE
105
63
330
A
100
AcDbSymbolTableRecord
100
AcDbDimStyleTableRecord
  2
AM_JIS$SF
 70
     0
  3

  4
"
  5
OPEN30
  6

  7

 40
0.5
 41
2.5
 42
1.0
 43
10.0
 44
1.0
 45
0.0
 46
0.0
 47
0.1
 48
0.1
140
3.2
141
0.0
142
0.0
143
0.0393701
144
1.0
145
0.0
146
0.71
147
1.5
 71
     0
 72
     0
 73
     0
 74
     0
 75
     1
 76
     1
 77
     3
 78
     8
170
     0
171
     2
172
     1
173
     0
174
     0
175
     0
176
   256
177
   256
178
     2
270
     2
271
     2
272
     2
273
     2
274
     2
340
6B
275
     0
280
     0
281
     0
282
     0
283
     0
284
     0
285
     0
286
     0
287
     3
288
     0
  0
DIMSTYLE
105
68
330
A
100
AcDbSymbolTableRecord
100
AcDbDimStyleTableRecord
  2
AM_JIS$SH
 70
     0
  3

  4
"
  5

  6
GENAXEH
  7
OPEN30
 40
0.5
 41
2.5
 42
1.0
 43
10.0
 44
1.0
 45
0.0
 46
0.0
 47
0.1
 48
0.1
140
3.2
141
0.0
142
0.0
143
0.0393701
144
2.0
145
0.0
146
0.71
147
1.5
 71
     0
 72
     0
 73
     0
 74
     0
 75
     1
 76
     1
 77
     3
 78
     8
170
     0
171
     2
172
     1
173
     1
174
     0
175
     0
176
   256
177
   256
178
     2
270
     2
271
     2
272
     2
273
     2
274
     2
340
6B
275
     0
280
     0
281
     0
282
     0
283
     0
284
     0
285
     0
286
     0
287
     3
288
     0
  0
DIMSTYLE
105
B34
330
A
100
AcDbSymbolTableRecord
100
AcDbDimStyleTableRecord
  2
AM_JIS$2
 70
     0
  3

  4
"
  5
OPEN30
  6

  7

 40
0.5
 41
2.5
 42
1.0
 43
12.0
 44
1.0
 45
0.0
 46
0.0
 47
0.1
 48
0.1
140
3.2
141
0.0
142
0.0
143
0.0393701
144
1.0
145
0.0
146
0.71
147
1.5
 71
     0
 72
     0
 73
     0
 74
     0
 75
     0
 76
     0
 77
     3
 78
     8
170
     0
171
     2
172
     1
173
     0
174
     0
175
     0
176
   256
177
   256
178
     2
270
     2
271
     3
272
     3
273
     2
274
     2
340
6B
275
     0
280
     0
281
     0
282
     0
283
     0
284
     0
285
     0
286
     0
287
     3
288
     0
  0
ENDTAB
  0
TABLE
  2
BLOCK_RECORD
  5
1
330
0
100
AcDbSymbolTable
 70
     9
  0
BLOCK_RECORD
  5
1F
102
{ACAD_XDICTIONARY
360
74
102
}
330
1
100
AcDbSymbolTableRecord
100
AcDbBlockTableRecord
  2
*MODEL_SPACE
  0
BLOCK_RECORD
  5
101
102
{ACAD_XDICTIONARY
360
27BB
102
}
330
1
100
AcDbSymbolTableRecord
100
AcDbBlockTableRecord
  2
*PAPER_SPACE
  0
BLOCK_RECORD
  5
59
330
1
100
AcDbSymbolTableRecord
100
AcDbBlockTableRecord
  2
_OPEN30
  0
BLOCK_RECORD
  5
64
330
1
100
AcDbSymbolTableRecord
100
AcDbBlockTableRecord
  2
GENAXEH
  0
BLOCK_RECORD
  5
16EB
330
1
100
AcDbSymbolTableRecord
100
AcDbBlockTableRecord
  2
*D5
  0
BLOCK_RECORD
  5
177B
330
1
100
AcDbSymbolTableRecord
100
AcDbBlockTableRecord
  2
*D6
  0
BLOCK_RECORD
  5
1937
330
1
100
AcDbSymbolTableRecord
100
AcDbBlockTableRecord
  2
*D7
  0
BLOCK_RECORD
  5
1E9E
330
1
100
AcDbSymbolTableRecord
100
AcDbBlockTableRecord
  2
*D8
  0
ENDTAB
  0
ENDSEC
  0
SECTION
  2
BLOCKS
  0
BLOCK
  5
20
330
1F
100
AcDbEntity
  8
0
100
AcDbBlockBegin
  2
*MODEL_SPACE
 70
     0
 10
0.0
 20
0.0
 30
0.0
  3
*MODEL_SPACE
  1

  0
ENDBLK
  5
21
330
1F
100
AcDbEntity
  8
0
100
AcDbBlockEnd
  0
BLOCK
  5
103
330
101
100
AcDbEntity
 67
     1
  8
0
100
AcDbBlockBegin
  2
*PAPER_SPACE
 70
     0
 10
0.0
 20
0.0
 30
0.0
  3
*PAPER_SPACE
  1

  0
ENDBLK
  5
104
330
101
100
AcDbEntity
 67
     1
  8
0
100
AcDbBlockEnd
  0
BLOCK
  5
5D
330
59
100
AcDbEntity
  8
0
100
AcDbBlockBegin
  2
_OPEN30
 70
     0
 10
0.0
 20
0.0
 30
0.0
  3
_OPEN30
  1

  0
LINE
  5
5A
330
59
100
AcDbEntity
  8
0
 62
     0
100
AcDbLine
 10
-1.0
 20
0.26794919
 30
0.0
 11
0.0
 21
0.0
 31
0.0
  0
LINE
  5
5B
330
59
100
AcDbEntity
  8
0
 62
     0
100
AcDbLine
 10
0.0
 20
0.0
 30
0.0
 11
-1.0
 21
-0.26794919
 31
0.0
  0
LINE
  5
5C
330
59
100
AcDbEntity
  8
0
 62
     0
100
AcDbLine
 10
0.0
 20
0.0
 30
0.0
 11
-1.0
 21
0.0
 31
0.0
  0
ENDBLK
  5
5E
330
59
100
AcDbEntity
  8
0
100
AcDbBlockEnd
  0
BLOCK
  5
66
330
64
100
AcDbEntity
  8
0
100
AcDbBlockBegin
  2
GENAXEH
 70
     0
 10
0.0
 20
0.0
 30
0.0
  3
GENAXEH
  1

  0
LINE
  5
65
330
64
100
AcDbEntity
  8
0
100
AcDbLine
 10
-1.0
 20
0.0
 30
0.0
 11
1.0
 21
0.0
 31
0.0
  0
ENDBLK
  5
67
330
64
100
AcDbEntity
  8
0
100
AcDbBlockEnd
  0
BLOCK
  5
16F5
330
16EB
100
AcDbEntity
  8
0
100
AcDbBlockBegin
  2
*D5
 70
     1
 10
0.0
 20
0.0
 30
0.0
  3
*D5
  1

  0
LINE
  5
26E4
330
16EB
100
AcDbEntity
  8
AM_5
100
AcDbLine
 10
-0.0000000000013208
 20
-2.500000000000003
 30
0.0
 11
-0.0000000000013212
 21
-10.5000010000001
 31
0.0
  0
LINE
  5
26E5
330
16EB
100
AcDbEntity
  8
AM_5
100
AcDbLine
 10
-10.00000000000109
 20
-2.500000000000009
 30
0.0
 11
-10.00000000000109
 21
-10.5000010000001
 31
0.0
  0
LINE
  5
26E6
330
16EB
100
AcDbEntity
  8
AM_5
100
AcDbLine
 10
-1.250000000001321
 20
-10.0000010000001
 30
0.0
 11
-8.750000000001096
 21
-10.0000010000001
 31
0.0
  0
INSERT
  5
26E7
330
16EB
100
AcDbEntity
  8
AM_5
100
AcDbBlockReference
  2
_OPEN30
 10
-0.0000000000013212
 20
-10.0000010000001
 30
0.0
 41
1.25
 42
1.25
 43
1.25
  0
INSERT
  5
26E8
330
16EB
100
AcDbEntity
  8
AM_5
100
AcDbBlockReference
  2
_OPEN30
 10
-10.00000000000109
 20
-10.0000010000001
 30
0.0
 41
1.25
 42
1.25
 43
1.25
 50
180.0
  0
MTEXT
  5
26E9
330
16EB
100
AcDbEntity
  8
AM_5
 62
     2
100
AcDbMText
 10
-5.000000000001208
 20
-8.450001000000106
 30
0.0
 40
1.6
 41
0.0
 71
     5
 72
     1
  1
10
  7
ASAMI
1001
ACAD
1000
MTEXTBEGIN
1070
    73
1070
     1
1070
    44
1040
1.0
1070
    74
1070
     0
1000
MTEXTEND
  0
POINT
  5
26EA
330
16EB
100
AcDbEntity
  8
DEFPOINTS
 62
     0
100
AcDbPoint
 10
-0.0000000000013207
 20
-2.000000000000003
 30
0.0
  0
POINT
  5
26EB
330
16EB
100
AcDbEntity
  8
DEFPOINTS
 62
     0
100
AcDbPoint
 10
-10.00000000000109
 20
-2.000000000000009
 30
0.0
  0
POINT
  5
26EC
330
16EB
100
AcDbEntity
  8
DEFPOINTS
 62
     0
100
AcDbPoint
 10
-10.00000000000109
 20
-10.0000010000001
 30
0.0
  0
ENDBLK
  5
16F6
330
16EB
100
AcDbEntity
  8
0
100
AcDbBlockEnd
  0
BLOCK
  5
1785
330
177B
100
AcDbEntity
  8
0
100
AcDbBlockBegin
  2
*D6
 70
     1
 10
0.0
 20
0.0
 30
0.0
  3
*D6
  1

  0
LINE
  5
26ED
330
177B
100
AcDbEntity
  8
AM_5
100
AcDbLine
 10
-0.0000000000007301
 20
-2.500000000000003
 30
0.0
 11
-0.000000000000731
 21
-16.5000010000002
 31
0.0
  0
LINE
  5
26EE
330
177B
100
AcDbEntity
  8
AM_5
100
AcDbLine
 10
-45.0
 20
-3.000000000000131
 30
0.0
 11
-45.0
 21
-16.5000010000002
 31
0.0
  0
LINE
  5
26EF
330
177B
100
AcDbEntity
  8
AM_5
100
AcDbLine
 10
-1.25000000000073
 20
-16.0000010000002
 30
0.0
 11
-43.75
 21
-16.0000010000002
 31
0.0
  0
INSERT
  5
26F0
330
177B
100
AcDbEntity
  8
AM_5
100
AcDbBlockReference
  2
_OPEN30
 10
-0.0000000000007309
 20
-16.0000010000002
 30
0.0
 41
1.25
 42
1.25
 43
1.25
  0
INSERT
  5
26F1
330
177B
100
AcDbEntity
  8
AM_5
100
AcDbBlockReference
  2
_OPEN30
 10
-45.0
 20
-16.0000010000002
 30
0.0
 41
1.25
 42
1.25
 43
1.25
 50
180.0
  0
MTEXT
  5
26F2
330
177B
100
AcDbEntity
  8
AM_5
 62
     2
100
AcDbMText
 10
-22.50000000000036
 20
-14.4500010000002
 30
0.0
 40
1.6
 41
0.0
 71
     5
 72
     1
  1
45
  7
ASAMI
1001
ACAD
1000
MTEXTBEGIN
1070
    73
1070
     1
1070
    44
1040
1.0
1070
    74
1070
     0
1000
MTEXTEND
  0
POINT
  5
26F3
330
177B
100
AcDbEntity
  8
DEFPOINTS
 62
     0
100
AcDbPoint
 10
-0.0000000000007301
 20
-2.000000000000003
 30
0.0
  0
POINT
  5
26F4
330
177B
100
AcDbEntity
  8
DEFPOINTS
 62
     0
100
AcDbPoint
 10
-45.0
 20
-2.500000000000131
 30
0.0
  0
POINT
  5
26F5
330
177B
100
AcDbEntity
  8
DEFPOINTS
 62
     0
100
AcDbPoint
 10
-45.0
 20
-16.0000010000002
 30
0.0
  0
ENDBLK
  5
1786
330
177B
100
AcDbEntity
  8
0
100
AcDbBlockEnd
  0
BLOCK
  5
1943
330
1937
100
AcDbEntity
  8
0
100
AcDbBlockBegin
  2
*D7
 70
     1
 10
0.0
 20
0.0
 30
0.0
  3
*D7
  1

  0
LINE
  5
2153
330
1937
100
AcDbEntity
  8
AM_5
100
AcDbLine
 10
0.4999999999999999
 20
1.999999999999998
 30
0.0
 11
8.629789688840498
 21
1.999999999999995
 31
0.0
  0
LINE
  5
2154
330
1937
100
AcDbEntity
  8
AM_5
100
AcDbLine
 10
0.4999999999999254
 20
-2.000000000000003
 30
0.0
 11
8.629789688840498
 21
-2.000000000000005
 31
0.0
  0
LINE
  5
2155
330
1937
100
AcDbEntity
  8
AM_5
100
AcDbLine
 10
8.129789688840498
 20
0.749999999999996
 30
0.0
 11
8.129789688840498
 21
-0.7500000000000054
 31
0.0
  0
LINE
  5
2156
330
1937
100
AcDbEntity
  8
AM_5
100
AcDbLine
 10
8.129789688840498
 20
-2.000000000000005
 30
0.0
 11
8.129789688840496
 21
-7.340476190476195
 31
0.0
  0
INSERT
  5
2157
330
1937
100
AcDbEntity
  8
AM_5
100
AcDbBlockReference
  2
_OPEN30
 10
8.129789688840498
 20
1.999999999999996
 30
0.0
 41
1.25
 42
1.25
 43
1.25
 50
90.0
  0
INSERT
  5
2158
330
1937
100
AcDbEntity
  8
AM_5
100
AcDbBlockReference
  2
_OPEN30
 10
8.129789688840498
 20
-2.000000000000005
 30
0.0
 41
1.25
 42
1.25
 43
1.25
 50
270.0
  0
MTEXT
  5
2159
330
1937
100
AcDbEntity
  8
AM_5
 62
     2
100
AcDbMText
 10
6.579789688840497
 20
-5.295238095238098
 30
0.0
 40
1.6
 41
0.0
 71
     5
 72
     1
  1
%%c4
  7
ASAMI
 11
0.0000000000000001
 21
1.0
 31
0.0
1001
ACAD
1000
MTEXTBEGIN
1070
    73
1070
     1
1070
    44
1040
1.0
1070
    74
1070
     0
1000
MTEXTEND
  0
POINT
  5
215A
330
1937
100
AcDbEntity
  8
DEFPOINTS
 62
     0
100
AcDbPoint
 10
-0.0000000000000002
 20
1.999999999999998
 30
0.0
  0
POINT
  5
215B
330
1937
100
AcDbEntity
  8
DEFPOINTS
 62
     0
100
AcDbPoint
 10
-0.0000000000000746
 20
-2.000000000000003
 30
0.0
  0
POINT
  5
215C
330
1937
100
AcDbEntity
  8
DEFPOINTS
 62
     0
100
AcDbPoint
 10
8.129789688840498
 20
-2.000000000000005
 30
0.0
  0
ENDBLK
  5
1944
330
1937
100
AcDbEntity
  8
0
100
AcDbBlockEnd
  0
BLOCK
  5
1EA8
330
1E9E
100
AcDbEntity
  8
0
100
AcDbBlockBegin
  2
*D8
 70
     1
 10
0.0
 20
0.0
 30
0.0
  3
*D8
  1

  0
LINE
  5
26FF
330
1E9E
100
AcDbEntity
  8
AM_5
100
AcDbLine
 10
-45.0
 20
2.999999999999869
 30
0.0
 11
-54.56123869649855
 21
2.999999999999871
 31
0.0
  0
LINE
  5
2700
330
1E9E
100
AcDbEntity
  8
AM_5
100
AcDbLine
 10
-45.0
 20
-3.00000000000013
 30
0.0
 11
-54.56123869649855
 21
-3.000000000000128
 31
0.0
  0
LINE
  5
2701
330
1E9E
100
AcDbEntity
  8
AM_5
100
AcDbLine
 10
-54.06123869649856
 20
1.749999999999871
 30
0.0
 11
-54.06123869649856
 21
-1.750000000000128
 31
0.0
  0
INSERT
  5
2702
330
1E9E
100
AcDbEntity
  8
AM_5
100
AcDbBlockReference
  2
_OPEN30
 10
-54.06123869649856
 20
2.999999999999871
 30
0.0
 41
1.25
 42
1.25
 43
1.25
 50
90.0
  0
INSERT
  5
2703
330
1E9E
100
AcDbEntity
  8
AM_5
100
AcDbBlockReference
  2
_OPEN30
 10
-54.06123869649856
 20
-3.000000000000128
 30
0.0
 41
1.25
 42
1.25
 43
1.25
 50
270.0
  0
MTEXT
  5
2704
330
1E9E
100
AcDbEntity
  8
AM_5
 62
     2
100
AcDbMText
 10
-55.61123869649855
 20
-0.0000000000001368
 30
0.0
 40
1.6
 41
0.0
 71
     5
 72
     1
  1
%%c6
  7
ASAMI
 11
0.0000000000000001
 21
1.0
 31
0.0
1001
ACAD
1000
MTEXTBEGIN
1070
    73
1070
     1
1070
    44
1040
1.0
1070
    74
1070
     0
1000
MTEXTEND
  0
POINT
  5
2705
330
1E9E
100
AcDbEntity
  8
DEFPOINTS
 62
     0
100
AcDbPoint
 10
-44.5
 20
2.999999999999868
 30
0.0
  0
POINT
  5
2706
330
1E9E
100
AcDbEntity
  8
DEFPOINTS
 62
     0
100
AcDbPoint
 10
-44.5
 20
-3.000000000000131
 30
0.0
  0
POINT
  5
2707
330
1E9E
100
AcDbEntity
  8
DEFPOINTS
 62
     0
100
AcDbPoint
 10
-54.06123869649856
 20
-3.000000000000128
 30
0.0
  0
ENDBLK
  5
1EA9
330
1E9E
100
AcDbEntity
  8
0
100
AcDbBlockEnd
  0
ENDSEC
  0
SECTION
  2
ENTITIES
  0
TEXT
  5
E5A
330
1F
100
AcDbEntity
  8
AM_6
100
AcDbText
 10
-33.0952380952385
 20
-27.2500010000002
 30
0.0
 40
2.5
  1
SSM4040ZX
 72
     4
 11
-22.5000000000004
 21
-26.0000010000002
 31
0.0
100
AcDbText
  0
LINE
  5
13DC
330
1F
100
AcDbEntity
  8
AM_7
  6
AM_ISO08W050X2
100
AcDbLine
 10
1.129788688840505
 20
-0.000000000000095
 30
0.0
 11
-47.06123769649856
 21
-0.0000000000001306
 31
0.0
1001
GENIUS_GENODEF_13
1002
{
1000
HIER
1070
     0
1002
}
1002
{
1000
MANEDIT
1070
     0
1002
}
1002
{
1000
NOSEL
1070
     0
1002
}
1002
{
1000
BEHIND
1070
     0
1002
}
1002
{
1000
REACTOR
1002
}
1001
GENIUS_GENOBJ-N-CEN_13
1002
{
1000
OWNER
1000
GEN
1002
}
  0
DIMENSION
  5
16EA
330
1F
100
AcDbEntity
  8
AM_5
100
AcDbDimension
  2
*D5
 10
-10.00000000000109
 20
-10.0000010000001
 30
0.0
 11
-5.000000000001208
 21
-8.450001000000106
 31
0.0
 70
    32
  1
<>
  3
AM_JIS
100
AcDbAlignedDimension
 13
-0.0000000000013207
 23
-2.000000000000003
 33
0.0
 14
-10.00000000000109
 24
-2.000000000000009
 34
0.0
 50
0.0000000000001641
100
AcDbRotatedDimension
1001
GENIUS_GENDTOL_13
1000

1000
h7
1000

1040
0.0
  0
DIMENSION
  5
177A
330
1F
100
AcDbEntity
  8
AM_5
100
AcDbDimension
  2
*D6
 10
-45.0
 20
-16.0000010000002
 30
0.0
 11
-22.50000000000036
 21
-14.4500010000002
 31
0.0
 70
    32
  1
<>
  3
AM_JIS
100
AcDbAlignedDimension
 13
-0.0000000000007301
 23
-2.000000000000003
 33
0.0
 14
-45.0
 24
-2.500000000000131
 34
0.0
 50
0.0000000000001641
100
AcDbRotatedDimension
1001
GENIUS_GENDTOL_13
1000

1000
h7
1000

1040
0.0
  0
DIMENSION
  5
1936
330
1F
100
AcDbEntity
  8
AM_5
100
AcDbDimension
  2
*D7
 10
8.129789688840498
 20
-2.000000000000005
 30
0.0
 11
6.579789688840497
 21
-5.295238095238098
 31
0.0
 70
    32
  1
%%c<>
  3
AM_JIS
100
AcDbAlignedDimension
 13
-0.0000000000000002
 23
1.999999999999998
 33
0.0
 14
-0.0000000000000746
 24
-2.000000000000003
 34
0.0
 50
90.00000000000003
100
AcDbRotatedDimension
1001
GENIUS_GENDTOL_13
1000

1000
h7
1000

1040
0.0
  0
LINE
  5
1E37
330
1F
100
AcDbEntity
  8
AM_0
100
AcDbLine
 10
-0.4313229081802198
 20
1.066856325604157
 30
0.0
 11
-0.9521503963725553
 21
1.203381369011225
 31
0.0
  0
LINE
  5
1E38
330
1F
100
AcDbEntity
  8
AM_0
100
AcDbLine
 10
-0.0000000000000813
 20
-0.0000000000000032
 30
0.0
 11
-0.0424242424243167
 21
0.4000000000000436
 31
0.0
  0
LINE
  5
1E39
330
1F
100
AcDbEntity
  8
AM_0
100
AcDbLine
 10
-0.3476597921985297
 20
-0.5894619060666205
 30
0.0
 11
-0.0424242424243167
 21
-0.5307591418252759
 31
0.0
  0
LINE
  5
1E3A
330
1F
100
AcDbEntity
  8
AM_0
100
AcDbLine
 10
-0.0424242424243167
 20
-0.5307591418252759
 30
0.0
 11
-0.0000000000000813
 21
-0.4000000000000057
 31
0.0
  0
LINE
  5
1E3B
330
1F
100
AcDbEntity
  8
AM_0
100
AcDbLine
 10
-0.0000000000000813
 20
-0.0000000000000032
 30
0.0
 11
-0.0358960036946117
 21
-0.3384480348343036
 31
0.0
  0
LINE
  5
1E3C
330
1F
100
AcDbEntity
  8
AM_0
100
AcDbLine
 10
-0.0000000000000813
 20
-0.4000000000000057
 30
0.0
 11
-0.2332728360363039
 21
0.0000000000000221
 31
0.0
  0
LINE
  5
1E3D
330
1F
100
AcDbEntity
  8
AM_0
100
AcDbLine
 10
-0.9521503963725553
 20
-0.0000000000000032
 30
0.0
 11
-0.9521503963725553
 21
-0.3200000000000089
 31
0.0
  0
LINE
  5
1E3E
330
1F
100
AcDbEntity
  8
AM_0
100
AcDbLine
 10
-0.9521503963725553
 20
-0.3200000000000089
 30
0.0
 11
-0.3476597921985297
 21
-0.5894619060666205
 31
0.0
  0
LINE
  5
1E3F
330
1F
100
AcDbEntity
  8
AM_0
100
AcDbLine
 10
-0.9521503963725553
 20
-0.3200000000000089
 30
0.0
 11
-0.0466545672073195
 21
-0.3200000000000089
 31
0.0
  0
LINE
  5
1E40
330
1F
100
AcDbEntity
  8
AM_0
100
AcDbLine
 10
-0.0000000000000813
 20
-0.0000000000000032
 30
0.0
 11
-0.9521503963725553
 21
-0.0000000000000032
 31
0.0
  0
LINE
  5
1E41
330
1F
100
AcDbEntity
  8
AM_0
100
AcDbLine
 10
-0.000000000000075
 20
-2.000000000000003
 30
0.0
 11
-0.0424242424243167
 21
-1.89337646304873
 31
0.0
  0
LINE
  5
1E42
330
1F
100
AcDbEntity
  8
AM_0
100
AcDbLine
 10
-0.0424242424243167
 20
-1.893376463048712
 30
0.0
 11
-0.276767676767759
 21
-1.599046662184766
 31
0.0
  0
ELLIPSE
  5
1E43
330
1F
100
AcDbEntity
  8
AM_0
100
AcDbEllipse
 10
0.8022921947583851
 20
-1.017552065887163
 30
0.0
 11
1.228564895158
 21
0.0000000000003403
 31
0.0
210
0.0
220
0.0
230
1.0
 40
0.989999999999987
 41
2.781920908098436
 42
3.640074865084939
  0
LINE
  5
1E44
330
1F
100
AcDbEntity
  8
AM_0
100
AcDbLine
 10
-0.000000000000075
 20
-2.000000000000003
 30
0.0
 11
-0.0000000000000813
 21
-0.4000000000000057
 31
0.0
  0
LINE
  5
1E46
330
1F
100
AcDbEntity
  8
AM_0
100
AcDbLine
 10
-0.0424242424243167
 20
0.4000000000000436
 30
0.0
 11
-0.4313229081802198
 21
1.066856325604157
 31
0.0
  0
LINE
  5
1E47
330
1F
100
AcDbEntity
  8
AM_0
100
AcDbLine
 10
-0.0000000000000813
 20
-0.0000000000000032
 30
0.0
 11
-0.0000000000000813
 21
1.999999999999998
 31
0.0
  0
LINE
  5
1E4C
330
1F
100
AcDbEntity
  8
AM_11
100
AcDbLine
 10
-10.00000000000109
 20
1.999999999999991
 30
0.0
 11
-10.00000000000109
 21
-2.000000000000009
 31
0.0
  0
LINE
  5
1E4D
330
1F
100
AcDbEntity
  8
AM_11
100
AcDbLine
 10
-0.0000000000003908
 20
1.999999999999998
 30
0.0
 11
-10.00000000000109
 21
1.999999999999992
 31
0.0
  0
LINE
  5
1E6D
330
1F
100
AcDbEntity
  8
AM_11
100
AcDbLine
 10
-10.00000000000109
 20
-2.000000000000009
 30
0.0
 11
-0.000000000000075
 21
-2.000000000000003
 31
0.0
  0
SPLINE
  5
1E70
330
1F
100
AcDbEntity
  8
AM_0
100
AcDbSpline
210
0.0
220
0.0
230
1.0
 70
     8
 71
     3
 72
     8
 73
     4
 74
     0
 42
0.0000000001
 43
0.0000000001
 40
0.0
 40
0.0
 40
0.0
 40
0.0
 40
5.635889483499305
 40
5.635889483499305
 40
5.635889483499305
 40
5.635889483499305
 10
-5.49494949494965
 20
2.000000000000042
 30
0.0
 10
-6.253991849629698
 20
2.000000000000042
 30
0.0
 10
-6.985834041954185
 20
1.84871761159169
 30
0.0
 10
-7.814953837979334
 20
1.608322636916084
 30
0.0
  0
SPLINE
  5
1E78
330
1F
100
AcDbEntity
  8
AM_0
100
AcDbSpline
210
0.0
220
0.0
230
1.0
 70
     8
 71
     3
 72
     8
 73
     4
 74
     0
 42
0.0000000001
 43
0.0000000001
 40
0.0
 40
0.0
 40
0.0
 40
0.0
 40
2.586565323616708
 40
2.586565323616708
 40
2.586565323616708
 40
2.586565323616708
 10
-0.0000000000000813
 20
1.629881074673591
 30
0.0
 10
-0.2235423759608647
 20
1.365377278460404
 30
0.0
 10
-0.6072402039257357
 20
1.251789518769748
 30
0.0
 10
-0.9521503963725553
 20
1.203381369011238
 30
0.0
  0
SPLINE
  5
1E79
330
1F
100
AcDbEntity
  8
AM_0
100
AcDbSpline
210
0.0
220
0.0
230
1.0
 70
     8
 71
     3
 72
     8
 73
     4
 74
     0
 42
0.0000000001
 43
0.0000000001
 40
0.0
 40
0.0
 40
0.0
 40
0.0
 40
5.635889483499127
 40
5.635889483499127
 40
5.635889483499127
 40
5.635889483499127
 10
-0.0000000000000813
 20
1.999999999999998
 30
0.0
 10
-0.7590423546800915
 20
1.999999999999998
 30
0.0
 10
-1.490884547004572
 20
1.848717611591658
 30
0.0
 10
-2.206106090118805
 20
1.604994175348499
 30
0.0
  0
SPLINE
  5
1E7B
330
1F
100
AcDbEntity
  8
AM_0
100
AcDbSpline
210
0.0
220
0.0
230
1.0
 70
     8
 71
     3
 72
     8
 73
     4
 74
     0
 42
0.0000000001
 43
0.0000000001
 40
0.7142832446738512
 40
0.7142832446738512
 40
0.7142832446738512
 40
0.7142832446738512
 40
9.361146747480315
 40
9.361146747480315
 40
9.361146747480315
 40
9.361146747480315
 10
-4.645336807695377
 20
1.938338169138337
 30
0.0
 10
-2.534608498540066
 20
1.786313375588632
 30
0.0
 10
-1.432097515736655
 20
1.414307953119857
 30
0.0
 10
-0.3490283655071372
 20
0.9257433797923763
 30
0.0
  0
SPLINE
  5
1E7C
330
1F
100
AcDbEntity
  8
AM_0
100
AcDbSpline
210
0.0
220
0.0
230
1.0
 70
     8
 71
     3
 72
     8
 73
     4
 74
     0
 42
0.0000000001
 43
0.0000000001
 40
4.542668862435135
 40
4.542668862435135
 40
4.542668862435135
 40
4.542668862435135
 40
14.36247867694493
 40
14.36247867694493
 40
14.36247867694493
 40
14.36247867694493
 10
-0.2767676767671969
 20
-1.599046662182644
 30
0.0
 10
-1.54321609569929
 20
-1.262802274629137
 30
0.0
 10
-2.760432960783973
 20
-0.6314011373145611
 30
0.0
 10
-3.97764982586865
 20
0.0000000000000221
 30
0.0
  0
SPLINE
  5
1E7E
330
1F
100
AcDbEntity
  8
AM_0
100
AcDbSpline
210
0.0
220
0.0
230
1.0
 70
     8
 71
     3
 72
     8
 73
     4
 74
     0
 42
0.0000000001
 43
0.0000000001
 40
0.0
 40
0.0
 40
0.0
 40
0.0
 40
14.48999654934395
 40
14.48999654934395
 40
14.48999654934395
 40
14.48999654934395
 10
-5.494949494949567
 20
2.000000000000042
 30
0.0
 10
-3.543434808169238
 20
2.000000000000042
 30
0.0
 10
-1.771717404084659
 20
1.000000000000047
 30
0.0
 10
-0.0000000000000813
 20
0.0000000000000474
 30
0.0
  0
SPLINE
  5
1E7F
330
1F
100
AcDbEntity
  8
AM_0
100
AcDbSpline
210
0.0
220
0.0
230
1.0
 70
     8
 71
     3
 72
     8
 73
     4
 74
     0
 42
0.0000000001
 43
0.0000000001
 40
0.0
 40
0.0
 40
0.0
 40
0.0
 40
14.48999654934397
 40
14.48999654934397
 40
14.48999654934397
 40
14.48999654934397
 10
-0.000000000000075
 20
-2.000000000000003
 30
0.0
 10
-1.951514686780404
 20
-2.000000000000003
 30
0.0
 10
-3.723232090864989
 20
-1.000000000000003
 30
0.0
 10
-5.494949494949567
 20
-0.0000000000000032
 30
0.0
  0
LINE
  5
1E97
330
1F
100
AcDbEntity
  8
AM_0
100
AcDbLine
 10
-44.5
 20
2.999999999999868
 30
0.0
 11
-17.5
 21
2.999999999999871
 31
0.0
  0
LINE
  5
1E98
330
1F
100
AcDbEntity
  8
AM_0
100
AcDbLine
 10
-17.5
 20
-3.000000000000128
 30
0.0
 11
-44.5
 21
-3.000000000000131
 31
0.0
  0
LINE
  5
1E9B
330
1F
100
AcDbEntity
  8
AM_0
100
AcDbLine
 10
-45.0
 20
-2.500000000000131
 30
0.0
 11
-45.0
 21
2.499999999999868
 31
0.0
  0
DIMENSION
  5
1E9D
330
1F
100
AcDbEntity
  8
AM_5
100
AcDbDimension
  2
*D8
 10
-54.06123869649856
 20
-3.000000000000128
 30
0.0
 11
-55.61123869649855
 21
-0.0000000000001368
 31
0.0
 70
    32
  1
%%c<>
  3
AM_JIS
100
AcDbAlignedDimension
 13
-44.5
 23
2.999999999999868
 33
0.0
 14
-44.5
 24
-3.000000000000131
 34
0.0
 50
270.0
100
AcDbRotatedDimension
1001
GENIUS_GENDTOL_13
1000

1000
h7
1000

1040
0.0
  0
LINE
  5
1EC7
330
1F
100
AcDbEntity
  8
AM_0
100
AcDbLine
 10
-44.5
 20
2.999999999999868
 30
0.0
 11
-45.0
 21
2.499999999999868
 31
0.0
1001
GENIUS_GENFIL_13
1070
     0
1040
0.5
1040
0.5
1040
20.0
1040
0.0
1002
{
1002
}
1001
GENIUS_GENODEF_13
1002
{
1000
HIER
1070
     0
1002
}
1002
{
1000
MANEDIT
1070
     0
1002
}
1002
{
1000
NOSEL
1070
     0
1002
}
1002
{
1000
BEHIND
1070
     0
1002
}
1002
{
1000
REACTOR
1002
}
1001
GENIUS_GENOBJ-N-CHA_13
1002
{
1000
OWNER
1000
GEN
1002
}
  0
LINE
  5
1EDE
330
1F
100
AcDbEntity
  8
AM_0
100
AcDbLine
 10
-44.5
 20
-3.000000000000131
 30
0.0
 11
-45.0
 21
-2.500000000000131
 31
0.0
1001
GENIUS_GENFIL_13
1070
     0
1040
0.5
1040
0.5
1040
20.0
1040
0.0
1002
{
1002
}
1001
GENIUS_GENODEF_13
1002
{
1000
HIER
1070
     0
1002
}
1002
{
1000
MANEDIT
1070
     0
1002
}
1002
{
1000
NOSEL
1070
     0
1002
}
1002
{
1000
BEHIND
1070
     0
1002
}
1002
{
1000
REACTOR
1002
}
1001
GENIUS_GENOBJ-N-CHA_13
1002
{
1000
OWNER
1000
GEN
1002
}
  0
LINE
  5
1EDF
330
1F
100
AcDbEntity
  8
AM_0
100
AcDbLine
 10
-44.5
 20
2.999999999999868
 30
0.0
 11
-44.5
 21
-3.000000000000131
 31
0.0
  0
LINE
  5
1F24
330
1F
100
AcDbEntity
  8
AM_0
100
AcDbLine
 10
-17.5
 20
-3.000000000000128
 30
0.0
 11
-17.5
 21
2.999999999999871
 31
0.0
  0
LINE
  5
1F4D
330
1F
100
AcDbEntity
  8
AM_0
100
AcDbLine
 10
-17.5
 20
2.999999999999871
 30
0.0
 11
-13.76794919243119
 21
1.99999999999989
 31
0.0
  0
LINE
  5
1F4E
330
1F
100
AcDbEntity
  8
AM_0
100
AcDbLine
 10
-13.7679491924307
 20
1.99999999999989
 30
0.0
 11
-13.76794919243069
 21
-2.000000000000016
 31
0.0
  0
LINE
  5
1F4F
330
1F
100
AcDbEntity
  8
AM_0
100
AcDbLine
 10
-13.76794919243069
 20
-2.000000000000016
 30
0.0
 11
-17.5
 21
-3.000000000000128
 31
0.0
  0
LINE
  5
1F50
330
1F
100
AcDbEntity
  8
AM_0
100
AcDbLine
 10
-13.76794919243069
 20
-2.000000000000015
 30
0.0
 11
-11.84741718706412
 21
-2.000000000000009
 31
0.0
  0
LINE
  5
1F51
330
1F
100
AcDbEntity
  8
AM_0
100
AcDbLine
 10
-13.76794919243119
 20
1.99999999999989
 30
0.0
 11
-11.05399474160083
 21
1.99999999999989
 31
0.0
  0
SPLINE
  5
2525
330
1F
100
AcDbEntity
  8
AM_0
100
AcDbSpline
210
0.0
220
0.0
230
1.0
 70
     8
 71
     3
 72
     8
 73
     4
 74
     0
 42
0.0000000001
 43
0.0000000001
 40
0.0
 40
0.0
 40
0.0
 40
0.0
 40
4.451443990518192
 40
4.451443990518192
 40
4.451443990518192
 40
4.451443990518192
 10
-11.00000000000112
 20
-1.852123360296576
 30
0.0
 10
-9.984347462208647
 20
-1.846977801521179
 30
0.0
 10
-9.405470352342129
 20
-1.758267365699079
 30
0.0
 10
-8.836701826620108
 20
-1.608341019569489
 30
0.0
  0
POLYLINE
  5
2526
330
1F
100
AcDbEntity
  8
AM_0
100
AcDb2dPolyline
 66
     1
 10
0.0
 20
0.0
 30
0.0
 70
     2
  0
VERTEX
  5
2527
330
2526
100
AcDbEntity
  8
AM_0
100
AcDbVertex
100
AcDb2dVertex
 10
-11.00000000000111
 20
-1.852123360296576
 30
0.0
 42
-0.0230918143391583
  0
VERTEX
  5
2528
330
2526
100
AcDbEntity
  8
AM_0
100
AcDbVertex
100
AcDb2dVertex
 10
-11.23060709812208
 20
-1.793680502859944
 30
0.0
 42
-0.0355587143075394
 70
     1
  0
VERTEX
  5
2529
330
2526
100
AcDbEntity
  8
AM_0
100
AcDbVertex
100
AcDb2dVertex
 10
-11.37500000000111
 20
-1.738427400303375
 30
0.0
 42
-0.0216088548285507
  0
VERTEX
  5
252A
330
2526
100
AcDbEntity
  8
AM_0
100
AcDbVertex
100
AcDb2dVertex
 10
-11.71188968913813
 20
-1.563139137473707
 30
0.0
 42
-0.0414110700152503
 70
     1
  0
VERTEX
  5
252B
330
2526
100
AcDbEntity
  8
AM_0
100
AcDbVertex
100
AcDb2dVertex
 10
-11.87500000000111
 20
-1.450166607335748
 30
0.0
 42
-0.0653031023268945
  0
VERTEX
  5
252C
330
2526
100
AcDbEntity
  8
AM_0
100
AcDbVertex
100
AcDb2dVertex
 10
-11.98007012398462
 20
-1.337798791525886
 30
0.0
 42
-0.1569363594221426
 70
     1
  0
VERTEX
  5
252D
330
2526
100
AcDbEntity
  8
AM_0
100
AcDbVertex
100
AcDb2dVertex
 10
-12.00000000000111
 20
-1.275601774361308
 30
0.0
 42
-0.1617045000652558
  0
VERTEX
  5
252E
330
2526
100
AcDbEntity
  8
AM_0
100
AcDbVertex
100
AcDb2dVertex
 10
-11.97972586792408
 20
-1.214804130593523
 30
0.0
 42
-0.0680210806811403
 70
     1
  0
VERTEX
  5
252F
330
2526
100
AcDbEntity
  8
AM_0
100
AcDbVertex
100
AcDb2dVertex
 10
-11.87500000000111
 20
-1.108589206031285
 30
0.0
 42
-0.0450747416233525
  0
VERTEX
  5
2530
330
2526
100
AcDbEntity
  8
AM_0
100
AcDbVertex
100
AcDb2dVertex
 10
-11.71342499721585
 20
-1.005812665470773
 30
0.0
 42
-0.0231467319857815
 70
     1
  0
VERTEX
  5
2531
330
2526
100
AcDbEntity
  8
AM_0
100
AcDbVertex
100
AcDb2dVertex
 10
-11.37500000000111
 20
-0.8505374716414193
 30
0.0
 42
-0.0364444523572374
  0
VERTEX
  5
2532
330
2526
100
AcDbEntity
  8
AM_0
100
AcDbVertex
100
AcDb2dVertex
 10
-11.22802351442574
 20
-0.8032914794078065
 30
0.0
 42
-0.0242139410122645
 70
     1
  0
VERTEX
  5
2533
330
2526
100
AcDbEntity
  8
AM_0
100
AcDbVertex
100
AcDb2dVertex
 10
-11.00000000000111
 20
-0.7594983055815332
 30
0.0
  0
SEQEND
  5
2534
330
2526
100
AcDbEntity
  8
AM_0
  0
ARC
  5
2535
330
1F
100
AcDbEntity
  8
AM_0
100
AcDbCircle
 10
-12.07585842858394
 20
1.811127505859051
 30
0.0
 40
3.81796781897682
100
AcDbArc
 50
273.4302387719779
 51
286.3669614370606
  0
ARC
  5
2536
330
1F
100
AcDbEntity
  8
AM_0
100
AcDbCircle
 10
-12.07282387637713
 20
-5.315602542379582
 30
0.0
 40
4.680709015340682
100
AcDbArc
 50
63.71451956009246
 51
76.74995547900961
  0
LINE
  5
2538
330
1F
100
AcDbEntity
  8
AM_0
100
AcDbLine
 10
-10.00000000000109
 20
-0.3014768650555699
 30
0.0
 11
-10.00000000000111
 21
-1.118885007946604
 31
0.0
  0
SPLINE
  5
2539
330
1F
100
AcDbEntity
  8
AM_0
100
AcDbSpline
210
0.0
220
0.0
230
1.0
 70
     8
 71
     3
 72
     8
 73
     4
 74
     0
 42
0.0000000001
 43
0.0000000001
 40
0.0
 40
0.0
 40
0.0
 40
0.0
 40
12.79333816032526
 40
12.79333816032526
 40
12.79333816032526
 40
12.79333816032526
 10
-5.137873327611082
 20
-1.84697780152113
 30
0.0
 10
-6.843651748987785
 20
-1.84697780152113
 30
0.0
 10
-8.428435382115372
 20
-1.114253416062719
 30
0.0
 10
-10.00000000000108
 20
-0.3014768650555082
 30
0.0
  0
SPLINE
  5
253A
330
1F
100
AcDbEntity
  8
AM_0
100
AcDbSpline
210
0.0
220
0.0
230
1.0
 70
     8
 71
     3
 72
     8
 73
     4
 74
     0
 42
0.0000000001
 43
0.0000000001
 40
0.0
 40
0.0
 40
0.0
 40
0.0
 40
9.068166399416787
 40
9.068166399416787
 40
9.068166399416787
 40
9.068166399416787
 10
-6.640000000001194
 20
-2.000000000000059
 30
0.0
 10
-7.849088853256764
 20
-2.000000000000059
 30
0.0
 10
-8.988463591927494
 20
-1.608346152374262
 30
0.0
 10
-10.1017528800569
 20
-1.070144261609807
 30
0.0
  0
SPLINE
  5
253C
330
1F
100
AcDbEntity
  8
AM_0
100
AcDbSpline
210
0.0
220
0.0
230
1.0
 70
     8
 71
     3
 72
     8
 73
     4
 74
     0
 42
0.0000000001
 43
0.0000000001
 40
0.0
 40
0.0
 40
0.0
 40
0.0
 40
2.764560748519282
 40
2.764560748519282
 40
2.764560748519282
 40
2.764560748519282
 10
-5.941820487203349
 20
-1.940113468134259
 30
0.0
 10
-5.573212387400785
 20
-1.940113468134259
 30
0.0
 10
-5.210755750449987
 20
-1.904552459404118
 30
0.0
 10
-4.853272789031748
 20
-1.840239115937346
 30
0.0
  0
SPLINE
  5
253D
330
1F
100
AcDbEntity
  8
AM_0
100
AcDbSpline
210
0.0
220
0.0
230
1.0
 70
     8
 71
     3
 72
     8
 73
     4
 74
     0
 42
0.0000000001
 43
0.0000000001
 40
0.0
 40
0.0
 40
0.0
 40
0.0
 40
4.451443990518192
 40
4.451443990518192
 40
4.451443990518192
 40
4.451443990518192
 10
-5.137873327611082
 20
-1.846977801521172
 30
0.0
 10
-4.54434746220865
 20
-1.846977801521179
 30
0.0
 10
-3.965470352342131
 20
-1.758267365699071
 30
0.0
 10
-2.814658288375017
 20
-1.375099261126405
 30
0.0
  0
SPLINE
  5
253E
330
1F
100
AcDbEntity
  8
AM_0
100
AcDbSpline
210
0.0
220
0.0
230
1.0
 70
     8
 71
     3
 72
     8
 73
     4
 74
     0
 42
0.0000000001
 43
0.0000000001
 40
0.0
 40
0.0
 40
0.0
 40
0.0
 40
2.130230809022907
 40
2.130230809022907
 40
2.130230809022907
 40
2.130230809022907
 10
-6.640000000001194
 20
-2.000000000000102
 30
0.0
 10
-6.355969225464802
 20
-2.000000000000102
 30
0.0
 10
-6.075785565119749
 20
-1.978386915128171
 30
0.0
 10
-5.798883439730165
 20
-1.938338169141121
 30
0.0
  0
POLYLINE
  5
2541
330
1F
100
AcDbEntity
  8
AM_0
100
AcDb2dPolyline
 66
     1
 10
0.0
 20
0.0
 30
0.0
 70
     2
  0
VERTEX
  5
2542
330
2541
100
AcDbEntity
  8
AM_0
100
AcDbVertex
100
AcDb2dVertex
 10
-9.952742889522971
 20
1.721947285028416
 30
0.0
 42
0.0113495642762015
  0
VERTEX
  5
2543
330
2541
100
AcDbEntity
  8
AM_0
100
AcDbVertex
100
AcDb2dVertex
 10
-10.41903086710289
 20
1.791764187745495
 30
0.0
 42
0.0187918863228812
 70
     1
  0
VERTEX
  5
2544
330
2541
100
AcDbEntity
  8
AM_0
100
AcDbVertex
100
AcDb2dVertex
 10
-10.70274288952297
 20
1.816894866235297
 30
0.0
 42
0.0075788461628208
  0
VERTEX
  5
2545
330
2541
100
AcDbEntity
  8
AM_0
100
AcDbVertex
100
AcDb2dVertex
 10
-11.45693975758849
 20
1.843763772972034
 30
0.0
 42
0.0232722457202398
 70
     1
  0
VERTEX
  5
2546
330
2541
100
AcDbEntity
  8
AM_0
100
AcDbVertex
100
AcDb2dVertex
 10
-11.70274288952297
 20
1.837351109071785
 30
0.0
 42
0.0542958387243925
  0
VERTEX
  5
2547
330
2541
100
AcDbEntity
  8
AM_0
100
AcDbVertex
100
AcDb2dVertex
 10
-11.93752799098853
 20
1.794359547830505
 30
0.0
 42
0.4413285869607302
 70
     1
  0
VERTEX
  5
2548
330
2541
100
AcDbEntity
  8
AM_0
100
AcDbVertex
100
AcDb2dVertex
 10
-11.95274288952297
 20
1.762859770701385
 30
0.0
 42
0.0678159998049314
  0
VERTEX
  5
2549
330
2541
100
AcDbEntity
  8
AM_0
100
AcDbVertex
100
AcDb2dVertex
 10
-11.93401129676644
 20
1.729892165173171
 30
0.0
 42
0.0061109364508507
 70
     1
  0
VERTEX
  5
254A
330
2541
100
AcDbEntity
  8
AM_0
100
AcDbVertex
100
AcDb2dVertex
 10
-11.75000000000111
 20
1.353592040331118
 30
0.0
 42
0.0061465077983929
  0
VERTEX
  5
254B
330
2541
100
AcDbEntity
  8
AM_0
100
AcDbVertex
100
AcDb2dVertex
 10
-11.40139690346223
 20
0.9327251789926158
 30
0.0
 42
0.0040253861954876
 70
     1
  0
VERTEX
  5
254C
330
2541
100
AcDbEntity
  8
AM_0
100
AcDbVertex
100
AcDb2dVertex
 10
-10.85615149475694
 20
0.3010629865640517
 30
0.0
 42
0.0594163782683759
  0
VERTEX
  5
254D
330
2541
100
AcDbEntity
  8
AM_0
100
AcDbVertex
100
AcDb2dVertex
 10
-10.609641249995
 20
0.0795896045037132
 30
0.0
 42
0.0273113651513278
 70
     1
  0
VERTEX
  5
254E
330
2541
100
AcDbEntity
  8
AM_0
100
AcDbVertex
100
AcDb2dVertex
 10
-10.0000000000011
 20
-0.3014768650554451
 30
0.0
  0
SEQEND
  5
254F
330
2541
100
AcDbEntity
  8
AM_0
  0
SPLINE
  5
25E1
330
1F
100
AcDbEntity
  8
AM_0
100
AcDbSpline
210
0.0
220
0.0
230
1.0
 70
     8
 71
     3
 72
     8
 73
     4
 74
     0
 42
0.0000000001
 43
0.0000000001
 40
0.7142832446738512
 40
0.7142832446738512
 40
0.7142832446738512
 40
0.7142832446738512
 40
14.36247867694493
 40
14.36247867694493
 40
14.36247867694493
 40
14.36247867694493
 10
-11.05399474160083
 20
1.99999999999989
 30
0.0
 10
-7.342518149091969
 20
1.755122814190161
 30
0.0
 10
-5.667670485825713
 20
0.8775614070950677
 30
0.0
 10
-3.977649825868649
 20
0.0000000000000222
 30
0.0
  0
SPLINE
  5
25E3
330
1F
100
AcDbEntity
  8
AM_0
100
AcDbSpline
210
0.0
220
0.0
230
1.0
 70
     8
 71
     3
 72
     8
 73
     4
 74
     0
 42
0.0000000001
 43
0.0000000001
 40
0.7142832446738512
 40
0.7142832446738512
 40
0.7142832446738512
 40
0.7142832446738512
 40
14.36247867694493
 40
14.36247867694493
 40
14.36247867694493
 40
14.36247867694493
 10
-9.952742889522971
 20
1.721947285028416
 30
0.0
 10
-8.68771189488042
 20
1.457026610764231
 30
0.0
 10
-7.18497015490646
 20
0.8775614070949455
 30
0.0
 10
-5.494949494949397
 20
-0.0000000000000999
 30
0.0
  0
LINE
  5
25E8
330
1F
100
AcDbEntity
  8
AM_0
100
AcDbLine
 10
-10.00000000000114
 20
1.730011401604848
 30
0.0
 11
-10.00000000000109
 21
1.908233051240024
 31
0.0
  0
VIEWPORT
  5
110
330
101
100
AcDbEntity
 67
     1
  8
0
100
AcDbViewport
 10
420.5
 20
297.0
 30
0.0
 40
948.9782706766916
 41
628.452
 68
     1
 69
     1
1001
ACAD
1000
MVIEW
1002
{
1070
    16
1010
0.0
1020
0.0
1030
0.0
1010
0.0
1020
0.0
1030
1.0
1040
0.0
1040
628.452
1040
420.5
1040
297.0
1040
50.0
1040
0.0
1040
0.0
1070
     0
1070
   100
1070
     1
1070
     1
1070
     0
1070
     0
1070
     0
1070
     0
1040
0.0
1040
0.0
1040
0.0
1040
10.0
1040
10.0
1040
10.0
1040
10.0
1070
     0
1002
{
1002
}
1002
}
  0
ENDSEC
  0
SECTION
  2
OBJECTS
  0
DICTIONARY
  5
C
330
0
100
AcDbDictionary
  3
ACAD_GROUP
350
D
  3
ACAD_LAYOUT
350
1A
  3
ACAD_MLINESTYLE
350
17
  3
ACAD_PLOTSETTINGS
350
19
  3
ACAD_PLOTSTYLENAME
350
E
  3
ACDBVARIABLEDICTIONARY
350
34
  3
ACMDICTIONARY
350
43
  3
AMG
350
2B
  3
AMGSNAPSETTINGS
350
6E
  3
DWGPROPS
350
2787
  3
ACDBHEADERROUNDTRIPXREC
350
2793
  0
DICTIONARY
  5
74
330
1F
100
AcDbDictionary
280
     1
  3
ACAD_INDEX
360
2789
  3
ACAD_LAYOUTSELFREF
360
27B6
  0
DICTIONARY
  5
27BB
330
101
100
AcDbDictionary
280
     1
  3
ACAD_LAYOUTSELFREF
360
27BC
  0
DICTIONARY
  5
D
102
{ACAD_REACTORS
330
C
102
}
330
C
100
AcDbDictionary
  0
DICTIONARY
  5
1A
102
{ACAD_REACTORS
330
C
102
}
330
C
100
AcDbDictionary
  0
DICTIONARY
  5
17
102
{ACAD_REACTORS
330
C
102
}
330
C
100
AcDbDictionary
  3
STANDARD
350
18
  0
DICTIONARY
  5
19
102
{ACAD_REACTORS
330
C
102
}
330
C
100
AcDbDictionary
  0
ACDBDICTIONARYWDFLT
  5
E
102
{ACAD_REACTORS
330
C
102
}
330
C
100
AcDbDictionary
281
     1
  3
Normal
350
F
100
AcDbDictionaryWithDefault
340
F
  0
DICTIONARY
  5
34
102
{ACAD_REACTORS
330
C
102
}
330
C
100
AcDbDictionary
  3
INDEXCTL
350
35
  3
SORTENTS
350
B5E
  0
DICTIONARY
  5
43
102
{ACAD_REACTORS
330
C
102
}
330
C
100
AcDbDictionary
  3
ACMSTDDICTIONARY
350
260
  0
DICTIONARY
  5
2B
102
{ACAD_REACTORS
330
C
102
}
330
C
100
AcDbDictionary
  3
ACMGSETTINGS
350
2C
  0
DICTIONARY
  5
6E
102
{ACAD_REACTORS
330
C
102
}
330
C
100
AcDbDictionary
  0
XRECORD
  5
2787
102
{ACAD_REACTORS
330
C
102
}
330
C
100
AcDbXrecord
  1
DWGPROPS COOKIE
  2

  3

  4

  6

  7

  8

  9

300
AmdtFileType=82
301
=
302
=
303
=
304
=
305
=
306
=
307
=
308
=
309
=
 40
0.1044456597222222
 41
2452836.771637361
 42
2453045.616253645
  1

 90
        1
  0
DICTIONARY
  5
2793
102
{ACAD_REACTORS
330
C
102
}
330
C
100
AcDbDictionary
  3
TSTACKALIGN
350
2794
  3
TSTACKSIZE
350
2795
  3
HYPERLINKBASE
350
2796
  3
STYLESHEET
350
2797
  3
LAYOUTDICT
350
2798
  3
PLOTSETDICT
350
2799
  3
PLOTSTYLNAMDICT
350
279A
  3
LWETCUNION
350
279B
  3
INSUNITS
350
279C
  3
CEPSNTYPE
350
279D
  3
FINGERPRINTGUID
350
279E
  3
VERSIONGUID
350
279F
  3
PSVPSCALE
350
27A0
  3
DIMSTYLEDATA
350
27A1
  3
PUCSORTHOREF
350
27A2
  3
PUCSORTHOVIEW
350
27A3
  3
PUCSBASE
350
27A4
  3
PUCSORGTOP
350
27A5
  3
PUCSORGBOTTOM
350
27A6
  3
PUCSORGLEFT
350
27A7
  3
PUCSORGRIGHT
350
27A8
  3
PUCSORGFRONT
350
27A9
  3
PUCSORGBACK
350
27AA
  3
UCSORTHOREF
350
27AB
  3
UCSORTHOVIEW
350
27AC
  3
UCSBASE
350
27AD
  3
UCSORGTOP
350
27AE
  3
UCSORGBOTTOM
350
27AF
  3
UCSORGLEFT
350
27B0
  3
UCSORGRIGHT
350
27B1
  3
UCSORGFRONT
350
27B2
  3
UCSORGBACK
350
27B3
  0
DICTIONARY
  5
2789
102
{ACAD_REACTORS
330
74
102
}
330
74
100
AcDbDictionary
  3
*A1
350
278A
  0
XRECORD
  5
27B6
102
{ACAD_REACTORS
330
74
102
}
330
74
100
AcDbXrecord
340
1F
  0
XRECORD
  5
27BC
102
{ACAD_REACTORS
330
27BB
102
}
330
27BB
100
AcDbXrecord
340
101
  0
MLINESTYLE
  5
18
102
{ACAD_REACTORS
330
17
102
}
330
17
100
AcDbMlineStyle
  2
STANDARD
 70
     0
  3

 62
   256
 51
90.0
 52
90.0
 71
     2
 49
0.5
 62
   256
  6
BYLAYER
 49
-0.5
 62
   256
  6
BYLAYER
  0
ACDBPLACEHOLDER
  5
F
102
{ACAD_REACTORS
330
E
102
}
330
E
100
AcDbPlaceHolder
280
     0
  0
DICTIONARYVAR
  5
35
102
{ACAD_REACTORS
330
34
102
}
330
34
100
DictionaryVariables
280
     0
  1
1
  0
DICTIONARYVAR
  5
B5E
102
{ACAD_REACTORS
330
34
102
}
330
34
100
DictionaryVariables
280
     0
  1
96
  0
DICTIONARY
  5
260
102
{ACAD_REACTORS
330
43
102
}
330
43
100
AcDbDictionary
  0
DICTIONARY
  5
2C
102
{ACAD_REACTORS
330
2B
102
}
330
2B
100
AcDbDictionary
  3
DWGSETTINGS
350
2D
  0
XRECORD
  5
2794
102
{ACAD_REACTORS
330
2793
102
}
330
2793
100
AcDbXrecord
 90
        1
  0
XRECORD
  5
2795
102
{ACAD_REACTORS
330
2793
102
}
330
2793
100
AcDbXrecord
 90
       70
  0
XRECORD
  5
2796
102
{ACAD_REACTORS
330
2793
102
}
330
2793
100
AcDbXrecord
  1

  0
XRECORD
  5
2797
102
{ACAD_REACTORS
330
2793
102
}
330
2793
100
AcDbXrecord
  1
ASAMI.ctb
  0
XRECORD
  5
2798
102
{ACAD_REACTORS
330
2793
102
}
330
2793
100
AcDbXrecord
340
1A
  0
XRECORD
  5
2799
102
{ACAD_REACTORS
330
2793
102
}
330
2793
100
AcDbXrecord
340
19
  0
XRECORD
  5
279A
102
{ACAD_REACTORS
330
2793
102
}
330
2793
100
AcDbXrecord
340
E
  0
XRECORD
  5
279B
102
{ACAD_REACTORS
330
2793
102
}
330
2793
100
AcDbXrecord
 90
    10781
  0
XRECORD
  5
279C
102
{ACAD_REACTORS
330
2793
102
}
330
2793
100
AcDbXrecord
 90
        4
  0
XRECORD
  5
279D
102
{ACAD_REACTORS
330
2793
102
}
330
2793
100
AcDbXrecord
 90
        0
  0
XRECORD
  5
279E
102
{ACAD_REACTORS
330
2793
102
}
330
2793
100
AcDbXrecord
  1
{AFB28963-8C59-40AE-9337-C84526B81ACE}
  0
XRECORD
  5
279F
102
{ACAD_REACTORS
330
2793
102
}
330
2793
100
AcDbXrecord
  1
{BC69CD37-4F70-488C-8F2C-2712D0C85D70}
  0
XRECORD
  5
27A0
102
{ACAD_REACTORS
330
2793
102
}
330
2793
100
AcDbXrecord
 40
0.0
  0
XRECORD
  5
27A1
102
{ACAD_REACTORS
330
2793
102
}
330
2793
100
AcDbXrecord
1000
DSTYLE
1002
{
1070
    79
 70
     2
1070
   341
340
59
1070
   342
340
59
1070
   371
 70
    -1
1070
   372
 70
    -1
1002
}
  0
XRECORD
  5
27A2
102
{ACAD_REACTORS
330
2793
102
}
330
2793
100
AcDbXrecord
340
0
  0
XRECORD
  5
27A3
102
{ACAD_REACTORS
330
2793
102
}
330
2793
100
AcDbXrecord
 70
     0
  0
XRECORD
  5
27A4
102
{ACAD_REACTORS
330
2793
102
}
330
2793
100
AcDbXrecord
340
0
  0
XRECORD
  5
27A5
102
{ACAD_REACTORS
330
2793
102
}
330
2793
100
AcDbXrecord
 10
0.0
 20
0.0
 30
0.0
  0
XRECORD
  5
27A6
102
{ACAD_REACTORS
330
2793
102
}
330
2793
100
AcDbXrecord
 10
0.0
 20
0.0
 30
0.0
  0
XRECORD
  5
27A7
102
{ACAD_REACTORS
330
2793
102
}
330
2793
100
AcDbXrecord
 10
0.0
 20
0.0
 30
0.0
  0
XRECORD
  5
27A8
102
{ACAD_REACTORS
330
2793
102
}
330
2793
100
AcDbXrecord
 10
0.0
 20
0.0
 30
0.0
  0
XRECORD
  5
27A9
102
{ACAD_REACTORS
330
2793
102
}
330
2793
100
AcDbXrecord
 10
0.0
 20
0.0
 30
0.0
  0
XRECORD
  5
27AA
102
{ACAD_REACTORS
330
2793
102
}
330
2793
100
AcDbXrecord
 10
0.0
 20
0.0
 30
0.0
  0
XRECORD
  5
27AB
102
{ACAD_REACTORS
330
2793
102
}
330
2793
100
AcDbXrecord
340
0
  0
XRECORD
  5
27AC
102
{ACAD_REACTORS
330
2793
102
}
330
2793
100
AcDbXrecord
 70
     0
  0
XRECORD
  5
27AD
102
{ACAD_REACTORS
330
2793
102
}
330
2793
100
AcDbXrecord
340
0
  0
XRECORD
  5
27AE
102
{ACAD_REACTORS
330
2793
102
}
330
2793
100
AcDbXrecord
 10
0.0
 20
0.0
 30
0.0
  0
XRECORD
  5
27AF
102
{ACAD_REACTORS
330
2793
102
}
330
2793
100
AcDbXrecord
 10
0.0
 20
0.0
 30
0.0
  0
XRECORD
  5
27B0
102
{ACAD_REACTORS
330
2793
102
}
330
2793
100
AcDbXrecord
 10
0.0
 20
0.0
 30
0.0
  0
XRECORD
  5
27B1
102
{ACAD_REACTORS
330
2793
102
}
330
2793
100
AcDbXrecord
 10
0.0
 20
0.0
 30
0.0
  0
XRECORD
  5
27B2
102
{ACAD_REACTORS
330
2793
102
}
330
2793
100
AcDbXrecord
 10
0.0
 20
0.0
 30
0.0
  0
XRECORD
  5
27B3
102
{ACAD_REACTORS
330
2793
102
}
330
2793
100
AcDbXrecord
 10
0.0
 20
0.0
 30
0.0
  0
LAYER_INDEX
  5
278A
102
{ACAD_REACTORS
330
2789
102
}
330
2789
100
AcDbIndex
 40
2453151.788677361
100
AcDbLayerIndex
  8
0
360
278B
 90
        0
  8
AM_0
360
278C
 90
       49
  8
AM_11
360
278D
 90
        3
  8
AM_7
360
278E
 90
        1
  8
AM_5
360
278F
 90
        4
  8
Defpoints
360
2790
 90
        0
  8
AM_6
360
2791
 90
        1
  0
XRECORD
  5
2D
102
{ACAD_REACTORS
330
2C
102
}
330
2C
100
AcDbXrecord
  1
VERSION
140
15.0
  1
PRODUCT
  2
AutoCAD Mechanical 2000
  0
IDBUFFER
  5
278B
330
0
100
AcDbIdBuffer
  0
IDBUFFER
  5
278C
330
0
100
AcDbIdBuffer
330
25E8
330
1E37
330
1E38
330
1E39
330
1E3A
330
1E3B
330
1E3C
330
1E3D
330
1E3E
330
1E3F
330
1E40
330
1E41
330
1E42
330
1E43
330
1E44
330
1E46
330
1E47
330
1E70
330
1E78
330
1E79
330
1E7B
330
1E7C
330
1E7E
330
1E7F
330
1E97
330
1E98
330
1E9B
330
1EC7
330
1EDE
330
1EDF
330
1F24
330
1F4D
330
1F4E
330
1F4F
330
1F50
330
1F51
330
2525
330
2526
330
2535
330
2536
330
2538
330
2539
330
253A
330
253C
330
253D
330
253E
330
2541
330
25E1
330
25E3
  0
IDBUFFER
  5
278D
330
0
100
AcDbIdBuffer
330
1E4C
330
1E4D
330
1E6D
  0
IDBUFFER
  5
278E
330
0
100
AcDbIdBuffer
330
13DC
  0
IDBUFFER
  5
278F
330
0
100
AcDbIdBuffer
330
16EA
330
177A
330
1936
330
1E9D
  0
IDBUFFER
  5
2790
330
0
100
AcDbIdBuffer
  0
IDBUFFER
  5
2791
330
0
100
AcDbIdBuffer
330
E5A
  0
ENDSEC
  0
EOF
