  0
SECTION
  2
HEADER
  9
$ACADVER
  1
AC1014
  9
$ACADMAINTVER
 70
     9
  9
$DWGCODEPAGE
  3
ANSI_932
  9
$INSBASE
 10
0.0
 20
0.0
 30
0.0
  9
$EXTMIN
 10
-61.41123869649856
 20
-27.25000100000022
 30
-0.00000001
  9
$EXTMAX
 10
8.629789688840498
 20
3.042230787660138
 30
0.00000001
  9
$LIMMIN
 10
-64.30545277596564
 20
-36.07280533105347
  9
$LIMMAX
 10
13.45643524686886
 20
14.42418216455266
  9
$ORTHOMODE
 70
     0
  9
$REGENMODE
 70
     1
  9
$FILLMODE
 70
     1
  9
$QTEXTMODE
 70
     0
  9
$MIRRTEXT
 70
     0
  9
$DRAGMODE
 70
     2
  9
$LTSCALE
 40
1.0
  9
$OSMODE
 70
    55
  9
$ATTMODE
 70
     1
  9
$TEXTSIZE
 40
2.5
  9
$TRACEWID
 40
1.0
  9
$TEXTSTYLE
  7
STANDARD
  9
$CLAYER
  8
AM_0
  9
$CELTYPE
  6
BYLAYER
  9
$CECOLOR
 62
   256
  9
$CELTSCALE
 40
1.0
  9
$DELOBJ
 70
     1
  9
$DISPSILH
 70
     0
  9
$DIMSCALE
 40
0.5
  9
$DIMASZ
 40
2.5
  9
$DIMEXO
 40
1.0
  9
$DIMDLI
 40
12.0
  9
$DIMRND
 40
0.0
  9
$DIMDLE
 40
0.0
  9
$DIMEXE
 40
1.0
  9
$DIMTP
 40
0.1
  9
$DIMTM
 40
0.1
  9
$DIMTXT
 40
3.2
  9
$DIMCEN
 40
0.0
  9
$DIMTSZ
 40
0.0
  9
$DIMTOL
 70
     0
  9
$DIMLIM
 70
     0
  9
$DIMTIH
 70
     0
  9
$DIMTOH
 70
     0
  9
$DIMSE1
 70
     0
  9
$DIMSE2
 70
     0
  9
$DIMTAD
 70
     3
  9
$DIMZIN
 70
     8
  9
$DIMBLK
  1
OPEN30
  9
$DIMASO
 70
     1
  9
$DIMSHO
 70
     1
  9
$DIMPOST
  1

  9
$DIMAPOST
  1
"
  9
$DIMALT
 70
     0
  9
$DIMALTD
 70
     2
  9
$DIMALTF
 40
0.0393701
  9
$DIMLFAC
 40
1.0
  9
$DIMTOFL
 70
     1
  9
$DIMTVP
 40
0.0
  9
$DIMTIX
 70
     0
  9
$DIMSOXD
 70
     0
  9
$DIMSAH
 70
     0
  9
$DIMBLK1
  1

  9
$DIMBLK2
  1

  9
$DIMSTYLE
  2
AM_JIS
  9
$DIMCLRD
 70
   256
  9
$DIMCLRE
 70
   256
  9
$DIMCLRT
 70
     2
  9
$DIMTFAC
 40
0.71
  9
$DIMGAP
 40
1.5
  9
$DIMJUST
 70
     0
  9
$DIMSD1
 70
     0
  9
$DIMSD2
 70
     0
  9
$DIMTOLJ
 70
     0
  9
$DIMTZIN
 70
     0
  9
$DIMALTZ
 70
     0
  9
$DIMALTTZ
 70
     0
  9
$DIMFIT
 70
     3
  9
$DIMUPT
 70
     0
  9
$DIMUNIT
 70
     2
  9
$DIMDEC
 70
     3
  9
$DIMTDEC
 70
     3
  9
$DIMALTU
 70
     2
  9
$DIMALTTD
 70
     2
  9
$DIMTXSTY
  7
ASAMI
  9
$DIMAUNIT
 70
     0
  9
$LUNITS
 70
     2
  9
$LUPREC
 70
     2
  9
$SKETCHINC
 40
1.0
  9
$FILLETRAD
 40
2.5
  9
$AUNITS
 70
     0
  9
$AUPREC
 70
     0
  9
$MENU
  1
.
  9
$ELEVATION
 40
0.0
  9
$PELEVATION
 40
0.0
  9
$THICKNESS
 40
0.0
  9
$LIMCHECK
 70
     0
  9
$BLIPMODE
 70
     0
  9
$CHAMFERA
 40
0.5
  9
$CHAMFERB
 40
0.5
  9
$CHAMFERC
 40
20.0
  9
$CHAMFERD
 40
0.0
  9
$SKPOLY
 70
     0
  9
$TDCREATE
 40
2452836.771637361
  9
$TDUPDATE
 40
2453151.789160231
  9
$TDINDWG
 40
0.0784946296
  9
$TDUSRTIMER
 40
0.0784946296
  9
$USRTIMER
 70
     1
  9
$ANGBASE
 50
0.0
  9
$ANGDIR
 70
     0
  9
$PDMODE
 70
     0
  9
$PDSIZE
 40
0.0
  9
$PLINEWID
 40
0.0
  9
$COORDS
 70
     1
  9
$SPLFRAME
 70
     0
  9
$SPLINETYPE
 70
     6
  9
$SPLINESEGS
 70
     8
  9
$ATTDIA
 70
     1
  9
$ATTREQ
 70
     1
  9
$HANDLING
 70
 12289
  9
$HANDSEED
  5
2A18
  9
$SURFTAB1
 70
     6
  9
$SURFTAB2
 70
     6
  9
$SURFTYPE
 70
     6
  9
$SURFU
 70
     6
  9
$SURFV
 70
     6
  9
$UCSNAME
  2

  9
$UCSORG
 10
0.0
 20
0.0
 30
0.0
  9
$UCSXDIR
 10
1.0
 20
0.0
 30
0.0
  9
$UCSYDIR
 10
0.0
 20
1.0
 30
0.0
  9
$PUCSNAME
  2

  9
$PUCSORG
 10
0.0
 20
0.0
 30
0.0
  9
$PUCSXDIR
 10
1.0
 20
0.0
 30
0.0
  9
$PUCSYDIR
 10
0.0
 20
1.0
 30
0.0
  9
$USERI1
 70
     0
  9
$USERI2
 70
     0
  9
$USERI3
 70
     0
  9
$USERI4
 70
     0
  9
$USERI5
 70
     0
  9
$USERR1
 40
0.0
  9
$USERR2
 40
0.0
  9
$USERR3
 40
0.0
  9
$USERR4
 40
0.0
  9
$USERR5
 40
0.0
  9
$WORLDVIEW
 70
     1
  9
$SHADEDGE
 70
     3
  9
$SHADEDIF
 70
    70
  9
$TILEMODE
 70
     1
  9
$MAXACTVP
 70
    64
  9
$PINSBASE
 10
0.0
 20
0.0
 30
0.0
  9
$PLIMCHECK
 70
     0
  9
$PEXTMIN
 10
1.000000000000000E+20
 20
1.000000000000000E+20
 30
1.000000000000000E+20
  9
$PEXTMAX
 10
-1.000000000000000E+20
 20
-1.000000000000000E+20
 30
-1.000000000000000E+20
  9
$PLIMMIN
 10
0.0
 20
0.0
  9
$PLIMMAX
 10
841.0
 20
594.0
  9
$UNITMODE
 70
     0
  9
$VISRETAIN
 70
     1
  9
$PLINEGEN
 70
     0
  9
$PSLTSCALE
 70
     0
  9
$TREEDEPTH
 70
  3020
  9
$PICKSTYLE
 70
     0
  9
$CMLSTYLE
  2
STANDARD
  9
$CMLJUST
 70
     0
  9
$CMLSCALE
 40
20.0
  9
$PROXYGRAPHICS
 70
     1
  9
$MEASUREMENT
 70
     1
  0
ENDSEC
  0
SECTION
  2
CLASSES
  0
CLASS
  1
ACDBDICTIONARYWDFLT
  2
AcDbDictionaryWithDefault
  3
AutoCAD 2000
 90
        0
280
     0
281
     0
  0
CLASS
  1
ACDBPLACEHOLDER
  2
AcDbPlaceHolder
  3
AutoCAD 2000
 90
        0
280
     0
281
     0
  0
CLASS
  1
LAYOUT
  2
AcDbLayout
  3
AutoCAD 2000
 90
        0
280
     0
281
     0
  0
CLASS
  1
AMGSETTINGSOBJ
  2
AmgSettingsObj
  3
"AcadM|Product Description: AutoCAD Mechanical 2000|Company: Autodesk"
 90
        0
280
     0
281
     0
  0
CLASS
  1
ACME_DOCUMENT
  2
AcMeDbDoc
  3
AcMeServices
 90
        0
280
     0
281
     0
  0
CLASS
  1
ACMESCOPE
  2
AcMeScope
  3
AcMeServices
 90
        0
280
     0
281
     0
  0
CLASS
  1
ACMECOMMANDHISTORY
  2
AcMeCommandHistory
  3
AcMeServices
 90
        0
280
     0
281
     0
  0
CLASS
  1
DICTIONARYVAR
  2
AcDbDictionaryVar
  3
AutoCAD 2000
 90
        0
280
     0
281
     0
  0
CLASS
  1
ACIMSYSVARMAN
  2
AcImSysVarManager
  3
AcMeServices
 90
        0
280
     0
281
     0
  0
CLASS
  1
ACIMREALSYSVAR
  2
AcImRealSysVar
  3
AcMeServices
 90
        0
280
     0
281
     0
  0
CLASS
  1
ACIMINTSYSVAR
  2
AcImIntSysVar
  3
AcMeServices
 90
        0
280
     0
281
     0
  0
CLASS
  1
ACMEDRAWINGMAN
  2
AcMeDrawingMan
  3
AcMeServices
 90
        0
280
     0
281
     0
  0
CLASS
  1
ACMEVIEW
  2
AcMeView
  3
AcMeServices
 90
        0
280
     0
281
     0
  0
CLASS
  1
ACDBENTITYCACHE
  2
AcMeEntityCache
  3
AcMeServices
 90
        0
280
     0
281
     0
  0
CLASS
  1
GSMANAGER
  2
AcMeGSManager
  3
AcMeServices
 90
        0
280
     0
281
     0
  0
CLASS
  1
AmdtInternalReactor
  2
AmdtInternalReactor
  3
AcMeServices
 90
        0
280
     0
281
     0
  0
CLASS
  1
ACMESTATEMGR
  2
AcMeStateMgr
  3
AcMeServices
 90
        0
280
     0
281
     0
  0
CLASS
  1
ACME_DATABASE
  2
AcMeDbDatabase
  3
AcMeServices
 90
        0
280
     0
281
     0
  0
CLASS
  1
ACRFINSADJUSTERMGR
  2
AcRfInsAdjusterMgr
  3
AcMeServices
 90
        0
280
     0
281
     0
  0
CLASS
  1
ACMDATADICTIONARY
  2
AcmDataDictionary
  3
"AcmSymBB|Product Description: AutoCAD Mechanical 2000|Company: Autodesk"
 90
        0
280
     0
281
     0
  0
CLASS
  1
ACMDATAENTRYBLOCK
  2
AcmDataEntryBlock
  3
"AcmSymBB|Product Description: AutoCAD Mechanical 2000|Company: Autodesk"
 90
        0
280
     0
281
     0
  0
CLASS
  1
AMGOBJPROPCFG
  2
AmgObjPropCfg
  3
"AmgLay|Product Description: AutoCAD Mechanical 2000|Company: Autodesk"
 90
        1
280
     0
281
     0
  0
CLASS
  1
ACAMGFILTERDAT
  2
AcAmgFilterDat
  3
"AcadM|Product Description: AutoCAD Mechanical 2000|Company: Autodesk"
 90
        0
280
     0
281
     0
  0
CLASS
  1
LAYER_INDEX
  2
AcDbLayerIndex
  3
AutoCAD 2000
 90
        0
280
     0
281
     0
  0
CLASS
  1
IDBUFFER
  2
AcDbIdBuffer
  3
AutoCAD 2000
 90
        0
280
     0
281
     0
  0
CLASS
  1
ACIMSTRSYSVAR
  2
AcImStrSysVar
  3
AcMeServices
 90
        0
280
     0
281
     0
  0
CLASS
  1
ACMSTANDARDJIS
  2
AcmStandardJIS
  3
"AcmSymBB|Product Description: AutoCAD Mechanical 2000|Company: Autodesk"
 90
        0
280
     0
281
     0
  0
CLASS
  1
ACMSURFSTANDARDJIS
  2
AcmSurfTextStdJIS
  3
"AcmSymBB|Product Description: AutoCAD Mechanical 2000|Company: Autodesk"
 90
        0
280
     0
281
     0
  0
CLASS
  1
ACMFCFSTANDARDJIS
  2
AcmFCFStdJIS
  3
"AcmSymBB|Product Description: AutoCAD Mechanical 2000|Company: Autodesk"
 90
        0
280
     0
281
     0
  0
CLASS
  1
ACMWELDSTANDARDJIS
  2
AcmWeldingStdJIS
  3
"AcmSymBB|Product Description: AutoCAD Mechanical 2000|Company: Autodesk"
 90
        0
280
     0
281
     0
  0
CLASS
  1
ACMIDSTANDARDJIS
  2
AcmIdStdJIS
  3
"AcmSymBB|Product Description: AutoCAD Mechanical 2000|Company: Autodesk"
 90
        0
280
     0
281
     0
  0
CLASS
  1
ACMDATUMSTANDARDJIS
  2
AcmDatumStdJIS
  3
"AcmSymBB|Product Description: AutoCAD Mechanical 2000|Company: Autodesk"
 90
        0
280
     0
281
     0
  0
CLASS
  1
ACMBOMSTANDARDJIS
  2
AcmBOMStdJIS
  3
"AcmSymBB|Product Description: AutoCAD Mechanical 2000|Company: Autodesk"
 90
        0
280
     0
281
     0
  0
CLASS
  1
ACMSTANDARDANSI
  2
AcmStandardANSI
  3
"AcmSymBB|Product Description: AutoCAD Mechanical 2000|Company: Autodesk"
 90
        0
280
     0
281
     0
  0
CLASS
  1
ACMSURFSTANDARDANSI
  2
AcmSurfTextStdANSI
  3
"AcmSymBB|Product Description: AutoCAD Mechanical 2000|Company: Autodesk"
 90
        0
280
     0
281
     0
  0
CLASS
  1
ACMFCFSTANDARDANSI
  2
AcmFCFStdANSI
  3
"AcmSymBB|Product Description: AutoCAD Mechanical 2000|Company: Autodesk"
 90
        0
280
     0
281
     0
  0
CLASS
  1
ACMWELDSTANDARDANSI
  2
AcmWeldingStdANSI
  3
"AcmSymBB|Product Description: AutoCAD Mechanical 2000|Company: Autodesk"
 90
        0
280
     0
281
     0
  0
CLASS
  1
ACMIDSTANDARDANSI
  2
AcmIdStdANSI
  3
"AcmSymBB|Product Description: AutoCAD Mechanical 2000|Company: Autodesk"
 90
        0
280
     0
281
     0
  0
CLASS
  1
ACMDATUMSTANDARDANSI
  2
AcmDatumStdANSI
  3
"AcmSymBB|Product Description: AutoCAD Mechanical 2000|Company: Autodesk"
 90
        0
280
     0
281
     0
  0
CLASS
  1
ACMBOMSTANDARDANSI
  2
AcmBOMStdANSI
  3
"AcmSymBB|Product Description: AutoCAD Mechanical 2000|Company: Autodesk"
 90
        0
280
     0
281
     0
  0
CLASS
  1
ACMSTANDARDBSI
  2
AcmStandardBSI
  3
"AcmSymBB|Product Description: AutoCAD Mechanical 2000|Company: Autodesk"
 90
        0
280
     0
281
     0
  0
CLASS
  1
ACMSURFSTANDARDBSI
  2
AcmSurfTextStdBSI
  3
"AcmSymBB|Product Description: AutoCAD Mechanical 2000|Company: Autodesk"
 90
        0
280
     0
281
     0
  0
CLASS
  1
ACMFCFSTANDARDBSI
  2
AcmFCFStdBSI
  3
"AcmSymBB|Product Description: AutoCAD Mechanical 2000|Company: Autodesk"
 90
        0
280
     0
281
     0
  0
CLASS
  1
ACMWELDSTANDARDBSI
  2
AcmWeldingStdBSI
  3
"AcmSymBB|Product Description: AutoCAD Mechanical 2000|Company: Autodesk"
 90
        0
280
     0
281
     0
  0
CLASS
  1
ACMIDSTANDARDBSI
  2
AcmIdStdBSI
  3
"AcmSymBB|Product Description: AutoCAD Mechanical 2000|Company: Autodesk"
 90
        0
280
     0
281
     0
  0
CLASS
  1
ACMDATUMSTANDARDBSI
  2
AcmDatumStdBSI
  3
"AcmSymBB|Product Description: AutoCAD Mechanical 2000|Company: Autodesk"
 90
        0
280
     0
281
     0
  0
CLASS
  1
ACMBOMSTANDARDBSI
  2
AcmBOMStdBSI
  3
"AcmSymBB|Product Description: AutoCAD Mechanical 2000|Company: Autodesk"
 90
        0
280
     0
281
     0
  0
CLASS
  1
LONG_TRANSACTION
  2
AcDbLongTransaction
  3
AutoCAD 2000
 90
        0
280
     0
281
     0
  0
CLASS
  1
LWPOLYLINE
  2
AcDbPolyline
  3
AutoCAD 2000
 90
        0
280
     0
281
     1
  0
CLASS
  1
HATCH
  2
AcDbHatch
  3
AutoCAD 2000
 90
        0
280
     0
281
     1
  0
CLASS
  1
XRECORD
  2
AcDbXrecord
  3
AutoCAD 2000
 90
        0
280
     0
281
     0
  0
ENDSEC
  0
SECTION
  2
TABLES
  0
TABLE
  2
VPORT
  5
8
330
0
100
AcDbSymbolTable
 70
     3
  0
VPORT
  5
29ED
330
8
100
AcDbSymbolTableRecord
100
AcDbViewportTableRecord
  2
*ACTIVE
 70
     0
 10
0.0
 20
0.0
 11
1.0
 21
1.0
 12
-26.38858228485149
 22
-12.10337944877564
 13
0.0
 23
0.0
 14
2.5
 24
2.5
 15
10.0
 25
10.0
 16
0.0
 26
0.0
 36
1.0
 17
0.0
 27
0.0
 37
0.0
 40
44.92835621453138
 41
1.56570841889117
 42
50.0
 43
0.0
 44
0.0
 50
0.0
 51
0.0
 71
     0
 72
   100
 73
     1
 74
     3
 75
     0
 76
     0
 77
     0
 78
     0
  0
ENDTAB
  0
TABLE
  2
LTYPE
  5
5
330
0
100
AcDbSymbolTable
 70
    10
  0
LTYPE
  5
14
330
5
100
AcDbSymbolTableRecord
100
AcDbLinetypeTableRecord
  2
BYBLOCK
 70
     0
  3

 72
    65
 73
     0
 40
0.0
  0
LTYPE
  5
15
330
5
100
AcDbSymbolTableRecord
100
AcDbLinetypeTableRecord
  2
BYLAYER
 70
     0
  3

 72
    65
 73
     0
 40
0.0
  0
LTYPE
  5
16
330
5
100
AcDbSymbolTableRecord
100
AcDbLinetypeTableRecord
  2
CONTINUOUS
 70
     0
  3
Solid line
 72
    65
 73
     0
 40
0.0
  0
LTYPE
  5
4B
330
5
100
AcDbSymbolTableRecord
100
AcDbLinetypeTableRecord
  2
AM_ISO02W050
 70
     0
  3
__ __ __ __ __ __ __ __ __ __ __ __ __ __ __
 72
    65
 73
     2
 40
7.5
 49
6.0
 74
     0
 49
-1.5
 74
     0
  0
LTYPE
  5
4C
330
5
100
AcDbSymbolTableRecord
100
AcDbLinetypeTableRecord
  2
AM_ISO08W050
 70
     0
  3
____ . ____ . ____ . ____ . ____ . ____ . ____
 72
    65
 73
     4
 40
18.0
 49
12.0
 74
     0
 49
-1.5
 74
     0
 49
3.0
 74
     0
 49
-1.5
 74
     0
  0
LTYPE
  5
4D
330
5
100
AcDbSymbolTableRecord
100
AcDbLinetypeTableRecord
  2
AM_ISO09W050
 70
     0
  3
_____ . . _____ . . _____ . . ____ .. ____
 72
    65
 73
     6
 40
22.5
 49
12.0
 74
     0
 49
-1.5
 74
     0
 49
3.0
 74
     0
 49
-1.5
 74
     0
 49
3.0
 74
     0
 49
-1.5
 74
     0
  0
LTYPE
  5
4E
330
5
100
AcDbSymbolTableRecord
100
AcDbLinetypeTableRecord
  2
AMCONSTR
 70
     0
  3
_______________________
 72
    65
 73
     2
 40
9999.0
 49
9999.0
 74
     0
 49
0.0
 74
     0
  0
LTYPE
  5
4F
330
5
100
AcDbSymbolTableRecord
100
AcDbLinetypeTableRecord
  2
AM_ISO02W050X2
 70
     0
  3
 _ _ _ _ _ _ _ _ _ _ _ _
 72
    65
 73
     2
 40
3.75
 49
3.0
 74
     0
 49
-0.75
 74
     0
  0
LTYPE
  5
50
330
5
100
AcDbSymbolTableRecord
100
AcDbLinetypeTableRecord
  2
AM_ISO08W050X2
 70
     0
  3
__ . __ . __ . __ . __ . __
 72
    65
 73
     4
 40
9.0
 49
6.0
 74
     0
 49
-0.75
 74
     0
 49
1.5
 74
     0
 49
-0.75
 74
     0
  0
LTYPE
  5
53
330
5
100
AcDbSymbolTableRecord
100
AcDbLinetypeTableRecord
  2
AMZIGZAG
 70
     0
  3
/\/-/\/-/\/-/\/-/\/-/\/
 72
    65
 73
     2
 40
11.00009999999999
 49
0.0001
 74
     4
 75
   135
340
52
 46
0.04
 50
0.0
 44
0.0
 45
0.0
 49
-11.0
 74
     0
  0
LTYPE
  5
166
330
5
100
AcDbSymbolTableRecord
100
AcDbLinetypeTableRecord
  2
ACJISTGL
 70
     0
  3
_ _ _ _ _
 72
    65
 73
     2
 40
3.0
 49
2.0
 74
     0
 49
-1.0
 74
     0
  0
LTYPE
  5
26A
330
5
100
AcDbSymbolTableRecord
100
AcDbLinetypeTableRecord
  2
ACJISTGB
 70
     0
  3
__ . . __ . .
 72
    65
 73
     6
 40
9.0
 49
4.0
 74
     0
 49
-1.0
 74
     0
 49
1.0
 74
     0
 49
-1.0
 74
     0
 49
1.0
 74
     0
 49
-1.0
 74
     0
  0
ENDTAB
  0
TABLE
  2
LAYER
  5
2
330
0
100
AcDbSymbolTable
 70
     7
  0
LAYER
  5
10
330
2
100
AcDbSymbolTableRecord
100
AcDbLayerTableRecord
  2
0
 70
     0
 62
     7
  6
CONTINUOUS
  0
LAYER
  5
3F9
330
2
100
AcDbSymbolTableRecord
100
AcDbLayerTableRecord
  2
AM_0
 70
     0
 62
     7
  6
CONTINUOUS
  0
LAYER
  5
BD4
330
2
100
AcDbSymbolTableRecord
100
AcDbLayerTableRecord
  2
AM_11
 70
     0
 62
     3
  6
AM_ISO09W050
  0
LAYER
  5
BD5
330
2
100
AcDbSymbolTableRecord
100
AcDbLayerTableRecord
  2
AM_7
 70
     0
 62
     4
  6
AM_ISO08W050
  0
LAYER
  5
BD6
330
2
100
AcDbSymbolTableRecord
100
AcDbLayerTableRecord
  2
AM_5
 70
     0
 62
     3
  6
CONTINUOUS
  0
LAYER
  5
BD7
330
2
100
AcDbSymbolTableRecord
100
AcDbLayerTableRecord
  2
DEFPOINTS
 70
     0
 62
     7
  6
CONTINUOUS
  0
LAYER
  5
E59
330
2
100
AcDbSymbolTableRecord
100
AcDbLayerTableRecord
  2
AM_6
 70
     0
 62
     2
  6
CONTINUOUS
  0
ENDTAB
  0
TABLE
  2
STYLE
  5
3
330
0
100
AcDbSymbolTable
 70
     5
  0
STYLE
  5
11
330
3
100
AcDbSymbolTableRecord
100
AcDbTextStyleTableRecord
  2
STANDARD
 70
     0
 40
0.0
 41
1.0
 50
0.0
 71
     0
 42
2.5
  3
simplex.shx
  4
EXTFONT.SHX
  0
STYLE
  5
52
330
3
100
AcDbSymbolTableRecord
100
AcDbTextStyleTableRecord
  2

 70
     1
 40
0.0
 41
1.0
 50
0.0
 71
     0
 42
2.5
  3
ltypeshp.shx
  4

  0
STYLE
  5
6B
330
3
100
AcDbSymbolTableRecord
100
AcDbTextStyleTableRecord
  2
ASAMI
 70
     0
 40
0.0
 41
1.0
 50
0.0
 71
     0
 42
2.5
  3
simplex.shx
  4
EXTFONT.SHX
  0
STYLE
  5
262
330
3
100
AcDbSymbolTableRecord
100
AcDbTextStyleTableRecord
  2
ACJISTS
 70
     0
 40
1.0
 41
1.0
 50
0.0
 71
     0
 42
2.5
  3
simplex.shx
  4
bigfont.shx
  0
STYLE
  5
269
330
3
100
AcDbSymbolTableRecord
100
AcDbTextStyleTableRecord
  2
ACJISGDT
 70
     0
 40
0.0
 41
1.0
 50
0.0
 71
     0
 42
2.5
  3
amgdtans.shx
  4

  0
ENDTAB
  0
TABLE
  2
VIEW
  5
6
330
0
100
AcDbSymbolTable
 70
     0
  0
ENDTAB
  0
TABLE
  2
UCS
  5
7
330
0
100
AcDbSymbolTable
 70
     0
  0
ENDTAB
  0
TABLE
  2
APPID
  5
9
330
0
100
AcDbSymbolTable
 70
    12
  0
APPID
  5
12
330
9
100
AcDbSymbolTableRecord
100
AcDbRegAppTableRecord
  2
ACAD
 70
     0
  0
APPID
  5
30
330
9
100
AcDbSymbolTableRecord
100
AcDbRegAppTableRecord
  2
MCAD_NO_VIS
 70
     0
  0
APPID
  5
31
330
9
100
AcDbSymbolTableRecord
100
AcDbRegAppTableRecord
  2
ACAD_TEMP_GRAPHIC
 70
     0
  0
APPID
  5
2C2
330
9
100
AcDbSymbolTableRecord
100
AcDbRegAppTableRecord
  2
GENIUS_GENDTOL_13
 70
     0
  0
APPID
  5
339
330
9
100
AcDbSymbolTableRecord
100
AcDbRegAppTableRecord
  2
GENIUS_GENODEF_13
 70
     0
  0
APPID
  5
33A
330
9
100
AcDbSymbolTableRecord
100
AcDbRegAppTableRecord
  2
GENIUS_GENOBJ-N-RSBK_13
 70
     0
  0
APPID
  5
33B
330
9
100
AcDbSymbolTableRecord
100
AcDbRegAppTableRecord
  2
GENIUS_GENOBJ-N-LIB_13
 70
     0
  0
APPID
  5
33C
330
9
100
AcDbSymbolTableRecord
100
AcDbRegAppTableRecord
  2
GENIUS_GENSCALE_13
 70
     0
  0
APPID
  5
378
330
9
100
AcDbSymbolTableRecord
100
AcDbRegAppTableRecord
  2
GENIUS_GENDIMSH_14
 70
     0
  0
APPID
  5
BD8
330
9
100
AcDbSymbolTableRecord
100
AcDbRegAppTableRecord
  2
GENIUS_GENOBJ-N-CEN_13
 70
     0
  0
APPID
  5
BD9
330
9
100
AcDbSymbolTableRecord
100
AcDbRegAppTableRecord
  2
GENIUS_GENFIL_13
 70
     0
  0
APPID
  5
BDA
330
9
100
AcDbSymbolTableRecord
100
AcDbRegAppTableRecord
  2
GENIUS_GENOBJ-N-CHA_13
 70
     0
  0
ENDTAB
  0
TABLE
  2
DIMSTYLE
  5
A
330
0
100
AcDbSymbolTable
 70
     8
  0
DIMSTYLE
105
58
102
{ACAD_REACTORS
330
16EA
330
177A
330
1936
330
1E9D
102
}
330
A
100
AcDbSymbolTableRecord
100
AcDbDimStyleTableRecord
  2
AM_JIS
 70
     0
  3

  4
"
  5
OPEN30
  6

  7

 40
0.5
 41
2.5
 42
1.0
 43
12.0
 44
1.0
 45
0.0
 46
0.0
 47
0.1
 48
0.1
140
3.2
141
0.0
142
0.0
143
0.0393701
144
1.0
145
0.0
146
0.71
147
1.5
 71
     0
 72
     0
 73
     0
 74
     0
 75
     0
 76
     0
 77
     3
 78
     8
170
     0
171
     2
172
     1
173
     0
174
     0
175
     0
176
   256
177
   256
178
     2
270
     2
271
     3
272
     3
273
     2
274
     2
340
6B
275
     0
280
     0
281
     0
282
     0
283
     0
284
     0
285
     0
286
     0
287
     3
288
     0
  0
DIMSTYLE
105
5F
330
A
100
AcDbSymbolTableRecord
100
AcDbDimStyleTableRecord
  2
AM_JIS$3
 70
     0
  3

  4
"
  5
OPEN30
  6

  7

 40
0.5
 41
2.5
 42
1.0
 43
10.0
 44
1.0
 45
0.0
 46
0.0
 47
0.1
 48
0.1
140
3.2
141
0.0
142
0.0
143
0.0393701
144
1.0
145
0.0
146
0.71
147
1.5
 71
     0
 72
     0
 73
     0
 74
     1
 75
     0
 76
     0
 77
     3
 78
     8
170
     0
171
     2
172
     0
173
     0
174
     0
175
     0
176
   256
177
   256
178
     2
270
     2
271
     2
272
     3
273
     2
274
     2
340
6B
275
     0
280
     0
281
     0
282
     0
283
     0
284
     0
285
     0
286
     0
287
     0
288
     1
  0
DIMSTYLE
105
60
330
A
100
AcDbSymbolTableRecord
100
AcDbDimStyleTableRecord
  2
AM_JIS$4
 70
     0
  3

  4
"
  5
OPEN30
  6

  7

 40
0.5
 41
2.5
 42
1.0
 43
10.0
 44
1.0
 45
0.0
 46
0.0
 47
0.1
 48
0.1
140
3.2
141
0.0
142
0.0
143
0.0393701
144
1.0
145
0.0
146
0.71
147
1.5
 71
     0
 72
     0
 73
     0
 74
     1
 75
     0
 76
     0
 77
     3
 78
     8
170
     0
171
     2
172
     0
173
     0
174
     0
175
     0
176
   256
177
   256
178
     2
270
     2
271
     2
272
     3
273
     2
274
     2
340
6B
275
     0
280
     0
281
     0
282
     0
283
     0
284
     0
285
     0
286
     0
287
     0
288
     1
  0
DIMSTYLE
105
61
330
A
100
AcDbSymbolTableRecord
100
AcDbDimStyleTableRecord
  2
AM_JIS$6
 70
     0
  3

  4
"
  5
OPEN30
  6

  7

 40
0.5
 41
2.5
 42
1.0
 43
10.0
 44
1.0
 45
0.0
 46
0.0
 47
0.1
 48
0.1
140
3.2
141
0.0
142
0.0
143
0.0393701
144
1.0
145
0.0
146
0.71
147
1.5
 71
     0
 72
     0
 73
     0
 74
     0
 75
     0
 76
     0
 77
     0
 78
     8
170
     0
171
     2
172
     1
173
     0
174
     0
175
     0
176
   256
177
   256
178
     2
270
     2
271
     2
272
     2
273
     2
274
     2
340
6B
275
     0
280
     0
281
     0
282
     0
283
     0
284
     0
285
     0
286
     0
287
     3
288
     0
  0
DIMSTYLE
105
62
330
A
100
AcDbSymbolTableRecord
100
AcDbDimStyleTableRecord
  2
AM_JIS$7
 70
     0
  3

  4
"
  5
OPEN30
  6

  7

 40
0.5
 41
2.5
 42
1.0
 43
10.0
 44
1.0
 45
0.0
 46
0.0
 47
0.1
 48
0.1
140
3.2
141
0.0
142
0.0
143
0.0393701
144
1.0
145
0.0
146
0.71
147
1.5
 71
     0
 72
     0
 73
     0
 74
     0
 75
     0
 76
     0
 77
     3
 78
     8
170
     0
171
     2
172
     1
173
     0
174
     0
175
     0
176
   256
177
   256
178
     2
270
     2
271
     2
272
     3
273
     2
274
     2
340
6B
275
     0
280
     0
281
     0
282
     0
283
     0
284
     0
285
     0
286
     0
287
     3
288
     0
  0
DIMSTYLE
105
63
330
A
100
AcDbSymbolTableRecord
100
AcDbDimStyleTableRecord
  2
AM_JIS$SF
 70
     0
  3

  4
"
  5
OPEN30
  6

  7

 40
0.5
 41
2.5
 42
1.0
 43
10.0
 44
1.0
 45
0.0
 46
0.0
 47
0.1
 48
0.1
140
3.2
141
0.0
142
0.0
143
0.0393701
144
1.0
145
0.0
146
0.71
147
1.5
 71
     0
 72
     0
 73
     0
 74
     0
 75
     1
 76
     1
 77
     3
 78
     8
170
     0
171
     2
172
     1
173
     0
174
     0
175
     0
176
   256
177
   256
178
     2
270
     2
271
     2
272
     2
273
     2
274
     2
340
6B
275
     0
280
     0
281
     0
282
     0
283
     0
284
     0
285
     0
286
     0
287
     3
288
     0
  0
DIMSTYLE
105
68
330
A
100
AcDbSymbolTableRecord
100
AcDbDimStyleTableRecord
  2
AM_JIS$SH
 70
     0
  3

  4
"
  5

  6
GENAXEH
  7
OPEN30
 40
0.5
 41
2.5
 42
1.0
 43
10.0
 44
1.0
 45
0.0
 46
0.0
 47
0.1
 48
0.1
140
3.2
141
0.0
142
0.0
143
0.0393701
144
2.0
145
0.0
146
0.71
147
1.5
 71
     0
 72
     0
 73
     0
 74
     0
 75
     1
 76
     1
 77
     3
 78
     8
170
     0
171
     2
172
     1
173
     1
174
     0
175
     0
176
   256
177
   256
178
     2
270
     2
271
     2
272
     2
273
     2
274
     2
340
6B
275
     0
280
     0
281
     0
282
     0
283
     0
284
     0
285
     0
286
     0
287
     3
288
     0
  0
DIMSTYLE
105
B34
330
A
100
AcDbSymbolTableRecord
100
AcDbDimStyleTableRecord
  2
AM_JIS$2
 70
     0
  3

  4
"
  5
OPEN30
  6

  7

 40
0.5
 41
2.5
 42
1.0
 43
12.0
 44
1.0
 45
0.0
 46
0.0
 47
0.1
 48
0.1
140
3.2
141
0.0
142
0.0
143
0.0393701
144
1.0
145
0.0
146
0.71
147
1.5
 71
     0
 72
     0
 73
     0
 74
     0
 75
     0
 76
     0
 77
     3
 78
     8
170
     0
171
     2
172
     1
173
     0
174
     0
175
     0
176
   256
177
   256
178
     2
270
     2
271
     3
272
     3
273
     2
274
     2
340
6B
275
     0
280
     0
281
     0
282
     0
283
     0
284
     0
285
     0
286
     0
287
     3
288
     0
  0
ENDTAB
  0
TABLE
  2
BLOCK_RECORD
  5
1
330
0
100
AcDbSymbolTable
 70
     9
  0
BLOCK_RECORD
  5
1F
102
{ACAD_XDICTIONARY
360
74
102
}
330
1
100
AcDbSymbolTableRecord
100
AcDbBlockTableRecord
  2
*MODEL_SPACE
  0
BLOCK_RECORD
  5
101
102
{ACAD_XDICTIONARY
360
2A16
102
}
330
1
100
AcDbSymbolTableRecord
100
AcDbBlockTableRecord
  2
*PAPER_SPACE
  0
BLOCK_RECORD
  5
59
330
1
100
AcDbSymbolTableRecord
100
AcDbBlockTableRecord
  2
_OPEN30
  0
BLOCK_RECORD
  5
64
330
1
100
AcDbSymbolTableRecord
100
AcDbBlockTableRecord
  2
GENAXEH
  0
BLOCK_RECORD
  5
16EB
330
1
100
AcDbSymbolTableRecord
100
AcDbBlockTableRecord
  2
*D5
  0
BLOCK_RECORD
  5
177B
330
1
100
AcDbSymbolTableRecord
100
AcDbBlockTableRecord
  2
*D6
  0
BLOCK_RECORD
  5
1937
330
1
100
AcDbSymbolTableRecord
100
AcDbBlockTableRecord
  2
*D7
  0
BLOCK_RECORD
  5
1E9E
330
1
100
AcDbSymbolTableRecord
100
AcDbBlockTableRecord
  2
*D8
  0
ENDTAB
  0
ENDSEC
  0
SECTION
  2
BLOCKS
  0
BLOCK
  5
20
330
1F
100
AcDbEntity
  8
0
100
AcDbBlockBegin
  2
*MODEL_SPACE
 70
     0
 10
0.0
 20
0.0
 30
0.0
  3
*MODEL_SPACE
  1

  0
ENDBLK
  5
21
330
1F
100
AcDbEntity
  8
0
100
AcDbBlockEnd
  0
BLOCK
  5
103
330
101
100
AcDbEntity
 67
     1
  8
0
100
AcDbBlockBegin
  2
*PAPER_SPACE
 70
     0
 10
0.0
 20
0.0
 30
0.0
  3
*PAPER_SPACE
  1

  0
ENDBLK
  5
104
330
101
100
AcDbEntity
 67
     1
  8
0
100
AcDbBlockEnd
  0
BLOCK
  5
5D
330
59
100
AcDbEntity
  8
0
100
AcDbBlockBegin
  2
_OPEN30
 70
     0
 10
0.0
 20
0.0
 30
0.0
  3
_OPEN30
  1

  0
LINE
  5
5A
330
59
100
AcDbEntity
  8
0
 62
     0
100
AcDbLine
 10
-1.0
 20
0.26794919
 30
0.0
 11
0.0
 21
0.0
 31
0.0
  0
LINE
  5
5B
330
59
100
AcDbEntity
  8
0
 62
     0
100
AcDbLine
 10
0.0
 20
0.0
 30
0.0
 11
-1.0
 21
-0.26794919
 31
0.0
  0
LINE
  5
5C
330
59
100
AcDbEntity
  8
0
 62
     0
100
AcDbLine
 10
0.0
 20
0.0
 30
0.0
 11
-1.0
 21
0.0
 31
0.0
  0
ENDBLK
  5
5E
330
59
100
AcDbEntity
  8
0
100
AcDbBlockEnd
  0
BLOCK
  5
66
330
64
100
AcDbEntity
  8
0
100
AcDbBlockBegin
  2
GENAXEH
 70
     0
 10
0.0
 20
0.0
 30
0.0
  3
GENAXEH
  1

  0
LINE
  5
65
330
64
100
AcDbEntity
  8
0
100
AcDbLine
 10
-1.0
 20
0.0
 30
0.0
 11
1.0
 21
0.0
 31
0.0
  0
ENDBLK
  5
67
330
64
100
AcDbEntity
  8
0
100
AcDbBlockEnd
  0
BLOCK
  5
16F5
330
16EB
100
AcDbEntity
  8
0
100
AcDbBlockBegin
  2
*D5
 70
     1
 10
0.0
 20
0.0
 30
0.0
  3
*D5
  1

  0
LINE
  5
27DA
330
16EB
100
AcDbEntity
  8
AM_5
100
AcDbLine
 10
-0.000000000001923
 20
-3.000000000001765
 30
0.0
 11
-0.0000000000019235
 21
-10.5000010000001
 31
0.0
  0
LINE
  5
27DB
330
16EB
100
AcDbEntity
  8
AM_5
100
AcDbLine
 10
-12.00000000000007
 20
-3.000000000000009
 30
0.0
 11
-12.00000000000007
 21
-10.5000010000001
 31
0.0
  0
LINE
  5
27DC
330
16EB
100
AcDbEntity
  8
AM_5
100
AcDbLine
 10
-1.250000000001923
 20
-10.0000010000001
 30
0.0
 11
-10.75000000000007
 21
-10.0000010000001
 31
0.0
  0
INSERT
  5
27DD
330
16EB
100
AcDbEntity
  8
AM_5
100
AcDbBlockReference
  2
_OPEN30
 10
-0.0000000000019235
 20
-10.0000010000001
 30
0.0
 41
1.25
 42
1.25
 43
1.25
  0
INSERT
  5
27DE
330
16EB
100
AcDbEntity
  8
AM_5
100
AcDbBlockReference
  2
_OPEN30
 10
-12.00000000000007
 20
-10.0000010000001
 30
0.0
 41
1.25
 42
1.25
 43
1.25
 50
180.0
  0
MTEXT
  5
27DF
330
16EB
100
AcDbEntity
  8
AM_5
 62
     2
100
AcDbMText
 10
-6.000000000000997
 20
-8.450001000000106
 30
0.0
 40
1.6
 41
0.0
 71
     5
 72
     1
  1
12
  7
ASAMI
1001
ACAD
1000
MTEXTBEGIN
1070
    73
1070
     1
1070
    44
1040
1.0
1070
    74
1070
     0
1000
MTEXTEND
  0
POINT
  5
27E0
330
16EB
100
AcDbEntity
  8
DEFPOINTS
 62
     0
100
AcDbPoint
 10
-0.000000000001923
 20
-2.500000000001765
 30
0.0
  0
POINT
  5
27E1
330
16EB
100
AcDbEntity
  8
DEFPOINTS
 62
     0
100
AcDbPoint
 10
-12.00000000000007
 20
-2.500000000000009
 30
0.0
  0
POINT
  5
27E2
330
16EB
100
AcDbEntity
  8
DEFPOINTS
 62
     0
100
AcDbPoint
 10
-12.00000000000007
 20
-10.0000010000001
 30
0.0
  0
ENDBLK
  5
16F6
330
16EB
100
AcDbEntity
  8
0
100
AcDbBlockEnd
  0
BLOCK
  5
1785
330
177B
100
AcDbEntity
  8
0
100
AcDbBlockBegin
  2
*D6
 70
     1
 10
0.0
 20
0.0
 30
0.0
  3
*D6
  1

  0
LINE
  5
27C8
330
177B
100
AcDbEntity
  8
AM_5
100
AcDbLine
 10
-0.0000000000013324
 20
-3.000000000001765
 30
0.0
 11
-0.0000000000013332
 21
-16.5000010000002
 31
0.0
  0
LINE
  5
27C9
330
177B
100
AcDbEntity
  8
AM_5
100
AcDbLine
 10
-50.0
 20
-3.000000000000136
 30
0.0
 11
-50.0
 21
-16.5000010000002
 31
0.0
  0
LINE
  5
27CA
330
177B
100
AcDbEntity
  8
AM_5
100
AcDbLine
 10
-1.250000000001333
 20
-16.0000010000002
 30
0.0
 11
-48.75
 21
-16.0000010000002
 31
0.0
  0
INSERT
  5
27CB
330
177B
100
AcDbEntity
  8
AM_5
100
AcDbBlockReference
  2
_OPEN30
 10
-0.0000000000013332
 20
-16.0000010000002
 30
0.0
 41
1.25
 42
1.25
 43
1.25
  0
INSERT
  5
27CC
330
177B
100
AcDbEntity
  8
AM_5
100
AcDbBlockReference
  2
_OPEN30
 10
-50.0
 20
-16.0000010000002
 30
0.0
 41
1.25
 42
1.25
 43
1.25
 50
180.0
  0
MTEXT
  5
27CD
330
177B
100
AcDbEntity
  8
AM_5
 62
     2
100
AcDbMText
 10
-25.00000000000067
 20
-14.4500010000002
 30
0.0
 40
1.6
 41
0.0
 71
     5
 72
     1
  1
50
  7
ASAMI
1001
ACAD
1000
MTEXTBEGIN
1070
    73
1070
     1
1070
    44
1040
1.0
1070
    74
1070
     0
1000
MTEXTEND
  0
POINT
  5
27CE
330
177B
100
AcDbEntity
  8
DEFPOINTS
 62
     0
100
AcDbPoint
 10
-0.0000000000013324
 20
-2.500000000001765
 30
0.0
  0
POINT
  5
27CF
330
177B
100
AcDbEntity
  8
DEFPOINTS
 62
     0
100
AcDbPoint
 10
-50.0
 20
-2.500000000000136
 30
0.0
  0
POINT
  5
27D0
330
177B
100
AcDbEntity
  8
DEFPOINTS
 62
     0
100
AcDbPoint
 10
-50.0
 20
-16.0000010000002
 30
0.0
  0
ENDBLK
  5
1786
330
177B
100
AcDbEntity
  8
0
100
AcDbBlockEnd
  0
BLOCK
  5
1943
330
1937
100
AcDbEntity
  8
0
100
AcDbBlockBegin
  2
*D7
 70
     1
 10
0.0
 20
0.0
 30
0.0
  3
*D7
  1

  0
LINE
  5
27D1
330
1937
100
AcDbEntity
  8
AM_5
100
AcDbLine
 10
0.4999999999989758
 20
2.5
 30
0.0
 11
8.629789688840498
 21
2.499999999999997
 31
0.0
  0
LINE
  5
27D2
330
1937
100
AcDbEntity
  8
AM_5
100
AcDbLine
 10
0.4999999999987015
 20
-2.5
 30
0.0
 11
8.629789688840498
 21
-2.500000000000002
 31
0.0
  0
LINE
  5
27D3
330
1937
100
AcDbEntity
  8
AM_5
100
AcDbLine
 10
8.129789688840498
 20
1.249999999999997
 30
0.0
 11
8.129789688840498
 21
-1.250000000000002
 31
0.0
  0
INSERT
  5
27D4
330
1937
100
AcDbEntity
  8
AM_5
100
AcDbBlockReference
  2
_OPEN30
 10
8.129789688840498
 20
2.499999999999997
 30
0.0
 41
1.25
 42
1.25
 43
1.25
 50
90.0
  0
INSERT
  5
27D5
330
1937
100
AcDbEntity
  8
AM_5
100
AcDbBlockReference
  2
_OPEN30
 10
8.129789688840498
 20
-2.500000000000002
 30
0.0
 41
1.25
 42
1.25
 43
1.25
 50
270.0
  0
MTEXT
  5
27D6
330
1937
100
AcDbEntity
  8
AM_5
 62
     2
100
AcDbMText
 10
6.579789688840497
 20
-0.0000000000000008
 30
0.0
 40
1.6
 41
0.0
 71
     5
 72
     1
  1
%%c5
  7
ASAMI
 11
0.0000000000000001
 21
1.0
 31
0.0
1001
ACAD
1000
MTEXTBEGIN
1070
    73
1070
     1
1070
    44
1040
1.0
1070
    74
1070
     0
1000
MTEXTEND
  0
POINT
  5
27D7
330
1937
100
AcDbEntity
  8
DEFPOINTS
 62
     0
100
AcDbPoint
 10
-0.0000000000010243
 20
2.5
 30
0.0
  0
POINT
  5
27D8
330
1937
100
AcDbEntity
  8
DEFPOINTS
 62
     0
100
AcDbPoint
 10
-0.0000000000012985
 20
-2.5
 30
0.0
  0
POINT
  5
27D9
330
1937
100
AcDbEntity
  8
DEFPOINTS
 62
     0
100
AcDbPoint
 10
8.129789688840498
 20
-2.500000000000002
 30
0.0
  0
ENDBLK
  5
1944
330
1937
100
AcDbEntity
  8
0
100
AcDbBlockEnd
  0
BLOCK
  5
1EA8
330
1E9E
100
AcDbEntity
  8
0
100
AcDbBlockBegin
  2
*D8
 70
     1
 10
0.0
 20
0.0
 30
0.0
  3
*D8
  1

  0
LINE
  5
2971
330
1E9E
100
AcDbEntity
  8
AM_5
100
AcDbLine
 10
-50.0
 20
2.999999999999863
 30
0.0
 11
-59.56123869649855
 21
2.999999999999866
 31
0.0
  0
LINE
  5
2972
330
1E9E
100
AcDbEntity
  8
AM_5
100
AcDbLine
 10
-50.0
 20
-3.000000000000136
 30
0.0
 11
-59.56123869649855
 21
-3.000000000000133
 31
0.0
  0
LINE
  5
2973
330
1E9E
100
AcDbEntity
  8
AM_5
100
AcDbLine
 10
-59.06123869649856
 20
1.749999999999866
 30
0.0
 11
-59.06123869649856
 21
-1.750000000000133
 31
0.0
  0
INSERT
  5
2974
330
1E9E
100
AcDbEntity
  8
AM_5
100
AcDbBlockReference
  2
_OPEN30
 10
-59.06123869649856
 20
2.999999999999866
 30
0.0
 41
1.25
 42
1.25
 43
1.25
 50
90.0
  0
INSERT
  5
2975
330
1E9E
100
AcDbEntity
  8
AM_5
100
AcDbBlockReference
  2
_OPEN30
 10
-59.06123869649856
 20
-3.000000000000133
 30
0.0
 41
1.25
 42
1.25
 43
1.25
 50
270.0
  0
MTEXT
  5
2976
330
1E9E
100
AcDbEntity
  8
AM_5
 62
     2
100
AcDbMText
 10
-60.61123869649855
 20
-0.0000000000001432
 30
0.0
 40
1.6
 41
0.0
 71
     5
 72
     1
  1
%%c6
  7
ASAMI
 11
0.0000000000000001
 21
1.0
 31
0.0
1001
ACAD
1000
MTEXTBEGIN
1070
    73
1070
     1
1070
    44
1040
1.0
1070
    74
1070
     0
1000
MTEXTEND
  0
POINT
  5
2977
330
1E9E
100
AcDbEntity
  8
DEFPOINTS
 62
     0
100
AcDbPoint
 10
-49.5
 20
2.999999999999863
 30
0.0
  0
POINT
  5
2978
330
1E9E
100
AcDbEntity
  8
DEFPOINTS
 62
     0
100
AcDbPoint
 10
-49.5
 20
-3.000000000000136
 30
0.0
  0
POINT
  5
2979
330
1E9E
100
AcDbEntity
  8
DEFPOINTS
 62
     0
100
AcDbPoint
 10
-59.06123869649856
 20
-3.000000000000133
 30
0.0
  0
ENDBLK
  5
1EA9
330
1E9E
100
AcDbEntity
  8
0
100
AcDbBlockEnd
  0
ENDSEC
  0
SECTION
  2
ENTITIES
  0
TEXT
  5
E5A
330
1F
100
AcDbEntity
  8
AM_6
100
AcDbText
 10
-35.59523809523875
 20
-27.2500010000002
 30
0.0
 40
2.5
  1
SSM4050ZX
 72
     4
 11
-25.00000000000066
 21
-26.0000010000002
 31
0.0
100
AcDbText
  0
LINE
  5
13DC
330
1F
100
AcDbEntity
  8
AM_7
  6
AM_ISO08W050X2
100
AcDbLine
 10
1.129788688840505
 20
-0.000000000000095
 30
0.0
 11
-52.06123769649856
 21
-0.0000000000001359
 31
0.0
1001
GENIUS_GENODEF_13
1002
{
1000
HIER
1070
     0
1002
}
1002
{
1000
MANEDIT
1070
     0
1002
}
1002
{
1000
NOSEL
1070
     0
1002
}
1002
{
1000
BEHIND
1070
     0
1002
}
1002
{
1000
REACTOR
1002
}
1001
GENIUS_GENOBJ-N-CEN_13
1002
{
1000
OWNER
1000
GEN
1002
}
  0
DIMENSION
  5
16EA
330
1F
100
AcDbEntity
  8
AM_5
100
AcDbDimension
  2
*D5
 10
-12.00000000000007
 20
-10.0000010000001
 30
0.0
 11
-6.000000000000997
 21
-8.450001000000106
 31
0.0
 70
    32
  1
<>
  3
AM_JIS
100
AcDbAlignedDimension
 13
-0.000000000001923
 23
-2.500000000001765
 33
0.0
 14
-12.00000000000007
 24
-2.500000000000009
 34
0.0
 50
0.0000000000001641
100
AcDbRotatedDimension
1001
GENIUS_GENDTOL_13
1000

1000
h7
1000

1040
0.0
  0
DIMENSION
  5
177A
330
1F
100
AcDbEntity
  8
AM_5
100
AcDbDimension
  2
*D6
 10
-50.0
 20
-16.0000010000002
 30
0.0
 11
-25.00000000000067
 21
-14.4500010000002
 31
0.0
 70
    32
  1
<>
  3
AM_JIS
100
AcDbAlignedDimension
 13
-0.0000000000013324
 23
-2.500000000001765
 33
0.0
 14
-50.0
 24
-2.500000000000136
 34
0.0
 50
0.0000000000001641
100
AcDbRotatedDimension
1001
GENIUS_GENDTOL_13
1000

1000
h7
1000

1040
0.0
  0
DIMENSION
  5
1936
330
1F
100
AcDbEntity
  8
AM_5
100
AcDbDimension
  2
*D7
 10
8.129789688840498
 20
-2.500000000000002
 30
0.0
 11
6.579789688840497
 21
-0.0000000000000008
 31
0.0
 70
    32
  1
%%c<>
  3
AM_JIS
100
AcDbAlignedDimension
 13
-0.0000000000010243
 23
2.5
 33
0.0
 14
-0.0000000000012985
 24
-2.5
 34
0.0
 50
90.00000000000003
100
AcDbRotatedDimension
1001
GENIUS_GENDTOL_13
1000

1000
h7
1000

1040
0.0
  0
LINE
  5
1E97
330
1F
100
AcDbEntity
  8
AM_0
100
AcDbLine
 10
-49.5
 20
2.999999999999863
 30
0.0
 11
-19.0
 21
2.999999999999871
 31
0.0
  0
LINE
  5
1E98
330
1F
100
AcDbEntity
  8
AM_0
100
AcDbLine
 10
-19.0
 20
-3.000000000000129
 30
0.0
 11
-49.5
 21
-3.000000000000136
 31
0.0
  0
LINE
  5
1E9B
330
1F
100
AcDbEntity
  8
AM_0
100
AcDbLine
 10
-50.0
 20
-2.500000000000136
 30
0.0
 11
-50.0
 21
2.499999999999863
 31
0.0
  0
DIMENSION
  5
1E9D
330
1F
100
AcDbEntity
  8
AM_5
100
AcDbDimension
  2
*D8
 10
-59.06123869649856
 20
-3.000000000000133
 30
0.0
 11
-60.61123869649855
 21
-0.0000000000001432
 31
0.0
 70
    32
  1
%%c<>
  3
AM_JIS
100
AcDbAlignedDimension
 13
-49.5
 23
2.999999999999863
 33
0.0
 14
-49.5
 24
-3.000000000000136
 34
0.0
 50
270.0
100
AcDbRotatedDimension
1001
GENIUS_GENDTOL_13
1000

1000
h7
1000

1040
0.0
  0
LINE
  5
1EC7
330
1F
100
AcDbEntity
  8
AM_0
100
AcDbLine
 10
-49.5
 20
2.999999999999863
 30
0.0
 11
-50.0
 21
2.499999999999863
 31
0.0
1001
GENIUS_GENFIL_13
1070
     0
1040
0.5
1040
0.5
1040
20.0
1040
0.0
1002
{
1002
}
1001
GENIUS_GENODEF_13
1002
{
1000
HIER
1070
     0
1002
}
1002
{
1000
MANEDIT
1070
     0
1002
}
1002
{
1000
NOSEL
1070
     0
1002
}
1002
{
1000
BEHIND
1070
     0
1002
}
1002
{
1000
REACTOR
1002
}
1001
GENIUS_GENOBJ-N-CHA_13
1002
{
1000
OWNER
1000
GEN
1002
}
  0
LINE
  5
1EDE
330
1F
100
AcDbEntity
  8
AM_0
100
AcDbLine
 10
-49.5
 20
-3.000000000000136
 30
0.0
 11
-50.0
 21
-2.500000000000136
 31
0.0
1001
GENIUS_GENFIL_13
1070
     0
1040
0.5
1040
0.5
1040
20.0
1040
0.0
1002
{
1002
}
1001
GENIUS_GENODEF_13
1002
{
1000
HIER
1070
     0
1002
}
1002
{
1000
MANEDIT
1070
     0
1002
}
1002
{
1000
NOSEL
1070
     0
1002
}
1002
{
1000
BEHIND
1070
     0
1002
}
1002
{
1000
REACTOR
1002
}
1001
GENIUS_GENOBJ-N-CHA_13
1002
{
1000
OWNER
1000
GEN
1002
}
  0
LINE
  5
1EDF
330
1F
100
AcDbEntity
  8
AM_0
100
AcDbLine
 10
-49.5
 20
2.999999999999863
 30
0.0
 11
-49.5
 21
-3.000000000000136
 31
0.0
  0
LINE
  5
1F24
330
1F
100
AcDbEntity
  8
AM_0
100
AcDbLine
 10
-19.0
 20
-3.000000000000129
 30
0.0
 11
-19.0
 21
2.99999999999987
 31
0.0
  0
LINE
  5
1F4D
330
1F
100
AcDbEntity
  8
AM_0
100
AcDbLine
 10
-19.0
 20
2.99999999999987
 30
0.0
 11
-17.13397459621599
 21
2.499999999999989
 31
0.0
  0
LINE
  5
1F4E
330
1F
100
AcDbEntity
  8
AM_0
100
AcDbLine
 10
-17.133974596216
 20
2.499999999999989
 30
0.0
 11
-17.133974596216
 21
-2.500000000000248
 31
0.0
  0
LINE
  5
1F4F
330
1F
100
AcDbEntity
  8
AM_0
100
AcDbLine
 10
-17.13397459621512
 20
-2.500000000000013
 30
0.0
 11
-19.0
 21
-3.000000000000129
 31
0.0
  0
LINE
  5
1F51
330
1F
100
AcDbEntity
  8
AM_0
100
AcDbLine
 10
-14.20096189432378
 20
2.249999999999991
 30
0.0
 11
-11.52918734507298
 21
2.249999999999991
 31
0.0
  0
LINE
  5
2593
330
1F
100
AcDbEntity
  8
AM_0
100
AcDbLine
 10
-0.0000000000001066
 20
0.0
 30
0.0
 11
-0.0464404547799049
 21
-0.4230600435428756
 31
0.0
  0
LINE
  5
2594
330
1F
100
AcDbEntity
  8
AM_0
100
AcDbLine
 10
-0.0000000000001066
 20
0.0
 30
0.0
 11
-0.0548863636364629
 21
0.5000000000000569
 31
0.0
  0
LINE
  5
2595
330
1F
100
AcDbEntity
  8
AM_0
100
AcDbLine
 10
-0.0548863636364629
 20
0.5000000000000569
 30
0.0
 11
-0.5580240124581622
 21
1.333570407005197
 31
0.0
  0
LINE
  5
2596
330
1F
100
AcDbEntity
  8
AM_0
100
AcDbLine
 10
-0.0000000000001066
 20
0.0
 30
0.0
 11
-0.0000000000001066
 21
2.5
 31
0.0
  0
LINE
  5
2597
330
1F
100
AcDbEntity
  8
AM_0
100
AcDbLine
 10
-0.0548863636364629
 20
-0.6634489272815927
 30
0.0
 11
-0.0000000000001066
 21
-0.5
 31
0.0
  0
LINE
  5
2598
330
1F
100
AcDbEntity
  8
AM_0
100
AcDbLine
 10
-0.4497848561568532
 20
-0.7368273825832717
 30
0.0
 11
-0.0548863636364629
 21
-0.6634489272815927
 31
0.0
  0
ELLIPSE
  5
2599
330
1F
100
AcDbEntity
  8
AM_0
100
AcDbEllipse
 10
1.037965526968658
 20
-1.271940082358952
 30
0.0
 11
1.589455833110664
 21
0.000000000000059
 31
0.0
210
0.0
220
0.0
230
1.0
 40
0.9565217391304203
 41
2.78192090809868
 42
3.640074865085185
  0
LINE
  5
259A
330
1F
100
AcDbEntity
  8
AM_0
100
AcDbLine
 10
-0.0000000000001066
 20
-2.5
 30
0.0
 11
-0.0548863636364629
 21
-2.366720578810912
 31
0.0
  0
LINE
  5
259B
330
1F
100
AcDbEntity
  8
AM_0
100
AcDbLine
 10
-0.0548863636364629
 20
-2.366720578810884
 30
0.0
 11
-0.3580681818182896
 21
-1.998808327730955
 31
0.0
  0
LINE
  5
259C
330
1F
100
AcDbEntity
  8
AM_0
100
AcDbLine
 10
-0.0548863636364629
 20
-2.366720578810912
 30
0.0
 11
-0.0548863636364629
 21
-0.6634489272815927
 31
0.0
  0
LINE
  5
259D
330
1F
100
AcDbEntity
  8
AM_0
100
AcDbLine
 10
-0.0000000000001066
 20
-2.5
 30
0.0
 11
-0.0000000000001066
 21
-0.5
 31
0.0
  0
LINE
  5
259E
330
1F
100
AcDbEntity
  8
AM_0
100
AcDbLine
 10
-0.0000000000001066
 20
-0.5
 30
0.0
 11
-0.3017967316219696
 21
0.0000000000000284
 31
0.0
  0
LINE
  5
259F
330
1F
100
AcDbEntity
  8
AM_0
100
AcDbLine
 10
-1.231844575307
 20
0.0
 30
0.0
 11
-1.231844575307
 21
-0.4000000000000057
 31
0.0
  0
LINE
  5
25A0
330
1F
100
AcDbEntity
  8
AM_0
100
AcDbLine
 10
-12.00000000000016
 20
2.12380339033552
 30
0.0
 11
-12.13768793343373
 21
2.351917082444852
 31
0.0
  0
LINE
  5
25A1
330
1F
100
AcDbEntity
  8
AM_0
100
AcDbLine
 10
-12.38051113020821
 20
-0.6671293198357198
 30
0.0
 11
-12.00000000000012
 21
-1.324922330424424
 31
0.0
  0
LINE
  5
25A2
330
1F
100
AcDbEntity
  8
AM_0
100
AcDbLine
 10
-12.00000000000007
 20
-0.3031621518105503
 30
0.0
 11
-12.38051113020821
 21
-0.6671293198357198
 31
0.0
  0
LINE
  5
25A4
330
1F
100
AcDbEntity
  8
AM_0
100
AcDbLine
 10
-0.5580240124581622
 20
1.333570407005197
 30
0.0
 11
-1.231844575307
 21
1.504226711264038
 31
0.0
  0
LINE
  5
25A5
330
1F
100
AcDbEntity
  8
AM_0
100
AcDbLine
 10
-0.0000000000001066
 20
0.0
 30
0.0
 11
-1.231844575307
 21
0.0
 31
0.0
  0
LINE
  5
25A6
330
1F
100
AcDbEntity
  8
AM_0
100
AcDbLine
 10
-1.231844575307
 20
-0.4000000000000057
 30
0.0
 11
-0.0603593463244749
 21
-0.4000000000000057
 31
0.0
  0
LINE
  5
25A7
330
1F
100
AcDbEntity
  8
AM_0
100
AcDbLine
 10
-1.231844575307
 20
-0.4000000000000057
 30
0.0
 11
-0.4497848561568532
 21
-0.7368273825832717
 31
0.0
  0
ELLIPSE
  5
25A8
330
1F
100
AcDbEntity
  8
AM_0
100
AcDbEllipse
 10
-14.71276953735253
 20
2.337593311832559
 30
0.0
 11
2.574934310365834
 21
4.154557204609522
 31
0.0
210
0.0
220
0.0
230
1.0
 40
0.9655163013281759
 41
3.721610006182192
 42
4.01167833931145
  0
POLYLINE
  5
25A9
330
1F
100
AcDbEntity
  8
AM_0
100
AcDb2dPolyline
 66
     1
 10
0.0
 20
0.0
 30
0.0
 70
     2
  0
VERTEX
  5
25AA
330
25A9
100
AcDbEntity
  8
AM_0
100
AcDbVertex
100
AcDb2dVertex
 10
-13.30681818181817
 20
-2.241470270861928
 30
0.0
 42
-0.0230918143391583
  0
VERTEX
  5
25AB
330
25A9
100
AcDbEntity
  8
AM_0
100
AcDbVertex
100
AcDb2dVertex
 10
-13.60817973049899
 20
-2.168416699066145
 30
0.0
 42
-0.0355587143075394
 70
     1
  0
VERTEX
  5
25AC
330
25A9
100
AcDbEntity
  8
AM_0
100
AcDbVertex
100
AcDb2dVertex
 10
-13.79687499999998
 20
-2.099350320870431
 30
0.0
 42
-0.0216088548285507
  0
VERTEX
  5
25AD
330
25A9
100
AcDbEntity
  8
AM_0
100
AcDbVertex
100
AcDb2dVertex
 10
-14.23712857103131
 20
-1.880239992333347
 30
0.0
 42
-0.0414110700152503
 70
     1
  0
VERTEX
  5
25AE
330
25A9
100
AcDbEntity
  8
AM_0
100
AcDbVertex
100
AcDb2dVertex
 10
-14.45028409090908
 20
-1.739024329660896
 30
0.0
 42
-0.0653031023268945
  0
VERTEX
  5
25AF
330
25A9
100
AcDbEntity
  8
AM_0
100
AcDbVertex
100
AcDb2dVertex
 10
-14.58759163929662
 20
-1.598564559898566
 30
0.0
 42
-0.1569363594221426
 70
     1
  0
VERTEX
  5
25B0
330
25A9
100
AcDbEntity
  8
AM_0
100
AcDbVertex
100
AcDb2dVertex
 10
-14.61363636363635
 20
-1.520818288442843
 30
0.0
 42
-0.1617045000652558
  0
VERTEX
  5
25B1
330
25A9
100
AcDbEntity
  8
AM_0
100
AcDbVertex
100
AcDb2dVertex
 10
-14.5871417592175
 20
-1.444821233733112
 30
0.0
 42
-0.0680210806811403
 70
     1
  0
VERTEX
  5
25B2
330
25A9
100
AcDbEntity
  8
AM_0
100
AcDbVertex
100
AcDb2dVertex
 10
-14.45028409090908
 20
-1.312052578030321
 30
0.0
 42
-0.0450747416233525
  0
VERTEX
  5
25B3
330
25A9
100
AcDbEntity
  8
AM_0
100
AcDbVertex
100
AcDb2dVertex
 10
-14.23913493954197
 20
-1.183581902329681
 30
0.0
 42
-0.0231467319857815
 70
     1
  0
VERTEX
  5
25B4
330
25A9
100
AcDbEntity
  8
AM_0
100
AcDbVertex
100
AcDb2dVertex
 10
-13.79687499999998
 20
-0.9894879100429854
 30
0.0
 42
-0.0364444523572374
  0
VERTEX
  5
25B5
330
25A9
100
AcDbEntity
  8
AM_0
100
AcDbVertex
100
AcDb2dVertex
 10
-13.60480345635035
 20
-0.9304304197509658
 30
0.0
 42
-0.0242139410122645
 70
     1
  0
VERTEX
  5
25B6
330
25A9
100
AcDbEntity
  8
AM_0
100
AcDbVertex
100
AcDb2dVertex
 10
-13.30681818181817
 20
-0.8756889524681277
 30
0.0
  0
SEQEND
  5
25B7
330
25A9
100
AcDbEntity
  8
AM_0
  0
ELLIPSE
  5
25B8
330
1F
100
AcDbEntity
  8
AM_0
100
AcDbEllipse
 10
-14.708803929355
 20
-6.570819248465685
 30
0.0
 11
6.116835645047428
 21
0.0000000000004214
 31
0.0
210
0.0
220
0.0
230
1.0
 40
0.956521739130442
 41
1.112028147649875
 42
1.339539423867709
  0
POLYLINE
  5
25B9
330
1F
100
AcDbEntity
  8
AM_0
100
AcDb2dPolyline
 66
     1
 10
0.0
 20
0.0
 30
0.0
 70
     2
  0
VERTEX
  5
25BA
330
25B9
100
AcDbEntity
  8
AM_0
100
AcDbVertex
100
AcDb2dVertex
 10
-12.00000000000009
 20
2.123803390335503
 30
0.0
 42
0.0113495642762015
  0
VERTEX
  5
25BB
330
25B9
100
AcDbEntity
  8
AM_0
100
AcDbVertex
100
AcDb2dVertex
 10
-12.60935360706478
 20
2.211074518731852
 30
0.0
 42
0.0187918863228812
 70
     1
  0
VERTEX
  5
25BC
330
25B9
100
AcDbEntity
  8
AM_0
100
AcDbVertex
100
AcDb2dVertex
 10
-12.98011363636374
 20
2.242487866844104
 30
0.0
 42
0.0075788461628208
  0
VERTEX
  5
25BD
330
25B9
100
AcDbEntity
  8
AM_0
100
AcDbVertex
100
AcDb2dVertex
 10
-13.96571181622209
 20
2.27607400026503
 30
0.0
 42
0.0232722457202398
 70
     1
  0
VERTEX
  5
25BE
330
25B9
100
AcDbEntity
  8
AM_0
100
AcDbVertex
100
AcDb2dVertex
 10
-14.28693181818192
 20
2.268058170389711
 30
0.0
 42
0.0542958387243925
  0
VERTEX
  5
25BF
330
25B9
100
AcDbEntity
  8
AM_0
100
AcDbVertex
100
AcDb2dVertex
 10
-14.59375325759714
 20
2.214318718838118
 30
0.0
 42
0.4413285869607302
 70
     1
  0
VERTEX
  5
25C0
330
25B9
100
AcDbEntity
  8
AM_0
100
AcDbVertex
100
AcDb2dVertex
 10
-14.61363636363646
 20
2.174943997426712
 30
0.0
 42
0.0678159998049314
  0
VERTEX
  5
25C1
330
25B9
100
AcDbEntity
  8
AM_0
100
AcDbVertex
100
AcDb2dVertex
 10
-14.58915757764782
 20
2.133734490516449
 30
0.0
 42
0.006836731909696
 70
     1
  0
VERTEX
  5
25C2
330
25B9
100
AcDbEntity
  8
AM_0
100
AcDbVertex
100
AcDb2dVertex
 10
-14.28693181818192
 20
1.76567397992267
 30
0.0
 42
0.0061465077983929
  0
VERTEX
  5
25C3
330
25B9
100
AcDbEntity
  8
AM_0
100
AcDbVertex
100
AcDb2dVertex
 10
-13.8313709533868
 20
1.23959040324954
 30
0.0
 42
0.0040253861954876
 70
     1
  0
VERTEX
  5
25C4
330
25B9
100
AcDbEntity
  8
AM_0
100
AcDbVertex
100
AcDb2dVertex
 10
-13.11883433973785
 20
0.450012662713835
 30
0.0
 42
0.0594163782683759
  0
VERTEX
  5
25C5
330
25B9
100
AcDbEntity
  8
AM_0
100
AcDbVertex
100
AcDb2dVertex
 10
-12.79669026987849
 20
0.173170935138419
 30
0.0
 42
0.0273113651513278
 70
     1
  0
VERTEX
  5
25C6
330
25B9
100
AcDbEntity
  8
AM_0
100
AcDbVertex
100
AcDb2dVertex
 10
-12.00000000000009
 20
-0.3031621518105361
 30
0.0
  0
SEQEND
  5
25C7
330
25B9
100
AcDbEntity
  8
AM_0
  0
LINE
  5
25C8
330
1F
100
AcDbEntity
  8
AM_11
100
AcDbLine
 10
-12.00000000000007
 20
-2.500000000000009
 30
0.0
 11
-0.0000000000001066
 21
-2.5
 31
0.0
  0
LINE
  5
25C9
330
1F
100
AcDbEntity
  8
AM_11
100
AcDbLine
 10
-0.0000000000005045
 20
2.5
 30
0.0
 11
-12.00000000000007
 21
2.499999999999993
 31
0.0
  0
SPLINE
  5
25CA
330
1F
100
AcDbEntity
  8
AM_0
100
AcDbSpline
210
0.0
220
0.0
230
1.0
 70
     8
 71
     3
 72
     8
 73
     4
 74
     0
 42
0.0000000001
 43
0.0000000001
 40
0.0
 40
0.0
 40
0.0
 40
0.0
 40
9.068166399416787
 40
9.068166399416787
 40
9.068166399416787
 40
9.068166399416787
 10
-7.109090909091115
 20
-2.499999999999946
 30
0.0
 10
-8.689150205959187
 20
-2.49999999999995
 30
0.0
 10
-10.17810583035844
 20
-2.010432690467702
 30
0.0
 10
-12.00000000000007
 20
-1.324922330424509
 30
0.0
  0
SPLINE
  5
25CB
330
1F
100
AcDbEntity
  8
AM_0
100
AcDbSpline
210
0.0
220
0.0
230
1.0
 70
     8
 71
     3
 72
     8
 73
     4
 74
     0
 42
0.0000000001
 43
0.0000000001
 40
5.360156850992435
 40
5.360156850992435
 40
5.360156850992435
 40
5.360156850992435
 40
14.48999654934396
 40
14.48999654934396
 40
14.48999654934396
 40
14.48999654934396
 10
-12.00000000000007
 20
2.123803390335368
 30
0.0
 10
-10.03952531684294
 20
1.647860544497937
 30
0.0
 10
-8.553331957494009
 20
0.7875985052223449
 30
0.0
 10
-7.109090909091008
 20
0.0000000000000533
 30
0.0
  0
SPLINE
  5
25CC
330
1F
100
AcDbEntity
  8
AM_0
100
AcDbSpline
210
0.0
220
0.0
230
1.0
 70
     8
 71
     3
 72
     8
 73
     4
 74
     0
 42
0.0000000001
 43
0.0000000001
 40
0.0
 40
0.0
 40
0.0
 40
0.0
 40
2.764560748519282
 40
2.764560748519282
 40
2.764560748519282
 40
2.764560748519282
 10
-6.196697227593929
 20
-2.425141835167696
 30
0.0
 10
-5.714993460806489
 20
-2.425141835167696
 30
0.0
 10
-5.241328537518512
 20
-2.38069057425503
 30
0.0
 10
-4.774163303846954
 20
-2.300298894921557
 30
0.0
  0
SPLINE
  5
25CD
330
1F
100
AcDbEntity
  8
AM_0
100
AcDbSpline
210
0.0
220
0.0
230
1.0
 70
     8
 71
     3
 72
     8
 73
     4
 74
     0
 42
0.0000000001
 43
0.0000000001
 40
1.870660592686466
 40
1.870660592686466
 40
1.870660592686466
 40
1.870660592686466
 40
14.43901837670146
 40
14.43901837670146
 40
14.43901837670146
 40
14.43901837670146
 10
-0.0548863636364629
 20
-2.366720578810884
 30
0.0
 10
-2.198572399960625
 20
-2.110950306050739
 30
0.0
 10
-4.197634813777234
 20
-1.055475153025358
 30
0.0
 10
-6.196697227593844
 20
0.0000000000000249
 30
0.0
  0
SPLINE
  5
25CE
330
1F
100
AcDbEntity
  8
AM_0
100
AcDbSpline
210
0.0
220
0.0
230
1.0
 70
     8
 71
     3
 72
     8
 73
     4
 74
     0
 42
0.0000000001
 43
0.0000000001
 40
1.090140354492627
 40
1.090140354492627
 40
1.090140354492627
 40
1.090140354492627
 40
14.36247867694493
 40
14.36247867694493
 40
14.36247867694493
 40
14.36247867694493
 10
-12.33408927694719
 20
2.385143932394342
 30
0.0
 10
-9.402976996957406
 20
2.133485696239652
 30
0.0
 10
-7.274530729587496
 20
1.06674284811984
 30
0.0
 10
-5.146084462217565
 20
0.0000000000000249
 30
0.0
  0
SPLINE
  5
25CF
330
1F
100
AcDbEntity
  8
AM_0
100
AcDbSpline
210
0.0
220
0.0
230
1.0
 70
     8
 71
     3
 72
     8
 73
     4
 74
     0
 42
0.0000000001
 43
0.0000000001
 40
0.0
 40
0.0
 40
0.0
 40
0.0
 40
12.79333816032526
 40
12.79333816032526
 40
12.79333816032526
 40
12.79333816032526
 10
-5.146084462217672
 20
-2.30872225190129
 30
0.0
 10
-7.37522671742586
 20
-2.30872225190129
 30
0.0
 10
-9.446250783444867
 20
-1.392816770078276
 30
0.0
 10
-12.00000000000007
 20
-0.3031621518105467
 30
0.0
  0
SPLINE
  5
25D0
330
1F
100
AcDbEntity
  8
AM_0
100
AcDbSpline
210
0.0
220
0.0
230
1.0
 70
     8
 71
     3
 72
     8
 73
     4
 74
     0
 42
0.0000000001
 43
0.0000000001
 40
0.0
 40
0.0
 40
0.0
 40
0.0
 40
7.244998274671978
 40
7.244998274671978
 40
7.244998274671978
 40
7.244998274671978
 10
-0.0000000000001066
 20
-2.5
 30
0.0
 10
-2.524772126022156
 20
-2.500000000000003
 30
0.0
 10
-4.816931517556582
 20
-1.25
 30
0.0
 10
-7.109090909091008
 20
-0.0000000000000036
 30
0.0
  0
SPLINE
  5
25D1
330
1F
100
AcDbEntity
  8
AM_0
100
AcDbSpline
210
0.0
220
0.0
230
1.0
 70
     8
 71
     3
 72
     8
 73
     4
 74
     0
 42
0.0000000001
 43
0.0000000001
 40
0.0
 40
0.0
 40
0.0
 40
0.0
 40
7.244998274671977
 40
7.244998274671977
 40
7.244998274671977
 40
7.244998274671977
 10
-7.109090909091008
 20
2.500000000000049
 30
0.0
 10
-4.584318783068958
 20
2.500000000000049
 30
0.0
 10
-2.292159391534525
 20
1.250000000000053
 30
0.0
 10
-0.0000000000001066
 20
0.0000000000000568
 30
0.0
  0
SPLINE
  5
25D2
330
1F
100
AcDbEntity
  8
AM_0
100
AcDbSpline
210
0.0
220
0.0
230
1.0
 70
     8
 71
     3
 72
     8
 73
     4
 74
     0
 42
0.0000000001
 43
0.0000000001
 40
0.3581103616548037
 40
0.3581103616548037
 40
0.3581103616548037
 40
0.3581103616548037
 40
12.40023413887867
 40
12.40023413887867
 40
12.40023413887867
 40
12.40023413887867
 10
-6.009904495100357
 20
2.422922711426334
 30
0.0
 10
-3.920614912320516
 20
2.373381968531418
 30
0.0
 10
-1.980069674942157
 20
1.501350564242496
 30
0.0
 10
-0.0610612323888304
 20
0.5102301783044823
 30
0.0
  0
SPLINE
  5
25D3
330
1F
100
AcDbEntity
  8
AM_0
100
AcDbSpline
210
0.0
220
0.0
230
1.0
 70
     8
 71
     3
 72
     8
 73
     4
 74
     0
 42
0.0000000001
 43
0.0000000001
 40
4.542668862435135
 40
4.542668862435135
 40
4.542668862435135
 40
4.542668862435135
 40
14.36247867694493
 40
14.36247867694493
 40
14.36247867694493
 40
14.36247867694493
 10
-0.3580681818175577
 20
-1.998808327728312
 30
0.0
 10
-1.996535823810958
 20
-1.578502843286432
 30
0.0
 10
-3.571310143014258
 20
-0.7892514216432041
 30
0.0
 10
-5.146084462217565
 20
0.0000000000000249
 30
0.0
  0
SPLINE
  5
25D4
330
1F
100
AcDbEntity
  8
AM_0
100
AcDbSpline
210
0.0
220
0.0
230
1.0
 70
     8
 71
     3
 72
     8
 73
     4
 74
     0
 42
0.0000000001
 43
0.0000000001
 40
0.0
 40
0.0
 40
0.0
 40
0.0
 40
5.635889483499127
 40
5.635889483499127
 40
5.635889483499127
 40
5.635889483499127
 10
-0.0000000000001066
 20
2.5
 30
0.0
 10
-0.9820110463673756
 20
2.5
 30
0.0
 10
-1.928831882687163
 20
2.310897014489569
 30
0.0
 10
-2.854149754091196
 20
2.006242719185621
 30
0.0
  0
SPLINE
  5
25D5
330
1F
100
AcDbEntity
  8
AM_0
100
AcDbSpline
210
0.0
220
0.0
230
1.0
 70
     8
 71
     3
 72
     8
 73
     4
 74
     0
 42
0.0000000001
 43
0.0000000001
 40
0.0
 40
0.0
 40
0.0
 40
0.0
 40
1.293282661808357
 40
1.293282661808357
 40
1.293282661808357
 40
1.293282661808357
 10
-0.0000000000001066
 20
2.037351343341981
 30
0.0
 10
-0.2892079488993744
 20
1.706721598075503
 30
0.0
 10
-0.7856170138289187
 20
1.564736898462175
 30
0.0
 10
-1.231844575307
 20
1.504226711264038
 30
0.0
  0
SPLINE
  5
25D6
330
1F
100
AcDbEntity
  8
AM_0
100
AcDbSpline
210
0.0
220
0.0
230
1.0
 70
     8
 71
     3
 72
     8
 73
     4
 74
     0
 42
0.0000000001
 43
0.0000000001
 40
0.7142832446738512
 40
0.7142832446738512
 40
0.7142832446738512
 40
0.7142832446738512
 40
9.361146747480315
 40
9.361146747480315
 40
9.361146747480315
 40
9.361146747480315
 10
-4.774163303791787
 20
2.300298894912142
 30
0.0
 10
-3.279149744986213
 20
2.232891719485792
 30
0.0
 10
-1.852776160984298
 20
1.767884941399813
 30
0.0
 10
-0.4515554478748598
 20
1.157179224740474
 30
0.0
  0
SPLINE
  5
25D7
330
1F
100
AcDbEntity
  8
AM_0
100
AcDbSpline
210
0.0
220
0.0
230
1.0
 70
     8
 71
     3
 72
     8
 73
     4
 74
     0
 42
0.0000000001
 43
0.0000000001
 40
0.0
 40
0.0
 40
0.0
 40
0.0
 40
4.451443990518192
 40
4.451443990518192
 40
4.451443990518192
 40
4.451443990518192
 10
-5.146084462217672
 20
-2.308722251901347
 30
0.0
 10
-4.370454069930403
 20
-2.308722251901347
 30
0.0
 10
-3.613966937718473
 20
-2.197834207123722
 30
0.0
 10
-2.870689887059015
 20
-2.010426274461739
 30
0.0
  0
SPLINE
  5
25D8
330
1F
100
AcDbEntity
  8
AM_0
100
AcDbSpline
210
0.0
220
0.0
230
1.0
 70
     8
 71
     3
 72
     8
 73
     4
 74
     0
 42
0.0000000001
 43
0.0000000001
 40
0.0
 40
0.0
 40
0.0
 40
0.0
 40
11.45610476152127
 40
11.45610476152127
 40
11.45610476152127
 40
11.45610476152127
 10
-6.196697227593929
 20
-2.425141835167639
 30
0.0
 10
-8.192836693616577
 20
-2.425141835167643
 30
0.0
 10
-10.05093288544736
 20
-1.661823380374734
 30
0.0
 10
-12.38051113020821
 20
-0.6671293198357198
 30
0.0
  0
SPLINE
  5
25D9
330
1F
100
AcDbEntity
  8
AM_0
100
AcDbSpline
210
0.0
220
0.0
230
1.0
 70
     8
 71
     3
 72
     8
 73
     4
 74
     0
 42
0.0000000001
 43
0.0000000001
 40
0.3581103616548037
 40
0.3581103616548037
 40
0.3581103616548037
 40
0.3581103616548037
 40
14.43901837670146
 40
14.43901837670146
 40
14.43901837670146
 40
14.43901837670146
 10
-13.64477159520723
 20
2.499999999999992
 30
0.0
 10
-10.64944244611078
 20
2.410958817285063
 30
0.0
 10
-8.436338591168748
 20
1.182497252013316
 30
0.0
 10
-6.196697227593844
 20
0.0000000000000249
 30
0.0
  0
SPLINE
  5
25DA
330
1F
100
AcDbEntity
  8
AM_0
100
AcDbSpline
210
0.0
220
0.0
230
1.0
 70
     8
 71
     3
 72
     8
 73
     4
 74
     0
 42
0.0000000001
 43
0.0000000001
 40
0.0
 40
0.0
 40
0.0
 40
0.0
 40
5.635889483499305
 40
5.635889483499305
 40
5.635889483499305
 40
5.635889483499305
 10
-7.109090909091115
 20
2.500000000000049
 30
0.0
 10
-8.091101955458427
 20
2.500000000000049
 30
0.0
 10
-9.037922791778235
 20
2.310897014489619
 30
0.0
 10
-9.995288943665784
 20
1.987739635821423
 30
0.0
  0
SPLINE
  5
25DB
330
1F
100
AcDbEntity
  8
AM_0
100
AcDbSpline
210
0.0
220
0.0
230
1.0
 70
     8
 71
     3
 72
     8
 73
     4
 74
     0
 42
0.0000000001
 43
0.0000000001
 40
0.0
 40
0.0
 40
0.0
 40
0.0
 40
2.130230809022907
 40
2.130230809022907
 40
2.130230809022907
 40
2.130230809022907
 10
-7.109090909091115
 20
-2.500000000000003
 30
0.0
 10
-6.737914328731051
 20
-2.500000000000003
 30
0.0
 10
-6.371765227143768
 20
-2.472983643910087
 30
0.0
 10
-6.009904495100563
 20
-2.422922711426284
 30
0.0
  0
SPLINE
  5
25DC
330
1F
100
AcDbEntity
  8
AM_0
100
AcDbSpline
210
0.0
220
0.0
230
1.0
 70
     8
 71
     3
 72
     8
 73
     4
 74
     0
 42
0.0000000001
 43
0.0000000001
 40
0.0
 40
0.0
 40
0.0
 40
0.0
 40
4.451443990518192
 40
4.451443990518192
 40
4.451443990518192
 40
4.451443990518192
 10
-13.30681818181817
 20
-2.241470270861928
 30
0.0
 10
-11.97954497902119
 20
-2.235038322392682
 30
0.0
 10
-11.22305784680927
 20
-2.124150277615058
 30
0.0
 10
-10.26549338135993
 20
-1.936742344953074
 30
0.0
  0
LINE
  5
2642
330
1F
100
AcDbEntity
  8
AM_11
100
AcDbLine
 10
-12.00000000000007
 20
2.499999999999992
 30
0.0
 11
-12.00000000000007
 21
-2.500000000000007
 31
0.0
  0
LINE
  5
2715
330
1F
100
AcDbEntity
  8
AM_0
100
AcDbLine
 10
-13.64477159508665
 20
2.499999999999992
 30
0.0
 11
-17.13397459621599
 21
2.499999999999989
 31
0.0
  0
LINE
  5
2716
330
1F
100
AcDbEntity
  8
AM_0
100
AcDbLine
 10
-14.66823878389941
 20
-2.500000000000011
 30
0.0
 11
-17.13397459621512
 21
-2.500000000000013
 31
0.0
  0
VIEWPORT
  5
110
330
101
100
AcDbEntity
 67
     1
  8
0
100
AcDbViewport
 10
420.5
 20
297.0
 30
0.0
 40
948.9782706766916
 41
628.452
 68
     1
 69
     1
1001
ACAD
1000
MVIEW
1002
{
1070
    16
1010
0.0
1020
0.0
1030
0.0
1010
0.0
1020
0.0
1030
1.0
1040
0.0
1040
628.452
1040
420.5
1040
297.0
1040
50.0
1040
0.0
1040
0.0
1070
     0
1070
   100
1070
     1
1070
     1
1070
     0
1070
     0
1070
     0
1070
     0
1040
0.0
1040
0.0
1040
0.0
1040
10.0
1040
10.0
1040
10.0
1040
10.0
1070
     0
1002
{
1002
}
1002
}
  0
ENDSEC
  0
SECTION
  2
OBJECTS
  0
DICTIONARY
  5
C
330
0
100
AcDbDictionary
  3
ACAD_GROUP
350
D
  3
ACAD_LAYOUT
350
1A
  3
ACAD_MLINESTYLE
350
17
  3
ACAD_PLOTSETTINGS
350
19
  3
ACAD_PLOTSTYLENAME
350
E
  3
ACDBVARIABLEDICTIONARY
350
34
  3
ACMDICTIONARY
350
43
  3
AMG
350
2B
  3
AMGSNAPSETTINGS
350
6E
  3
DWGPROPS
350
29E2
  3
ACDBHEADERROUNDTRIPXREC
350
29EE
  0
DICTIONARY
  5
74
330
1F
100
AcDbDictionary
280
     1
  3
ACAD_INDEX
360
29E4
  3
ACAD_LAYOUTSELFREF
360
2A11
  0
DICTIONARY
  5
2A16
330
101
100
AcDbDictionary
280
     1
  3
ACAD_LAYOUTSELFREF
360
2A17
  0
DICTIONARY
  5
D
102
{ACAD_REACTORS
330
C
102
}
330
C
100
AcDbDictionary
  0
DICTIONARY
  5
1A
102
{ACAD_REACTORS
330
C
102
}
330
C
100
AcDbDictionary
  0
DICTIONARY
  5
17
102
{ACAD_REACTORS
330
C
102
}
330
C
100
AcDbDictionary
  3
STANDARD
350
18
  0
DICTIONARY
  5
19
102
{ACAD_REACTORS
330
C
102
}
330
C
100
AcDbDictionary
  0
ACDBDICTIONARYWDFLT
  5
E
102
{ACAD_REACTORS
330
C
102
}
330
C
100
AcDbDictionary
281
     1
  3
Normal
350
F
100
AcDbDictionaryWithDefault
340
F
  0
DICTIONARY
  5
34
102
{ACAD_REACTORS
330
C
102
}
330
C
100
AcDbDictionary
  3
INDEXCTL
350
35
  3
SORTENTS
350
B5E
  0
DICTIONARY
  5
43
102
{ACAD_REACTORS
330
C
102
}
330
C
100
AcDbDictionary
  3
ACMSTDDICTIONARY
350
260
  0
DICTIONARY
  5
2B
102
{ACAD_REACTORS
330
C
102
}
330
C
100
AcDbDictionary
  3
ACMGSETTINGS
350
2C
  0
DICTIONARY
  5
6E
102
{ACAD_REACTORS
330
C
102
}
330
C
100
AcDbDictionary
  0
XRECORD
  5
29E2
102
{ACAD_REACTORS
330
C
102
}
330
C
100
AcDbXrecord
  1
DWGPROPS COOKIE
  2

  3

  4

  6

  7

  8

  9

300
AmdtFileType=82
301
=
302
=
303
=
304
=
305
=
306
=
307
=
308
=
309
=
 40
0.0782864814814815
 41
2452836.771637361
 42
2452901.601290856
  1

 90
        1
  0
DICTIONARY
  5
29EE
102
{ACAD_REACTORS
330
C
102
}
330
C
100
AcDbDictionary
  3
TSTACKALIGN
350
29EF
  3
TSTACKSIZE
350
29F0
  3
HYPERLINKBASE
350
29F1
  3
STYLESHEET
350
29F2
  3
LAYOUTDICT
350
29F3
  3
PLOTSETDICT
350
29F4
  3
PLOTSTYLNAMDICT
350
29F5
  3
LWETCUNION
350
29F6
  3
INSUNITS
350
29F7
  3
CEPSNTYPE
350
29F8
  3
FINGERPRINTGUID
350
29F9
  3
VERSIONGUID
350
29FA
  3
PSVPSCALE
350
29FB
  3
DIMSTYLEDATA
350
29FC
  3
PUCSORTHOREF
350
29FD
  3
PUCSORTHOVIEW
350
29FE
  3
PUCSBASE
350
29FF
  3
PUCSORGTOP
350
2A00
  3
PUCSORGBOTTOM
350
2A01
  3
PUCSORGLEFT
350
2A02
  3
PUCSORGRIGHT
350
2A03
  3
PUCSORGFRONT
350
2A04
  3
PUCSORGBACK
350
2A05
  3
UCSORTHOREF
350
2A06
  3
UCSORTHOVIEW
350
2A07
  3
UCSBASE
350
2A08
  3
UCSORGTOP
350
2A09
  3
UCSORGBOTTOM
350
2A0A
  3
UCSORGLEFT
350
2A0B
  3
UCSORGRIGHT
350
2A0C
  3
UCSORGFRONT
350
2A0D
  3
UCSORGBACK
350
2A0E
  0
DICTIONARY
  5
29E4
102
{ACAD_REACTORS
330
74
102
}
330
74
100
AcDbDictionary
  3
*A1
350
29E5
  0
XRECORD
  5
2A11
102
{ACAD_REACTORS
330
74
102
}
330
74
100
AcDbXrecord
340
1F
  0
XRECORD
  5
2A17
102
{ACAD_REACTORS
330
2A16
102
}
330
2A16
100
AcDbXrecord
340
101
  0
MLINESTYLE
  5
18
102
{ACAD_REACTORS
330
17
102
}
330
17
100
AcDbMlineStyle
  2
STANDARD
 70
     0
  3

 62
   256
 51
90.0
 52
90.0
 71
     2
 49
0.5
 62
   256
  6
BYLAYER
 49
-0.5
 62
   256
  6
BYLAYER
  0
ACDBPLACEHOLDER
  5
F
102
{ACAD_REACTORS
330
E
102
}
330
E
100
AcDbPlaceHolder
280
     0
  0
DICTIONARYVAR
  5
35
102
{ACAD_REACTORS
330
34
102
}
330
34
100
DictionaryVariables
280
     0
  1
1
  0
DICTIONARYVAR
  5
B5E
102
{ACAD_REACTORS
330
34
102
}
330
34
100
DictionaryVariables
280
     0
  1
96
  0
DICTIONARY
  5
260
102
{ACAD_REACTORS
330
43
102
}
330
43
100
AcDbDictionary
  0
DICTIONARY
  5
2C
102
{ACAD_REACTORS
330
2B
102
}
330
2B
100
AcDbDictionary
  3
DWGSETTINGS
350
2D
  0
XRECORD
  5
29EF
102
{ACAD_REACTORS
330
29EE
102
}
330
29EE
100
AcDbXrecord
 90
        1
  0
XRECORD
  5
29F0
102
{ACAD_REACTORS
330
29EE
102
}
330
29EE
100
AcDbXrecord
 90
       70
  0
XRECORD
  5
29F1
102
{ACAD_REACTORS
330
29EE
102
}
330
29EE
100
AcDbXrecord
  1

  0
XRECORD
  5
29F2
102
{ACAD_REACTORS
330
29EE
102
}
330
29EE
100
AcDbXrecord
  1
ASAMI.ctb
  0
XRECORD
  5
29F3
102
{ACAD_REACTORS
330
29EE
102
}
330
29EE
100
AcDbXrecord
340
1A
  0
XRECORD
  5
29F4
102
{ACAD_REACTORS
330
29EE
102
}
330
29EE
100
AcDbXrecord
340
19
  0
XRECORD
  5
29F5
102
{ACAD_REACTORS
330
29EE
102
}
330
29EE
100
AcDbXrecord
340
E
  0
XRECORD
  5
29F6
102
{ACAD_REACTORS
330
29EE
102
}
330
29EE
100
AcDbXrecord
 90
    10781
  0
XRECORD
  5
29F7
102
{ACAD_REACTORS
330
29EE
102
}
330
29EE
100
AcDbXrecord
 90
        4
  0
XRECORD
  5
29F8
102
{ACAD_REACTORS
330
29EE
102
}
330
29EE
100
AcDbXrecord
 90
        0
  0
XRECORD
  5
29F9
102
{ACAD_REACTORS
330
29EE
102
}
330
29EE
100
AcDbXrecord
  1
{AFB28963-8C59-40AE-9337-C84526B81ACE}
  0
XRECORD
  5
29FA
102
{ACAD_REACTORS
330
29EE
102
}
330
29EE
100
AcDbXrecord
  1
{C369C121-DFC2-45BD-8F45-AC1FDEA4BAB4}
  0
XRECORD
  5
29FB
102
{ACAD_REACTORS
330
29EE
102
}
330
29EE
100
AcDbXrecord
 40
0.0
  0
XRECORD
  5
29FC
102
{ACAD_REACTORS
330
29EE
102
}
330
29EE
100
AcDbXrecord
1000
DSTYLE
1002
{
1070
    79
 70
     2
1070
   341
340
59
1070
   342
340
59
1070
   371
 70
    -1
1070
   372
 70
    -1
1002
}
  0
XRECORD
  5
29FD
102
{ACAD_REACTORS
330
29EE
102
}
330
29EE
100
AcDbXrecord
340
0
  0
XRECORD
  5
29FE
102
{ACAD_REACTORS
330
29EE
102
}
330
29EE
100
AcDbXrecord
 70
     0
  0
XRECORD
  5
29FF
102
{ACAD_REACTORS
330
29EE
102
}
330
29EE
100
AcDbXrecord
340
0
  0
XRECORD
  5
2A00
102
{ACAD_REACTORS
330
29EE
102
}
330
29EE
100
AcDbXrecord
 10
0.0
 20
0.0
 30
0.0
  0
XRECORD
  5
2A01
102
{ACAD_REACTORS
330
29EE
102
}
330
29EE
100
AcDbXrecord
 10
0.0
 20
0.0
 30
0.0
  0
XRECORD
  5
2A02
102
{ACAD_REACTORS
330
29EE
102
}
330
29EE
100
AcDbXrecord
 10
0.0
 20
0.0
 30
0.0
  0
XRECORD
  5
2A03
102
{ACAD_REACTORS
330
29EE
102
}
330
29EE
100
AcDbXrecord
 10
0.0
 20
0.0
 30
0.0
  0
XRECORD
  5
2A04
102
{ACAD_REACTORS
330
29EE
102
}
330
29EE
100
AcDbXrecord
 10
0.0
 20
0.0
 30
0.0
  0
XRECORD
  5
2A05
102
{ACAD_REACTORS
330
29EE
102
}
330
29EE
100
AcDbXrecord
 10
0.0
 20
0.0
 30
0.0
  0
XRECORD
  5
2A06
102
{ACAD_REACTORS
330
29EE
102
}
330
29EE
100
AcDbXrecord
340
0
  0
XRECORD
  5
2A07
102
{ACAD_REACTORS
330
29EE
102
}
330
29EE
100
AcDbXrecord
 70
     0
  0
XRECORD
  5
2A08
102
{ACAD_REACTORS
330
29EE
102
}
330
29EE
100
AcDbXrecord
340
0
  0
XRECORD
  5
2A09
102
{ACAD_REACTORS
330
29EE
102
}
330
29EE
100
AcDbXrecord
 10
0.0
 20
0.0
 30
0.0
  0
XRECORD
  5
2A0A
102
{ACAD_REACTORS
330
29EE
102
}
330
29EE
100
AcDbXrecord
 10
0.0
 20
0.0
 30
0.0
  0
XRECORD
  5
2A0B
102
{ACAD_REACTORS
330
29EE
102
}
330
29EE
100
AcDbXrecord
 10
0.0
 20
0.0
 30
0.0
  0
XRECORD
  5
2A0C
102
{ACAD_REACTORS
330
29EE
102
}
330
29EE
100
AcDbXrecord
 10
0.0
 20
0.0
 30
0.0
  0
XRECORD
  5
2A0D
102
{ACAD_REACTORS
330
29EE
102
}
330
29EE
100
AcDbXrecord
 10
0.0
 20
0.0
 30
0.0
  0
XRECORD
  5
2A0E
102
{ACAD_REACTORS
330
29EE
102
}
330
29EE
100
AcDbXrecord
 10
0.0
 20
0.0
 30
0.0
  0
LAYER_INDEX
  5
29E5
102
{ACAD_REACTORS
330
29E4
102
}
330
29E4
100
AcDbIndex
 40
2453151.789160231
100
AcDbLayerIndex
  8
0
360
29E6
 90
        0
  8
AM_0
360
29E7
 90
       56
  8
AM_11
360
29E8
 90
        3
  8
AM_7
360
29E9
 90
        1
  8
AM_5
360
29EA
 90
        4
  8
Defpoints
360
29EB
 90
        0
  8
AM_6
360
29EC
 90
        1
  0
XRECORD
  5
2D
102
{ACAD_REACTORS
330
2C
102
}
330
2C
100
AcDbXrecord
  1
VERSION
140
15.0
  1
PRODUCT
  2
AutoCAD Mechanical 2000
  0
IDBUFFER
  5
29E6
330
0
100
AcDbIdBuffer
  0
IDBUFFER
  5
29E7
330
0
100
AcDbIdBuffer
330
25D7
330
25D8
330
25D9
330
25DA
330
25DB
330
25DC
330
2715
330
2716
330
1E97
330
1E98
330
1E9B
330
1EC7
330
1EDE
330
1EDF
330
1F24
330
1F4D
330
1F4E
330
1F4F
330
1F51
330
2593
330
2594
330
2595
330
2596
330
2597
330
2598
330
2599
330
259A
330
259B
330
259C
330
259D
330
259E
330
259F
330
25A0
330
25A1
330
25A2
330
25A4
330
25A5
330
25A6
330
25A7
330
25A8
330
25A9
330
25B8
330
25B9
330
25CA
330
25CB
330
25CC
330
25CD
330
25CE
330
25CF
330
25D0
330
25D1
330
25D2
330
25D3
330
25D4
330
25D5
330
25D6
  0
IDBUFFER
  5
29E8
330
0
100
AcDbIdBuffer
330
25C8
330
25C9
330
2642
  0
IDBUFFER
  5
29E9
330
0
100
AcDbIdBuffer
330
13DC
  0
IDBUFFER
  5
29EA
330
0
100
AcDbIdBuffer
330
16EA
330
177A
330
1936
330
1E9D
  0
IDBUFFER
  5
29EB
330
0
100
AcDbIdBuffer
  0
IDBUFFER
  5
29EC
330
0
100
AcDbIdBuffer
330
E5A
  0
ENDSEC
  0
EOF
