  0
SECTION
  2
HEADER
  9
$ACADVER
  1
AC1014
  9
$ACADMAINTVER
 70
     9
  9
$DWGCODEPAGE
  3
ANSI_932
  9
$INSBASE
 10
0.0
 20
0.0
 30
0.0
  9
$EXTMIN
 10
-61.41123869649856
 20
-27.25000100000022
 30
-0.00000001
  9
$EXTMAX
 10
8.629789688840498
 20
3.699594943315817
 30
0.00000001
  9
$LIMMIN
 10
-64.30545277596564
 20
-36.07280533105347
  9
$LIMMAX
 10
13.45643524686886
 20
14.42418216455266
  9
$ORTHOMODE
 70
     0
  9
$REGENMODE
 70
     1
  9
$FILLMODE
 70
     1
  9
$QTEXTMODE
 70
     0
  9
$MIRRTEXT
 70
     0
  9
$DRAGMODE
 70
     2
  9
$LTSCALE
 40
1.0
  9
$OSMODE
 70
    55
  9
$ATTMODE
 70
     1
  9
$TEXTSIZE
 40
2.5
  9
$TRACEWID
 40
1.0
  9
$TEXTSTYLE
  7
STANDARD
  9
$CLAYER
  8
AM_0
  9
$CELTYPE
  6
BYLAYER
  9
$CECOLOR
 62
   256
  9
$CELTSCALE
 40
1.0
  9
$DELOBJ
 70
     1
  9
$DISPSILH
 70
     0
  9
$DIMSCALE
 40
0.5
  9
$DIMASZ
 40
2.5
  9
$DIMEXO
 40
1.0
  9
$DIMDLI
 40
12.0
  9
$DIMRND
 40
0.0
  9
$DIMDLE
 40
0.0
  9
$DIMEXE
 40
1.0
  9
$DIMTP
 40
0.1
  9
$DIMTM
 40
0.1
  9
$DIMTXT
 40
3.2
  9
$DIMCEN
 40
0.0
  9
$DIMTSZ
 40
0.0
  9
$DIMTOL
 70
     0
  9
$DIMLIM
 70
     0
  9
$DIMTIH
 70
     0
  9
$DIMTOH
 70
     0
  9
$DIMSE1
 70
     0
  9
$DIMSE2
 70
     0
  9
$DIMTAD
 70
     3
  9
$DIMZIN
 70
     8
  9
$DIMBLK
  1
OPEN30
  9
$DIMASO
 70
     1
  9
$DIMSHO
 70
     1
  9
$DIMPOST
  1

  9
$DIMAPOST
  1
"
  9
$DIMALT
 70
     0
  9
$DIMALTD
 70
     2
  9
$DIMALTF
 40
0.0393701
  9
$DIMLFAC
 40
1.0
  9
$DIMTOFL
 70
     1
  9
$DIMTVP
 40
0.0
  9
$DIMTIX
 70
     0
  9
$DIMSOXD
 70
     0
  9
$DIMSAH
 70
     0
  9
$DIMBLK1
  1

  9
$DIMBLK2
  1

  9
$DIMSTYLE
  2
AM_JIS
  9
$DIMCLRD
 70
   256
  9
$DIMCLRE
 70
   256
  9
$DIMCLRT
 70
     2
  9
$DIMTFAC
 40
0.71
  9
$DIMGAP
 40
1.5
  9
$DIMJUST
 70
     0
  9
$DIMSD1
 70
     0
  9
$DIMSD2
 70
     0
  9
$DIMTOLJ
 70
     0
  9
$DIMTZIN
 70
     0
  9
$DIMALTZ
 70
     0
  9
$DIMALTTZ
 70
     0
  9
$DIMFIT
 70
     3
  9
$DIMUPT
 70
     0
  9
$DIMUNIT
 70
     2
  9
$DIMDEC
 70
     3
  9
$DIMTDEC
 70
     3
  9
$DIMALTU
 70
     2
  9
$DIMALTTD
 70
     2
  9
$DIMTXSTY
  7
ASAMI
  9
$DIMAUNIT
 70
     0
  9
$LUNITS
 70
     2
  9
$LUPREC
 70
     2
  9
$SKETCHINC
 40
1.0
  9
$FILLETRAD
 40
2.5
  9
$AUNITS
 70
     0
  9
$AUPREC
 70
     0
  9
$MENU
  1
.
  9
$ELEVATION
 40
0.0
  9
$PELEVATION
 40
0.0
  9
$THICKNESS
 40
0.0
  9
$LIMCHECK
 70
     0
  9
$BLIPMODE
 70
     0
  9
$CHAMFERA
 40
0.5
  9
$CHAMFERB
 40
0.5
  9
$CHAMFERC
 40
20.0
  9
$CHAMFERD
 40
0.0
  9
$SKPOLY
 70
     0
  9
$TDCREATE
 40
2452836.771637361
  9
$TDUPDATE
 40
2453151.789640567
  9
$TDINDWG
 40
0.0841024653
  9
$TDUSRTIMER
 40
0.0841024653
  9
$USRTIMER
 70
     1
  9
$ANGBASE
 50
0.0
  9
$ANGDIR
 70
     0
  9
$PDMODE
 70
     0
  9
$PDSIZE
 40
0.0
  9
$PLINEWID
 40
0.0
  9
$COORDS
 70
     1
  9
$SPLFRAME
 70
     0
  9
$SPLINETYPE
 70
     6
  9
$SPLINESEGS
 70
     8
  9
$ATTDIA
 70
     1
  9
$ATTREQ
 70
     1
  9
$HANDLING
 70
 12289
  9
$HANDSEED
  5
2BC6
  9
$SURFTAB1
 70
     6
  9
$SURFTAB2
 70
     6
  9
$SURFTYPE
 70
     6
  9
$SURFU
 70
     6
  9
$SURFV
 70
     6
  9
$UCSNAME
  2

  9
$UCSORG
 10
0.0
 20
0.0
 30
0.0
  9
$UCSXDIR
 10
1.0
 20
0.0
 30
0.0
  9
$UCSYDIR
 10
0.0
 20
1.0
 30
0.0
  9
$PUCSNAME
  2

  9
$PUCSORG
 10
0.0
 20
0.0
 30
0.0
  9
$PUCSXDIR
 10
1.0
 20
0.0
 30
0.0
  9
$PUCSYDIR
 10
0.0
 20
1.0
 30
0.0
  9
$USERI1
 70
     0
  9
$USERI2
 70
     0
  9
$USERI3
 70
     0
  9
$USERI4
 70
     0
  9
$USERI5
 70
     0
  9
$USERR1
 40
0.0
  9
$USERR2
 40
0.0
  9
$USERR3
 40
0.0
  9
$USERR4
 40
0.0
  9
$USERR5
 40
0.0
  9
$WORLDVIEW
 70
     1
  9
$SHADEDGE
 70
     3
  9
$SHADEDIF
 70
    70
  9
$TILEMODE
 70
     1
  9
$MAXACTVP
 70
    64
  9
$PINSBASE
 10
0.0
 20
0.0
 30
0.0
  9
$PLIMCHECK
 70
     0
  9
$PEXTMIN
 10
1.000000000000000E+20
 20
1.000000000000000E+20
 30
1.000000000000000E+20
  9
$PEXTMAX
 10
-1.000000000000000E+20
 20
-1.000000000000000E+20
 30
-1.000000000000000E+20
  9
$PLIMMIN
 10
0.0
 20
0.0
  9
$PLIMMAX
 10
841.0
 20
594.0
  9
$UNITMODE
 70
     0
  9
$VISRETAIN
 70
     1
  9
$PLINEGEN
 70
     0
  9
$PSLTSCALE
 70
     0
  9
$TREEDEPTH
 70
  3020
  9
$PICKSTYLE
 70
     0
  9
$CMLSTYLE
  2
STANDARD
  9
$CMLJUST
 70
     0
  9
$CMLSCALE
 40
20.0
  9
$PROXYGRAPHICS
 70
     1
  9
$MEASUREMENT
 70
     1
  0
ENDSEC
  0
SECTION
  2
CLASSES
  0
CLASS
  1
ACDBDICTIONARYWDFLT
  2
AcDbDictionaryWithDefault
  3
AutoCAD 2000
 90
        0
280
     0
281
     0
  0
CLASS
  1
ACDBPLACEHOLDER
  2
AcDbPlaceHolder
  3
AutoCAD 2000
 90
        0
280
     0
281
     0
  0
CLASS
  1
LAYOUT
  2
AcDbLayout
  3
AutoCAD 2000
 90
        0
280
     0
281
     0
  0
CLASS
  1
AMGSETTINGSOBJ
  2
AmgSettingsObj
  3
"AcadM|Product Description: AutoCAD Mechanical 2000|Company: Autodesk"
 90
        0
280
     0
281
     0
  0
CLASS
  1
ACME_DOCUMENT
  2
AcMeDbDoc
  3
AcMeServices
 90
        0
280
     0
281
     0
  0
CLASS
  1
ACMESCOPE
  2
AcMeScope
  3
AcMeServices
 90
        0
280
     0
281
     0
  0
CLASS
  1
ACMECOMMANDHISTORY
  2
AcMeCommandHistory
  3
AcMeServices
 90
        0
280
     0
281
     0
  0
CLASS
  1
DICTIONARYVAR
  2
AcDbDictionaryVar
  3
AutoCAD 2000
 90
        0
280
     0
281
     0
  0
CLASS
  1
ACIMSYSVARMAN
  2
AcImSysVarManager
  3
AcMeServices
 90
        0
280
     0
281
     0
  0
CLASS
  1
ACIMREALSYSVAR
  2
AcImRealSysVar
  3
AcMeServices
 90
        0
280
     0
281
     0
  0
CLASS
  1
ACIMINTSYSVAR
  2
AcImIntSysVar
  3
AcMeServices
 90
        0
280
     0
281
     0
  0
CLASS
  1
ACMEDRAWINGMAN
  2
AcMeDrawingMan
  3
AcMeServices
 90
        0
280
     0
281
     0
  0
CLASS
  1
ACMEVIEW
  2
AcMeView
  3
AcMeServices
 90
        0
280
     0
281
     0
  0
CLASS
  1
ACDBENTITYCACHE
  2
AcMeEntityCache
  3
AcMeServices
 90
        0
280
     0
281
     0
  0
CLASS
  1
GSMANAGER
  2
AcMeGSManager
  3
AcMeServices
 90
        0
280
     0
281
     0
  0
CLASS
  1
AmdtInternalReactor
  2
AmdtInternalReactor
  3
AcMeServices
 90
        0
280
     0
281
     0
  0
CLASS
  1
ACMESTATEMGR
  2
AcMeStateMgr
  3
AcMeServices
 90
        0
280
     0
281
     0
  0
CLASS
  1
ACME_DATABASE
  2
AcMeDbDatabase
  3
AcMeServices
 90
        0
280
     0
281
     0
  0
CLASS
  1
ACRFINSADJUSTERMGR
  2
AcRfInsAdjusterMgr
  3
AcMeServices
 90
        0
280
     0
281
     0
  0
CLASS
  1
ACMDATADICTIONARY
  2
AcmDataDictionary
  3
"AcmSymBB|Product Description: AutoCAD Mechanical 2000|Company: Autodesk"
 90
        0
280
     0
281
     0
  0
CLASS
  1
ACMDATAENTRYBLOCK
  2
AcmDataEntryBlock
  3
"AcmSymBB|Product Description: AutoCAD Mechanical 2000|Company: Autodesk"
 90
        0
280
     0
281
     0
  0
CLASS
  1
AMGOBJPROPCFG
  2
AmgObjPropCfg
  3
"AmgLay|Product Description: AutoCAD Mechanical 2000|Company: Autodesk"
 90
        1
280
     0
281
     0
  0
CLASS
  1
ACAMGFILTERDAT
  2
AcAmgFilterDat
  3
"AcadM|Product Description: AutoCAD Mechanical 2000|Company: Autodesk"
 90
        0
280
     0
281
     0
  0
CLASS
  1
LAYER_INDEX
  2
AcDbLayerIndex
  3
AutoCAD 2000
 90
        0
280
     0
281
     0
  0
CLASS
  1
IDBUFFER
  2
AcDbIdBuffer
  3
AutoCAD 2000
 90
        0
280
     0
281
     0
  0
CLASS
  1
ACIMSTRSYSVAR
  2
AcImStrSysVar
  3
AcMeServices
 90
        0
280
     0
281
     0
  0
CLASS
  1
ACMSTANDARDJIS
  2
AcmStandardJIS
  3
"AcmSymBB|Product Description: AutoCAD Mechanical 2000|Company: Autodesk"
 90
        0
280
     0
281
     0
  0
CLASS
  1
ACMSURFSTANDARDJIS
  2
AcmSurfTextStdJIS
  3
"AcmSymBB|Product Description: AutoCAD Mechanical 2000|Company: Autodesk"
 90
        0
280
     0
281
     0
  0
CLASS
  1
ACMFCFSTANDARDJIS
  2
AcmFCFStdJIS
  3
"AcmSymBB|Product Description: AutoCAD Mechanical 2000|Company: Autodesk"
 90
        0
280
     0
281
     0
  0
CLASS
  1
ACMWELDSTANDARDJIS
  2
AcmWeldingStdJIS
  3
"AcmSymBB|Product Description: AutoCAD Mechanical 2000|Company: Autodesk"
 90
        0
280
     0
281
     0
  0
CLASS
  1
ACMIDSTANDARDJIS
  2
AcmIdStdJIS
  3
"AcmSymBB|Product Description: AutoCAD Mechanical 2000|Company: Autodesk"
 90
        0
280
     0
281
     0
  0
CLASS
  1
ACMDATUMSTANDARDJIS
  2
AcmDatumStdJIS
  3
"AcmSymBB|Product Description: AutoCAD Mechanical 2000|Company: Autodesk"
 90
        0
280
     0
281
     0
  0
CLASS
  1
ACMBOMSTANDARDJIS
  2
AcmBOMStdJIS
  3
"AcmSymBB|Product Description: AutoCAD Mechanical 2000|Company: Autodesk"
 90
        0
280
     0
281
     0
  0
CLASS
  1
ACMSTANDARDANSI
  2
AcmStandardANSI
  3
"AcmSymBB|Product Description: AutoCAD Mechanical 2000|Company: Autodesk"
 90
        0
280
     0
281
     0
  0
CLASS
  1
ACMSURFSTANDARDANSI
  2
AcmSurfTextStdANSI
  3
"AcmSymBB|Product Description: AutoCAD Mechanical 2000|Company: Autodesk"
 90
        0
280
     0
281
     0
  0
CLASS
  1
ACMFCFSTANDARDANSI
  2
AcmFCFStdANSI
  3
"AcmSymBB|Product Description: AutoCAD Mechanical 2000|Company: Autodesk"
 90
        0
280
     0
281
     0
  0
CLASS
  1
ACMWELDSTANDARDANSI
  2
AcmWeldingStdANSI
  3
"AcmSymBB|Product Description: AutoCAD Mechanical 2000|Company: Autodesk"
 90
        0
280
     0
281
     0
  0
CLASS
  1
ACMIDSTANDARDANSI
  2
AcmIdStdANSI
  3
"AcmSymBB|Product Description: AutoCAD Mechanical 2000|Company: Autodesk"
 90
        0
280
     0
281
     0
  0
CLASS
  1
ACMDATUMSTANDARDANSI
  2
AcmDatumStdANSI
  3
"AcmSymBB|Product Description: AutoCAD Mechanical 2000|Company: Autodesk"
 90
        0
280
     0
281
     0
  0
CLASS
  1
ACMBOMSTANDARDANSI
  2
AcmBOMStdANSI
  3
"AcmSymBB|Product Description: AutoCAD Mechanical 2000|Company: Autodesk"
 90
        0
280
     0
281
     0
  0
CLASS
  1
ACMSTANDARDBSI
  2
AcmStandardBSI
  3
"AcmSymBB|Product Description: AutoCAD Mechanical 2000|Company: Autodesk"
 90
        0
280
     0
281
     0
  0
CLASS
  1
ACMSURFSTANDARDBSI
  2
AcmSurfTextStdBSI
  3
"AcmSymBB|Product Description: AutoCAD Mechanical 2000|Company: Autodesk"
 90
        0
280
     0
281
     0
  0
CLASS
  1
ACMFCFSTANDARDBSI
  2
AcmFCFStdBSI
  3
"AcmSymBB|Product Description: AutoCAD Mechanical 2000|Company: Autodesk"
 90
        0
280
     0
281
     0
  0
CLASS
  1
ACMWELDSTANDARDBSI
  2
AcmWeldingStdBSI
  3
"AcmSymBB|Product Description: AutoCAD Mechanical 2000|Company: Autodesk"
 90
        0
280
     0
281
     0
  0
CLASS
  1
ACMIDSTANDARDBSI
  2
AcmIdStdBSI
  3
"AcmSymBB|Product Description: AutoCAD Mechanical 2000|Company: Autodesk"
 90
        0
280
     0
281
     0
  0
CLASS
  1
ACMDATUMSTANDARDBSI
  2
AcmDatumStdBSI
  3
"AcmSymBB|Product Description: AutoCAD Mechanical 2000|Company: Autodesk"
 90
        0
280
     0
281
     0
  0
CLASS
  1
ACMBOMSTANDARDBSI
  2
AcmBOMStdBSI
  3
"AcmSymBB|Product Description: AutoCAD Mechanical 2000|Company: Autodesk"
 90
        0
280
     0
281
     0
  0
CLASS
  1
LONG_TRANSACTION
  2
AcDbLongTransaction
  3
AutoCAD 2000
 90
        0
280
     0
281
     0
  0
CLASS
  1
LWPOLYLINE
  2
AcDbPolyline
  3
AutoCAD 2000
 90
        0
280
     0
281
     1
  0
CLASS
  1
HATCH
  2
AcDbHatch
  3
AutoCAD 2000
 90
        0
280
     0
281
     1
  0
CLASS
  1
XRECORD
  2
AcDbXrecord
  3
AutoCAD 2000
 90
        0
280
     0
281
     0
  0
ENDSEC
  0
SECTION
  2
TABLES
  0
TABLE
  2
VPORT
  5
8
330
0
100
AcDbSymbolTable
 70
     3
  0
VPORT
  5
2B9B
330
8
100
AcDbSymbolTableRecord
100
AcDbViewportTableRecord
  2
*ACTIVE
 70
     0
 10
0.0
 20
0.0
 11
1.0
 21
1.0
 12
-26.38858228485149
 22
-11.77590722418737
 13
0.0
 23
0.0
 14
2.5
 24
2.5
 15
10.0
 25
10.0
 16
0.0
 26
0.0
 36
1.0
 17
0.0
 27
0.0
 37
0.0
 40
44.93278317491895
 41
1.56570841889117
 42
50.0
 43
0.0
 44
0.0
 50
0.0
 51
0.0
 71
     0
 72
   100
 73
     1
 74
     3
 75
     0
 76
     0
 77
     0
 78
     0
  0
ENDTAB
  0
TABLE
  2
LTYPE
  5
5
330
0
100
AcDbSymbolTable
 70
    10
  0
LTYPE
  5
14
330
5
100
AcDbSymbolTableRecord
100
AcDbLinetypeTableRecord
  2
BYBLOCK
 70
     0
  3

 72
    65
 73
     0
 40
0.0
  0
LTYPE
  5
15
330
5
100
AcDbSymbolTableRecord
100
AcDbLinetypeTableRecord
  2
BYLAYER
 70
     0
  3

 72
    65
 73
     0
 40
0.0
  0
LTYPE
  5
16
330
5
100
AcDbSymbolTableRecord
100
AcDbLinetypeTableRecord
  2
CONTINUOUS
 70
     0
  3
Solid line
 72
    65
 73
     0
 40
0.0
  0
LTYPE
  5
4B
330
5
100
AcDbSymbolTableRecord
100
AcDbLinetypeTableRecord
  2
AM_ISO02W050
 70
     0
  3
__ __ __ __ __ __ __ __ __ __ __ __ __ __ __
 72
    65
 73
     2
 40
7.5
 49
6.0
 74
     0
 49
-1.5
 74
     0
  0
LTYPE
  5
4C
330
5
100
AcDbSymbolTableRecord
100
AcDbLinetypeTableRecord
  2
AM_ISO08W050
 70
     0
  3
____ . ____ . ____ . ____ . ____ . ____ . ____
 72
    65
 73
     4
 40
18.0
 49
12.0
 74
     0
 49
-1.5
 74
     0
 49
3.0
 74
     0
 49
-1.5
 74
     0
  0
LTYPE
  5
4D
330
5
100
AcDbSymbolTableRecord
100
AcDbLinetypeTableRecord
  2
AM_ISO09W050
 70
     0
  3
_____ . . _____ . . _____ . . ____ .. ____
 72
    65
 73
     6
 40
22.5
 49
12.0
 74
     0
 49
-1.5
 74
     0
 49
3.0
 74
     0
 49
-1.5
 74
     0
 49
3.0
 74
     0
 49
-1.5
 74
     0
  0
LTYPE
  5
4E
330
5
100
AcDbSymbolTableRecord
100
AcDbLinetypeTableRecord
  2
AMCONSTR
 70
     0
  3
_______________________
 72
    65
 73
     2
 40
9999.0
 49
9999.0
 74
     0
 49
0.0
 74
     0
  0
LTYPE
  5
4F
330
5
100
AcDbSymbolTableRecord
100
AcDbLinetypeTableRecord
  2
AM_ISO02W050X2
 70
     0
  3
 _ _ _ _ _ _ _ _ _ _ _ _
 72
    65
 73
     2
 40
3.75
 49
3.0
 74
     0
 49
-0.75
 74
     0
  0
LTYPE
  5
50
330
5
100
AcDbSymbolTableRecord
100
AcDbLinetypeTableRecord
  2
AM_ISO08W050X2
 70
     0
  3
__ . __ . __ . __ . __ . __
 72
    65
 73
     4
 40
9.0
 49
6.0
 74
     0
 49
-0.75
 74
     0
 49
1.5
 74
     0
 49
-0.75
 74
     0
  0
LTYPE
  5
53
330
5
100
AcDbSymbolTableRecord
100
AcDbLinetypeTableRecord
  2
AMZIGZAG
 70
     0
  3
/\/-/\/-/\/-/\/-/\/-/\/
 72
    65
 73
     2
 40
11.00009999999999
 49
0.0001
 74
     4
 75
   135
340
52
 46
0.04
 50
0.0
 44
0.0
 45
0.0
 49
-11.0
 74
     0
  0
LTYPE
  5
166
330
5
100
AcDbSymbolTableRecord
100
AcDbLinetypeTableRecord
  2
ACJISTGL
 70
     0
  3
_ _ _ _ _
 72
    65
 73
     2
 40
3.0
 49
2.0
 74
     0
 49
-1.0
 74
     0
  0
LTYPE
  5
26A
330
5
100
AcDbSymbolTableRecord
100
AcDbLinetypeTableRecord
  2
ACJISTGB
 70
     0
  3
__ . . __ . .
 72
    65
 73
     6
 40
9.0
 49
4.0
 74
     0
 49
-1.0
 74
     0
 49
1.0
 74
     0
 49
-1.0
 74
     0
 49
1.0
 74
     0
 49
-1.0
 74
     0
  0
ENDTAB
  0
TABLE
  2
LAYER
  5
2
330
0
100
AcDbSymbolTable
 70
     7
  0
LAYER
  5
10
330
2
100
AcDbSymbolTableRecord
100
AcDbLayerTableRecord
  2
0
 70
     0
 62
     7
  6
CONTINUOUS
  0
LAYER
  5
3F9
330
2
100
AcDbSymbolTableRecord
100
AcDbLayerTableRecord
  2
AM_0
 70
     0
 62
     7
  6
CONTINUOUS
  0
LAYER
  5
BD4
330
2
100
AcDbSymbolTableRecord
100
AcDbLayerTableRecord
  2
AM_11
 70
     0
 62
     3
  6
AM_ISO09W050
  0
LAYER
  5
BD5
330
2
100
AcDbSymbolTableRecord
100
AcDbLayerTableRecord
  2
AM_7
 70
     0
 62
     4
  6
AM_ISO08W050
  0
LAYER
  5
BD6
330
2
100
AcDbSymbolTableRecord
100
AcDbLayerTableRecord
  2
AM_5
 70
     0
 62
     3
  6
CONTINUOUS
  0
LAYER
  5
BD7
330
2
100
AcDbSymbolTableRecord
100
AcDbLayerTableRecord
  2
DEFPOINTS
 70
     0
 62
     7
  6
CONTINUOUS
  0
LAYER
  5
E59
330
2
100
AcDbSymbolTableRecord
100
AcDbLayerTableRecord
  2
AM_6
 70
     0
 62
     2
  6
CONTINUOUS
  0
ENDTAB
  0
TABLE
  2
STYLE
  5
3
330
0
100
AcDbSymbolTable
 70
     5
  0
STYLE
  5
11
330
3
100
AcDbSymbolTableRecord
100
AcDbTextStyleTableRecord
  2
STANDARD
 70
     0
 40
0.0
 41
1.0
 50
0.0
 71
     0
 42
2.5
  3
simplex.shx
  4
EXTFONT.SHX
  0
STYLE
  5
52
330
3
100
AcDbSymbolTableRecord
100
AcDbTextStyleTableRecord
  2

 70
     1
 40
0.0
 41
1.0
 50
0.0
 71
     0
 42
2.5
  3
ltypeshp.shx
  4

  0
STYLE
  5
6B
330
3
100
AcDbSymbolTableRecord
100
AcDbTextStyleTableRecord
  2
ASAMI
 70
     0
 40
0.0
 41
1.0
 50
0.0
 71
     0
 42
2.5
  3
simplex.shx
  4
EXTFONT.SHX
  0
STYLE
  5
262
330
3
100
AcDbSymbolTableRecord
100
AcDbTextStyleTableRecord
  2
ACJISTS
 70
     0
 40
1.0
 41
1.0
 50
0.0
 71
     0
 42
2.5
  3
simplex.shx
  4
bigfont.shx
  0
STYLE
  5
269
330
3
100
AcDbSymbolTableRecord
100
AcDbTextStyleTableRecord
  2
ACJISGDT
 70
     0
 40
0.0
 41
1.0
 50
0.0
 71
     0
 42
2.5
  3
amgdtans.shx
  4

  0
ENDTAB
  0
TABLE
  2
VIEW
  5
6
330
0
100
AcDbSymbolTable
 70
     0
  0
ENDTAB
  0
TABLE
  2
UCS
  5
7
330
0
100
AcDbSymbolTable
 70
     0
  0
ENDTAB
  0
TABLE
  2
APPID
  5
9
330
0
100
AcDbSymbolTable
 70
    12
  0
APPID
  5
12
330
9
100
AcDbSymbolTableRecord
100
AcDbRegAppTableRecord
  2
ACAD
 70
     0
  0
APPID
  5
30
330
9
100
AcDbSymbolTableRecord
100
AcDbRegAppTableRecord
  2
MCAD_NO_VIS
 70
     0
  0
APPID
  5
31
330
9
100
AcDbSymbolTableRecord
100
AcDbRegAppTableRecord
  2
ACAD_TEMP_GRAPHIC
 70
     0
  0
APPID
  5
2C2
330
9
100
AcDbSymbolTableRecord
100
AcDbRegAppTableRecord
  2
GENIUS_GENDTOL_13
 70
     0
  0
APPID
  5
339
330
9
100
AcDbSymbolTableRecord
100
AcDbRegAppTableRecord
  2
GENIUS_GENODEF_13
 70
     0
  0
APPID
  5
33A
330
9
100
AcDbSymbolTableRecord
100
AcDbRegAppTableRecord
  2
GENIUS_GENOBJ-N-RSBK_13
 70
     0
  0
APPID
  5
33B
330
9
100
AcDbSymbolTableRecord
100
AcDbRegAppTableRecord
  2
GENIUS_GENOBJ-N-LIB_13
 70
     0
  0
APPID
  5
33C
330
9
100
AcDbSymbolTableRecord
100
AcDbRegAppTableRecord
  2
GENIUS_GENSCALE_13
 70
     0
  0
APPID
  5
378
330
9
100
AcDbSymbolTableRecord
100
AcDbRegAppTableRecord
  2
GENIUS_GENDIMSH_14
 70
     0
  0
APPID
  5
BD8
330
9
100
AcDbSymbolTableRecord
100
AcDbRegAppTableRecord
  2
GENIUS_GENOBJ-N-CEN_13
 70
     0
  0
APPID
  5
BD9
330
9
100
AcDbSymbolTableRecord
100
AcDbRegAppTableRecord
  2
GENIUS_GENFIL_13
 70
     0
  0
APPID
  5
BDA
330
9
100
AcDbSymbolTableRecord
100
AcDbRegAppTableRecord
  2
GENIUS_GENOBJ-N-CHA_13
 70
     0
  0
ENDTAB
  0
TABLE
  2
DIMSTYLE
  5
A
330
0
100
AcDbSymbolTable
 70
     8
  0
DIMSTYLE
105
58
102
{ACAD_REACTORS
330
16EA
330
177A
330
1E9D
330
28FB
102
}
330
A
100
AcDbSymbolTableRecord
100
AcDbDimStyleTableRecord
  2
AM_JIS
 70
     0
  3

  4
"
  5
OPEN30
  6

  7

 40
0.5
 41
2.5
 42
1.0
 43
12.0
 44
1.0
 45
0.0
 46
0.0
 47
0.1
 48
0.1
140
3.2
141
0.0
142
0.0
143
0.0393701
144
1.0
145
0.0
146
0.71
147
1.5
 71
     0
 72
     0
 73
     0
 74
     0
 75
     0
 76
     0
 77
     3
 78
     8
170
     0
171
     2
172
     1
173
     0
174
     0
175
     0
176
   256
177
   256
178
     2
270
     2
271
     3
272
     3
273
     2
274
     2
340
6B
275
     0
280
     0
281
     0
282
     0
283
     0
284
     0
285
     0
286
     0
287
     3
288
     0
  0
DIMSTYLE
105
5F
330
A
100
AcDbSymbolTableRecord
100
AcDbDimStyleTableRecord
  2
AM_JIS$3
 70
     0
  3

  4
"
  5
OPEN30
  6

  7

 40
0.5
 41
2.5
 42
1.0
 43
10.0
 44
1.0
 45
0.0
 46
0.0
 47
0.1
 48
0.1
140
3.2
141
0.0
142
0.0
143
0.0393701
144
1.0
145
0.0
146
0.71
147
1.5
 71
     0
 72
     0
 73
     0
 74
     1
 75
     0
 76
     0
 77
     3
 78
     8
170
     0
171
     2
172
     0
173
     0
174
     0
175
     0
176
   256
177
   256
178
     2
270
     2
271
     2
272
     3
273
     2
274
     2
340
6B
275
     0
280
     0
281
     0
282
     0
283
     0
284
     0
285
     0
286
     0
287
     0
288
     1
  0
DIMSTYLE
105
60
330
A
100
AcDbSymbolTableRecord
100
AcDbDimStyleTableRecord
  2
AM_JIS$4
 70
     0
  3

  4
"
  5
OPEN30
  6

  7

 40
0.5
 41
2.5
 42
1.0
 43
10.0
 44
1.0
 45
0.0
 46
0.0
 47
0.1
 48
0.1
140
3.2
141
0.0
142
0.0
143
0.0393701
144
1.0
145
0.0
146
0.71
147
1.5
 71
     0
 72
     0
 73
     0
 74
     1
 75
     0
 76
     0
 77
     3
 78
     8
170
     0
171
     2
172
     0
173
     0
174
     0
175
     0
176
   256
177
   256
178
     2
270
     2
271
     2
272
     3
273
     2
274
     2
340
6B
275
     0
280
     0
281
     0
282
     0
283
     0
284
     0
285
     0
286
     0
287
     0
288
     1
  0
DIMSTYLE
105
61
330
A
100
AcDbSymbolTableRecord
100
AcDbDimStyleTableRecord
  2
AM_JIS$6
 70
     0
  3

  4
"
  5
OPEN30
  6

  7

 40
0.5
 41
2.5
 42
1.0
 43
10.0
 44
1.0
 45
0.0
 46
0.0
 47
0.1
 48
0.1
140
3.2
141
0.0
142
0.0
143
0.0393701
144
1.0
145
0.0
146
0.71
147
1.5
 71
     0
 72
     0
 73
     0
 74
     0
 75
     0
 76
     0
 77
     0
 78
     8
170
     0
171
     2
172
     1
173
     0
174
     0
175
     0
176
   256
177
   256
178
     2
270
     2
271
     2
272
     2
273
     2
274
     2
340
6B
275
     0
280
     0
281
     0
282
     0
283
     0
284
     0
285
     0
286
     0
287
     3
288
     0
  0
DIMSTYLE
105
62
330
A
100
AcDbSymbolTableRecord
100
AcDbDimStyleTableRecord
  2
AM_JIS$7
 70
     0
  3

  4
"
  5
OPEN30
  6

  7

 40
0.5
 41
2.5
 42
1.0
 43
10.0
 44
1.0
 45
0.0
 46
0.0
 47
0.1
 48
0.1
140
3.2
141
0.0
142
0.0
143
0.0393701
144
1.0
145
0.0
146
0.71
147
1.5
 71
     0
 72
     0
 73
     0
 74
     0
 75
     0
 76
     0
 77
     3
 78
     8
170
     0
171
     2
172
     1
173
     0
174
     0
175
     0
176
   256
177
   256
178
     2
270
     2
271
     2
272
     3
273
     2
274
     2
340
6B
275
     0
280
     0
281
     0
282
     0
283
     0
284
     0
285
     0
286
     0
287
     3
288
     0
  0
DIMSTYLE
105
63
330
A
100
AcDbSymbolTableRecord
100
AcDbDimStyleTableRecord
  2
AM_JIS$SF
 70
     0
  3

  4
"
  5
OPEN30
  6

  7

 40
0.5
 41
2.5
 42
1.0
 43
10.0
 44
1.0
 45
0.0
 46
0.0
 47
0.1
 48
0.1
140
3.2
141
0.0
142
0.0
143
0.0393701
144
1.0
145
0.0
146
0.71
147
1.5
 71
     0
 72
     0
 73
     0
 74
     0
 75
     1
 76
     1
 77
     3
 78
     8
170
     0
171
     2
172
     1
173
     0
174
     0
175
     0
176
   256
177
   256
178
     2
270
     2
271
     2
272
     2
273
     2
274
     2
340
6B
275
     0
280
     0
281
     0
282
     0
283
     0
284
     0
285
     0
286
     0
287
     3
288
     0
  0
DIMSTYLE
105
68
330
A
100
AcDbSymbolTableRecord
100
AcDbDimStyleTableRecord
  2
AM_JIS$SH
 70
     0
  3

  4
"
  5

  6
GENAXEH
  7
OPEN30
 40
0.5
 41
2.5
 42
1.0
 43
10.0
 44
1.0
 45
0.0
 46
0.0
 47
0.1
 48
0.1
140
3.2
141
0.0
142
0.0
143
0.0393701
144
2.0
145
0.0
146
0.71
147
1.5
 71
     0
 72
     0
 73
     0
 74
     0
 75
     1
 76
     1
 77
     3
 78
     8
170
     0
171
     2
172
     1
173
     1
174
     0
175
     0
176
   256
177
   256
178
     2
270
     2
271
     2
272
     2
273
     2
274
     2
340
6B
275
     0
280
     0
281
     0
282
     0
283
     0
284
     0
285
     0
286
     0
287
     3
288
     0
  0
DIMSTYLE
105
B34
330
A
100
AcDbSymbolTableRecord
100
AcDbDimStyleTableRecord
  2
AM_JIS$2
 70
     0
  3

  4
"
  5
OPEN30
  6

  7

 40
0.5
 41
2.5
 42
1.0
 43
12.0
 44
1.0
 45
0.0
 46
0.0
 47
0.1
 48
0.1
140
3.2
141
0.0
142
0.0
143
0.0393701
144
1.0
145
0.0
146
0.71
147
1.5
 71
     0
 72
     0
 73
     0
 74
     0
 75
     0
 76
     0
 77
     3
 78
     8
170
     0
171
     2
172
     1
173
     0
174
     0
175
     0
176
   256
177
   256
178
     2
270
     2
271
     3
272
     3
273
     2
274
     2
340
6B
275
     0
280
     0
281
     0
282
     0
283
     0
284
     0
285
     0
286
     0
287
     3
288
     0
  0
ENDTAB
  0
TABLE
  2
BLOCK_RECORD
  5
1
330
0
100
AcDbSymbolTable
 70
     9
  0
BLOCK_RECORD
  5
1F
102
{ACAD_XDICTIONARY
360
74
102
}
330
1
100
AcDbSymbolTableRecord
100
AcDbBlockTableRecord
  2
*MODEL_SPACE
  0
BLOCK_RECORD
  5
101
102
{ACAD_XDICTIONARY
360
2BC4
102
}
330
1
100
AcDbSymbolTableRecord
100
AcDbBlockTableRecord
  2
*PAPER_SPACE
  0
BLOCK_RECORD
  5
59
330
1
100
AcDbSymbolTableRecord
100
AcDbBlockTableRecord
  2
_OPEN30
  0
BLOCK_RECORD
  5
64
330
1
100
AcDbSymbolTableRecord
100
AcDbBlockTableRecord
  2
GENAXEH
  0
BLOCK_RECORD
  5
16EB
330
1
100
AcDbSymbolTableRecord
100
AcDbBlockTableRecord
  2
*D5
  0
BLOCK_RECORD
  5
177B
330
1
100
AcDbSymbolTableRecord
100
AcDbBlockTableRecord
  2
*D6
  0
BLOCK_RECORD
  5
1E9E
330
1
100
AcDbSymbolTableRecord
100
AcDbBlockTableRecord
  2
*D7
  0
BLOCK_RECORD
  5
28FC
330
1
100
AcDbSymbolTableRecord
100
AcDbBlockTableRecord
  2
*D8
  0
ENDTAB
  0
ENDSEC
  0
SECTION
  2
BLOCKS
  0
BLOCK
  5
20
330
1F
100
AcDbEntity
  8
0
100
AcDbBlockBegin
  2
*MODEL_SPACE
 70
     0
 10
0.0
 20
0.0
 30
0.0
  3
*MODEL_SPACE
  1

  0
ENDBLK
  5
21
330
1F
100
AcDbEntity
  8
0
100
AcDbBlockEnd
  0
BLOCK
  5
103
330
101
100
AcDbEntity
 67
     1
  8
0
100
AcDbBlockBegin
  2
*PAPER_SPACE
 70
     0
 10
0.0
 20
0.0
 30
0.0
  3
*PAPER_SPACE
  1

  0
ENDBLK
  5
104
330
101
100
AcDbEntity
 67
     1
  8
0
100
AcDbBlockEnd
  0
BLOCK
  5
5D
330
59
100
AcDbEntity
  8
0
100
AcDbBlockBegin
  2
_OPEN30
 70
     0
 10
0.0
 20
0.0
 30
0.0
  3
_OPEN30
  1

  0
LINE
  5
5A
330
59
100
AcDbEntity
  8
0
 62
     0
100
AcDbLine
 10
-1.0
 20
0.26794919
 30
0.0
 11
0.0
 21
0.0
 31
0.0
  0
LINE
  5
5B
330
59
100
AcDbEntity
  8
0
 62
     0
100
AcDbLine
 10
0.0
 20
0.0
 30
0.0
 11
-1.0
 21
-0.26794919
 31
0.0
  0
LINE
  5
5C
330
59
100
AcDbEntity
  8
0
 62
     0
100
AcDbLine
 10
0.0
 20
0.0
 30
0.0
 11
-1.0
 21
0.0
 31
0.0
  0
ENDBLK
  5
5E
330
59
100
AcDbEntity
  8
0
100
AcDbBlockEnd
  0
BLOCK
  5
66
330
64
100
AcDbEntity
  8
0
100
AcDbBlockBegin
  2
GENAXEH
 70
     0
 10
0.0
 20
0.0
 30
0.0
  3
GENAXEH
  1

  0
LINE
  5
65
330
64
100
AcDbEntity
  8
0
100
AcDbLine
 10
-1.0
 20
0.0
 30
0.0
 11
1.0
 21
0.0
 31
0.0
  0
ENDBLK
  5
67
330
64
100
AcDbEntity
  8
0
100
AcDbBlockEnd
  0
BLOCK
  5
16F5
330
16EB
100
AcDbEntity
  8
0
100
AcDbBlockBegin
  2
*D5
 70
     1
 10
0.0
 20
0.0
 30
0.0
  3
*D5
  1

  0
LINE
  5
2B14
330
16EB
100
AcDbEntity
  8
AM_5
100
AcDbLine
 10
-0.0000000000012266
 20
-3.5
 30
0.0
 11
-0.000000000001227
 21
-10.5000010000001
 31
0.0
  0
LINE
  5
2B15
330
16EB
100
AcDbEntity
  8
AM_5
100
AcDbLine
 10
-12.00000000000055
 20
-3.50000000000001
 30
0.0
 11
-12.00000000000055
 21
-10.5000010000001
 31
0.0
  0
LINE
  5
2B16
330
16EB
100
AcDbEntity
  8
AM_5
100
AcDbLine
 10
-1.250000000001227
 20
-10.0000010000001
 30
0.0
 11
-10.75000000000055
 21
-10.0000010000001
 31
0.0
  0
INSERT
  5
2B17
330
16EB
100
AcDbEntity
  8
AM_5
100
AcDbBlockReference
  2
_OPEN30
 10
-0.000000000001227
 20
-10.0000010000001
 30
0.0
 41
1.25
 42
1.25
 43
1.25
  0
INSERT
  5
2B18
330
16EB
100
AcDbEntity
  8
AM_5
100
AcDbBlockReference
  2
_OPEN30
 10
-12.00000000000055
 20
-10.0000010000001
 30
0.0
 41
1.25
 42
1.25
 43
1.25
 50
180.0
  0
MTEXT
  5
2B19
330
16EB
100
AcDbEntity
  8
AM_5
 62
     2
100
AcDbMText
 10
-6.000000000000888
 20
-8.450001000000106
 30
0.0
 40
1.6
 41
0.0
 71
     5
 72
     1
  1
12
  7
ASAMI
1001
ACAD
1000
MTEXTBEGIN
1070
    73
1070
     1
1070
    44
1040
1.0
1070
    74
1070
     0
1000
MTEXTEND
  0
POINT
  5
2B1A
330
16EB
100
AcDbEntity
  8
DEFPOINTS
 62
     0
100
AcDbPoint
 10
-0.0000000000012266
 20
-3.0
 30
0.0
  0
POINT
  5
2B1B
330
16EB
100
AcDbEntity
  8
DEFPOINTS
 62
     0
100
AcDbPoint
 10
-12.00000000000055
 20
-3.00000000000001
 30
0.0
  0
POINT
  5
2B1C
330
16EB
100
AcDbEntity
  8
DEFPOINTS
 62
     0
100
AcDbPoint
 10
-12.00000000000055
 20
-10.0000010000001
 30
0.0
  0
ENDBLK
  5
16F6
330
16EB
100
AcDbEntity
  8
0
100
AcDbBlockEnd
  0
BLOCK
  5
1785
330
177B
100
AcDbEntity
  8
0
100
AcDbBlockBegin
  2
*D6
 70
     1
 10
0.0
 20
0.0
 30
0.0
  3
*D6
  1

  0
LINE
  5
2B1D
330
177B
100
AcDbEntity
  8
AM_5
100
AcDbLine
 10
-0.000000000000636
 20
-3.5
 30
0.0
 11
-0.0000000000006368
 21
-16.5000010000002
 31
0.0
  0
LINE
  5
2B1E
330
177B
100
AcDbEntity
  8
AM_5
100
AcDbLine
 10
-50.0
 20
-3.000000000000136
 30
0.0
 11
-50.0
 21
-16.5000010000002
 31
0.0
  0
LINE
  5
2B1F
330
177B
100
AcDbEntity
  8
AM_5
100
AcDbLine
 10
-1.250000000000636
 20
-16.0000010000002
 30
0.0
 11
-48.75
 21
-16.0000010000002
 31
0.0
  0
INSERT
  5
2B20
330
177B
100
AcDbEntity
  8
AM_5
100
AcDbBlockReference
  2
_OPEN30
 10
-0.0000000000006367
 20
-16.0000010000002
 30
0.0
 41
1.25
 42
1.25
 43
1.25
  0
INSERT
  5
2B21
330
177B
100
AcDbEntity
  8
AM_5
100
AcDbBlockReference
  2
_OPEN30
 10
-50.0
 20
-16.0000010000002
 30
0.0
 41
1.25
 42
1.25
 43
1.25
 50
180.0
  0
MTEXT
  5
2B22
330
177B
100
AcDbEntity
  8
AM_5
 62
     2
100
AcDbMText
 10
-25.00000000000031
 20
-14.4500010000002
 30
0.0
 40
1.6
 41
0.0
 71
     5
 72
     1
  1
50
  7
ASAMI
1001
ACAD
1000
MTEXTBEGIN
1070
    73
1070
     1
1070
    44
1040
1.0
1070
    74
1070
     0
1000
MTEXTEND
  0
POINT
  5
2B23
330
177B
100
AcDbEntity
  8
DEFPOINTS
 62
     0
100
AcDbPoint
 10
-0.0000000000006359
 20
-3.0
 30
0.0
  0
POINT
  5
2B24
330
177B
100
AcDbEntity
  8
DEFPOINTS
 62
     0
100
AcDbPoint
 10
-50.0
 20
-2.500000000000136
 30
0.0
  0
POINT
  5
2B25
330
177B
100
AcDbEntity
  8
DEFPOINTS
 62
     0
100
AcDbPoint
 10
-50.0
 20
-16.0000010000002
 30
0.0
  0
ENDBLK
  5
1786
330
177B
100
AcDbEntity
  8
0
100
AcDbBlockEnd
  0
BLOCK
  5
1EA8
330
1E9E
100
AcDbEntity
  8
0
100
AcDbBlockBegin
  2
*D7
 70
     1
 10
0.0
 20
0.0
 30
0.0
  3
*D7
  1

  0
LINE
  5
2B02
330
1E9E
100
AcDbEntity
  8
AM_5
100
AcDbLine
 10
-50.0
 20
2.999999999999863
 30
0.0
 11
-59.56123869649855
 21
2.999999999999866
 31
0.0
  0
LINE
  5
2B03
330
1E9E
100
AcDbEntity
  8
AM_5
100
AcDbLine
 10
-50.0
 20
-3.000000000000136
 30
0.0
 11
-59.56123869649855
 21
-3.000000000000133
 31
0.0
  0
LINE
  5
2B04
330
1E9E
100
AcDbEntity
  8
AM_5
100
AcDbLine
 10
-59.06123869649856
 20
1.749999999999866
 30
0.0
 11
-59.06123869649856
 21
-1.750000000000133
 31
0.0
  0
INSERT
  5
2B05
330
1E9E
100
AcDbEntity
  8
AM_5
100
AcDbBlockReference
  2
_OPEN30
 10
-59.06123869649856
 20
2.999999999999866
 30
0.0
 41
1.25
 42
1.25
 43
1.25
 50
90.0
  0
INSERT
  5
2B06
330
1E9E
100
AcDbEntity
  8
AM_5
100
AcDbBlockReference
  2
_OPEN30
 10
-59.06123869649856
 20
-3.000000000000133
 30
0.0
 41
1.25
 42
1.25
 43
1.25
 50
270.0
  0
MTEXT
  5
2B07
330
1E9E
100
AcDbEntity
  8
AM_5
 62
     2
100
AcDbMText
 10
-60.61123869649855
 20
-0.0000000000001432
 30
0.0
 40
1.6
 41
0.0
 71
     5
 72
     1
  1
%%c6
  7
ASAMI
 11
0.0000000000000001
 21
1.0
 31
0.0
1001
ACAD
1000
MTEXTBEGIN
1070
    73
1070
     1
1070
    44
1040
1.0
1070
    74
1070
     0
1000
MTEXTEND
  0
POINT
  5
2B08
330
1E9E
100
AcDbEntity
  8
DEFPOINTS
 62
     0
100
AcDbPoint
 10
-49.5
 20
2.999999999999863
 30
0.0
  0
POINT
  5
2B09
330
1E9E
100
AcDbEntity
  8
DEFPOINTS
 62
     0
100
AcDbPoint
 10
-49.5
 20
-3.000000000000136
 30
0.0
  0
POINT
  5
2B0A
330
1E9E
100
AcDbEntity
  8
DEFPOINTS
 62
     0
100
AcDbPoint
 10
-59.06123869649856
 20
-3.000000000000133
 30
0.0
  0
ENDBLK
  5
1EA9
330
1E9E
100
AcDbEntity
  8
0
100
AcDbBlockEnd
  0
BLOCK
  5
2907
330
28FC
100
AcDbEntity
  8
0
100
AcDbBlockBegin
  2
*D8
 70
     1
 10
0.0
 20
0.0
 30
0.0
  3
*D8
  1

  0
LINE
  5
2ADC
330
28FC
100
AcDbEntity
  8
AM_5
100
AcDbLine
 10
0.4999999999988826
 20
3.0
 30
0.0
 11
8.629789688840498
 21
2.999999999999997
 31
0.0
  0
LINE
  5
2ADD
330
28FC
100
AcDbEntity
  8
AM_5
100
AcDbLine
 10
0.4999999999985835
 20
-3.0
 30
0.0
 11
8.629789688840498
 21
-3.000000000000002
 31
0.0
  0
LINE
  5
2ADE
330
28FC
100
AcDbEntity
  8
AM_5
100
AcDbLine
 10
8.129789688840498
 20
1.749999999999997
 30
0.0
 11
8.129789688840498
 21
-1.750000000000002
 31
0.0
  0
INSERT
  5
2ADF
330
28FC
100
AcDbEntity
  8
AM_5
100
AcDbBlockReference
  2
_OPEN30
 10
8.129789688840498
 20
2.999999999999997
 30
0.0
 41
1.25
 42
1.25
 43
1.25
 50
90.0
  0
INSERT
  5
2AE0
330
28FC
100
AcDbEntity
  8
AM_5
100
AcDbBlockReference
  2
_OPEN30
 10
8.129789688840498
 20
-3.000000000000002
 30
0.0
 41
1.25
 42
1.25
 43
1.25
 50
270.0
  0
MTEXT
  5
2AE1
330
28FC
100
AcDbEntity
  8
AM_5
 62
     2
100
AcDbMText
 10
6.579789688840497
 20
-0.0000000000000008
 30
0.0
 40
1.6
 41
0.0
 71
     5
 72
     1
  1
%%c6
  7
ASAMI
 11
0.0000000000000001
 21
1.0
 31
0.0
1001
ACAD
1000
MTEXTBEGIN
1070
    73
1070
     1
1070
    44
1040
1.0
1070
    74
1070
     0
1000
MTEXTEND
  0
POINT
  5
2AE2
330
28FC
100
AcDbEntity
  8
DEFPOINTS
 62
     0
100
AcDbPoint
 10
-0.0000000000011174
 20
3.0
 30
0.0
  0
POINT
  5
2AE3
330
28FC
100
AcDbEntity
  8
DEFPOINTS
 62
     0
100
AcDbPoint
 10
-0.0000000000014166
 20
-3.0
 30
0.0
  0
POINT
  5
2AE4
330
28FC
100
AcDbEntity
  8
DEFPOINTS
 62
     0
100
AcDbPoint
 10
8.129789688840498
 20
-3.000000000000002
 30
0.0
  0
ENDBLK
  5
2908
330
28FC
100
AcDbEntity
  8
0
100
AcDbBlockEnd
  0
ENDSEC
  0
SECTION
  2
ENTITIES
  0
TEXT
  5
E5A
330
1F
100
AcDbEntity
  8
AM_6
100
AcDbText
 10
-35.5952380952384
 20
-27.2500010000002
 30
0.0
 40
2.5
  1
SSM4060ZX
 72
     4
 11
-25.00000000000031
 21
-26.0000010000002
 31
0.0
100
AcDbText
  0
LINE
  5
13DC
330
1F
100
AcDbEntity
  8
AM_7
  6
AM_ISO08W050X2
100
AcDbLine
 10
1.129788688840505
 20
-0.000000000000095
 30
0.0
 11
-52.06123769649856
 21
-0.0000000000001359
 31
0.0
1001
GENIUS_GENODEF_13
1002
{
1000
HIER
1070
     0
1002
}
1002
{
1000
MANEDIT
1070
     0
1002
}
1002
{
1000
NOSEL
1070
     0
1002
}
1002
{
1000
BEHIND
1070
     0
1002
}
1002
{
1000
REACTOR
1002
}
1001
GENIUS_GENOBJ-N-CEN_13
1002
{
1000
OWNER
1000
GEN
1002
}
  0
DIMENSION
  5
16EA
330
1F
100
AcDbEntity
  8
AM_5
100
AcDbDimension
  2
*D5
 10
-12.00000000000055
 20
-10.0000010000001
 30
0.0
 11
-6.000000000000888
 21
-8.450001000000106
 31
0.0
 70
    32
  1
<>
  3
AM_JIS
100
AcDbAlignedDimension
 13
-0.0000000000012266
 23
-3.0
 33
0.0
 14
-12.00000000000055
 24
-3.00000000000001
 34
0.0
 50
0.0000000000001641
100
AcDbRotatedDimension
1001
GENIUS_GENDTOL_13
1000

1000
h7
1000

1040
0.0
  0
DIMENSION
  5
177A
330
1F
100
AcDbEntity
  8
AM_5
100
AcDbDimension
  2
*D6
 10
-50.0
 20
-16.0000010000002
 30
0.0
 11
-25.00000000000031
 21
-14.4500010000002
 31
0.0
 70
    32
  1
<>
  3
AM_JIS
100
AcDbAlignedDimension
 13
-0.0000000000006359
 23
-3.0
 33
0.0
 14
-50.0
 24
-2.500000000000136
 34
0.0
 50
0.0000000000001641
100
AcDbRotatedDimension
1001
GENIUS_GENDTOL_13
1000

1000
h7
1000

1040
0.0
  0
LINE
  5
1E97
330
1F
100
AcDbEntity
  8
AM_0
100
AcDbLine
 10
-49.5
 20
2.999999999999863
 30
0.0
 11
-15.38080161315913
 21
2.999999999999872
 31
0.0
  0
LINE
  5
1E98
330
1F
100
AcDbEntity
  8
AM_0
100
AcDbLine
 10
-13.40341469662889
 20
-3.000000000000128
 30
0.0
 11
-49.5
 21
-3.000000000000136
 31
0.0
  0
LINE
  5
1E9B
330
1F
100
AcDbEntity
  8
AM_0
100
AcDbLine
 10
-50.0
 20
-2.500000000000136
 30
0.0
 11
-50.0
 21
2.499999999999863
 31
0.0
  0
DIMENSION
  5
1E9D
330
1F
100
AcDbEntity
  8
AM_5
100
AcDbDimension
  2
*D7
 10
-59.06123869649856
 20
-3.000000000000133
 30
0.0
 11
-60.61123869649855
 21
-0.0000000000001432
 31
0.0
 70
    32
  1
%%c<>
  3
AM_JIS
100
AcDbAlignedDimension
 13
-49.5
 23
2.999999999999863
 33
0.0
 14
-49.5
 24
-3.000000000000136
 34
0.0
 50
270.0
100
AcDbRotatedDimension
1001
GENIUS_GENDTOL_13
1000

1000
h7
1000

1040
0.0
  0
LINE
  5
1EC7
330
1F
100
AcDbEntity
  8
AM_0
100
AcDbLine
 10
-49.5
 20
2.999999999999863
 30
0.0
 11
-50.0
 21
2.499999999999863
 31
0.0
1001
GENIUS_GENFIL_13
1070
     0
1040
0.5
1040
0.5
1040
20.0
1040
0.0
1002
{
1002
}
1001
GENIUS_GENODEF_13
1002
{
1000
HIER
1070
     0
1002
}
1002
{
1000
MANEDIT
1070
     0
1002
}
1002
{
1000
NOSEL
1070
     0
1002
}
1002
{
1000
BEHIND
1070
     0
1002
}
1002
{
1000
REACTOR
1002
}
1001
GENIUS_GENOBJ-N-CHA_13
1002
{
1000
OWNER
1000
GEN
1002
}
  0
LINE
  5
1EDE
330
1F
100
AcDbEntity
  8
AM_0
100
AcDbLine
 10
-49.5
 20
-3.000000000000136
 30
0.0
 11
-50.0
 21
-2.500000000000136
 31
0.0
1001
GENIUS_GENFIL_13
1070
     0
1040
0.5
1040
0.5
1040
20.0
1040
0.0
1002
{
1002
}
1001
GENIUS_GENODEF_13
1002
{
1000
HIER
1070
     0
1002
}
1002
{
1000
MANEDIT
1070
     0
1002
}
1002
{
1000
NOSEL
1070
     0
1002
}
1002
{
1000
BEHIND
1070
     0
1002
}
1002
{
1000
REACTOR
1002
}
1001
GENIUS_GENOBJ-N-CHA_13
1002
{
1000
OWNER
1000
GEN
1002
}
  0
LINE
  5
1EDF
330
1F
100
AcDbEntity
  8
AM_0
100
AcDbLine
 10
-49.5
 20
2.999999999999863
 30
0.0
 11
-49.5
 21
-3.000000000000136
 31
0.0
  0
DIMENSION
  5
28FB
330
1F
100
AcDbEntity
  8
AM_5
100
AcDbDimension
  2
*D8
 10
8.129789688840498
 20
-3.000000000000002
 30
0.0
 11
6.579789688840497
 21
-0.0000000000000008
 31
0.0
 70
    32
  1
%%c<>
  3
AM_JIS
100
AcDbAlignedDimension
 13
-0.0000000000011174
 23
3.0
 33
0.0
 14
-0.0000000000014166
 24
-3.0
 34
0.0
 50
90.00000000000003
100
AcDbRotatedDimension
1001
GENIUS_GENDTOL_13
1000

1000
h7
1000

1040
0.0
  0
LINE
  5
2909
330
1F
100
AcDbEntity
  8
AM_0
100
AcDbLine
 10
-0.0598760330579596
 20
0.6000000000000682
 30
0.0
 11
-0.6087534681361769
 21
1.600284488406236
 31
0.0
  0
LINE
  5
290A
330
1F
100
AcDbEntity
  8
AM_0
100
AcDbLine
 10
-0.0000000000001163
 20
0.0
 30
0.0
 11
-0.0506623143053508
 21
-0.5076720522514507
 31
0.0
  0
LINE
  5
290B
330
1F
100
AcDbEntity
  8
AM_0
100
AcDbLine
 10
-0.0000000000001163
 20
-0.6
 30
0.0
 11
-0.3292327981330577
 21
0.0000000000000341
 31
0.0
  0
LINE
  5
290C
330
1F
100
AcDbEntity
  8
AM_0
100
AcDbLine
 10
-0.4906743885347489
 20
-0.8841928590999261
 30
0.0
 11
-0.0598760330579596
 21
-0.7961387127379113
 31
0.0
  0
LINE
  5
290D
330
1F
100
AcDbEntity
  8
AM_0
100
AcDbLine
 10
-0.0598760330579596
 20
-0.7961387127379113
 30
0.0
 11
-0.0000000000001163
 21
-0.6
 31
0.0
  0
LINE
  5
290E
330
1F
100
AcDbEntity
  8
AM_0
100
AcDbLine
 10
-0.0000000000001163
 20
0.0
 30
0.0
 11
-0.0598760330579596
 21
0.6000000000000682
 31
0.0
  0
LINE
  5
290F
330
1F
100
AcDbEntity
  8
AM_0
100
AcDbLine
 10
-0.0000000000001163
 20
-3.0
 30
0.0
 11
-0.0598760330579596
 21
-2.840064694573095
 31
0.0
  0
LINE
  5
2910
330
1F
100
AcDbEntity
  8
AM_0
100
AcDbLine
 10
-0.0598760330579596
 20
-2.840064694573061
 30
0.0
 11
-0.3906198347108613
 21
-2.398569993277146
 31
0.0
  0
LINE
  5
2911
330
1F
100
AcDbEntity
  8
AM_0
100
AcDbLine
 10
-0.0000000000001163
 20
-3.0
 30
0.0
 11
-0.0000000000001163
 21
-0.6
 31
0.0
  0
LINE
  5
2912
330
1F
100
AcDbEntity
  8
AM_0
100
AcDbLine
 10
-0.0598760330579596
 20
-2.840064694573095
 30
0.0
 11
-0.0598760330579596
 21
-0.7961387127379113
 31
0.0
  0
LINE
  5
2913
330
1F
100
AcDbEntity
  8
AM_0
100
AcDbLine
 10
-0.0000000000001163
 20
0.0
 30
0.0
 11
-0.0000000000001163
 21
3.0
 31
0.0
  0
LINE
  5
2914
330
1F
100
AcDbEntity
  8
AM_0
100
AcDbLine
 10
-12.00000000000068
 20
2.190280605748264
 30
0.0
 11
-12.19117516136932
 21
2.538681790173657
 31
0.0
  0
LINE
  5
2916
330
1F
100
AcDbEntity
  8
AM_0
100
AcDbLine
 10
-1.343830445789455
 20
0.0
 30
0.0
 11
-1.343830445789455
 21
-0.4800000000000069
 31
0.0
  0
LINE
  5
2917
330
1F
100
AcDbEntity
  8
AM_0
100
AcDbLine
 10
-12.41510305113669
 20
-1.170376789285452
 30
0.0
 11
-12.00000000000059
 21
-1.959728401991897
 31
0.0
  0
LINE
  5
2918
330
1F
100
AcDbEntity
  8
AM_0
100
AcDbLine
 10
-12.00000000000055
 20
-0.7336161876552487
 30
0.0
 11
-12.41510305113669
 21
-1.170376789285452
 31
0.0
  0
POLYLINE
  5
2919
330
1F
100
AcDbEntity
  8
AM_0
100
AcDb2dPolyline
 66
     1
 10
0.0
 20
0.0
 30
0.0
 70
     2
  0
VERTEX
  5
291A
330
2919
100
AcDbEntity
  8
AM_0
100
AcDbVertex
100
AcDb2dVertex
 10
-13.40341469662889
 20
-3.000000000000128
 30
0.0
 42
-0.0449032719002681
  0
VERTEX
  5
291B
330
2919
100
AcDbEntity
  8
AM_0
100
AcDbVertex
100
AcDb2dVertex
 10
-13.75437788781755
 20
-2.949716506279709
 30
0.0
 42
-0.0367686944523822
 70
     1
  0
VERTEX
  5
291C
330
2919
100
AcDbEntity
  8
AM_0
100
AcDbVertex
100
AcDb2dVertex
 10
-13.96022727272772
 20
-2.889041990527166
 30
0.0
 42
-0.0216088548285507
  0
VERTEX
  5
291D
330
2919
100
AcDbEntity
  8
AM_0
100
AcDbVertex
100
AcDb2dVertex
 10
-14.44050389567099
 20
-2.626109596282665
 30
0.0
 42
-0.0414110700152503
 70
     1
  0
VERTEX
  5
291E
330
2919
100
AcDbEntity
  8
AM_0
100
AcDbVertex
100
AcDb2dVertex
 10
-14.6730371900831
 20
-2.456650801075723
 30
0.0
 42
-0.0653031023268945
  0
VERTEX
  5
291F
330
2919
100
AcDbEntity
  8
AM_0
100
AcDbVertex
100
AcDb2dVertex
 10
-14.82282724286951
 20
-2.288099077360927
 30
0.0
 42
-0.1569363594221426
 70
     1
  0
VERTEX
  5
2920
330
2919
100
AcDbEntity
  8
AM_0
100
AcDbVertex
100
AcDb2dVertex
 10
-14.85123966942194
 20
-2.194803551614059
 30
0.0
 42
-0.1617045000652558
  0
VERTEX
  5
2921
330
2919
100
AcDbEntity
  8
AM_0
100
AcDbVertex
100
AcDb2dVertex
 10
-14.82233646460138
 20
-2.103607085962382
 30
0.0
 42
-0.0680210806811403
 70
     1
  0
VERTEX
  5
2922
330
2919
100
AcDbEntity
  8
AM_0
100
AcDbVertex
100
AcDb2dVertex
 10
-14.6730371900831
 20
-1.944284699119033
 30
0.0
 42
-0.0450747416233525
  0
VERTEX
  5
2923
330
2919
100
AcDbEntity
  8
AM_0
100
AcDbVertex
100
AcDb2dVertex
 10
-14.44269266131899
 20
-1.790119888278265
 30
0.0
 42
-0.0231467319857815
 70
     1
  0
VERTEX
  5
2924
330
2919
100
AcDbEntity
  8
AM_0
100
AcDbVertex
100
AcDb2dVertex
 10
-13.96022727272772
 20
-1.55720709753423
 30
0.0
 42
-0.0364444523572374
  0
VERTEX
  5
2925
330
2919
100
AcDbEntity
  8
AM_0
100
AcDbVertex
100
AcDb2dVertex
 10
-13.7506946796554
 20
-1.486338109183806
 30
0.0
 42
-0.0242139410122645
 70
     1
  0
VERTEX
  5
2926
330
2919
100
AcDbEntity
  8
AM_0
100
AcDbVertex
100
AcDb2dVertex
 10
-13.4256198347112
 20
-1.420648348444401
 30
0.0
  0
SEQEND
  5
2927
330
2919
100
AcDbEntity
  8
AM_0
  0
LINE
  5
2928
330
1F
100
AcDbEntity
  8
AM_11
100
AcDbLine
 10
-12.00000000000055
 20
3.000000000000109
 30
0.0
 11
-12.00000000000055
 21
-2.99999999999989
 31
0.0
  0
POLYLINE
  5
2929
330
1F
100
AcDbEntity
  8
AM_0
100
AcDb2dPolyline
 66
     1
 10
0.0
 20
0.0
 30
0.0
 70
     2
  0
VERTEX
  5
292A
330
2929
100
AcDbEntity
  8
AM_0
100
AcDbVertex
100
AcDb2dVertex
 10
-12.00000000000058
 20
2.190280605748081
 30
0.0
 42
0.0113495642762015
  0
VERTEX
  5
292B
330
2929
100
AcDbEntity
  8
AM_0
100
AcDbVertex
100
AcDb2dVertex
 10
-12.66474938952569
 20
2.295005959823699
 30
0.0
 42
0.0187918863228812
 70
     1
  0
VERTEX
  5
292C
330
2929
100
AcDbEntity
  8
AM_0
100
AcDbVertex
100
AcDb2dVertex
 10
-13.06921487603364
 20
2.332701977558402
 30
0.0
 42
0.006256922075569
  0
VERTEX
  5
292D
330
2929
100
AcDbEntity
  8
AM_0
100
AcDbVertex
100
AcDb2dVertex
 10
-14.36189110521137
 20
2.498566443513551
 30
0.0
 42
0.0232722457202398
 70
     1
  0
VERTEX
  5
292E
330
2929
100
AcDbEntity
  8
AM_0
100
AcDbVertex
100
AcDb2dVertex
 10
-14.71231292553118
 20
2.488947447663168
 30
0.0
 42
0.0542958387243925
  0
VERTEX
  5
292F
330
2929
100
AcDbEntity
  8
AM_0
100
AcDbVertex
100
AcDb2dVertex
 10
-15.04702722307506
 20
2.424460105801257
 30
0.0
 42
0.4413285869607302
 70
     1
  0
VERTEX
  5
2930
330
2929
100
AcDbEntity
  8
AM_0
100
AcDbVertex
100
AcDb2dVertex
 10
-15.06871788420887
 20
2.37721044010757
 30
0.0
 42
0.0678159998049314
  0
VERTEX
  5
2931
330
2929
100
AcDbEntity
  8
AM_0
100
AcDbVertex
100
AcDb2dVertex
 10
-15.04201375403944
 20
2.327759031815254
 30
0.0
 42
0.006836731909696
 70
     1
  0
VERTEX
  5
2932
330
2929
100
AcDbEntity
  8
AM_0
100
AcDbVertex
100
AcDb2dVertex
 10
-14.71231292553118
 20
1.88608641910272
 30
0.0
 42
0.0061465077983929
  0
VERTEX
  5
2933
330
2929
100
AcDbEntity
  8
AM_0
100
AcDbVertex
100
AcDb2dVertex
 10
-14.21533743666378
 20
1.254786127094963
 30
0.0
 42
0.0033714959864001
 70
     1
  0
VERTEX
  5
2934
330
2929
100
AcDbEntity
  8
AM_0
100
AcDbVertex
100
AcDb2dVertex
 10
-13.22054655244176
 20
0.1817317326020792
 30
0.0
 42
0.0594163782683759
  0
VERTEX
  5
2935
330
2929
100
AcDbEntity
  8
AM_0
100
AcDbVertex
100
AcDb2dVertex
 10
-12.86911665804974
 20
-0.15047834048842
 30
0.0
 42
0.0273113651513278
 70
     1
  0
VERTEX
  5
2936
330
2929
100
AcDbEntity
  8
AM_0
100
AcDbVertex
100
AcDb2dVertex
 10
-12.00000000000058
 20
-0.7220780448271662
 30
0.0
  0
SEQEND
  5
2937
330
2929
100
AcDbEntity
  8
AM_0
  0
LINE
  5
2938
330
1F
100
AcDbEntity
  8
AM_0
100
AcDbLine
 10
-1.343830445789455
 20
-0.4800000000000069
 30
0.0
 11
-0.4906743885347489
 21
-0.8841928590999261
 31
0.0
  0
LINE
  5
2939
330
1F
100
AcDbEntity
  8
AM_0
100
AcDbLine
 10
-1.343830445789455
 20
-0.4800000000000069
 30
0.0
 11
-0.0658465596266999
 21
-0.4800000000000069
 31
0.0
  0
LINE
  5
293A
330
1F
100
AcDbEntity
  8
AM_0
100
AcDbLine
 10
-0.0000000000001163
 20
0.0
 30
0.0
 11
-1.343830445789455
 21
0.0
 31
0.0
  0
LINE
  5
293B
330
1F
100
AcDbEntity
  8
AM_0
100
AcDbLine
 10
-0.6087534681361769
 20
1.600284488406236
 30
0.0
 11
-1.343830445789455
 21
1.805072053516846
 31
0.0
  0
LINE
  5
293C
330
1F
100
AcDbEntity
  8
AM_11
100
AcDbLine
 10
-12.00000000000055
 20
-3.00000000000001
 30
0.0
 11
-0.0000000000001163
 21
-3.0
 31
0.0
  0
LINE
  5
293D
330
1F
100
AcDbEntity
  8
AM_11
100
AcDbLine
 10
-0.0000000000005503
 20
3.0
 30
0.0
 11
-12.00000000000055
 21
2.999999999999992
 31
0.0
  0
SPLINE
  5
293E
330
1F
100
AcDbEntity
  8
AM_0
100
AcDbSpline
210
0.0
220
0.0
230
1.0
 70
     8
 71
     3
 72
     8
 73
     4
 74
     0
 42
0.0000000001
 43
0.0000000001
 40
0.0
 40
0.0
 40
0.0
 40
0.0
 40
4.451443990518192
 40
4.451443990518192
 40
4.451443990518192
 40
4.451443990518192
 10
-13.40341469662889
 20
-3.000000000000128
 30
0.0
 10
-11.97768543165995
 20
-3.00000000000001
 30
0.0
 10
-11.15242674197422
 20
-2.918801938620717
 30
0.0
 10
-9.965044742567325
 20
-2.693912419426337
 30
0.0
  0
SPLINE
  5
293F
330
1F
100
AcDbEntity
  8
AM_0
100
AcDbSpline
210
0.0
220
0.0
230
1.0
 70
     8
 71
     3
 72
     8
 73
     4
 74
     0
 42
0.0000000001
 43
0.0000000001
 40
0.0
 40
0.0
 40
0.0
 40
0.0
 40
9.068166399416787
 40
9.068166399416787
 40
9.068166399416787
 40
9.068166399416787
 10
-7.75537190082667
 20
-2.999999999999936
 30
0.0
 10
-9.479072951955476
 20
-2.999999999999939
 30
0.0
 10
-10.93517708977655
 20
-2.412519228561242
 30
0.0
 10
-12.00000000000059
 20
-1.959728401991897
 30
0.0
  0
SPLINE
  5
2940
330
1F
100
AcDbEntity
  8
AM_0
100
AcDbSpline
210
0.0
220
0.0
230
1.0
 70
     8
 71
     3
 72
     8
 73
     4
 74
     0
 42
0.0000000001
 43
0.0000000001
 40
0.0
 40
0.0
 40
0.0
 40
0.0
 40
12.79333816032526
 40
12.79333816032526
 40
12.79333816032526
 40
12.79333816032526
 10
-5.613910322419278
 20
-2.770466702281548
 30
0.0
 10
-8.215190857866165
 20
-2.600977717970866
 30
0.0
 10
-10.30500085466712
 20
-1.595572456457559
 30
0.0
 10
-12.00000000000055
 20
-0.7220780448271836
 30
0.0
  0
SPLINE
  5
2941
330
1F
100
AcDbEntity
  8
AM_0
100
AcDbSpline
210
0.0
220
0.0
230
1.0
 70
     8
 71
     3
 72
     8
 73
     4
 74
     0
 42
0.0000000001
 43
0.0000000001
 40
0.0
 40
0.0
 40
0.0
 40
0.0
 40
11.45610476152127
 40
11.45610476152127
 40
11.45610476152127
 40
11.45610476152127
 10
-6.760033339193377
 20
-2.910170202201168
 30
0.0
 10
-9.127769278683345
 20
-2.720040952917727
 30
0.0
 10
-11.03049202009269
 20
-1.880153359049376
 30
0.0
 10
-12.41510305113669
 20
-1.170376789285452
 30
0.0
  0
SPLINE
  5
2942
330
1F
100
AcDbEntity
  8
AM_0
100
AcDbSpline
210
0.0
220
0.0
230
1.0
 70
     8
 71
     3
 72
     8
 73
     4
 74
     0
 42
0.0000000001
 43
0.0000000001
 40
0.0
 40
0.0
 40
0.0
 40
0.0
 40
5.635889483499305
 40
5.635889483499305
 40
5.635889483499305
 40
5.635889483499305
 10
-7.75537190082667
 20
3.000000000000059
 30
0.0
 10
-8.826656678681919
 20
3.000000000000059
 30
0.0
 10
-9.859552136485348
 20
2.773076417387542
 30
0.0
 10
-11.01400687540283
 20
2.385287562985708
 30
0.0
  0
SPLINE
  5
2943
330
1F
100
AcDbEntity
  8
AM_0
100
AcDbSpline
210
0.0
220
0.0
230
1.0
 70
     8
 71
     3
 72
     8
 73
     4
 74
     0
 42
0.0000000001
 43
0.0000000001
 40
6.978104700039654
 40
6.978104700039654
 40
6.978104700039654
 40
6.978104700039654
 40
14.48999654934396
 40
14.48999654934396
 40
14.48999654934396
 40
14.48999654934396
 10
-12.00000000000055
 20
2.204525537766064
 30
0.0
 10
-10.37900754777896
 20
1.614287118835846
 30
0.0
 10
-9.051698462165623
 20
0.7776287410135789
 30
0.0
 10
-7.755371900826554
 20
0.0000000000000639
 30
0.0
  0
SPLINE
  5
2944
330
1F
100
AcDbEntity
  8
AM_0
100
AcDbSpline
210
0.0
220
0.0
230
1.0
 70
     8
 71
     3
 72
     8
 73
     4
 74
     0
 42
0.0000000001
 43
0.0000000001
 40
1.090140354492627
 40
1.090140354492627
 40
1.090140354492627
 40
1.090140354492627
 40
14.36247867694493
 40
14.36247867694493
 40
14.36247867694493
 40
14.36247867694493
 10
-13.75807415448373
 20
2.86217271887321
 30
0.0
 10
-10.25779308758989
 20
2.560182835487583
 30
0.0
 10
-7.935851705004541
 20
1.280091417743808
 30
0.0
 10
-5.613910322419162
 20
0.0000000000000298
 30
0.0
  0
SPLINE
  5
2945
330
1F
100
AcDbEntity
  8
AM_0
100
AcDbSpline
210
0.0
220
0.0
230
1.0
 70
     8
 71
     3
 72
     8
 73
     4
 74
     0
 42
0.0000000001
 43
0.0000000001
 40
0.3581103616548037
 40
0.3581103616548037
 40
0.3581103616548037
 40
0.3581103616548037
 40
14.43901837670146
 40
14.43901837670146
 40
14.43901837670146
 40
14.43901837670146
 10
-15.38080161331589
 20
2.999999999999991
 30
0.0
 10
-11.61757357757539
 20
2.893150580742076
 30
0.0
 10
-9.203278463093178
 20
1.418996702415979
 30
0.0
 10
-6.760033339193284
 20
0.0000000000000298
 30
0.0
  0
SPLINE
  5
2946
330
1F
100
AcDbEntity
  8
AM_0
100
AcDbSpline
210
0.0
220
0.0
230
1.0
 70
     8
 71
     3
 72
     8
 73
     4
 74
     0
 42
0.0000000001
 43
0.0000000001
 40
0.0
 40
0.0
 40
0.0
 40
0.0
 40
2.130230809022907
 40
2.130230809022907
 40
2.130230809022907
 40
2.130230809022907
 10
-7.75537190082667
 20
-3.000000000000003
 30
0.0
 10
-7.350451994979327
 20
-3.000000000000003
 30
0.0
 10
-6.951016611429564
 20
-2.967580372692104
 30
0.0
 10
-6.556259449200614
 20
-2.907507253711541
 30
0.0
  0
SPLINE
  5
2947
330
1F
100
AcDbEntity
  8
AM_0
100
AcDbSpline
210
0.0
220
0.0
230
1.0
 70
     8
 71
     3
 72
     8
 73
     4
 74
     0
 42
0.0000000001
 43
0.0000000001
 40
0.0
 40
0.0
 40
0.0
 40
0.0
 40
4.451443990518192
 40
4.451443990518192
 40
4.451443990518192
 40
4.451443990518192
 10
-5.613910322419278
 20
-2.770466702281616
 30
0.0
 10
-4.767768076287712
 20
-2.770466702281616
 30
0.0
 10
-3.94250938660197
 20
-2.637401048548467
 30
0.0
 10
-3.131661694973471
 20
-2.412511529354087
 30
0.0
  0
SPLINE
  5
2948
330
1F
100
AcDbEntity
  8
AM_0
100
AcDbSpline
210
0.0
220
0.0
230
1.0
 70
     8
 71
     3
 72
     8
 73
     4
 74
     0
 42
0.0000000001
 43
0.0000000001
 40
0.7142832446738512
 40
0.7142832446738512
 40
0.7142832446738512
 40
0.7142832446738512
 40
9.361146747480315
 40
9.361146747480315
 40
9.361146747480315
 40
9.361146747480315
 10
-5.208178149591041
 20
2.76035867389457
 30
0.0
 10
-3.577254267257687
 20
2.67947006338295
 30
0.0
 10
-2.021210357437416
 20
2.121461929679776
 30
0.0
 10
-0.4926059431362107
 20
1.388615069688569
 30
0.0
  0
SPLINE
  5
2949
330
1F
100
AcDbEntity
  8
AM_0
100
AcDbSpline
210
0.0
220
0.0
230
1.0
 70
     8
 71
     3
 72
     8
 73
     4
 74
     0
 42
0.0000000001
 43
0.0000000001
 40
0.0
 40
0.0
 40
0.0
 40
0.0
 40
1.293282661808357
 40
1.293282661808357
 40
1.293282661808357
 40
1.293282661808357
 10
-0.0000000000001163
 20
2.444821612010378
 30
0.0
 10
-0.3154995806174993
 20
2.048065917690604
 30
0.0
 10
-0.8570367423588203
 20
1.87768427815461
 30
0.0
 10
-1.343830445789455
 20
1.805072053516846
 30
0.0
  0
SPLINE
  5
294A
330
1F
100
AcDbEntity
  8
AM_0
100
AcDbSpline
210
0.0
220
0.0
230
1.0
 70
     8
 71
     3
 72
     8
 73
     4
 74
     0
 42
0.0000000001
 43
0.0000000001
 40
0.0
 40
0.0
 40
0.0
 40
0.0
 40
5.635889483499127
 40
5.635889483499127
 40
5.635889483499127
 40
5.635889483499127
 10
-0.0000000000001163
 20
3.0
 30
0.0
 10
-1.071284777855318
 20
3.0
 30
0.0
 10
-2.104180235658723
 20
2.773076417387482
 30
0.0
 10
-3.113617913554032
 20
2.407491263022745
 30
0.0
  0
SPLINE
  5
294B
330
1F
100
AcDbEntity
  8
AM_0
100
AcDbSpline
210
0.0
220
0.0
230
1.0
 70
     8
 71
     3
 72
     8
 73
     4
 74
     0
 42
0.0000000001
 43
0.0000000001
 40
4.542668862435135
 40
4.542668862435135
 40
4.542668862435135
 40
4.542668862435135
 40
14.36247867694493
 40
14.36247867694493
 40
14.36247867694493
 40
14.36247867694493
 10
-0.3906198347100629
 20
-2.398569993273974
 30
0.0
 10
-2.178039080521045
 20
-1.894203411943719
 30
0.0
 10
-3.8959747014701
 20
-0.9471017059718448
 30
0.0
 10
-5.613910322419162
 20
0.0000000000000298
 30
0.0
  0
SPLINE
  5
294C
330
1F
100
AcDbEntity
  8
AM_0
100
AcDbSpline
210
0.0
220
0.0
230
1.0
 70
     8
 71
     3
 72
     8
 73
     4
 74
     0
 42
0.0000000001
 43
0.0000000001
 40
0.3581103616548037
 40
0.3581103616548037
 40
0.3581103616548037
 40
0.3581103616548037
 40
12.40023413887867
 40
12.40023413887867
 40
12.40023413887867
 40
12.40023413887867
 10
-6.556259449200389
 20
2.907507253711601
 30
0.0
 10
-4.277034449804199
 20
2.848058362237702
 30
0.0
 10
-2.160076009027807
 20
1.801620677090996
 30
0.0
 10
-0.0666122535150878
 20
0.6122762139653787
 30
0.0
  0
SPLINE
  5
294D
330
1F
100
AcDbEntity
  8
AM_0
100
AcDbSpline
210
0.0
220
0.0
230
1.0
 70
     8
 71
     3
 72
     8
 73
     4
 74
     0
 42
0.0000000001
 43
0.0000000001
 40
0.0
 40
0.0
 40
0.0
 40
0.0
 40
7.244998274671977
 40
7.244998274671977
 40
7.244998274671977
 40
7.244998274671977
 10
-7.755371900826554
 20
3.000000000000059
 30
0.0
 10
-5.001075036075227
 20
3.000000000000059
 30
0.0
 10
-2.500537518037663
 20
1.500000000000064
 30
0.0
 10
-0.0000000000001163
 20
0.0000000000000682
 30
0.0
  0
SPLINE
  5
294E
330
1F
100
AcDbEntity
  8
AM_0
100
AcDbSpline
210
0.0
220
0.0
230
1.0
 70
     8
 71
     3
 72
     8
 73
     4
 74
     0
 42
0.0000000001
 43
0.0000000001
 40
0.0
 40
0.0
 40
0.0
 40
0.0
 40
7.244998274671978
 40
7.244998274671978
 40
7.244998274671978
 40
7.244998274671978
 10
-0.0000000000001163
 20
-3.0
 30
0.0
 10
-2.754296864751443
 20
-3.000000000000003
 30
0.0
 10
-5.254834382788999
 20
-1.5
 30
0.0
 10
-7.755371900826554
 20
-0.0000000000000043
 30
0.0
  0
SPLINE
  5
294F
330
1F
100
AcDbEntity
  8
AM_0
100
AcDbSpline
210
0.0
220
0.0
230
1.0
 70
     8
 71
     3
 72
     8
 73
     4
 74
     0
 42
0.0000000001
 43
0.0000000001
 40
1.870660592686466
 40
1.870660592686466
 40
1.870660592686466
 40
1.870660592686466
 40
14.43901837670146
 40
14.43901837670146
 40
14.43901837670146
 40
14.43901837670146
 10
-0.0598760330579596
 20
-2.840064694573061
 30
0.0
 10
-2.398442618138863
 20
-2.533140367260887
 30
0.0
 10
-4.579237978666074
 20
-1.26657018363043
 30
0.0
 10
-6.760033339193284
 20
0.0000000000000298
 30
0.0
  0
SPLINE
  5
2950
330
1F
100
AcDbEntity
  8
AM_0
100
AcDbSpline
210
0.0
220
0.0
230
1.0
 70
     8
 71
     3
 72
     8
 73
     4
 74
     0
 42
0.0000000001
 43
0.0000000001
 40
0.0
 40
0.0
 40
0.0
 40
0.0
 40
2.764560748519282
 40
2.764560748519282
 40
2.764560748519282
 40
2.764560748519282
 10
-6.760033339193377
 20
-2.910170202201236
 30
0.0
 10
-6.234538320879805
 20
-2.910170202201236
 30
0.0
 10
-5.717812950020195
 20
-2.856828689106036
 30
0.0
 10
-5.208178149651222
 20
-2.760358673905868
 30
0.0
  0
ELLIPSE
  5
2951
330
1F
100
AcDbEntity
  8
AM_0
100
AcDbEllipse
 10
1.132326029420354
 20
-1.526328098830742
 30
0.0
 11
0.0000000000000578
 21
1.824418869309605
 31
0.0
210
0.0
220
0.0
230
1.0
 40
0.9504132231405094
 41
1.211124581303852
 42
2.069278538290356
  0
ELLIPSE
  5
2953
330
1F
100
AcDbEntity
  8
AM_0
100
AcDbEllipse
 10
-14.95505883202411
 20
-8.25480470364147
 30
0.0
 11
-0.0000000000003537
 21
7.021063523011029
 31
0.0
210
0.0
220
0.0
230
1.0
 40
0.9504132231404994
 41
-0.4587681791450019
 42
-0.2312569029271716
  0
VIEWPORT
  5
110
330
101
100
AcDbEntity
 67
     1
  8
0
100
AcDbViewport
 10
420.5
 20
297.0
 30
0.0
 40
948.9782706766916
 41
628.452
 68
     1
 69
     1
1001
ACAD
1000
MVIEW
1002
{
1070
    16
1010
0.0
1020
0.0
1030
0.0
1010
0.0
1020
0.0
1030
1.0
1040
0.0
1040
628.452
1040
420.5
1040
297.0
1040
50.0
1040
0.0
1040
0.0
1070
     0
1070
   100
1070
     1
1070
     1
1070
     0
1070
     0
1070
     0
1070
     0
1040
0.0
1040
0.0
1040
0.0
1040
10.0
1040
10.0
1040
10.0
1040
10.0
1070
     0
1002
{
1002
}
1002
}
  0
ENDSEC
  0
SECTION
  2
OBJECTS
  0
DICTIONARY
  5
C
330
0
100
AcDbDictionary
  3
ACAD_GROUP
350
D
  3
ACAD_LAYOUT
350
1A
  3
ACAD_MLINESTYLE
350
17
  3
ACAD_PLOTSETTINGS
350
19
  3
ACAD_PLOTSTYLENAME
350
E
  3
ACDBVARIABLEDICTIONARY
350
34
  3
ACMDICTIONARY
350
43
  3
AMG
350
2B
  3
AMGSNAPSETTINGS
350
6E
  3
DWGPROPS
350
2B90
  3
ACDBHEADERROUNDTRIPXREC
350
2B9C
  0
DICTIONARY
  5
74
330
1F
100
AcDbDictionary
280
     1
  3
ACAD_INDEX
360
2B92
  3
ACAD_LAYOUTSELFREF
360
2BBF
  0
DICTIONARY
  5
2BC4
330
101
100
AcDbDictionary
280
     1
  3
ACAD_LAYOUTSELFREF
360
2BC5
  0
DICTIONARY
  5
D
102
{ACAD_REACTORS
330
C
102
}
330
C
100
AcDbDictionary
  0
DICTIONARY
  5
1A
102
{ACAD_REACTORS
330
C
102
}
330
C
100
AcDbDictionary
  0
DICTIONARY
  5
17
102
{ACAD_REACTORS
330
C
102
}
330
C
100
AcDbDictionary
  3
STANDARD
350
18
  0
DICTIONARY
  5
19
102
{ACAD_REACTORS
330
C
102
}
330
C
100
AcDbDictionary
  0
ACDBDICTIONARYWDFLT
  5
E
102
{ACAD_REACTORS
330
C
102
}
330
C
100
AcDbDictionary
281
     1
  3
Normal
350
F
100
AcDbDictionaryWithDefault
340
F
  0
DICTIONARY
  5
34
102
{ACAD_REACTORS
330
C
102
}
330
C
100
AcDbDictionary
  3
INDEXCTL
350
35
  3
SORTENTS
350
B5E
  0
DICTIONARY
  5
43
102
{ACAD_REACTORS
330
C
102
}
330
C
100
AcDbDictionary
  3
ACMSTDDICTIONARY
350
260
  0
DICTIONARY
  5
2B
102
{ACAD_REACTORS
330
C
102
}
330
C
100
AcDbDictionary
  3
ACMGSETTINGS
350
2C
  0
DICTIONARY
  5
6E
102
{ACAD_REACTORS
330
C
102
}
330
C
100
AcDbDictionary
  0
XRECORD
  5
2B90
102
{ACAD_REACTORS
330
C
102
}
330
C
100
AcDbXrecord
  1
DWGPROPS COOKIE
  2

  3

  4

  6

  7

  8

  9

300
AmdtFileType=82
301
=
302
=
303
=
304
=
305
=
306
=
307
=
308
=
309
=
 40
0.0838950347222222
 41
2452836.771637361
 42
2452901.601127372
  1

 90
        1
  0
DICTIONARY
  5
2B9C
102
{ACAD_REACTORS
330
C
102
}
330
C
100
AcDbDictionary
  3
TSTACKALIGN
350
2B9D
  3
TSTACKSIZE
350
2B9E
  3
HYPERLINKBASE
350
2B9F
  3
STYLESHEET
350
2BA0
  3
LAYOUTDICT
350
2BA1
  3
PLOTSETDICT
350
2BA2
  3
PLOTSTYLNAMDICT
350
2BA3
  3
LWETCUNION
350
2BA4
  3
INSUNITS
350
2BA5
  3
CEPSNTYPE
350
2BA6
  3
FINGERPRINTGUID
350
2BA7
  3
VERSIONGUID
350
2BA8
  3
PSVPSCALE
350
2BA9
  3
DIMSTYLEDATA
350
2BAA
  3
PUCSORTHOREF
350
2BAB
  3
PUCSORTHOVIEW
350
2BAC
  3
PUCSBASE
350
2BAD
  3
PUCSORGTOP
350
2BAE
  3
PUCSORGBOTTOM
350
2BAF
  3
PUCSORGLEFT
350
2BB0
  3
PUCSORGRIGHT
350
2BB1
  3
PUCSORGFRONT
350
2BB2
  3
PUCSORGBACK
350
2BB3
  3
UCSORTHOREF
350
2BB4
  3
UCSORTHOVIEW
350
2BB5
  3
UCSBASE
350
2BB6
  3
UCSORGTOP
350
2BB7
  3
UCSORGBOTTOM
350
2BB8
  3
UCSORGLEFT
350
2BB9
  3
UCSORGRIGHT
350
2BBA
  3
UCSORGFRONT
350
2BBB
  3
UCSORGBACK
350
2BBC
  0
DICTIONARY
  5
2B92
102
{ACAD_REACTORS
330
74
102
}
330
74
100
AcDbDictionary
  3
*A1
350
2B93
  0
XRECORD
  5
2BBF
102
{ACAD_REACTORS
330
74
102
}
330
74
100
AcDbXrecord
340
1F
  0
XRECORD
  5
2BC5
102
{ACAD_REACTORS
330
2BC4
102
}
330
2BC4
100
AcDbXrecord
340
101
  0
MLINESTYLE
  5
18
102
{ACAD_REACTORS
330
17
102
}
330
17
100
AcDbMlineStyle
  2
STANDARD
 70
     0
  3

 62
   256
 51
90.0
 52
90.0
 71
     2
 49
0.5
 62
   256
  6
BYLAYER
 49
-0.5
 62
   256
  6
BYLAYER
  0
ACDBPLACEHOLDER
  5
F
102
{ACAD_REACTORS
330
E
102
}
330
E
100
AcDbPlaceHolder
280
     0
  0
DICTIONARYVAR
  5
35
102
{ACAD_REACTORS
330
34
102
}
330
34
100
DictionaryVariables
280
     0
  1
1
  0
DICTIONARYVAR
  5
B5E
102
{ACAD_REACTORS
330
34
102
}
330
34
100
DictionaryVariables
280
     0
  1
96
  0
DICTIONARY
  5
260
102
{ACAD_REACTORS
330
43
102
}
330
43
100
AcDbDictionary
  0
DICTIONARY
  5
2C
102
{ACAD_REACTORS
330
2B
102
}
330
2B
100
AcDbDictionary
  3
DWGSETTINGS
350
2D
  0
XRECORD
  5
2B9D
102
{ACAD_REACTORS
330
2B9C
102
}
330
2B9C
100
AcDbXrecord
 90
        1
  0
XRECORD
  5
2B9E
102
{ACAD_REACTORS
330
2B9C
102
}
330
2B9C
100
AcDbXrecord
 90
       70
  0
XRECORD
  5
2B9F
102
{ACAD_REACTORS
330
2B9C
102
}
330
2B9C
100
AcDbXrecord
  1

  0
XRECORD
  5
2BA0
102
{ACAD_REACTORS
330
2B9C
102
}
330
2B9C
100
AcDbXrecord
  1
ASAMI.ctb
  0
XRECORD
  5
2BA1
102
{ACAD_REACTORS
330
2B9C
102
}
330
2B9C
100
AcDbXrecord
340
1A
  0
XRECORD
  5
2BA2
102
{ACAD_REACTORS
330
2B9C
102
}
330
2B9C
100
AcDbXrecord
340
19
  0
XRECORD
  5
2BA3
102
{ACAD_REACTORS
330
2B9C
102
}
330
2B9C
100
AcDbXrecord
340
E
  0
XRECORD
  5
2BA4
102
{ACAD_REACTORS
330
2B9C
102
}
330
2B9C
100
AcDbXrecord
 90
    10781
  0
XRECORD
  5
2BA5
102
{ACAD_REACTORS
330
2B9C
102
}
330
2B9C
100
AcDbXrecord
 90
        4
  0
XRECORD
  5
2BA6
102
{ACAD_REACTORS
330
2B9C
102
}
330
2B9C
100
AcDbXrecord
 90
        0
  0
XRECORD
  5
2BA7
102
{ACAD_REACTORS
330
2B9C
102
}
330
2B9C
100
AcDbXrecord
  1
{AFB28963-8C59-40AE-9337-C84526B81ACE}
  0
XRECORD
  5
2BA8
102
{ACAD_REACTORS
330
2B9C
102
}
330
2B9C
100
AcDbXrecord
  1
{CEA73724-8E0E-4D4D-8DB6-5662162ED211}
  0
XRECORD
  5
2BA9
102
{ACAD_REACTORS
330
2B9C
102
}
330
2B9C
100
AcDbXrecord
 40
0.0
  0
XRECORD
  5
2BAA
102
{ACAD_REACTORS
330
2B9C
102
}
330
2B9C
100
AcDbXrecord
1000
DSTYLE
1002
{
1070
    79
 70
     2
1070
   341
340
59
1070
   342
340
59
1070
   371
 70
    -1
1070
   372
 70
    -1
1002
}
  0
XRECORD
  5
2BAB
102
{ACAD_REACTORS
330
2B9C
102
}
330
2B9C
100
AcDbXrecord
340
0
  0
XRECORD
  5
2BAC
102
{ACAD_REACTORS
330
2B9C
102
}
330
2B9C
100
AcDbXrecord
 70
     0
  0
XRECORD
  5
2BAD
102
{ACAD_REACTORS
330
2B9C
102
}
330
2B9C
100
AcDbXrecord
340
0
  0
XRECORD
  5
2BAE
102
{ACAD_REACTORS
330
2B9C
102
}
330
2B9C
100
AcDbXrecord
 10
0.0
 20
0.0
 30
0.0
  0
XRECORD
  5
2BAF
102
{ACAD_REACTORS
330
2B9C
102
}
330
2B9C
100
AcDbXrecord
 10
0.0
 20
0.0
 30
0.0
  0
XRECORD
  5
2BB0
102
{ACAD_REACTORS
330
2B9C
102
}
330
2B9C
100
AcDbXrecord
 10
0.0
 20
0.0
 30
0.0
  0
XRECORD
  5
2BB1
102
{ACAD_REACTORS
330
2B9C
102
}
330
2B9C
100
AcDbXrecord
 10
0.0
 20
0.0
 30
0.0
  0
XRECORD
  5
2BB2
102
{ACAD_REACTORS
330
2B9C
102
}
330
2B9C
100
AcDbXrecord
 10
0.0
 20
0.0
 30
0.0
  0
XRECORD
  5
2BB3
102
{ACAD_REACTORS
330
2B9C
102
}
330
2B9C
100
AcDbXrecord
 10
0.0
 20
0.0
 30
0.0
  0
XRECORD
  5
2BB4
102
{ACAD_REACTORS
330
2B9C
102
}
330
2B9C
100
AcDbXrecord
340
0
  0
XRECORD
  5
2BB5
102
{ACAD_REACTORS
330
2B9C
102
}
330
2B9C
100
AcDbXrecord
 70
     0
  0
XRECORD
  5
2BB6
102
{ACAD_REACTORS
330
2B9C
102
}
330
2B9C
100
AcDbXrecord
340
0
  0
XRECORD
  5
2BB7
102
{ACAD_REACTORS
330
2B9C
102
}
330
2B9C
100
AcDbXrecord
 10
0.0
 20
0.0
 30
0.0
  0
XRECORD
  5
2BB8
102
{ACAD_REACTORS
330
2B9C
102
}
330
2B9C
100
AcDbXrecord
 10
0.0
 20
0.0
 30
0.0
  0
XRECORD
  5
2BB9
102
{ACAD_REACTORS
330
2B9C
102
}
330
2B9C
100
AcDbXrecord
 10
0.0
 20
0.0
 30
0.0
  0
XRECORD
  5
2BBA
102
{ACAD_REACTORS
330
2B9C
102
}
330
2B9C
100
AcDbXrecord
 10
0.0
 20
0.0
 30
0.0
  0
XRECORD
  5
2BBB
102
{ACAD_REACTORS
330
2B9C
102
}
330
2B9C
100
AcDbXrecord
 10
0.0
 20
0.0
 30
0.0
  0
XRECORD
  5
2BBC
102
{ACAD_REACTORS
330
2B9C
102
}
330
2B9C
100
AcDbXrecord
 10
0.0
 20
0.0
 30
0.0
  0
LAYER_INDEX
  5
2B93
102
{ACAD_REACTORS
330
2B92
102
}
330
2B92
100
AcDbIndex
 40
2453151.789640567
100
AcDbLayerIndex
  8
0
360
2B94
 90
        0
  8
AM_0
360
2B95
 90
       48
  8
AM_11
360
2B96
 90
        3
  8
AM_7
360
2B97
 90
        1
  8
AM_5
360
2B98
 90
        4
  8
Defpoints
360
2B99
 90
        0
  8
AM_6
360
2B9A
 90
        1
  0
XRECORD
  5
2D
102
{ACAD_REACTORS
330
2C
102
}
330
2C
100
AcDbXrecord
  1
VERSION
140
15.0
  1
PRODUCT
  2
AutoCAD Mechanical 2000
  0
IDBUFFER
  5
2B94
330
0
100
AcDbIdBuffer
  0
IDBUFFER
  5
2B95
330
0
100
AcDbIdBuffer
330
2913
330
2914
330
2916
330
2917
330
2918
330
2919
330
2929
330
2938
330
2939
330
293A
330
293B
330
293E
330
293F
330
2940
330
2941
330
2942
330
2943
330
2944
330
2945
330
2946
330
2947
330
2948
330
2949
330
294A
330
294B
330
294C
330
294D
330
294E
330
294F
330
2950
330
2951
330
2953
330
1E97
330
1E98
330
1E9B
330
1EC7
330
1EDE
330
1EDF
330
2909
330
290A
330
290B
330
290C
330
290D
330
290E
330
290F
330
2910
330
2911
330
2912
  0
IDBUFFER
  5
2B96
330
0
100
AcDbIdBuffer
330
2928
330
293C
330
293D
  0
IDBUFFER
  5
2B97
330
0
100
AcDbIdBuffer
330
13DC
  0
IDBUFFER
  5
2B98
330
0
100
AcDbIdBuffer
330
16EA
330
177A
330
1E9D
330
28FB
  0
IDBUFFER
  5
2B99
330
0
100
AcDbIdBuffer
  0
IDBUFFER
  5
2B9A
330
0
100
AcDbIdBuffer
330
E5A
  0
ENDSEC
  0
EOF
