  0
SECTION
  2
HEADER
  9
$ACADVER
  1
AC1014
  9
$ACADMAINTVER
 70
     9
  9
$DWGCODEPAGE
  3
ANSI_932
  9
$INSBASE
 10
0.0
 20
0.0
 30
0.0
  9
$EXTMIN
 10
-66.41123869649854
 20
-28.25000100000023
 30
-0.00000001
  9
$EXTMAX
 10
8.629789688840496
 20
4.524424059086891
 30
0.00000001
  9
$LIMMIN
 10
-69.02175275393739
 20
-33.73597568588283
  9
$LIMMAX
 10
12.6781839031783
 20
13.72663666225025
  9
$ORTHOMODE
 70
     0
  9
$REGENMODE
 70
     1
  9
$FILLMODE
 70
     1
  9
$QTEXTMODE
 70
     0
  9
$MIRRTEXT
 70
     0
  9
$DRAGMODE
 70
     2
  9
$LTSCALE
 40
1.0
  9
$OSMODE
 70
    55
  9
$ATTMODE
 70
     1
  9
$TEXTSIZE
 40
2.5
  9
$TRACEWID
 40
1.0
  9
$TEXTSTYLE
  7
STANDARD
  9
$CLAYER
  8
AM_0
  9
$CELTYPE
  6
BYLAYER
  9
$CECOLOR
 62
   256
  9
$CELTSCALE
 40
1.0
  9
$DELOBJ
 70
     1
  9
$DISPSILH
 70
     0
  9
$DIMSCALE
 40
0.5
  9
$DIMASZ
 40
2.5
  9
$DIMEXO
 40
1.0
  9
$DIMDLI
 40
12.0
  9
$DIMRND
 40
0.0
  9
$DIMDLE
 40
0.0
  9
$DIMEXE
 40
1.0
  9
$DIMTP
 40
0.1
  9
$DIMTM
 40
0.1
  9
$DIMTXT
 40
3.2
  9
$DIMCEN
 40
0.0
  9
$DIMTSZ
 40
0.0
  9
$DIMTOL
 70
     0
  9
$DIMLIM
 70
     0
  9
$DIMTIH
 70
     0
  9
$DIMTOH
 70
     0
  9
$DIMSE1
 70
     0
  9
$DIMSE2
 70
     0
  9
$DIMTAD
 70
     3
  9
$DIMZIN
 70
     8
  9
$DIMBLK
  1
OPEN30
  9
$DIMASO
 70
     1
  9
$DIMSHO
 70
     1
  9
$DIMPOST
  1

  9
$DIMAPOST
  1
"
  9
$DIMALT
 70
     0
  9
$DIMALTD
 70
     2
  9
$DIMALTF
 40
0.0393701
  9
$DIMLFAC
 40
1.0
  9
$DIMTOFL
 70
     1
  9
$DIMTVP
 40
0.0
  9
$DIMTIX
 70
     0
  9
$DIMSOXD
 70
     0
  9
$DIMSAH
 70
     0
  9
$DIMBLK1
  1

  9
$DIMBLK2
  1

  9
$DIMSTYLE
  2
AM_JIS
  9
$DIMCLRD
 70
   256
  9
$DIMCLRE
 70
   256
  9
$DIMCLRT
 70
     2
  9
$DIMTFAC
 40
0.71
  9
$DIMGAP
 40
1.5
  9
$DIMJUST
 70
     0
  9
$DIMSD1
 70
     0
  9
$DIMSD2
 70
     0
  9
$DIMTOLJ
 70
     0
  9
$DIMTZIN
 70
     0
  9
$DIMALTZ
 70
     0
  9
$DIMALTTZ
 70
     0
  9
$DIMFIT
 70
     3
  9
$DIMUPT
 70
     0
  9
$DIMUNIT
 70
     2
  9
$DIMDEC
 70
     3
  9
$DIMTDEC
 70
     3
  9
$DIMALTU
 70
     2
  9
$DIMALTTD
 70
     2
  9
$DIMTXSTY
  7
ASAMI
  9
$DIMAUNIT
 70
     0
  9
$LUNITS
 70
     2
  9
$LUPREC
 70
     2
  9
$SKETCHINC
 40
1.0
  9
$FILLETRAD
 40
2.5
  9
$AUNITS
 70
     0
  9
$AUPREC
 70
     0
  9
$MENU
  1
.
  9
$ELEVATION
 40
0.0
  9
$PELEVATION
 40
0.0
  9
$THICKNESS
 40
0.0
  9
$LIMCHECK
 70
     0
  9
$BLIPMODE
 70
     0
  9
$CHAMFERA
 40
0.5
  9
$CHAMFERB
 40
0.5
  9
$CHAMFERC
 40
20.0
  9
$CHAMFERD
 40
0.0
  9
$SKPOLY
 70
     0
  9
$TDCREATE
 40
2452836.771637361
  9
$TDUPDATE
 40
2453151.790367766
  9
$TDINDWG
 40
0.0694668634
  9
$TDUSRTIMER
 40
0.0694668634
  9
$USRTIMER
 70
     1
  9
$ANGBASE
 50
0.0
  9
$ANGDIR
 70
     0
  9
$PDMODE
 70
     0
  9
$PDSIZE
 40
0.0
  9
$PLINEWID
 40
0.0
  9
$COORDS
 70
     1
  9
$SPLFRAME
 70
     0
  9
$SPLINETYPE
 70
     6
  9
$SPLINESEGS
 70
     8
  9
$ATTDIA
 70
     1
  9
$ATTREQ
 70
     1
  9
$HANDLING
 70
 12289
  9
$HANDSEED
  5
24C2
  9
$SURFTAB1
 70
     6
  9
$SURFTAB2
 70
     6
  9
$SURFTYPE
 70
     6
  9
$SURFU
 70
     6
  9
$SURFV
 70
     6
  9
$UCSNAME
  2

  9
$UCSORG
 10
0.0
 20
0.0
 30
0.0
  9
$UCSXDIR
 10
1.0
 20
0.0
 30
0.0
  9
$UCSYDIR
 10
0.0
 20
1.0
 30
0.0
  9
$PUCSNAME
  2

  9
$PUCSORG
 10
0.0
 20
0.0
 30
0.0
  9
$PUCSXDIR
 10
1.0
 20
0.0
 30
0.0
  9
$PUCSYDIR
 10
0.0
 20
1.0
 30
0.0
  9
$USERI1
 70
     0
  9
$USERI2
 70
     0
  9
$USERI3
 70
     0
  9
$USERI4
 70
     0
  9
$USERI5
 70
     0
  9
$USERR1
 40
0.0
  9
$USERR2
 40
0.0
  9
$USERR3
 40
0.0
  9
$USERR4
 40
0.0
  9
$USERR5
 40
0.0
  9
$WORLDVIEW
 70
     1
  9
$SHADEDGE
 70
     3
  9
$SHADEDIF
 70
    70
  9
$TILEMODE
 70
     1
  9
$MAXACTVP
 70
    64
  9
$PINSBASE
 10
0.0
 20
0.0
 30
0.0
  9
$PLIMCHECK
 70
     0
  9
$PEXTMIN
 10
1.000000000000000E+20
 20
1.000000000000000E+20
 30
1.000000000000000E+20
  9
$PEXTMAX
 10
-1.000000000000000E+20
 20
-1.000000000000000E+20
 30
-1.000000000000000E+20
  9
$PLIMMIN
 10
0.0
 20
0.0
  9
$PLIMMAX
 10
841.0
 20
594.0
  9
$UNITMODE
 70
     0
  9
$VISRETAIN
 70
     1
  9
$PLINEGEN
 70
     0
  9
$PSLTSCALE
 70
     0
  9
$TREEDEPTH
 70
  3020
  9
$PICKSTYLE
 70
     0
  9
$CMLSTYLE
  2
STANDARD
  9
$CMLJUST
 70
     0
  9
$CMLSCALE
 40
20.0
  9
$PROXYGRAPHICS
 70
     1
  9
$MEASUREMENT
 70
     1
  0
ENDSEC
  0
SECTION
  2
CLASSES
  0
CLASS
  1
ACDBDICTIONARYWDFLT
  2
AcDbDictionaryWithDefault
  3
AutoCAD 2000
 90
        0
280
     0
281
     0
  0
CLASS
  1
ACDBPLACEHOLDER
  2
AcDbPlaceHolder
  3
AutoCAD 2000
 90
        0
280
     0
281
     0
  0
CLASS
  1
LAYOUT
  2
AcDbLayout
  3
AutoCAD 2000
 90
        0
280
     0
281
     0
  0
CLASS
  1
AMGSETTINGSOBJ
  2
AmgSettingsObj
  3
"AcadM|Product Description: AutoCAD Mechanical 2000|Company: Autodesk"
 90
        0
280
     0
281
     0
  0
CLASS
  1
ACME_DOCUMENT
  2
AcMeDbDoc
  3
AcMeServices
 90
        0
280
     0
281
     0
  0
CLASS
  1
ACMESCOPE
  2
AcMeScope
  3
AcMeServices
 90
        0
280
     0
281
     0
  0
CLASS
  1
ACMECOMMANDHISTORY
  2
AcMeCommandHistory
  3
AcMeServices
 90
        0
280
     0
281
     0
  0
CLASS
  1
DICTIONARYVAR
  2
AcDbDictionaryVar
  3
AutoCAD 2000
 90
        0
280
     0
281
     0
  0
CLASS
  1
ACIMSYSVARMAN
  2
AcImSysVarManager
  3
AcMeServices
 90
        0
280
     0
281
     0
  0
CLASS
  1
ACIMREALSYSVAR
  2
AcImRealSysVar
  3
AcMeServices
 90
        0
280
     0
281
     0
  0
CLASS
  1
ACIMINTSYSVAR
  2
AcImIntSysVar
  3
AcMeServices
 90
        0
280
     0
281
     0
  0
CLASS
  1
ACMEDRAWINGMAN
  2
AcMeDrawingMan
  3
AcMeServices
 90
        0
280
     0
281
     0
  0
CLASS
  1
ACMEVIEW
  2
AcMeView
  3
AcMeServices
 90
        0
280
     0
281
     0
  0
CLASS
  1
ACDBENTITYCACHE
  2
AcMeEntityCache
  3
AcMeServices
 90
        0
280
     0
281
     0
  0
CLASS
  1
GSMANAGER
  2
AcMeGSManager
  3
AcMeServices
 90
        0
280
     0
281
     0
  0
CLASS
  1
AmdtInternalReactor
  2
AmdtInternalReactor
  3
AcMeServices
 90
        0
280
     0
281
     0
  0
CLASS
  1
ACMESTATEMGR
  2
AcMeStateMgr
  3
AcMeServices
 90
        0
280
     0
281
     0
  0
CLASS
  1
ACME_DATABASE
  2
AcMeDbDatabase
  3
AcMeServices
 90
        0
280
     0
281
     0
  0
CLASS
  1
ACRFINSADJUSTERMGR
  2
AcRfInsAdjusterMgr
  3
AcMeServices
 90
        0
280
     0
281
     0
  0
CLASS
  1
ACMDATADICTIONARY
  2
AcmDataDictionary
  3
"AcmSymBB|Product Description: AutoCAD Mechanical 2000|Company: Autodesk"
 90
        0
280
     0
281
     0
  0
CLASS
  1
ACMDATAENTRYBLOCK
  2
AcmDataEntryBlock
  3
"AcmSymBB|Product Description: AutoCAD Mechanical 2000|Company: Autodesk"
 90
        0
280
     0
281
     0
  0
CLASS
  1
AMGOBJPROPCFG
  2
AmgObjPropCfg
  3
"AmgLay|Product Description: AutoCAD Mechanical 2000|Company: Autodesk"
 90
        1
280
     0
281
     0
  0
CLASS
  1
ACAMGFILTERDAT
  2
AcAmgFilterDat
  3
"AcadM|Product Description: AutoCAD Mechanical 2000|Company: Autodesk"
 90
        0
280
     0
281
     0
  0
CLASS
  1
LAYER_INDEX
  2
AcDbLayerIndex
  3
AutoCAD 2000
 90
        0
280
     0
281
     0
  0
CLASS
  1
IDBUFFER
  2
AcDbIdBuffer
  3
AutoCAD 2000
 90
        0
280
     0
281
     0
  0
CLASS
  1
ACIMSTRSYSVAR
  2
AcImStrSysVar
  3
AcMeServices
 90
        0
280
     0
281
     0
  0
CLASS
  1
ACMSTANDARDJIS
  2
AcmStandardJIS
  3
"AcmSymBB|Product Description: AutoCAD Mechanical 2000|Company: Autodesk"
 90
        0
280
     0
281
     0
  0
CLASS
  1
ACMSURFSTANDARDJIS
  2
AcmSurfTextStdJIS
  3
"AcmSymBB|Product Description: AutoCAD Mechanical 2000|Company: Autodesk"
 90
        0
280
     0
281
     0
  0
CLASS
  1
ACMFCFSTANDARDJIS
  2
AcmFCFStdJIS
  3
"AcmSymBB|Product Description: AutoCAD Mechanical 2000|Company: Autodesk"
 90
        0
280
     0
281
     0
  0
CLASS
  1
ACMWELDSTANDARDJIS
  2
AcmWeldingStdJIS
  3
"AcmSymBB|Product Description: AutoCAD Mechanical 2000|Company: Autodesk"
 90
        0
280
     0
281
     0
  0
CLASS
  1
ACMIDSTANDARDJIS
  2
AcmIdStdJIS
  3
"AcmSymBB|Product Description: AutoCAD Mechanical 2000|Company: Autodesk"
 90
        0
280
     0
281
     0
  0
CLASS
  1
ACMDATUMSTANDARDJIS
  2
AcmDatumStdJIS
  3
"AcmSymBB|Product Description: AutoCAD Mechanical 2000|Company: Autodesk"
 90
        0
280
     0
281
     0
  0
CLASS
  1
ACMBOMSTANDARDJIS
  2
AcmBOMStdJIS
  3
"AcmSymBB|Product Description: AutoCAD Mechanical 2000|Company: Autodesk"
 90
        0
280
     0
281
     0
  0
CLASS
  1
ACMSTANDARDANSI
  2
AcmStandardANSI
  3
"AcmSymBB|Product Description: AutoCAD Mechanical 2000|Company: Autodesk"
 90
        0
280
     0
281
     0
  0
CLASS
  1
ACMSURFSTANDARDANSI
  2
AcmSurfTextStdANSI
  3
"AcmSymBB|Product Description: AutoCAD Mechanical 2000|Company: Autodesk"
 90
        0
280
     0
281
     0
  0
CLASS
  1
ACMFCFSTANDARDANSI
  2
AcmFCFStdANSI
  3
"AcmSymBB|Product Description: AutoCAD Mechanical 2000|Company: Autodesk"
 90
        0
280
     0
281
     0
  0
CLASS
  1
ACMWELDSTANDARDANSI
  2
AcmWeldingStdANSI
  3
"AcmSymBB|Product Description: AutoCAD Mechanical 2000|Company: Autodesk"
 90
        0
280
     0
281
     0
  0
CLASS
  1
ACMIDSTANDARDANSI
  2
AcmIdStdANSI
  3
"AcmSymBB|Product Description: AutoCAD Mechanical 2000|Company: Autodesk"
 90
        0
280
     0
281
     0
  0
CLASS
  1
ACMDATUMSTANDARDANSI
  2
AcmDatumStdANSI
  3
"AcmSymBB|Product Description: AutoCAD Mechanical 2000|Company: Autodesk"
 90
        0
280
     0
281
     0
  0
CLASS
  1
ACMBOMSTANDARDANSI
  2
AcmBOMStdANSI
  3
"AcmSymBB|Product Description: AutoCAD Mechanical 2000|Company: Autodesk"
 90
        0
280
     0
281
     0
  0
CLASS
  1
ACMSTANDARDBSI
  2
AcmStandardBSI
  3
"AcmSymBB|Product Description: AutoCAD Mechanical 2000|Company: Autodesk"
 90
        0
280
     0
281
     0
  0
CLASS
  1
ACMSURFSTANDARDBSI
  2
AcmSurfTextStdBSI
  3
"AcmSymBB|Product Description: AutoCAD Mechanical 2000|Company: Autodesk"
 90
        0
280
     0
281
     0
  0
CLASS
  1
ACMFCFSTANDARDBSI
  2
AcmFCFStdBSI
  3
"AcmSymBB|Product Description: AutoCAD Mechanical 2000|Company: Autodesk"
 90
        0
280
     0
281
     0
  0
CLASS
  1
ACMWELDSTANDARDBSI
  2
AcmWeldingStdBSI
  3
"AcmSymBB|Product Description: AutoCAD Mechanical 2000|Company: Autodesk"
 90
        0
280
     0
281
     0
  0
CLASS
  1
ACMIDSTANDARDBSI
  2
AcmIdStdBSI
  3
"AcmSymBB|Product Description: AutoCAD Mechanical 2000|Company: Autodesk"
 90
        0
280
     0
281
     0
  0
CLASS
  1
ACMDATUMSTANDARDBSI
  2
AcmDatumStdBSI
  3
"AcmSymBB|Product Description: AutoCAD Mechanical 2000|Company: Autodesk"
 90
        0
280
     0
281
     0
  0
CLASS
  1
ACMBOMSTANDARDBSI
  2
AcmBOMStdBSI
  3
"AcmSymBB|Product Description: AutoCAD Mechanical 2000|Company: Autodesk"
 90
        0
280
     0
281
     0
  0
CLASS
  1
LONG_TRANSACTION
  2
AcDbLongTransaction
  3
AutoCAD 2000
 90
        0
280
     0
281
     0
  0
CLASS
  1
LWPOLYLINE
  2
AcDbPolyline
  3
AutoCAD 2000
 90
        0
280
     0
281
     1
  0
CLASS
  1
HATCH
  2
AcDbHatch
  3
AutoCAD 2000
 90
        0
280
     0
281
     1
  0
CLASS
  1
XRECORD
  2
AcDbXrecord
  3
AutoCAD 2000
 90
        0
280
     0
281
     0
  0
ENDSEC
  0
SECTION
  2
TABLES
  0
TABLE
  2
VPORT
  5
8
330
0
100
AcDbSymbolTable
 70
     3
  0
VPORT
  5
2497
330
8
100
AcDbSymbolTableRecord
100
AcDbViewportTableRecord
  2
*ACTIVE
 70
     0
 10
0.0
 20
0.0
 11
1.0
 21
1.0
 12
-28.88860344341708
 22
-11.86229880827115
 13
0.0
 23
0.0
 14
2.5
 24
2.5
 15
10.0
 25
10.0
 16
0.0
 26
0.0
 36
1.0
 17
0.0
 27
0.0
 37
0.0
 40
48.12780281011222
 41
1.56570841889117
 42
50.0
 43
0.0
 44
0.0
 50
0.0
 51
0.0
 71
     0
 72
   100
 73
     1
 74
     3
 75
     0
 76
     0
 77
     0
 78
     0
  0
ENDTAB
  0
TABLE
  2
LTYPE
  5
5
330
0
100
AcDbSymbolTable
 70
    10
  0
LTYPE
  5
14
330
5
100
AcDbSymbolTableRecord
100
AcDbLinetypeTableRecord
  2
BYBLOCK
 70
     0
  3

 72
    65
 73
     0
 40
0.0
  0
LTYPE
  5
15
330
5
100
AcDbSymbolTableRecord
100
AcDbLinetypeTableRecord
  2
BYLAYER
 70
     0
  3

 72
    65
 73
     0
 40
0.0
  0
LTYPE
  5
16
330
5
100
AcDbSymbolTableRecord
100
AcDbLinetypeTableRecord
  2
CONTINUOUS
 70
     0
  3
Solid line
 72
    65
 73
     0
 40
0.0
  0
LTYPE
  5
4B
330
5
100
AcDbSymbolTableRecord
100
AcDbLinetypeTableRecord
  2
AM_ISO02W050
 70
     0
  3
__ __ __ __ __ __ __ __ __ __ __ __ __ __ __
 72
    65
 73
     2
 40
7.5
 49
6.0
 74
     0
 49
-1.5
 74
     0
  0
LTYPE
  5
4C
330
5
100
AcDbSymbolTableRecord
100
AcDbLinetypeTableRecord
  2
AM_ISO08W050
 70
     0
  3
____ . ____ . ____ . ____ . ____ . ____ . ____
 72
    65
 73
     4
 40
18.0
 49
12.0
 74
     0
 49
-1.5
 74
     0
 49
3.0
 74
     0
 49
-1.5
 74
     0
  0
LTYPE
  5
4D
330
5
100
AcDbSymbolTableRecord
100
AcDbLinetypeTableRecord
  2
AM_ISO09W050
 70
     0
  3
_____ . . _____ . . _____ . . ____ .. ____
 72
    65
 73
     6
 40
22.5
 49
12.0
 74
     0
 49
-1.5
 74
     0
 49
3.0
 74
     0
 49
-1.5
 74
     0
 49
3.0
 74
     0
 49
-1.5
 74
     0
  0
LTYPE
  5
4E
330
5
100
AcDbSymbolTableRecord
100
AcDbLinetypeTableRecord
  2
AMCONSTR
 70
     0
  3
_______________________
 72
    65
 73
     2
 40
9999.0
 49
9999.0
 74
     0
 49
0.0
 74
     0
  0
LTYPE
  5
4F
330
5
100
AcDbSymbolTableRecord
100
AcDbLinetypeTableRecord
  2
AM_ISO02W050X2
 70
     0
  3
 _ _ _ _ _ _ _ _ _ _ _ _
 72
    65
 73
     2
 40
3.75
 49
3.0
 74
     0
 49
-0.75
 74
     0
  0
LTYPE
  5
50
330
5
100
AcDbSymbolTableRecord
100
AcDbLinetypeTableRecord
  2
AM_ISO08W050X2
 70
     0
  3
__ . __ . __ . __ . __ . __
 72
    65
 73
     4
 40
9.0
 49
6.0
 74
     0
 49
-0.75
 74
     0
 49
1.5
 74
     0
 49
-0.75
 74
     0
  0
LTYPE
  5
53
330
5
100
AcDbSymbolTableRecord
100
AcDbLinetypeTableRecord
  2
AMZIGZAG
 70
     0
  3
/\/-/\/-/\/-/\/-/\/-/\/
 72
    65
 73
     2
 40
11.00009999999999
 49
0.0001
 74
     4
 75
   135
340
52
 46
0.04
 50
0.0
 44
0.0
 45
0.0
 49
-11.0
 74
     0
  0
LTYPE
  5
166
330
5
100
AcDbSymbolTableRecord
100
AcDbLinetypeTableRecord
  2
ACJISTGL
 70
     0
  3
_ _ _ _ _
 72
    65
 73
     2
 40
3.0
 49
2.0
 74
     0
 49
-1.0
 74
     0
  0
LTYPE
  5
26A
330
5
100
AcDbSymbolTableRecord
100
AcDbLinetypeTableRecord
  2
ACJISTGB
 70
     0
  3
__ . . __ . .
 72
    65
 73
     6
 40
9.0
 49
4.0
 74
     0
 49
-1.0
 74
     0
 49
1.0
 74
     0
 49
-1.0
 74
     0
 49
1.0
 74
     0
 49
-1.0
 74
     0
  0
ENDTAB
  0
TABLE
  2
LAYER
  5
2
330
0
100
AcDbSymbolTable
 70
     7
  0
LAYER
  5
10
330
2
100
AcDbSymbolTableRecord
100
AcDbLayerTableRecord
  2
0
 70
     0
 62
     7
  6
CONTINUOUS
  0
LAYER
  5
3F9
330
2
100
AcDbSymbolTableRecord
100
AcDbLayerTableRecord
  2
AM_0
 70
     0
 62
     7
  6
CONTINUOUS
  0
LAYER
  5
BD4
330
2
100
AcDbSymbolTableRecord
100
AcDbLayerTableRecord
  2
AM_11
 70
     0
 62
     3
  6
AM_ISO09W050
  0
LAYER
  5
BD5
330
2
100
AcDbSymbolTableRecord
100
AcDbLayerTableRecord
  2
AM_7
 70
     0
 62
     4
  6
AM_ISO08W050
  0
LAYER
  5
BD6
330
2
100
AcDbSymbolTableRecord
100
AcDbLayerTableRecord
  2
AM_5
 70
     0
 62
     3
  6
CONTINUOUS
  0
LAYER
  5
BD7
330
2
100
AcDbSymbolTableRecord
100
AcDbLayerTableRecord
  2
DEFPOINTS
 70
     0
 62
     7
  6
CONTINUOUS
  0
LAYER
  5
E59
330
2
100
AcDbSymbolTableRecord
100
AcDbLayerTableRecord
  2
AM_6
 70
     0
 62
     2
  6
CONTINUOUS
  0
ENDTAB
  0
TABLE
  2
STYLE
  5
3
330
0
100
AcDbSymbolTable
 70
     5
  0
STYLE
  5
11
330
3
100
AcDbSymbolTableRecord
100
AcDbTextStyleTableRecord
  2
STANDARD
 70
     0
 40
0.0
 41
1.0
 50
0.0
 71
     0
 42
2.5
  3
simplex.shx
  4
EXTFONT.SHX
  0
STYLE
  5
52
330
3
100
AcDbSymbolTableRecord
100
AcDbTextStyleTableRecord
  2

 70
     1
 40
0.0
 41
1.0
 50
0.0
 71
     0
 42
2.5
  3
ltypeshp.shx
  4

  0
STYLE
  5
6B
330
3
100
AcDbSymbolTableRecord
100
AcDbTextStyleTableRecord
  2
ASAMI
 70
     0
 40
0.0
 41
1.0
 50
0.0
 71
     0
 42
2.5
  3
simplex.shx
  4
EXTFONT.SHX
  0
STYLE
  5
262
330
3
100
AcDbSymbolTableRecord
100
AcDbTextStyleTableRecord
  2
ACJISTS
 70
     0
 40
1.0
 41
1.0
 50
0.0
 71
     0
 42
2.5
  3
simplex.shx
  4
bigfont.shx
  0
STYLE
  5
269
330
3
100
AcDbSymbolTableRecord
100
AcDbTextStyleTableRecord
  2
ACJISGDT
 70
     0
 40
0.0
 41
1.0
 50
0.0
 71
     0
 42
2.5
  3
amgdtans.shx
  4

  0
ENDTAB
  0
TABLE
  2
VIEW
  5
6
330
0
100
AcDbSymbolTable
 70
     0
  0
ENDTAB
  0
TABLE
  2
UCS
  5
7
330
0
100
AcDbSymbolTable
 70
     0
  0
ENDTAB
  0
TABLE
  2
APPID
  5
9
330
0
100
AcDbSymbolTable
 70
    12
  0
APPID
  5
12
330
9
100
AcDbSymbolTableRecord
100
AcDbRegAppTableRecord
  2
ACAD
 70
     0
  0
APPID
  5
30
330
9
100
AcDbSymbolTableRecord
100
AcDbRegAppTableRecord
  2
MCAD_NO_VIS
 70
     0
  0
APPID
  5
31
330
9
100
AcDbSymbolTableRecord
100
AcDbRegAppTableRecord
  2
ACAD_TEMP_GRAPHIC
 70
     0
  0
APPID
  5
2C2
330
9
100
AcDbSymbolTableRecord
100
AcDbRegAppTableRecord
  2
GENIUS_GENDTOL_13
 70
     0
  0
APPID
  5
339
330
9
100
AcDbSymbolTableRecord
100
AcDbRegAppTableRecord
  2
GENIUS_GENODEF_13
 70
     0
  0
APPID
  5
33A
330
9
100
AcDbSymbolTableRecord
100
AcDbRegAppTableRecord
  2
GENIUS_GENOBJ-N-RSBK_13
 70
     0
  0
APPID
  5
33B
330
9
100
AcDbSymbolTableRecord
100
AcDbRegAppTableRecord
  2
GENIUS_GENOBJ-N-LIB_13
 70
     0
  0
APPID
  5
33C
330
9
100
AcDbSymbolTableRecord
100
AcDbRegAppTableRecord
  2
GENIUS_GENSCALE_13
 70
     0
  0
APPID
  5
378
330
9
100
AcDbSymbolTableRecord
100
AcDbRegAppTableRecord
  2
GENIUS_GENDIMSH_14
 70
     0
  0
APPID
  5
BD8
330
9
100
AcDbSymbolTableRecord
100
AcDbRegAppTableRecord
  2
GENIUS_GENOBJ-N-CEN_13
 70
     0
  0
APPID
  5
BD9
330
9
100
AcDbSymbolTableRecord
100
AcDbRegAppTableRecord
  2
GENIUS_GENFIL_13
 70
     0
  0
APPID
  5
BDA
330
9
100
AcDbSymbolTableRecord
100
AcDbRegAppTableRecord
  2
GENIUS_GENOBJ-N-CHA_13
 70
     0
  0
ENDTAB
  0
TABLE
  2
DIMSTYLE
  5
A
330
0
100
AcDbSymbolTable
 70
     8
  0
DIMSTYLE
105
58
102
{ACAD_REACTORS
330
16EA
330
177A
330
1936
330
2180
102
}
330
A
100
AcDbSymbolTableRecord
100
AcDbDimStyleTableRecord
  2
AM_JIS
 70
     0
  3

  4
"
  5
OPEN30
  6

  7

 40
0.5
 41
2.5
 42
1.0
 43
12.0
 44
1.0
 45
0.0
 46
0.0
 47
0.1
 48
0.1
140
3.2
141
0.0
142
0.0
143
0.0393701
144
1.0
145
0.0
146
0.71
147
1.5
 71
     0
 72
     0
 73
     0
 74
     0
 75
     0
 76
     0
 77
     3
 78
     8
170
     0
171
     2
172
     1
173
     0
174
     0
175
     0
176
   256
177
   256
178
     2
270
     2
271
     3
272
     3
273
     2
274
     2
340
6B
275
     0
280
     0
281
     0
282
     0
283
     0
284
     0
285
     0
286
     0
287
     3
288
     0
  0
DIMSTYLE
105
5F
330
A
100
AcDbSymbolTableRecord
100
AcDbDimStyleTableRecord
  2
AM_JIS$3
 70
     0
  3

  4
"
  5
OPEN30
  6

  7

 40
0.5
 41
2.5
 42
1.0
 43
10.0
 44
1.0
 45
0.0
 46
0.0
 47
0.1
 48
0.1
140
3.2
141
0.0
142
0.0
143
0.0393701
144
1.0
145
0.0
146
0.71
147
1.5
 71
     0
 72
     0
 73
     0
 74
     1
 75
     0
 76
     0
 77
     3
 78
     8
170
     0
171
     2
172
     0
173
     0
174
     0
175
     0
176
   256
177
   256
178
     2
270
     2
271
     2
272
     3
273
     2
274
     2
340
6B
275
     0
280
     0
281
     0
282
     0
283
     0
284
     0
285
     0
286
     0
287
     0
288
     1
  0
DIMSTYLE
105
60
330
A
100
AcDbSymbolTableRecord
100
AcDbDimStyleTableRecord
  2
AM_JIS$4
 70
     0
  3

  4
"
  5
OPEN30
  6

  7

 40
0.5
 41
2.5
 42
1.0
 43
10.0
 44
1.0
 45
0.0
 46
0.0
 47
0.1
 48
0.1
140
3.2
141
0.0
142
0.0
143
0.0393701
144
1.0
145
0.0
146
0.71
147
1.5
 71
     0
 72
     0
 73
     0
 74
     1
 75
     0
 76
     0
 77
     3
 78
     8
170
     0
171
     2
172
     0
173
     0
174
     0
175
     0
176
   256
177
   256
178
     2
270
     2
271
     2
272
     3
273
     2
274
     2
340
6B
275
     0
280
     0
281
     0
282
     0
283
     0
284
     0
285
     0
286
     0
287
     0
288
     1
  0
DIMSTYLE
105
61
330
A
100
AcDbSymbolTableRecord
100
AcDbDimStyleTableRecord
  2
AM_JIS$6
 70
     0
  3

  4
"
  5
OPEN30
  6

  7

 40
0.5
 41
2.5
 42
1.0
 43
10.0
 44
1.0
 45
0.0
 46
0.0
 47
0.1
 48
0.1
140
3.2
141
0.0
142
0.0
143
0.0393701
144
1.0
145
0.0
146
0.71
147
1.5
 71
     0
 72
     0
 73
     0
 74
     0
 75
     0
 76
     0
 77
     0
 78
     8
170
     0
171
     2
172
     1
173
     0
174
     0
175
     0
176
   256
177
   256
178
     2
270
     2
271
     2
272
     2
273
     2
274
     2
340
6B
275
     0
280
     0
281
     0
282
     0
283
     0
284
     0
285
     0
286
     0
287
     3
288
     0
  0
DIMSTYLE
105
62
330
A
100
AcDbSymbolTableRecord
100
AcDbDimStyleTableRecord
  2
AM_JIS$7
 70
     0
  3

  4
"
  5
OPEN30
  6

  7

 40
0.5
 41
2.5
 42
1.0
 43
10.0
 44
1.0
 45
0.0
 46
0.0
 47
0.1
 48
0.1
140
3.2
141
0.0
142
0.0
143
0.0393701
144
1.0
145
0.0
146
0.71
147
1.5
 71
     0
 72
     0
 73
     0
 74
     0
 75
     0
 76
     0
 77
     3
 78
     8
170
     0
171
     2
172
     1
173
     0
174
     0
175
     0
176
   256
177
   256
178
     2
270
     2
271
     2
272
     3
273
     2
274
     2
340
6B
275
     0
280
     0
281
     0
282
     0
283
     0
284
     0
285
     0
286
     0
287
     3
288
     0
  0
DIMSTYLE
105
63
330
A
100
AcDbSymbolTableRecord
100
AcDbDimStyleTableRecord
  2
AM_JIS$SF
 70
     0
  3

  4
"
  5
OPEN30
  6

  7

 40
0.5
 41
2.5
 42
1.0
 43
10.0
 44
1.0
 45
0.0
 46
0.0
 47
0.1
 48
0.1
140
3.2
141
0.0
142
0.0
143
0.0393701
144
1.0
145
0.0
146
0.71
147
1.5
 71
     0
 72
     0
 73
     0
 74
     0
 75
     1
 76
     1
 77
     3
 78
     8
170
     0
171
     2
172
     1
173
     0
174
     0
175
     0
176
   256
177
   256
178
     2
270
     2
271
     2
272
     2
273
     2
274
     2
340
6B
275
     0
280
     0
281
     0
282
     0
283
     0
284
     0
285
     0
286
     0
287
     3
288
     0
  0
DIMSTYLE
105
68
330
A
100
AcDbSymbolTableRecord
100
AcDbDimStyleTableRecord
  2
AM_JIS$SH
 70
     0
  3

  4
"
  5

  6
GENAXEH
  7
OPEN30
 40
0.5
 41
2.5
 42
1.0
 43
10.0
 44
1.0
 45
0.0
 46
0.0
 47
0.1
 48
0.1
140
3.2
141
0.0
142
0.0
143
0.0393701
144
2.0
145
0.0
146
0.71
147
1.5
 71
     0
 72
     0
 73
     0
 74
     0
 75
     1
 76
     1
 77
     3
 78
     8
170
     0
171
     2
172
     1
173
     1
174
     0
175
     0
176
   256
177
   256
178
     2
270
     2
271
     2
272
     2
273
     2
274
     2
340
6B
275
     0
280
     0
281
     0
282
     0
283
     0
284
     0
285
     0
286
     0
287
     3
288
     0
  0
DIMSTYLE
105
B34
330
A
100
AcDbSymbolTableRecord
100
AcDbDimStyleTableRecord
  2
AM_JIS$2
 70
     0
  3

  4
"
  5
OPEN30
  6

  7

 40
0.5
 41
2.5
 42
1.0
 43
12.0
 44
1.0
 45
0.0
 46
0.0
 47
0.1
 48
0.1
140
3.2
141
0.0
142
0.0
143
0.0393701
144
1.0
145
0.0
146
0.71
147
1.5
 71
     0
 72
     0
 73
     0
 74
     0
 75
     0
 76
     0
 77
     3
 78
     8
170
     0
171
     2
172
     1
173
     0
174
     0
175
     0
176
   256
177
   256
178
     2
270
     2
271
     3
272
     3
273
     2
274
     2
340
6B
275
     0
280
     0
281
     0
282
     0
283
     0
284
     0
285
     0
286
     0
287
     3
288
     0
  0
ENDTAB
  0
TABLE
  2
BLOCK_RECORD
  5
1
330
0
100
AcDbSymbolTable
 70
     9
  0
BLOCK_RECORD
  5
1F
102
{ACAD_XDICTIONARY
360
74
102
}
330
1
100
AcDbSymbolTableRecord
100
AcDbBlockTableRecord
  2
*MODEL_SPACE
  0
BLOCK_RECORD
  5
101
102
{ACAD_XDICTIONARY
360
24C0
102
}
330
1
100
AcDbSymbolTableRecord
100
AcDbBlockTableRecord
  2
*PAPER_SPACE
  0
BLOCK_RECORD
  5
59
330
1
100
AcDbSymbolTableRecord
100
AcDbBlockTableRecord
  2
_OPEN30
  0
BLOCK_RECORD
  5
64
330
1
100
AcDbSymbolTableRecord
100
AcDbBlockTableRecord
  2
GENAXEH
  0
BLOCK_RECORD
  5
16EB
330
1
100
AcDbSymbolTableRecord
100
AcDbBlockTableRecord
  2
*D5
  0
BLOCK_RECORD
  5
177B
330
1
100
AcDbSymbolTableRecord
100
AcDbBlockTableRecord
  2
*D6
  0
BLOCK_RECORD
  5
1937
330
1
100
AcDbSymbolTableRecord
100
AcDbBlockTableRecord
  2
*D7
  0
BLOCK_RECORD
  5
2181
330
1
100
AcDbSymbolTableRecord
100
AcDbBlockTableRecord
  2
*D8
  0
ENDTAB
  0
ENDSEC
  0
SECTION
  2
BLOCKS
  0
BLOCK
  5
20
330
1F
100
AcDbEntity
  8
0
100
AcDbBlockBegin
  2
*MODEL_SPACE
 70
     0
 10
0.0
 20
0.0
 30
0.0
  3
*MODEL_SPACE
  1

  0
ENDBLK
  5
21
330
1F
100
AcDbEntity
  8
0
100
AcDbBlockEnd
  0
BLOCK
  5
103
330
101
100
AcDbEntity
 67
     1
  8
0
100
AcDbBlockBegin
  2
*PAPER_SPACE
 70
     0
 10
0.0
 20
0.0
 30
0.0
  3
*PAPER_SPACE
  1

  0
ENDBLK
  5
104
330
101
100
AcDbEntity
 67
     1
  8
0
100
AcDbBlockEnd
  0
BLOCK
  5
5D
330
59
100
AcDbEntity
  8
0
100
AcDbBlockBegin
  2
_OPEN30
 70
     0
 10
0.0
 20
0.0
 30
0.0
  3
_OPEN30
  1

  0
LINE
  5
5A
330
59
100
AcDbEntity
  8
0
 62
     0
100
AcDbLine
 10
-1.0
 20
0.26794919
 30
0.0
 11
0.0
 21
0.0
 31
0.0
  0
LINE
  5
5B
330
59
100
AcDbEntity
  8
0
 62
     0
100
AcDbLine
 10
0.0
 20
0.0
 30
0.0
 11
-1.0
 21
-0.26794919
 31
0.0
  0
LINE
  5
5C
330
59
100
AcDbEntity
  8
0
 62
     0
100
AcDbLine
 10
0.0
 20
0.0
 30
0.0
 11
-1.0
 21
0.0
 31
0.0
  0
ENDBLK
  5
5E
330
59
100
AcDbEntity
  8
0
100
AcDbBlockEnd
  0
BLOCK
  5
66
330
64
100
AcDbEntity
  8
0
100
AcDbBlockBegin
  2
GENAXEH
 70
     0
 10
0.0
 20
0.0
 30
0.0
  3
GENAXEH
  1

  0
LINE
  5
65
330
64
100
AcDbEntity
  8
0
100
AcDbLine
 10
-1.0
 20
0.0
 30
0.0
 11
1.0
 21
0.0
 31
0.0
  0
ENDBLK
  5
67
330
64
100
AcDbEntity
  8
0
100
AcDbBlockEnd
  0
BLOCK
  5
16F5
330
16EB
100
AcDbEntity
  8
0
100
AcDbBlockBegin
  2
*D5
 70
     1
 10
0.0
 20
0.0
 30
0.0
  3
*D5
  1

  0
LINE
  5
2221
330
16EB
100
AcDbEntity
  8
AM_5
100
AcDbLine
 10
-0.0000000000020021
 20
-4.25
 30
0.0
 11
-0.0000000000020025
 21
-11.5000010000001
 31
0.0
  0
LINE
  5
2222
330
16EB
100
AcDbEntity
  8
AM_5
100
AcDbLine
 10
-15.00000000000009
 20
-4.250000000000014
 30
0.0
 11
-15.00000000000009
 21
-11.5000010000001
 31
0.0
  0
LINE
  5
2223
330
16EB
100
AcDbEntity
  8
AM_5
100
AcDbLine
 10
-1.250000000002002
 20
-11.0000010000001
 30
0.0
 11
-13.75000000000009
 21
-11.0000010000001
 31
0.0
  0
INSERT
  5
2224
330
16EB
100
AcDbEntity
  8
AM_5
100
AcDbBlockReference
  2
_OPEN30
 10
-0.0000000000020025
 20
-11.0000010000001
 30
0.0
 41
1.25
 42
1.25
 43
1.25
  0
INSERT
  5
2225
330
16EB
100
AcDbEntity
  8
AM_5
100
AcDbBlockReference
  2
_OPEN30
 10
-15.00000000000009
 20
-11.0000010000001
 30
0.0
 41
1.25
 42
1.25
 43
1.25
 50
180.0
  0
MTEXT
  5
2226
330
16EB
100
AcDbEntity
  8
AM_5
 62
     2
100
AcDbMText
 10
-7.500000000001048
 20
-9.450001000000106
 30
0.0
 40
1.6
 41
0.0
 71
     5
 72
     1
  1
15
  7
ASAMI
1001
ACAD
1000
MTEXTBEGIN
1070
    73
1070
     1
1070
    44
1040
1.0
1070
    74
1070
     0
1000
MTEXTEND
  0
POINT
  5
2227
330
16EB
100
AcDbEntity
  8
DEFPOINTS
 62
     0
100
AcDbPoint
 10
-0.000000000002002
 20
-3.75
 30
0.0
  0
POINT
  5
2228
330
16EB
100
AcDbEntity
  8
DEFPOINTS
 62
     0
100
AcDbPoint
 10
-15.00000000000009
 20
-3.750000000000014
 30
0.0
  0
POINT
  5
2229
330
16EB
100
AcDbEntity
  8
DEFPOINTS
 62
     0
100
AcDbPoint
 10
-15.00000000000009
 20
-11.0000010000001
 30
0.0
  0
ENDBLK
  5
16F6
330
16EB
100
AcDbEntity
  8
0
100
AcDbBlockEnd
  0
BLOCK
  5
1785
330
177B
100
AcDbEntity
  8
0
100
AcDbBlockBegin
  2
*D6
 70
     1
 10
0.0
 20
0.0
 30
0.0
  3
*D6
  1

  0
LINE
  5
2218
330
177B
100
AcDbEntity
  8
AM_5
100
AcDbLine
 10
-0.0000000000014114
 20
-4.25
 30
0.0
 11
-0.0000000000014122
 21
-17.50000100000022
 31
0.0
  0
LINE
  5
2219
330
177B
100
AcDbEntity
  8
AM_5
100
AcDbLine
 10
-55.0
 20
-4.000000000000138
 30
0.0
 11
-55.0
 21
-17.50000100000022
 31
0.0
  0
LINE
  5
221A
330
177B
100
AcDbEntity
  8
AM_5
100
AcDbLine
 10
-1.250000000001412
 20
-17.00000100000022
 30
0.0
 11
-53.75
 21
-17.00000100000022
 31
0.0
  0
INSERT
  5
221B
330
177B
100
AcDbEntity
  8
AM_5
100
AcDbBlockReference
  2
_OPEN30
 10
-0.0000000000014122
 20
-17.00000100000022
 30
0.0
 41
1.25
 42
1.25
 43
1.25
  0
INSERT
  5
221C
330
177B
100
AcDbEntity
  8
AM_5
100
AcDbBlockReference
  2
_OPEN30
 10
-55.0
 20
-17.00000100000022
 30
0.0
 41
1.25
 42
1.25
 43
1.25
 50
180.0
  0
MTEXT
  5
221D
330
177B
100
AcDbEntity
  8
AM_5
 62
     2
100
AcDbMText
 10
-27.50000000000071
 20
-15.45000100000022
 30
0.0
 40
1.6
 41
0.0
 71
     5
 72
     1
  1
55
  7
ASAMI
1001
ACAD
1000
MTEXTBEGIN
1070
    73
1070
     1
1070
    44
1040
1.0
1070
    74
1070
     0
1000
MTEXTEND
  0
POINT
  5
221E
330
177B
100
AcDbEntity
  8
DEFPOINTS
 62
     0
100
AcDbPoint
 10
-0.0000000000014114
 20
-3.75
 30
0.0
  0
POINT
  5
221F
330
177B
100
AcDbEntity
  8
DEFPOINTS
 62
     0
100
AcDbPoint
 10
-55.0
 20
-3.500000000000138
 30
0.0
  0
POINT
  5
2220
330
177B
100
AcDbEntity
  8
DEFPOINTS
 62
     0
100
AcDbPoint
 10
-55.0
 20
-17.00000100000022
 30
0.0
  0
ENDBLK
  5
1786
330
177B
100
AcDbEntity
  8
0
100
AcDbBlockEnd
  0
BLOCK
  5
1943
330
1937
100
AcDbEntity
  8
0
100
AcDbBlockBegin
  2
*D7
 70
     1
 10
0.0
 20
0.0
 30
0.0
  3
*D7
  1

  0
LINE
  5
222A
330
1937
100
AcDbEntity
  8
AM_5
100
AcDbLine
 10
0.4999999999993375
 20
3.75
 30
0.0
 11
8.629789688840496
 21
3.749999999999997
 31
0.0
  0
LINE
  5
222B
330
1937
100
AcDbEntity
  8
AM_5
100
AcDbLine
 10
0.4999999999985886
 20
-3.75
 30
0.0
 11
8.629789688840496
 21
-3.750000000000003
 31
0.0
  0
LINE
  5
222C
330
1937
100
AcDbEntity
  8
AM_5
100
AcDbLine
 10
8.129789688840496
 20
2.499999999999997
 30
0.0
 11
8.129789688840496
 21
-2.500000000000003
 31
0.0
  0
INSERT
  5
222D
330
1937
100
AcDbEntity
  8
AM_5
100
AcDbBlockReference
  2
_OPEN30
 10
8.129789688840496
 20
3.749999999999997
 30
0.0
 41
1.25
 42
1.25
 43
1.25
 50
90.0
  0
INSERT
  5
222E
330
1937
100
AcDbEntity
  8
AM_5
100
AcDbBlockReference
  2
_OPEN30
 10
8.129789688840496
 20
-3.750000000000003
 30
0.0
 41
1.25
 42
1.25
 43
1.25
 50
270.0
  0
MTEXT
  5
222F
330
1937
100
AcDbEntity
  8
AM_5
 62
     2
100
AcDbMText
 10
6.579789688840495
 20
-0.0000000000000012
 30
0.0
 40
1.6
 41
0.0
 71
     5
 72
     1
  1
%%c7.5
  7
ASAMI
 11
0.0000000000000001
 21
1.0
 31
0.0
1001
ACAD
1000
MTEXTBEGIN
1070
    73
1070
     1
1070
    44
1040
1.0
1070
    74
1070
     0
1000
MTEXTEND
  0
POINT
  5
2230
330
1937
100
AcDbEntity
  8
DEFPOINTS
 62
     0
100
AcDbPoint
 10
-0.0000000000006626
 20
3.75
 30
0.0
  0
POINT
  5
2231
330
1937
100
AcDbEntity
  8
DEFPOINTS
 62
     0
100
AcDbPoint
 10
-0.0000000000014114
 20
-3.75
 30
0.0
  0
POINT
  5
2232
330
1937
100
AcDbEntity
  8
DEFPOINTS
 62
     0
100
AcDbPoint
 10
8.129789688840496
 20
-3.750000000000003
 30
0.0
  0
ENDBLK
  5
1944
330
1937
100
AcDbEntity
  8
0
100
AcDbBlockEnd
  0
BLOCK
  5
218B
330
2181
100
AcDbEntity
  8
0
100
AcDbBlockBegin
  2
*D8
 70
     1
 10
0.0
 20
0.0
 30
0.0
  3
*D8
  1

  0
LINE
  5
23C0
330
2181
100
AcDbEntity
  8
AM_5
100
AcDbLine
 10
-55.0
 20
3.99999999999986
 30
0.0
 11
-64.56123869649855
 21
3.999999999999862
 31
0.0
  0
LINE
  5
23C1
330
2181
100
AcDbEntity
  8
AM_5
100
AcDbLine
 10
-55.0
 20
-4.000000000000138
 30
0.0
 11
-64.56123869649855
 21
-4.000000000000135
 31
0.0
  0
LINE
  5
23C2
330
2181
100
AcDbEntity
  8
AM_5
100
AcDbLine
 10
-64.06123869649855
 20
2.749999999999862
 30
0.0
 11
-64.06123869649855
 21
-2.750000000000135
 31
0.0
  0
INSERT
  5
23C3
330
2181
100
AcDbEntity
  8
AM_5
100
AcDbBlockReference
  2
_OPEN30
 10
-64.06123869649855
 20
3.999999999999862
 30
0.0
 41
1.25
 42
1.25
 43
1.25
 50
90.0
  0
INSERT
  5
23C4
330
2181
100
AcDbEntity
  8
AM_5
100
AcDbBlockReference
  2
_OPEN30
 10
-64.06123869649855
 20
-4.000000000000135
 30
0.0
 41
1.25
 42
1.25
 43
1.25
 50
270.0
  0
MTEXT
  5
23C5
330
2181
100
AcDbEntity
  8
AM_5
 62
     2
100
AcDbMText
 10
-65.61123869649854
 20
-0.0000000000001467
 30
0.0
 40
1.6
 41
0.0
 71
     5
 72
     1
  1
%%c8
  7
ASAMI
 11
0.0000000000000001
 21
1.0
 31
0.0
1001
ACAD
1000
MTEXTBEGIN
1070
    73
1070
     1
1070
    44
1040
1.0
1070
    74
1070
     0
1000
MTEXTEND
  0
POINT
  5
23C6
330
2181
100
AcDbEntity
  8
DEFPOINTS
 62
     0
100
AcDbPoint
 10
-54.5
 20
3.99999999999986
 30
0.0
  0
POINT
  5
23C7
330
2181
100
AcDbEntity
  8
DEFPOINTS
 62
     0
100
AcDbPoint
 10
-54.5
 20
-4.000000000000138
 30
0.0
  0
POINT
  5
23C8
330
2181
100
AcDbEntity
  8
DEFPOINTS
 62
     0
100
AcDbPoint
 10
-64.06123869649855
 20
-4.000000000000135
 30
0.0
  0
ENDBLK
  5
218C
330
2181
100
AcDbEntity
  8
0
100
AcDbBlockEnd
  0
ENDSEC
  0
SECTION
  2
ENTITIES
  0
TEXT
  5
E5A
330
1F
100
AcDbEntity
  8
AM_6
100
AcDbText
 10
-38.09523809523879
 20
-28.25000100000022
 30
0.0
 40
2.5
  1
SSM4075ZX
 72
     4
 11
-27.5000000000007
 21
-27.00000100000022
 31
0.0
100
AcDbText
  0
LINE
  5
13DC
330
1F
100
AcDbEntity
  8
AM_7
  6
AM_ISO08W050X2
100
AcDbLine
 10
1.129788688840505
 20
-0.000000000000095
 30
0.0
 11
-57.06123769649856
 21
-0.0000000000001386
 31
0.0
1001
GENIUS_GENODEF_13
1002
{
1000
HIER
1070
     0
1002
}
1002
{
1000
MANEDIT
1070
     0
1002
}
1002
{
1000
NOSEL
1070
     0
1002
}
1002
{
1000
BEHIND
1070
     0
1002
}
1002
{
1000
REACTOR
1002
}
1001
GENIUS_GENOBJ-N-CEN_13
1002
{
1000
OWNER
1000
GEN
1002
}
  0
DIMENSION
  5
16EA
330
1F
100
AcDbEntity
  8
AM_5
100
AcDbDimension
  2
*D5
 10
-15.00000000000009
 20
-11.0000010000001
 30
0.0
 11
-7.500000000001048
 21
-9.450001000000106
 31
0.0
 70
    32
  1
<>
  3
AM_JIS
100
AcDbAlignedDimension
 13
-0.000000000002002
 23
-3.75
 33
0.0
 14
-15.00000000000009
 24
-3.750000000000014
 34
0.0
 50
0.0000000000001641
100
AcDbRotatedDimension
1001
GENIUS_GENDTOL_13
1000

1000
h7
1000

1040
0.0
  0
DIMENSION
  5
177A
330
1F
100
AcDbEntity
  8
AM_5
100
AcDbDimension
  2
*D6
 10
-55.0
 20
-17.00000100000022
 30
0.0
 11
-27.50000000000071
 21
-15.45000100000022
 31
0.0
 70
    32
  1
<>
  3
AM_JIS
100
AcDbAlignedDimension
 13
-0.0000000000014114
 23
-3.75
 33
0.0
 14
-55.0
 24
-3.500000000000138
 34
0.0
 50
0.0000000000001641
100
AcDbRotatedDimension
1001
GENIUS_GENDTOL_13
1000

1000
h7
1000

1040
0.0
  0
DIMENSION
  5
1936
330
1F
100
AcDbEntity
  8
AM_5
100
AcDbDimension
  2
*D7
 10
8.129789688840496
 20
-3.750000000000003
 30
0.0
 11
6.579789688840495
 21
-0.0000000000000012
 31
0.0
 70
    32
  1
%%c<>
  3
AM_JIS
100
AcDbAlignedDimension
 13
-0.0000000000006626
 23
3.75
 33
0.0
 14
-0.0000000000014114
 24
-3.75
 34
0.0
 50
90.00000000000003
100
AcDbRotatedDimension
1001
GENIUS_GENDTOL_13
1000

1000
h7
1000

1040
0.0
  0
LINE
  5
210D
330
1F
100
AcDbEntity
  8
AM_0
100
AcDbLine
 10
-0.7278574075541311
 20
2.000355610507792
 30
0.0
 11
-1.606753793878697
 21
2.256340066896054
 31
0.0
  0
LINE
  5
210E
330
1F
100
AcDbEntity
  8
AM_0
100
AcDbLine
 10
-0.0000000000001368
 20
0.0
 30
0.0
 11
-0.0715909090910394
 21
0.7500000000000853
 31
0.0
  0
LINE
  5
210F
330
1F
100
AcDbEntity
  8
AM_0
100
AcDbLine
 10
-0.0715909090910394
 20
-0.9951733909223889
 30
0.0
 11
-0.0000000000001368
 21
-0.75
 31
0.0
  0
LINE
  5
2110
330
1F
100
AcDbEntity
  8
AM_0
100
AcDbLine
 10
-0.5866758993350257
 20
-1.10524107387491
 30
0.0
 11
-0.0715909090910394
 21
-0.9951733909223889
 31
0.0
  0
LINE
  5
2111
330
1F
100
AcDbEntity
  8
AM_0
100
AcDbLine
 10
-0.0000000000001368
 20
-0.75
 30
0.0
 11
-0.3936479108112625
 21
0.0000000000000391
 31
0.0
  0
LINE
  5
2112
330
1F
100
AcDbEntity
  8
AM_0
100
AcDbLine
 10
-0.0000000000001368
 20
0.0
 30
0.0
 11
-0.0605745062346603
 21
-0.6345900653143133
 31
0.0
  0
LINE
  5
2113
330
1F
100
AcDbEntity
  8
AM_0
100
AcDbLine
 10
-1.606753793878695
 20
-0.0000000000000036
 30
0.0
 11
-1.606753793878695
 21
-0.6000000000000121
 31
0.0
  0
LINE
  5
2114
330
1F
100
AcDbEntity
  8
AM_0
100
AcDbLine
 10
-1.606753793878695
 20
-0.6000000000000121
 30
0.0
 11
-0.5866758993350257
 21
-1.10524107387491
 31
0.0
  0
LINE
  5
2115
330
1F
100
AcDbEntity
  8
AM_0
100
AcDbLine
 10
-0.0000000000001368
 20
0.0
 30
0.0
 11
-1.606753793878695
 21
-0.0000000000000036
 31
0.0
  0
LINE
  5
2116
330
1F
100
AcDbEntity
  8
AM_0
100
AcDbLine
 10
-1.606753793878695
 20
-0.6000000000000121
 30
0.0
 11
-0.0787295821623584
 21
-0.6000000000000086
 31
0.0
  0
LINE
  5
2117
330
1F
100
AcDbEntity
  8
AM_0
100
AcDbLine
 10
-0.0715909090910394
 20
0.7500000000000853
 30
0.0
 11
-0.7278574075541311
 21
2.000355610507792
 31
0.0
  0
LINE
  5
2118
330
1F
100
AcDbEntity
  8
AM_0
100
AcDbLine
 10
-0.0000000000001368
 20
0.0
 30
0.0
 11
-0.0000000000001386
 21
3.75
 31
0.0
  0
LINE
  5
2119
330
1F
100
AcDbEntity
  8
AM_0
100
AcDbLine
 10
-0.000000000000135
 20
-3.75
 30
0.0
 11
-0.0715909090910358
 21
-3.550080868216369
 31
0.0
  0
LINE
  5
211A
330
1F
100
AcDbEntity
  8
AM_0
100
AcDbLine
 10
-0.0715909090910358
 20
-3.550080868216326
 30
0.0
 11
-0.4670454545455911
 21
-2.998212491596436
 31
0.0
  0
LINE
  5
211B
330
1F
100
AcDbEntity
  8
AM_0
100
AcDbLine
 10
-0.0715909090910358
 20
-3.550080868216369
 30
0.0
 11
-0.0715909090910394
 21
-0.9951733909223889
 31
0.0
  0
LINE
  5
211C
330
1F
100
AcDbEntity
  8
AM_0
100
AcDbLine
 10
-0.000000000000135
 20
-3.75
 30
0.0
 11
-0.0000000000001368
 21
-0.75
 31
0.0
  0
ELLIPSE
  5
211D
330
1F
100
AcDbEntity
  8
AM_0
100
AcDbEllipse
 10
1.353868078654773
 20
-1.907910123538432
 30
0.0
 11
0.0000000000000025
 21
2.280523586637036
 31
0.0
210
0.0
220
0.0
230
1.0
 40
0.9090909090909097
 41
1.211124581303828
 42
2.06927853829032
  0
SPLINE
  5
211E
330
1F
100
AcDbEntity
  8
AM_0
100
AcDbSpline
210
0.0
220
0.0
230
1.0
 70
     8
 71
     3
 72
     8
 73
     4
 74
     0
 42
0.0000000001
 43
0.0000000001
 40
0.0
 40
0.0
 40
0.0
 40
0.0
 40
5.635889483499127
 40
5.635889483499127
 40
5.635889483499127
 40
5.635889483499127
 10
-0.0000000000001386
 20
3.75
 30
0.0
 10
-1.280883973522664
 20
3.749999999999996
 30
0.0
 10
-2.515867673070218
 20
3.46634552173435
 30
0.0
 10
-3.722804027075477
 20
3.009364078778428
 30
0.0
  0
SPLINE
  5
211F
330
1F
100
AcDbEntity
  8
AM_0
100
AcDbSpline
210
0.0
220
0.0
230
1.0
 70
     8
 71
     3
 72
     8
 73
     4
 74
     0
 42
0.0000000001
 43
0.0000000001
 40
0.0
 40
0.0
 40
0.0
 40
0.0
 40
2.586565323616715
 40
2.586565323616715
 40
2.586565323616715
 40
2.586565323616715
 10
-0.0000000000001386
 20
3.056027015012972
 30
0.0
 10
-0.3772277594339659
 20
2.560082397113255
 30
0.0
 10
-1.024717844124682
 20
2.347105347693261
 30
0.0
 10
-1.606753793878697
 20
2.256340066896054
 30
0.0
  0
SPLINE
  5
2120
330
1F
100
AcDbEntity
  8
AM_0
100
AcDbSpline
210
0.0
220
0.0
230
1.0
 70
     8
 71
     3
 72
     8
 73
     4
 74
     0
 42
0.0000000001
 43
0.0000000001
 40
0.7142832446738512
 40
0.7142832446738512
 40
0.7142832446738512
 40
0.7142832446738512
 40
9.361146747480315
 40
9.361146747480315
 40
9.361146747480315
 40
9.361146747480315
 10
-6.227169526684946
 20
3.450448342368215
 30
0.0
 10
-4.277151841286364
 20
3.349337579228684
 30
0.0
 10
-2.416664557805614
 20
2.651827412099716
 30
0.0
 10
-0.588985366793299
 20
1.735768837110708
 30
0.0
  0
LINE
  5
2121
330
1F
100
AcDbEntity
  8
AM_0
100
AcDbLine
 10
-15.00000000000017
 20
3.075179191240152
 30
0.0
 11
-15.17959295665265
 21
3.417349729404151
 31
0.0
  0
LINE
  5
2122
330
1F
100
AcDbEntity
  8
AM_0
100
AcDbLine
 10
-15.00000000000008
 20
-0.5652691219789006
 30
0.0
 11
-15.49631886548894
 21
-1.111219874016654
 31
0.0
  0
POLYLINE
  5
2123
330
1F
100
AcDbEntity
  8
AM_0
100
AcDb2dPolyline
 66
     1
 10
0.0
 20
0.0
 30
0.0
 70
     2
  0
VERTEX
  5
2124
330
2123
100
AcDbEntity
  8
AM_0
100
AcDbVertex
100
AcDb2dVertex
 10
-15.00000000000014
 20
3.075179191240149
 30
0.0
 42
0.0113495642762015
  0
VERTEX
  5
2125
330
2123
100
AcDbEntity
  8
AM_0
100
AcDbVertex
100
AcDb2dVertex
 10
-15.7948090526932
 20
3.206085883834678
 30
0.0
 42
0.0187918863228812
 70
     1
  0
VERTEX
  5
2126
330
2123
100
AcDbEntity
  8
AM_0
100
AcDbVertex
100
AcDb2dVertex
 10
-16.27840909090922
 20
3.253205906003056
 30
0.0
 42
0.0075788461628208
  0
VERTEX
  5
2127
330
2123
100
AcDbEntity
  8
AM_0
100
AcDbVertex
100
AcDb2dVertex
 10
-17.56397193420274
 20
3.303585106134445
 30
0.0
 42
0.0232722457202398
 70
     1
  0
VERTEX
  5
2128
330
2123
100
AcDbEntity
  8
AM_0
100
AcDbVertex
100
AcDb2dVertex
 10
-17.98295454545468
 20
3.291561361321466
 30
0.0
 42
0.0542958387243925
  0
VERTEX
  5
2129
330
2123
100
AcDbEntity
  8
AM_0
100
AcDbVertex
100
AcDb2dVertex
 10
-18.38315642295279
 20
3.210952183994077
 30
0.0
 42
0.4413285869607302
 70
     1
  0
VERTEX
  5
212A
330
2123
100
AcDbEntity
  8
AM_0
100
AcDbVertex
100
AcDb2dVertex
 10
-18.40909090909105
 20
3.151890101876968
 30
0.0
 42
0.0678159998049314
  0
VERTEX
  5
212B
330
2123
100
AcDbEntity
  8
AM_0
100
AcDbVertex
100
AcDb2dVertex
 10
-18.37716205780151
 20
3.090075841511573
 30
0.0
 42
0.006836731909696
 70
     1
  0
VERTEX
  5
212C
330
2123
100
AcDbEntity
  8
AM_0
100
AcDbVertex
100
AcDb2dVertex
 10
-17.98295454545468
 20
2.537985075620905
 30
0.0
 42
0.0061465077983929
  0
VERTEX
  5
212D
330
2123
100
AcDbEntity
  8
AM_0
100
AcDbVertex
100
AcDb2dVertex
 10
-17.38874472180887
 20
1.74885971061121
 30
0.0
 42
0.0040253861954876
 70
     1
  0
VERTEX
  5
212E
330
2123
100
AcDbEntity
  8
AM_0
100
AcDbVertex
100
AcDb2dVertex
 10
-16.45934913878849
 20
0.5644930998076525
 30
0.0
 42
0.0594163782683759
  0
VERTEX
  5
212F
330
2123
100
AcDbEntity
  8
AM_0
100
AcDbVertex
100
AcDb2dVertex
 10
-16.03916122158064
 20
0.1492305084445284
 30
0.0
 42
0.0273113651513278
 70
     1
  0
VERTEX
  5
2130
330
2123
100
AcDbEntity
  8
AM_0
100
AcDbVertex
100
AcDb2dVertex
 10
-15.00000000000013
 20
-0.5652691219789041
 30
0.0
  0
SEQEND
  5
2131
330
2123
100
AcDbEntity
  8
AM_0
  0
ELLIPSE
  5
2132
330
1F
100
AcDbEntity
  8
AM_0
100
AcDbEllipse
 10
-18.53839504872085
 20
3.395864073485835
 30
0.0
 11
0.0000000000000693
 21
7.158689660581473
 31
0.0
210
0.0
220
0.0
230
1.0
 40
0.909090909090915
 41
3.201461614289998
 42
3.427250019213452
  0
LINE
  5
2133
330
1F
100
AcDbEntity
  8
AM_11
100
AcDbLine
 10
-15.00000000000009
 20
3.749999999999985
 30
0.0
 11
-15.00000000000009
 21
-3.750000000000014
 31
0.0
  0
POLYLINE
  5
2134
330
1F
100
AcDbEntity
  8
AM_0
100
AcDb2dPolyline
 66
     1
 10
0.0
 20
0.0
 30
0.0
 70
     2
  0
VERTEX
  5
2135
330
2134
100
AcDbEntity
  8
AM_0
100
AcDbVertex
100
AcDb2dVertex
 10
-16.70454545454559
 20
-3.472731300555896
 30
0.0
 42
-0.0230918143391583
  0
VERTEX
  5
2136
330
2134
100
AcDbEntity
  8
AM_0
100
AcDbVertex
100
AcDb2dVertex
 10
-17.0976257354336
 20
-3.363150942862223
 30
0.0
 42
-0.0355587143075394
 70
     1
  0
VERTEX
  5
2137
330
2134
100
AcDbEntity
  8
AM_0
100
AcDbVertex
100
AcDb2dVertex
 10
-17.34375000000013
 20
-3.259551375568651
 30
0.0
 42
-0.0216088548285507
  0
VERTEX
  5
2138
330
2134
100
AcDbEntity
  8
AM_0
100
AcDbVertex
100
AcDb2dVertex
 10
-17.91799378830186
 20
-2.930885882763025
 30
0.0
 42
-0.0414110700152503
 70
     1
  0
VERTEX
  5
2139
330
2134
100
AcDbEntity
  8
AM_0
100
AcDbVertex
100
AcDb2dVertex
 10
-18.19602272727286
 20
-2.719062388754348
 30
0.0
 42
-0.0653031023268945
  0
VERTEX
  5
213A
330
2134
100
AcDbEntity
  8
AM_0
100
AcDbVertex
100
AcDb2dVertex
 10
-18.37511952951748
 20
-2.508372734110853
 30
0.0
 42
-0.1569363594221426
 70
     1
  0
VERTEX
  5
213B
330
2134
100
AcDbEntity
  8
AM_0
100
AcDbVertex
100
AcDb2dVertex
 10
-18.40909090909104
 20
-2.391753326927268
 30
0.0
 42
-0.1617045000652558
  0
VERTEX
  5
213C
330
2134
100
AcDbEntity
  8
AM_0
100
AcDbVertex
100
AcDb2dVertex
 10
-18.37453272941428
 20
-2.277757744862672
 30
0.0
 42
-0.0680210806811403
 70
     1
  0
VERTEX
  5
213D
330
2134
100
AcDbEntity
  8
AM_0
100
AcDbVertex
100
AcDb2dVertex
 10
-18.19602272727286
 20
-2.078604761308486
 30
0.0
 42
-0.0450747416233525
  0
VERTEX
  5
213E
330
2134
100
AcDbEntity
  8
AM_0
100
AcDbVertex
100
AcDb2dVertex
 10
-17.92061079070706
 20
-1.885898747757526
 30
0.0
 42
-0.0231467319857815
 70
     1
  0
VERTEX
  5
213F
330
2134
100
AcDbEntity
  8
AM_0
100
AcDbVertex
100
AcDb2dVertex
 10
-17.34375000000013
 20
-1.594757759327482
 30
0.0
 42
-0.0364444523572374
  0
VERTEX
  5
2140
330
2134
100
AcDbEntity
  8
AM_0
100
AcDbVertex
100
AcDb2dVertex
 10
-17.09322189958756
 20
-1.506171523889452
 30
0.0
 42
-0.0242139410122645
 70
     1
  0
VERTEX
  5
2141
330
2134
100
AcDbEntity
  8
AM_0
100
AcDbVertex
100
AcDb2dVertex
 10
-16.70454545454559
 20
-1.424059322965195
 30
0.0
  0
SEQEND
  5
2142
330
2134
100
AcDbEntity
  8
AM_0
  0
ELLIPSE
  5
2143
330
1F
100
AcDbEntity
  8
AM_0
100
AcDbEllipse
 10
-18.53322251655015
 20
-9.966754766961532
 30
0.0
 11
0.0000000000003524
 21
8.776329403763764
 31
0.0
210
0.0
220
0.0
230
1.0
 40
0.9090909090909018
 41
-0.4587681791449123
 42
-0.2312569029270763
  0
LINE
  5
2144
330
1F
100
AcDbEntity
  8
AM_0
100
AcDbLine
 10
-15.49631886548894
 20
-1.111219874016654
 30
0.0
 11
-15.00000000000013
 21
-2.097909389899712
 31
0.0
  0
SPLINE
  5
2145
330
1F
100
AcDbEntity
  8
AM_0
100
AcDbSpline
210
0.0
220
0.0
230
1.0
 70
     8
 71
     3
 72
     8
 73
     4
 74
     0
 42
0.0000000001
 43
0.0000000001
 40
1.090140354492627
 40
1.090140354492627
 40
1.090140354492627
 40
1.090140354492627
 40
14.36247867694493
 40
14.36247867694493
 40
14.36247867694493
 40
14.36247867694493
 10
-15.24611273165209
 20
3.433913747857872
 30
0.0
 10
-12.26475260472705
 20
3.200228544359479
 30
0.0
 10
-9.48851834294021
 20
1.600114272179759
 30
0.0
 10
-6.712284081153349
 20
0.0000000000000355
 30
0.0
  0
SPLINE
  5
2146
330
1F
100
AcDbEntity
  8
AM_0
100
AcDbSpline
210
0.0
220
0.0
230
1.0
 70
     8
 71
     3
 72
     8
 73
     4
 74
     0
 42
0.0000000001
 43
0.0000000001
 40
0.0
 40
0.0
 40
0.0
 40
0.0
 40
12.79333816032526
 40
12.79333816032526
 40
12.79333816032526
 40
12.79333816032526
 10
-6.71228408115348
 20
-3.463083377851937
 30
0.0
 10
-9.619860935772862
 20
-3.463083377851937
 30
0.0
 10
-12.32119667405852
 20
-2.089225155117414
 30
0.0
 10
-15.00000000000008
 20
-0.5652691219789006
 30
0.0
  0
SPLINE
  5
2147
330
1F
100
AcDbEntity
  8
AM_0
100
AcDbSpline
210
0.0
220
0.0
230
1.0
 70
     8
 71
     3
 72
     8
 73
     4
 74
     0
 42
0.0000000001
 43
0.0000000001
 40
0.0
 40
0.0
 40
0.0
 40
0.0
 40
9.068166399416787
 40
9.068166399416787
 40
9.068166399416787
 40
9.068166399416787
 10
-9.272727272727539
 20
-3.749999999999921
 30
0.0
 10
-11.33367418168589
 20
-3.749999999999925
 30
0.0
 10
-13.27579021351101
 20
-3.015649035701557
 30
0.0
 10
-15.17344240918614
 20
-2.006520490518198
 30
0.0
  0
SPLINE
  5
2148
330
1F
100
AcDbEntity
  8
AM_0
100
AcDbSpline
210
0.0
220
0.0
230
1.0
 70
     8
 71
     3
 72
     8
 73
     4
 74
     0
 42
0.0000000001
 43
0.0000000001
 40
5.360156850992435
 40
5.360156850992435
 40
5.360156850992435
 40
5.360156850992435
 40
14.48999654934396
 40
14.48999654934396
 40
14.48999654934396
 40
14.48999654934396
 10
-15.00000000000017
 20
3.075179191240152
 30
0.0
 10
-13.0403126163874
 20
2.362795515666945
 30
0.0
 10
-11.1565199445574
 20
1.181397757833511
 30
0.0
 10
-9.272727272727404
 20
0.0000000000000782
 30
0.0
  0
SPLINE
  5
2149
330
1F
100
AcDbEntity
  8
AM_0
100
AcDbSpline
210
0.0
220
0.0
230
1.0
 70
     8
 71
     3
 72
     8
 73
     4
 74
     0
 42
0.0000000001
 43
0.0000000001
 40
0.0
 40
0.0
 40
0.0
 40
0.0
 40
11.45610476152127
 40
11.45610476152127
 40
11.45610476152127
 40
11.45610476152127
 10
-8.082648557731214
 20
-3.637712752751461
 30
0.0
 10
-10.68630873080423
 20
-3.637712752751465
 30
0.0
 10
-13.10991245927916
 20
-2.492735070562105
 30
0.0
 10
-15.4963188654653
 20
-1.111219873967243
 30
0.0
  0
SPLINE
  5
214A
330
1F
100
AcDbEntity
  8
AM_0
100
AcDbSpline
210
0.0
220
0.0
230
1.0
 70
     8
 71
     3
 72
     8
 73
     4
 74
     0
 42
0.0000000001
 43
0.0000000001
 40
0.3581103616548037
 40
0.3581103616548037
 40
0.3581103616548037
 40
0.3581103616548037
 40
14.43901837670146
 40
14.43901837670146
 40
14.43901837670146
 40
14.43901837670146
 10
-17.29378101760969
 20
3.749999999999982
 30
0.0
 10
-13.92519124531783
 20
3.547491756039903
 30
0.0
 10
-11.00391990152445
 20
1.773745878019969
 30
0.0
 10
-8.082648557731101
 20
0.0000000000000355
 30
0.0
  0
SPLINE
  5
214B
330
1F
100
AcDbEntity
  8
AM_0
100
AcDbSpline
210
0.0
220
0.0
230
1.0
 70
     8
 71
     3
 72
     8
 73
     4
 74
     0
 42
0.0000000001
 43
0.0000000001
 40
0.0
 40
0.0
 40
0.0
 40
0.0
 40
5.635889483499305
 40
5.635889483499305
 40
5.635889483499305
 40
5.635889483499305
 10
-9.272727272727543
 20
3.750000000000078
 30
0.0
 10
-10.55361124625012
 20
3.750000000000074
 30
0.0
 10
-11.7885949457977
 20
3.466345521734428
 30
0.0
 10
-12.99553129980298
 20
3.009364078778464
 30
0.0
  0
SPLINE
  5
214C
330
1F
100
AcDbEntity
  8
AM_0
100
AcDbSpline
210
0.0
220
0.0
230
1.0
 70
     8
 71
     3
 72
     8
 73
     4
 74
     0
 42
0.0000000001
 43
0.0000000001
 40
0.0
 40
0.0
 40
0.0
 40
0.0
 40
2.130230809022907
 40
2.130230809022907
 40
2.130230809022907
 40
2.130230809022907
 10
-9.272727272727539
 20
-3.750000000000007
 30
0.0
 10
-8.788583907040504
 20
-3.750000000000007
 30
0.0
 10
-8.310998122361439
 20
-3.709475465865132
 30
0.0
 10
-7.839005863174644
 20
-3.634384067139428
 30
0.0
  0
SPLINE
  5
214D
330
1F
100
AcDbEntity
  8
AM_0
100
AcDbSpline
210
0.0
220
0.0
230
1.0
 70
     8
 71
     3
 72
     8
 73
     4
 74
     0
 42
0.0000000001
 43
0.0000000001
 40
0.0
 40
0.0
 40
0.0
 40
0.0
 40
4.451443990518192
 40
4.451443990518192
 40
4.451443990518192
 40
4.451443990518192
 10
-16.70454545454559
 20
-3.472731300555896
 30
0.0
 10
-14.97331953785387
 20
-3.463083377852029
 30
0.0
 10
-13.98659719149049
 20
-3.296751310685593
 30
0.0
 10
-13.0171053862825
 20
-3.015639411692614
 30
0.0
  0
LINE
  5
214E
330
1F
100
AcDbEntity
  8
AM_11
100
AcDbLine
 10
-15.00000000000009
 20
-3.750000000000013
 30
0.0
 11
-0.000000000000135
 21
-3.75
 31
0.0
  0
LINE
  5
214F
330
1F
100
AcDbEntity
  8
AM_11
100
AcDbLine
 10
-0.0000000000006626
 20
3.75
 30
0.0
 11
-15.00000000000009
 21
3.749999999999984
 31
0.0
  0
SPLINE
  5
2150
330
1F
100
AcDbEntity
  8
AM_0
100
AcDbSpline
210
0.0
220
0.0
230
1.0
 70
     8
 71
     3
 72
     8
 73
     4
 74
     0
 42
0.0000000001
 43
0.0000000001
 40
0.0
 40
0.0
 40
0.0
 40
0.0
 40
2.764560748519282
 40
2.764560748519282
 40
2.764560748519282
 40
2.764560748519282
 10
-8.082648557731214
 20
-3.637712752751546
 30
0.0
 10
-7.454339296704112
 20
-3.637712752751546
 30
0.0
 10
-6.836515483719797
 20
-3.571035861382547
 30
0.0
 10
-6.227169526756892
 20
-3.450448342382333
 30
0.0
  0
SPLINE
  5
2151
330
1F
100
AcDbEntity
  8
AM_0
100
AcDbSpline
210
0.0
220
0.0
230
1.0
 70
     8
 71
     3
 72
     8
 73
     4
 74
     0
 42
0.0000000001
 43
0.0000000001
 40
1.870660592686466
 40
1.870660592686466
 40
1.870660592686466
 40
1.870660592686466
 40
14.43901837670146
 40
14.43901837670146
 40
14.43901837670146
 40
14.43901837670146
 10
-0.0715909090910358
 20
-3.550080868216326
 30
0.0
 10
-2.86770313038342
 20
-3.166425459076112
 30
0.0
 10
-5.475175844057261
 20
-1.583212729538036
 30
0.0
 10
-8.082648557731101
 20
0.0000000000000355
 30
0.0
  0
SPLINE
  5
2152
330
1F
100
AcDbEntity
  8
AM_0
100
AcDbSpline
210
0.0
220
0.0
230
1.0
 70
     8
 71
     3
 72
     8
 73
     4
 74
     0
 42
0.0000000001
 43
0.0000000001
 40
0.0
 40
0.0
 40
0.0
 40
0.0
 40
14.48999654934396
 40
14.48999654934396
 40
14.48999654934396
 40
14.48999654934396
 10
-0.000000000000135
 20
-3.75
 30
0.0
 10
-3.293181033941941
 20
-3.750000000000003
 30
0.0
 10
-6.282954153334674
 20
-1.875000000000003
 30
0.0
 10
-9.272727272727404
 20
-0.0000000000000071
 30
0.0
  0
SPLINE
  5
2153
330
1F
100
AcDbEntity
  8
AM_0
100
AcDbSpline
210
0.0
220
0.0
230
1.0
 70
     8
 71
     3
 72
     8
 73
     4
 74
     0
 42
0.0000000001
 43
0.0000000001
 40
0.0
 40
0.0
 40
0.0
 40
0.0
 40
14.48999654934396
 40
14.48999654934396
 40
14.48999654934396
 40
14.48999654934396
 10
-9.272727272727404
 20
3.750000000000078
 30
0.0
 10
-5.979546238785598
 20
3.750000000000081
 30
0.0
 10
-2.989773119392868
 20
1.875000000000081
 30
0.0
 10
-0.0000000000001368
 20
0.0000000000000853
 30
0.0
  0
SPLINE
  5
2154
330
1F
100
AcDbEntity
  8
AM_0
100
AcDbSpline
210
0.0
220
0.0
230
1.0
 70
     8
 71
     3
 72
     8
 73
     4
 74
     0
 42
0.0000000001
 43
0.0000000001
 40
0.3581103616548037
 40
0.3581103616548037
 40
0.3581103616548037
 40
0.3581103616548037
 40
12.40023413887867
 40
12.40023413887867
 40
12.40023413887867
 40
12.40023413887867
 10
-7.839005863174381
 20
3.6343840671395
 30
0.0
 10
-5.113845537809371
 20
3.560072952797124
 30
0.0
 10
-2.582699576011517
 20
2.252025846363746
 30
0.0
 10
-0.0796450857245592
 20
0.7653452674567234
 30
0.0
  0
SPLINE
  5
2155
330
1F
100
AcDbEntity
  8
AM_0
100
AcDbSpline
210
0.0
220
0.0
230
1.0
 70
     8
 71
     3
 72
     8
 73
     4
 74
     0
 42
0.0000000001
 43
0.0000000001
 40
4.542668862435135
 40
4.542668862435135
 40
4.542668862435135
 40
4.542668862435135
 40
14.36247867694493
 40
14.36247867694493
 40
14.36247867694493
 40
14.36247867694493
 10
-0.4670454545446408
 20
-2.998212491592472
 30
0.0
 10
-2.604177161492552
 20
-2.367754264929647
 30
0.0
 10
-4.65823062132295
 20
-1.183877132464804
 30
0.0
 10
-6.712284081153349
 20
0.0000000000000355
 30
0.0
  0
SPLINE
  5
2156
330
1F
100
AcDbEntity
  8
AM_0
100
AcDbSpline
210
0.0
220
0.0
230
1.0
 70
     8
 71
     3
 72
     8
 73
     4
 74
     0
 42
0.0000000001
 43
0.0000000001
 40
0.0
 40
0.0
 40
0.0
 40
0.0
 40
4.451443990518192
 40
4.451443990518192
 40
4.451443990518192
 40
4.451443990518192
 10
-6.71228408115348
 20
-3.463083377852022
 30
0.0
 10
-5.700592265126608
 20
-3.463083377852019
 30
0.0
 10
-4.713869918763226
 20
-3.296751310685582
 30
0.0
 10
-3.744378113555237
 20
-3.015639411692607
 30
0.0
  0
DIMENSION
  5
2180
330
1F
100
AcDbEntity
  8
AM_5
100
AcDbDimension
  2
*D8
 10
-64.06123869649855
 20
-4.000000000000135
 30
0.0
 11
-65.61123869649854
 21
-0.0000000000001467
 31
0.0
 70
    32
  1
%%c<>
  3
AM_JIS
100
AcDbAlignedDimension
 13
-54.5
 23
3.99999999999986
 33
0.0
 14
-54.5
 24
-4.000000000000138
 34
0.0
 50
270.0
100
AcDbRotatedDimension
1001
GENIUS_GENDTOL_13
1000

1000
h7
1000

1040
0.0
  0
LINE
  5
218D
330
1F
100
AcDbEntity
  8
AM_0
100
AcDbLine
 10
-54.5
 20
3.999999999999859
 30
0.0
 11
-22.0
 21
3.999999999999872
 31
0.0
  0
LINE
  5
218E
330
1F
100
AcDbEntity
  8
AM_0
100
AcDbLine
 10
-21.99999999999999
 20
-4.000000000000127
 30
0.0
 11
-54.5
 21
-4.000000000000138
 31
0.0
  0
LINE
  5
2191
330
1F
100
AcDbEntity
  8
AM_0
100
AcDbLine
 10
-54.5
 20
3.99999999999986
 30
0.0
 11
-54.5
 21
-4.000000000000138
 31
0.0
  0
LINE
  5
2192
330
1F
100
AcDbEntity
  8
AM_0
100
AcDbLine
 10
-55.0
 20
-3.500000000000138
 30
0.0
 11
-55.0
 21
3.499999999999859
 31
0.0
  0
LINE
  5
219E
330
1F
100
AcDbEntity
  8
AM_0
100
AcDbLine
 10
-54.5
 20
3.999999999999859
 30
0.0
 11
-55.0
 21
3.499999999999859
 31
0.0
1001
GENIUS_GENFIL_13
1070
     0
1040
0.5
1040
0.5
1040
20.0
1040
0.0
1002
{
1002
}
1001
GENIUS_GENODEF_13
1002
{
1000
HIER
1070
     0
1002
}
1002
{
1000
MANEDIT
1070
     0
1002
}
1002
{
1000
NOSEL
1070
     0
1002
}
1002
{
1000
BEHIND
1070
     0
1002
}
1002
{
1000
REACTOR
1002
}
1001
GENIUS_GENOBJ-N-CHA_13
1002
{
1000
OWNER
1000
GEN
1002
}
  0
LINE
  5
21A4
330
1F
100
AcDbEntity
  8
AM_0
100
AcDbLine
 10
-55.0
 20
-3.500000000000138
 30
0.0
 11
-54.5
 21
-4.000000000000138
 31
0.0
1001
GENIUS_GENFIL_13
1070
     0
1040
0.5
1040
0.5
1040
20.0
1040
0.0
1002
{
1002
}
1001
GENIUS_GENODEF_13
1002
{
1000
HIER
1070
     0
1002
}
1002
{
1000
MANEDIT
1070
     0
1002
}
1002
{
1000
NOSEL
1070
     0
1002
}
1002
{
1000
BEHIND
1070
     0
1002
}
1002
{
1000
REACTOR
1002
}
1001
GENIUS_GENOBJ-N-CHA_13
1002
{
1000
OWNER
1000
GEN
1002
}
  0
LINE
  5
21B6
330
1F
100
AcDbEntity
  8
AM_0
100
AcDbLine
 10
-21.99999999999999
 20
-4.000000000000127
 30
0.0
 11
-22.0
 21
3.999999999999871
 31
0.0
  0
LINE
  5
220E
330
1F
100
AcDbEntity
  8
AM_0
100
AcDbLine
 10
-22.0
 20
3.999999999999872
 30
0.0
 11
-21.31313064513665
 21
3.749999999999984
 31
0.0
  0
LINE
  5
220F
330
1F
100
AcDbEntity
  8
AM_0
100
AcDbLine
 10
-21.31313064513665
 20
3.749999999999984
 30
0.0
 11
-21.31313064513602
 21
-3.750000000000013
 31
0.0
  0
LINE
  5
2210
330
1F
100
AcDbEntity
  8
AM_0
100
AcDbLine
 10
-21.31313064513602
 20
-3.750000000000013
 30
0.0
 11
-21.99999999999999
 21
-4.000000000000127
 31
0.0
  0
LINE
  5
2211
330
1F
100
AcDbEntity
  8
AM_0
100
AcDbLine
 10
-21.31313064513602
 20
-3.750000000000012
 30
0.0
 11
-18.1490065688602
 21
-3.750000000000013
 31
0.0
  0
LINE
  5
2212
330
1F
100
AcDbEntity
  8
AM_0
100
AcDbLine
 10
-21.31313064513665
 20
3.749999999999984
 30
0.0
 11
-17.29378101760969
 21
3.749999999999982
 31
0.0
  0
VIEWPORT
  5
110
330
101
100
AcDbEntity
 67
     1
  8
0
100
AcDbViewport
 10
420.5
 20
297.0
 30
0.0
 40
948.9782706766916
 41
628.452
 68
     1
 69
     1
1001
ACAD
1000
MVIEW
1002
{
1070
    16
1010
0.0
1020
0.0
1030
0.0
1010
0.0
1020
0.0
1030
1.0
1040
0.0
1040
628.452
1040
420.5
1040
297.0
1040
50.0
1040
0.0
1040
0.0
1070
     0
1070
   100
1070
     1
1070
     1
1070
     0
1070
     0
1070
     0
1070
     0
1040
0.0
1040
0.0
1040
0.0
1040
10.0
1040
10.0
1040
10.0
1040
10.0
1070
     0
1002
{
1002
}
1002
}
  0
ENDSEC
  0
SECTION
  2
OBJECTS
  0
DICTIONARY
  5
C
330
0
100
AcDbDictionary
  3
ACAD_GROUP
350
D
  3
ACAD_LAYOUT
350
1A
  3
ACAD_MLINESTYLE
350
17
  3
ACAD_PLOTSETTINGS
350
19
  3
ACAD_PLOTSTYLENAME
350
E
  3
ACDBVARIABLEDICTIONARY
350
34
  3
ACMDICTIONARY
350
43
  3
AMG
350
2B
  3
AMGSNAPSETTINGS
350
6E
  3
DWGPROPS
350
248C
  3
ACDBHEADERROUNDTRIPXREC
350
2498
  0
DICTIONARY
  5
74
330
1F
100
AcDbDictionary
280
     1
  3
ACAD_INDEX
360
248E
  3
ACAD_LAYOUTSELFREF
360
24BB
  0
DICTIONARY
  5
24C0
330
101
100
AcDbDictionary
280
     1
  3
ACAD_LAYOUTSELFREF
360
24C1
  0
DICTIONARY
  5
D
102
{ACAD_REACTORS
330
C
102
}
330
C
100
AcDbDictionary
  0
DICTIONARY
  5
1A
102
{ACAD_REACTORS
330
C
102
}
330
C
100
AcDbDictionary
  0
DICTIONARY
  5
17
102
{ACAD_REACTORS
330
C
102
}
330
C
100
AcDbDictionary
  3
STANDARD
350
18
  0
DICTIONARY
  5
19
102
{ACAD_REACTORS
330
C
102
}
330
C
100
AcDbDictionary
  0
ACDBDICTIONARYWDFLT
  5
E
102
{ACAD_REACTORS
330
C
102
}
330
C
100
AcDbDictionary
281
     1
  3
Normal
350
F
100
AcDbDictionaryWithDefault
340
F
  0
DICTIONARY
  5
34
102
{ACAD_REACTORS
330
C
102
}
330
C
100
AcDbDictionary
  3
INDEXCTL
350
35
  3
SORTENTS
350
B5E
  0
DICTIONARY
  5
43
102
{ACAD_REACTORS
330
C
102
}
330
C
100
AcDbDictionary
  3
ACMSTDDICTIONARY
350
260
  0
DICTIONARY
  5
2B
102
{ACAD_REACTORS
330
C
102
}
330
C
100
AcDbDictionary
  3
ACMGSETTINGS
350
2C
  0
DICTIONARY
  5
6E
102
{ACAD_REACTORS
330
C
102
}
330
C
100
AcDbDictionary
  0
XRECORD
  5
248C
102
{ACAD_REACTORS
330
C
102
}
330
C
100
AcDbXrecord
  1
DWGPROPS COOKIE
  2

  3

  4

  6

  7

  8

  9

300
AmdtFileType=82
301
=
302
=
303
=
304
=
305
=
306
=
307
=
308
=
309
=
 40
0.0692594212962963
 41
2452836.771637361
 42
2452901.600942013
  1

 90
        1
  0
DICTIONARY
  5
2498
102
{ACAD_REACTORS
330
C
102
}
330
C
100
AcDbDictionary
  3
TSTACKALIGN
350
2499
  3
TSTACKSIZE
350
249A
  3
HYPERLINKBASE
350
249B
  3
STYLESHEET
350
249C
  3
LAYOUTDICT
350
249D
  3
PLOTSETDICT
350
249E
  3
PLOTSTYLNAMDICT
350
249F
  3
LWETCUNION
350
24A0
  3
INSUNITS
350
24A1
  3
CEPSNTYPE
350
24A2
  3
FINGERPRINTGUID
350
24A3
  3
VERSIONGUID
350
24A4
  3
PSVPSCALE
350
24A5
  3
DIMSTYLEDATA
350
24A6
  3
PUCSORTHOREF
350
24A7
  3
PUCSORTHOVIEW
350
24A8
  3
PUCSBASE
350
24A9
  3
PUCSORGTOP
350
24AA
  3
PUCSORGBOTTOM
350
24AB
  3
PUCSORGLEFT
350
24AC
  3
PUCSORGRIGHT
350
24AD
  3
PUCSORGFRONT
350
24AE
  3
PUCSORGBACK
350
24AF
  3
UCSORTHOREF
350
24B0
  3
UCSORTHOVIEW
350
24B1
  3
UCSBASE
350
24B2
  3
UCSORGTOP
350
24B3
  3
UCSORGBOTTOM
350
24B4
  3
UCSORGLEFT
350
24B5
  3
UCSORGRIGHT
350
24B6
  3
UCSORGFRONT
350
24B7
  3
UCSORGBACK
350
24B8
  0
DICTIONARY
  5
248E
102
{ACAD_REACTORS
330
74
102
}
330
74
100
AcDbDictionary
  3
*A1
350
248F
  0
XRECORD
  5
24BB
102
{ACAD_REACTORS
330
74
102
}
330
74
100
AcDbXrecord
340
1F
  0
XRECORD
  5
24C1
102
{ACAD_REACTORS
330
24C0
102
}
330
24C0
100
AcDbXrecord
340
101
  0
MLINESTYLE
  5
18
102
{ACAD_REACTORS
330
17
102
}
330
17
100
AcDbMlineStyle
  2
STANDARD
 70
     0
  3

 62
   256
 51
90.0
 52
90.0
 71
     2
 49
0.5
 62
   256
  6
BYLAYER
 49
-0.5
 62
   256
  6
BYLAYER
  0
ACDBPLACEHOLDER
  5
F
102
{ACAD_REACTORS
330
E
102
}
330
E
100
AcDbPlaceHolder
280
     0
  0
DICTIONARYVAR
  5
35
102
{ACAD_REACTORS
330
34
102
}
330
34
100
DictionaryVariables
280
     0
  1
1
  0
DICTIONARYVAR
  5
B5E
102
{ACAD_REACTORS
330
34
102
}
330
34
100
DictionaryVariables
280
     0
  1
96
  0
DICTIONARY
  5
260
102
{ACAD_REACTORS
330
43
102
}
330
43
100
AcDbDictionary
  0
DICTIONARY
  5
2C
102
{ACAD_REACTORS
330
2B
102
}
330
2B
100
AcDbDictionary
  3
DWGSETTINGS
350
2D
  0
XRECORD
  5
2499
102
{ACAD_REACTORS
330
2498
102
}
330
2498
100
AcDbXrecord
 90
        1
  0
XRECORD
  5
249A
102
{ACAD_REACTORS
330
2498
102
}
330
2498
100
AcDbXrecord
 90
       70
  0
XRECORD
  5
249B
102
{ACAD_REACTORS
330
2498
102
}
330
2498
100
AcDbXrecord
  1

  0
XRECORD
  5
249C
102
{ACAD_REACTORS
330
2498
102
}
330
2498
100
AcDbXrecord
  1
ASAMI.ctb
  0
XRECORD
  5
249D
102
{ACAD_REACTORS
330
2498
102
}
330
2498
100
AcDbXrecord
340
1A
  0
XRECORD
  5
249E
102
{ACAD_REACTORS
330
2498
102
}
330
2498
100
AcDbXrecord
340
19
  0
XRECORD
  5
249F
102
{ACAD_REACTORS
330
2498
102
}
330
2498
100
AcDbXrecord
340
E
  0
XRECORD
  5
24A0
102
{ACAD_REACTORS
330
2498
102
}
330
2498
100
AcDbXrecord
 90
    10781
  0
XRECORD
  5
24A1
102
{ACAD_REACTORS
330
2498
102
}
330
2498
100
AcDbXrecord
 90
        4
  0
XRECORD
  5
24A2
102
{ACAD_REACTORS
330
2498
102
}
330
2498
100
AcDbXrecord
 90
        0
  0
XRECORD
  5
24A3
102
{ACAD_REACTORS
330
2498
102
}
330
2498
100
AcDbXrecord
  1
{AFB28963-8C59-40AE-9337-C84526B81ACE}
  0
XRECORD
  5
24A4
102
{ACAD_REACTORS
330
2498
102
}
330
2498
100
AcDbXrecord
  1
{B7EB2B41-B9C4-4868-BB8D-D23892A899AB}
  0
XRECORD
  5
24A5
102
{ACAD_REACTORS
330
2498
102
}
330
2498
100
AcDbXrecord
 40
0.0
  0
XRECORD
  5
24A6
102
{ACAD_REACTORS
330
2498
102
}
330
2498
100
AcDbXrecord
1000
DSTYLE
1002
{
1070
    79
 70
     2
1070
   341
340
59
1070
   342
340
59
1070
   371
 70
    -1
1070
   372
 70
    -1
1002
}
  0
XRECORD
  5
24A7
102
{ACAD_REACTORS
330
2498
102
}
330
2498
100
AcDbXrecord
340
0
  0
XRECORD
  5
24A8
102
{ACAD_REACTORS
330
2498
102
}
330
2498
100
AcDbXrecord
 70
     0
  0
XRECORD
  5
24A9
102
{ACAD_REACTORS
330
2498
102
}
330
2498
100
AcDbXrecord
340
0
  0
XRECORD
  5
24AA
102
{ACAD_REACTORS
330
2498
102
}
330
2498
100
AcDbXrecord
 10
0.0
 20
0.0
 30
0.0
  0
XRECORD
  5
24AB
102
{ACAD_REACTORS
330
2498
102
}
330
2498
100
AcDbXrecord
 10
0.0
 20
0.0
 30
0.0
  0
XRECORD
  5
24AC
102
{ACAD_REACTORS
330
2498
102
}
330
2498
100
AcDbXrecord
 10
0.0
 20
0.0
 30
0.0
  0
XRECORD
  5
24AD
102
{ACAD_REACTORS
330
2498
102
}
330
2498
100
AcDbXrecord
 10
0.0
 20
0.0
 30
0.0
  0
XRECORD
  5
24AE
102
{ACAD_REACTORS
330
2498
102
}
330
2498
100
AcDbXrecord
 10
0.0
 20
0.0
 30
0.0
  0
XRECORD
  5
24AF
102
{ACAD_REACTORS
330
2498
102
}
330
2498
100
AcDbXrecord
 10
0.0
 20
0.0
 30
0.0
  0
XRECORD
  5
24B0
102
{ACAD_REACTORS
330
2498
102
}
330
2498
100
AcDbXrecord
340
0
  0
XRECORD
  5
24B1
102
{ACAD_REACTORS
330
2498
102
}
330
2498
100
AcDbXrecord
 70
     0
  0
XRECORD
  5
24B2
102
{ACAD_REACTORS
330
2498
102
}
330
2498
100
AcDbXrecord
340
0
  0
XRECORD
  5
24B3
102
{ACAD_REACTORS
330
2498
102
}
330
2498
100
AcDbXrecord
 10
0.0
 20
0.0
 30
0.0
  0
XRECORD
  5
24B4
102
{ACAD_REACTORS
330
2498
102
}
330
2498
100
AcDbXrecord
 10
0.0
 20
0.0
 30
0.0
  0
XRECORD
  5
24B5
102
{ACAD_REACTORS
330
2498
102
}
330
2498
100
AcDbXrecord
 10
0.0
 20
0.0
 30
0.0
  0
XRECORD
  5
24B6
102
{ACAD_REACTORS
330
2498
102
}
330
2498
100
AcDbXrecord
 10
0.0
 20
0.0
 30
0.0
  0
XRECORD
  5
24B7
102
{ACAD_REACTORS
330
2498
102
}
330
2498
100
AcDbXrecord
 10
0.0
 20
0.0
 30
0.0
  0
XRECORD
  5
24B8
102
{ACAD_REACTORS
330
2498
102
}
330
2498
100
AcDbXrecord
 10
0.0
 20
0.0
 30
0.0
  0
LAYER_INDEX
  5
248F
102
{ACAD_REACTORS
330
248E
102
}
330
248E
100
AcDbIndex
 40
2453151.790367766
100
AcDbLayerIndex
  8
0
360
2490
 90
        0
  8
AM_0
360
2491
 90
       55
  8
AM_11
360
2492
 90
        3
  8
AM_7
360
2493
 90
        1
  8
AM_5
360
2494
 90
        4
  8
Defpoints
360
2495
 90
        0
  8
AM_6
360
2496
 90
        1
  0
XRECORD
  5
2D
102
{ACAD_REACTORS
330
2C
102
}
330
2C
100
AcDbXrecord
  1
VERSION
140
15.0
  1
PRODUCT
  2
AutoCAD Mechanical 2000
  0
IDBUFFER
  5
2490
330
0
100
AcDbIdBuffer
  0
IDBUFFER
  5
2491
330
0
100
AcDbIdBuffer
330
21A4
330
21B6
330
220E
330
220F
330
2210
330
2211
330
2212
330
210D
330
210E
330
210F
330
2110
330
2111
330
2112
330
2113
330
2114
330
2115
330
2116
330
2117
330
2118
330
2119
330
211A
330
211B
330
211C
330
211D
330
211E
330
211F
330
2120
330
2121
330
2122
330
2123
330
2132
330
2134
330
2143
330
2144
330
2145
330
2146
330
2147
330
2148
330
2149
330
214A
330
214B
330
214C
330
214D
330
2150
330
2151
330
2152
330
2153
330
2154
330
2155
330
2156
330
218D
330
218E
330
2191
330
2192
330
219E
  0
IDBUFFER
  5
2492
330
0
100
AcDbIdBuffer
330
2133
330
214E
330
214F
  0
IDBUFFER
  5
2493
330
0
100
AcDbIdBuffer
330
13DC
  0
IDBUFFER
  5
2494
330
0
100
AcDbIdBuffer
330
16EA
330
177A
330
1936
330
2180
  0
IDBUFFER
  5
2495
330
0
100
AcDbIdBuffer
  0
IDBUFFER
  5
2496
330
0
100
AcDbIdBuffer
330
E5A
  0
ENDSEC
  0
EOF
