  0
SECTION
  2
HEADER
  9
$ACADVER
  1
AC1014
  9
$ACADMAINTVER
 70
     9
  9
$DWGCODEPAGE
  3
ANSI_932
  9
$INSBASE
 10
0.0
 20
0.0
 30
0.0
  9
$EXTMIN
 10
-66.41123869649854
 20
-29.25000100000022
 30
-0.00000001
  9
$EXTMAX
 10
8.629789688840498
 20
5.413774113146078
 30
0.00000001
  9
$LIMMIN
 10
-69.02175275393739
 20
-33.73597568588283
  9
$LIMMAX
 10
12.6781839031783
 20
13.72663666225025
  9
$ORTHOMODE
 70
     0
  9
$REGENMODE
 70
     1
  9
$FILLMODE
 70
     1
  9
$QTEXTMODE
 70
     0
  9
$MIRRTEXT
 70
     0
  9
$DRAGMODE
 70
     2
  9
$LTSCALE
 40
1.0
  9
$OSMODE
 70
    55
  9
$ATTMODE
 70
     1
  9
$TEXTSIZE
 40
2.5
  9
$TRACEWID
 40
1.0
  9
$TEXTSTYLE
  7
STANDARD
  9
$CLAYER
  8
AM_0
  9
$CELTYPE
  6
BYLAYER
  9
$CECOLOR
 62
   256
  9
$CELTSCALE
 40
1.0
  9
$DELOBJ
 70
     1
  9
$DISPSILH
 70
     0
  9
$DIMSCALE
 40
0.5
  9
$DIMASZ
 40
2.5
  9
$DIMEXO
 40
1.0
  9
$DIMDLI
 40
12.0
  9
$DIMRND
 40
0.0
  9
$DIMDLE
 40
0.0
  9
$DIMEXE
 40
1.0
  9
$DIMTP
 40
0.1
  9
$DIMTM
 40
0.1
  9
$DIMTXT
 40
3.2
  9
$DIMCEN
 40
0.0
  9
$DIMTSZ
 40
0.0
  9
$DIMTOL
 70
     0
  9
$DIMLIM
 70
     0
  9
$DIMTIH
 70
     0
  9
$DIMTOH
 70
     0
  9
$DIMSE1
 70
     0
  9
$DIMSE2
 70
     0
  9
$DIMTAD
 70
     3
  9
$DIMZIN
 70
     8
  9
$DIMBLK
  1
OPEN30
  9
$DIMASO
 70
     1
  9
$DIMSHO
 70
     1
  9
$DIMPOST
  1

  9
$DIMAPOST
  1
"
  9
$DIMALT
 70
     0
  9
$DIMALTD
 70
     2
  9
$DIMALTF
 40
0.0393701
  9
$DIMLFAC
 40
1.0
  9
$DIMTOFL
 70
     1
  9
$DIMTVP
 40
0.0
  9
$DIMTIX
 70
     0
  9
$DIMSOXD
 70
     0
  9
$DIMSAH
 70
     0
  9
$DIMBLK1
  1

  9
$DIMBLK2
  1

  9
$DIMSTYLE
  2
AM_JIS
  9
$DIMCLRD
 70
   256
  9
$DIMCLRE
 70
   256
  9
$DIMCLRT
 70
     2
  9
$DIMTFAC
 40
0.71
  9
$DIMGAP
 40
1.5
  9
$DIMJUST
 70
     0
  9
$DIMSD1
 70
     0
  9
$DIMSD2
 70
     0
  9
$DIMTOLJ
 70
     0
  9
$DIMTZIN
 70
     0
  9
$DIMALTZ
 70
     0
  9
$DIMALTTZ
 70
     0
  9
$DIMFIT
 70
     3
  9
$DIMUPT
 70
     0
  9
$DIMUNIT
 70
     2
  9
$DIMDEC
 70
     3
  9
$DIMTDEC
 70
     3
  9
$DIMALTU
 70
     2
  9
$DIMALTTD
 70
     2
  9
$DIMTXSTY
  7
ASAMI
  9
$DIMAUNIT
 70
     0
  9
$LUNITS
 70
     2
  9
$LUPREC
 70
     2
  9
$SKETCHINC
 40
1.0
  9
$FILLETRAD
 40
2.5
  9
$AUNITS
 70
     0
  9
$AUPREC
 70
     0
  9
$MENU
  1
.
  9
$ELEVATION
 40
0.0
  9
$PELEVATION
 40
0.0
  9
$THICKNESS
 40
0.0
  9
$LIMCHECK
 70
     0
  9
$BLIPMODE
 70
     0
  9
$CHAMFERA
 40
0.5
  9
$CHAMFERB
 40
0.5
  9
$CHAMFERC
 40
20.0
  9
$CHAMFERD
 40
0.0
  9
$SKPOLY
 70
     0
  9
$TDCREATE
 40
2452836.771637361
  9
$TDUPDATE
 40
2453151.798959201
  9
$TDINDWG
 40
0.0703495486
  9
$TDUSRTIMER
 40
0.0703495486
  9
$USRTIMER
 70
     1
  9
$ANGBASE
 50
0.0
  9
$ANGDIR
 70
     0
  9
$PDMODE
 70
     0
  9
$PDSIZE
 40
0.0
  9
$PLINEWID
 40
0.0
  9
$COORDS
 70
     1
  9
$SPLFRAME
 70
     0
  9
$SPLINETYPE
 70
     6
  9
$SPLINESEGS
 70
     8
  9
$ATTDIA
 70
     1
  9
$ATTREQ
 70
     1
  9
$HANDLING
 70
 12289
  9
$HANDSEED
  5
2E64
  9
$SURFTAB1
 70
     6
  9
$SURFTAB2
 70
     6
  9
$SURFTYPE
 70
     6
  9
$SURFU
 70
     6
  9
$SURFV
 70
     6
  9
$UCSNAME
  2

  9
$UCSORG
 10
0.0
 20
0.0
 30
0.0
  9
$UCSXDIR
 10
1.0
 20
0.0
 30
0.0
  9
$UCSYDIR
 10
0.0
 20
1.0
 30
0.0
  9
$PUCSNAME
  2

  9
$PUCSORG
 10
0.0
 20
0.0
 30
0.0
  9
$PUCSXDIR
 10
1.0
 20
0.0
 30
0.0
  9
$PUCSYDIR
 10
0.0
 20
1.0
 30
0.0
  9
$USERI1
 70
     0
  9
$USERI2
 70
     0
  9
$USERI3
 70
     0
  9
$USERI4
 70
     0
  9
$USERI5
 70
     0
  9
$USERR1
 40
0.0
  9
$USERR2
 40
0.0
  9
$USERR3
 40
0.0
  9
$USERR4
 40
0.0
  9
$USERR5
 40
0.0
  9
$WORLDVIEW
 70
     1
  9
$SHADEDGE
 70
     3
  9
$SHADEDIF
 70
    70
  9
$TILEMODE
 70
     1
  9
$MAXACTVP
 70
    64
  9
$PINSBASE
 10
0.0
 20
0.0
 30
0.0
  9
$PLIMCHECK
 70
     0
  9
$PEXTMIN
 10
1.000000000000000E+20
 20
1.000000000000000E+20
 30
1.000000000000000E+20
  9
$PEXTMAX
 10
-1.000000000000000E+20
 20
-1.000000000000000E+20
 30
-1.000000000000000E+20
  9
$PLIMMIN
 10
0.0
 20
0.0
  9
$PLIMMAX
 10
841.0
 20
594.0
  9
$UNITMODE
 70
     0
  9
$VISRETAIN
 70
     1
  9
$PLINEGEN
 70
     0
  9
$PSLTSCALE
 70
     0
  9
$TREEDEPTH
 70
  3020
  9
$PICKSTYLE
 70
     0
  9
$CMLSTYLE
  2
STANDARD
  9
$CMLJUST
 70
     0
  9
$CMLSCALE
 40
20.0
  9
$PROXYGRAPHICS
 70
     1
  9
$MEASUREMENT
 70
     1
  0
ENDSEC
  0
SECTION
  2
CLASSES
  0
CLASS
  1
ACDBDICTIONARYWDFLT
  2
AcDbDictionaryWithDefault
  3
AutoCAD 2000
 90
        0
280
     0
281
     0
  0
CLASS
  1
ACDBPLACEHOLDER
  2
AcDbPlaceHolder
  3
AutoCAD 2000
 90
        0
280
     0
281
     0
  0
CLASS
  1
LAYOUT
  2
AcDbLayout
  3
AutoCAD 2000
 90
        0
280
     0
281
     0
  0
CLASS
  1
AMGSETTINGSOBJ
  2
AmgSettingsObj
  3
"AcadM|Product Description: AutoCAD Mechanical 2000|Company: Autodesk"
 90
        0
280
     0
281
     0
  0
CLASS
  1
ACME_DOCUMENT
  2
AcMeDbDoc
  3
AcMeServices
 90
        0
280
     0
281
     0
  0
CLASS
  1
ACMESCOPE
  2
AcMeScope
  3
AcMeServices
 90
        0
280
     0
281
     0
  0
CLASS
  1
ACMECOMMANDHISTORY
  2
AcMeCommandHistory
  3
AcMeServices
 90
        0
280
     0
281
     0
  0
CLASS
  1
DICTIONARYVAR
  2
AcDbDictionaryVar
  3
AutoCAD 2000
 90
        0
280
     0
281
     0
  0
CLASS
  1
ACIMSYSVARMAN
  2
AcImSysVarManager
  3
AcMeServices
 90
        0
280
     0
281
     0
  0
CLASS
  1
ACIMREALSYSVAR
  2
AcImRealSysVar
  3
AcMeServices
 90
        0
280
     0
281
     0
  0
CLASS
  1
ACIMINTSYSVAR
  2
AcImIntSysVar
  3
AcMeServices
 90
        0
280
     0
281
     0
  0
CLASS
  1
ACMEDRAWINGMAN
  2
AcMeDrawingMan
  3
AcMeServices
 90
        0
280
     0
281
     0
  0
CLASS
  1
ACMEVIEW
  2
AcMeView
  3
AcMeServices
 90
        0
280
     0
281
     0
  0
CLASS
  1
ACDBENTITYCACHE
  2
AcMeEntityCache
  3
AcMeServices
 90
        0
280
     0
281
     0
  0
CLASS
  1
GSMANAGER
  2
AcMeGSManager
  3
AcMeServices
 90
        0
280
     0
281
     0
  0
CLASS
  1
AmdtInternalReactor
  2
AmdtInternalReactor
  3
AcMeServices
 90
        0
280
     0
281
     0
  0
CLASS
  1
ACMESTATEMGR
  2
AcMeStateMgr
  3
AcMeServices
 90
        0
280
     0
281
     0
  0
CLASS
  1
ACME_DATABASE
  2
AcMeDbDatabase
  3
AcMeServices
 90
        0
280
     0
281
     0
  0
CLASS
  1
ACRFINSADJUSTERMGR
  2
AcRfInsAdjusterMgr
  3
AcMeServices
 90
        0
280
     0
281
     0
  0
CLASS
  1
ACMDATADICTIONARY
  2
AcmDataDictionary
  3
"AcmSymBB|Product Description: AutoCAD Mechanical 2000|Company: Autodesk"
 90
        0
280
     0
281
     0
  0
CLASS
  1
ACMDATAENTRYBLOCK
  2
AcmDataEntryBlock
  3
"AcmSymBB|Product Description: AutoCAD Mechanical 2000|Company: Autodesk"
 90
        0
280
     0
281
     0
  0
CLASS
  1
AMGOBJPROPCFG
  2
AmgObjPropCfg
  3
"AmgLay|Product Description: AutoCAD Mechanical 2000|Company: Autodesk"
 90
        1
280
     0
281
     0
  0
CLASS
  1
ACAMGFILTERDAT
  2
AcAmgFilterDat
  3
"AcadM|Product Description: AutoCAD Mechanical 2000|Company: Autodesk"
 90
        0
280
     0
281
     0
  0
CLASS
  1
LAYER_INDEX
  2
AcDbLayerIndex
  3
AutoCAD 2000
 90
        0
280
     0
281
     0
  0
CLASS
  1
IDBUFFER
  2
AcDbIdBuffer
  3
AutoCAD 2000
 90
        0
280
     0
281
     0
  0
CLASS
  1
ACIMSTRSYSVAR
  2
AcImStrSysVar
  3
AcMeServices
 90
        0
280
     0
281
     0
  0
CLASS
  1
ACMSTANDARDJIS
  2
AcmStandardJIS
  3
"AcmSymBB|Product Description: AutoCAD Mechanical 2000|Company: Autodesk"
 90
        0
280
     0
281
     0
  0
CLASS
  1
ACMSURFSTANDARDJIS
  2
AcmSurfTextStdJIS
  3
"AcmSymBB|Product Description: AutoCAD Mechanical 2000|Company: Autodesk"
 90
        0
280
     0
281
     0
  0
CLASS
  1
ACMFCFSTANDARDJIS
  2
AcmFCFStdJIS
  3
"AcmSymBB|Product Description: AutoCAD Mechanical 2000|Company: Autodesk"
 90
        0
280
     0
281
     0
  0
CLASS
  1
ACMWELDSTANDARDJIS
  2
AcmWeldingStdJIS
  3
"AcmSymBB|Product Description: AutoCAD Mechanical 2000|Company: Autodesk"
 90
        0
280
     0
281
     0
  0
CLASS
  1
ACMIDSTANDARDJIS
  2
AcmIdStdJIS
  3
"AcmSymBB|Product Description: AutoCAD Mechanical 2000|Company: Autodesk"
 90
        0
280
     0
281
     0
  0
CLASS
  1
ACMDATUMSTANDARDJIS
  2
AcmDatumStdJIS
  3
"AcmSymBB|Product Description: AutoCAD Mechanical 2000|Company: Autodesk"
 90
        0
280
     0
281
     0
  0
CLASS
  1
ACMBOMSTANDARDJIS
  2
AcmBOMStdJIS
  3
"AcmSymBB|Product Description: AutoCAD Mechanical 2000|Company: Autodesk"
 90
        0
280
     0
281
     0
  0
CLASS
  1
ACMSTANDARDANSI
  2
AcmStandardANSI
  3
"AcmSymBB|Product Description: AutoCAD Mechanical 2000|Company: Autodesk"
 90
        0
280
     0
281
     0
  0
CLASS
  1
ACMSURFSTANDARDANSI
  2
AcmSurfTextStdANSI
  3
"AcmSymBB|Product Description: AutoCAD Mechanical 2000|Company: Autodesk"
 90
        0
280
     0
281
     0
  0
CLASS
  1
ACMFCFSTANDARDANSI
  2
AcmFCFStdANSI
  3
"AcmSymBB|Product Description: AutoCAD Mechanical 2000|Company: Autodesk"
 90
        0
280
     0
281
     0
  0
CLASS
  1
ACMWELDSTANDARDANSI
  2
AcmWeldingStdANSI
  3
"AcmSymBB|Product Description: AutoCAD Mechanical 2000|Company: Autodesk"
 90
        0
280
     0
281
     0
  0
CLASS
  1
ACMIDSTANDARDANSI
  2
AcmIdStdANSI
  3
"AcmSymBB|Product Description: AutoCAD Mechanical 2000|Company: Autodesk"
 90
        0
280
     0
281
     0
  0
CLASS
  1
ACMDATUMSTANDARDANSI
  2
AcmDatumStdANSI
  3
"AcmSymBB|Product Description: AutoCAD Mechanical 2000|Company: Autodesk"
 90
        0
280
     0
281
     0
  0
CLASS
  1
ACMBOMSTANDARDANSI
  2
AcmBOMStdANSI
  3
"AcmSymBB|Product Description: AutoCAD Mechanical 2000|Company: Autodesk"
 90
        0
280
     0
281
     0
  0
CLASS
  1
ACMSTANDARDBSI
  2
AcmStandardBSI
  3
"AcmSymBB|Product Description: AutoCAD Mechanical 2000|Company: Autodesk"
 90
        0
280
     0
281
     0
  0
CLASS
  1
ACMSURFSTANDARDBSI
  2
AcmSurfTextStdBSI
  3
"AcmSymBB|Product Description: AutoCAD Mechanical 2000|Company: Autodesk"
 90
        0
280
     0
281
     0
  0
CLASS
  1
ACMFCFSTANDARDBSI
  2
AcmFCFStdBSI
  3
"AcmSymBB|Product Description: AutoCAD Mechanical 2000|Company: Autodesk"
 90
        0
280
     0
281
     0
  0
CLASS
  1
ACMWELDSTANDARDBSI
  2
AcmWeldingStdBSI
  3
"AcmSymBB|Product Description: AutoCAD Mechanical 2000|Company: Autodesk"
 90
        0
280
     0
281
     0
  0
CLASS
  1
ACMIDSTANDARDBSI
  2
AcmIdStdBSI
  3
"AcmSymBB|Product Description: AutoCAD Mechanical 2000|Company: Autodesk"
 90
        0
280
     0
281
     0
  0
CLASS
  1
ACMDATUMSTANDARDBSI
  2
AcmDatumStdBSI
  3
"AcmSymBB|Product Description: AutoCAD Mechanical 2000|Company: Autodesk"
 90
        0
280
     0
281
     0
  0
CLASS
  1
ACMBOMSTANDARDBSI
  2
AcmBOMStdBSI
  3
"AcmSymBB|Product Description: AutoCAD Mechanical 2000|Company: Autodesk"
 90
        0
280
     0
281
     0
  0
CLASS
  1
LONG_TRANSACTION
  2
AcDbLongTransaction
  3
AutoCAD 2000
 90
        0
280
     0
281
     0
  0
CLASS
  1
LWPOLYLINE
  2
AcDbPolyline
  3
AutoCAD 2000
 90
        0
280
     0
281
     1
  0
CLASS
  1
HATCH
  2
AcDbHatch
  3
AutoCAD 2000
 90
        0
280
     0
281
     1
  0
CLASS
  1
XRECORD
  2
AcDbXrecord
  3
AutoCAD 2000
 90
        0
280
     0
281
     0
  0
ENDSEC
  0
SECTION
  2
TABLES
  0
TABLE
  2
VPORT
  5
8
330
0
100
AcDbSymbolTable
 70
     3
  0
VPORT
  5
2E39
330
8
100
AcDbSymbolTableRecord
100
AcDbViewportTableRecord
  2
*ACTIVE
 70
     0
 10
0.0
 20
0.0
 11
1.0
 21
1.0
 12
-28.8886034434171
 22
-11.91842601257509
 13
0.0
 23
0.0
 14
2.5
 24
2.5
 15
10.0
 25
10.0
 16
0.0
 26
0.0
 36
1.0
 17
0.0
 27
0.0
 37
0.0
 40
48.12059570030187
 41
1.56570841889117
 42
50.0
 43
0.0
 44
0.0
 50
0.0
 51
0.0
 71
     0
 72
   100
 73
     1
 74
     3
 75
     0
 76
     0
 77
     0
 78
     0
  0
ENDTAB
  0
TABLE
  2
LTYPE
  5
5
330
0
100
AcDbSymbolTable
 70
    10
  0
LTYPE
  5
14
330
5
100
AcDbSymbolTableRecord
100
AcDbLinetypeTableRecord
  2
BYBLOCK
 70
     0
  3

 72
    65
 73
     0
 40
0.0
  0
LTYPE
  5
15
330
5
100
AcDbSymbolTableRecord
100
AcDbLinetypeTableRecord
  2
BYLAYER
 70
     0
  3

 72
    65
 73
     0
 40
0.0
  0
LTYPE
  5
16
330
5
100
AcDbSymbolTableRecord
100
AcDbLinetypeTableRecord
  2
CONTINUOUS
 70
     0
  3
Solid line
 72
    65
 73
     0
 40
0.0
  0
LTYPE
  5
4B
330
5
100
AcDbSymbolTableRecord
100
AcDbLinetypeTableRecord
  2
AM_ISO02W050
 70
     0
  3
__ __ __ __ __ __ __ __ __ __ __ __ __ __ __
 72
    65
 73
     2
 40
7.5
 49
6.0
 74
     0
 49
-1.5
 74
     0
  0
LTYPE
  5
4C
330
5
100
AcDbSymbolTableRecord
100
AcDbLinetypeTableRecord
  2
AM_ISO08W050
 70
     0
  3
____ . ____ . ____ . ____ . ____ . ____ . ____
 72
    65
 73
     4
 40
18.0
 49
12.0
 74
     0
 49
-1.5
 74
     0
 49
3.0
 74
     0
 49
-1.5
 74
     0
  0
LTYPE
  5
4D
330
5
100
AcDbSymbolTableRecord
100
AcDbLinetypeTableRecord
  2
AM_ISO09W050
 70
     0
  3
_____ . . _____ . . _____ . . ____ .. ____
 72
    65
 73
     6
 40
22.5
 49
12.0
 74
     0
 49
-1.5
 74
     0
 49
3.0
 74
     0
 49
-1.5
 74
     0
 49
3.0
 74
     0
 49
-1.5
 74
     0
  0
LTYPE
  5
4E
330
5
100
AcDbSymbolTableRecord
100
AcDbLinetypeTableRecord
  2
AMCONSTR
 70
     0
  3
_______________________
 72
    65
 73
     2
 40
9999.0
 49
9999.0
 74
     0
 49
0.0
 74
     0
  0
LTYPE
  5
4F
330
5
100
AcDbSymbolTableRecord
100
AcDbLinetypeTableRecord
  2
AM_ISO02W050X2
 70
     0
  3
 _ _ _ _ _ _ _ _ _ _ _ _
 72
    65
 73
     2
 40
3.75
 49
3.0
 74
     0
 49
-0.75
 74
     0
  0
LTYPE
  5
50
330
5
100
AcDbSymbolTableRecord
100
AcDbLinetypeTableRecord
  2
AM_ISO08W050X2
 70
     0
  3
__ . __ . __ . __ . __ . __
 72
    65
 73
     4
 40
9.0
 49
6.0
 74
     0
 49
-0.75
 74
     0
 49
1.5
 74
     0
 49
-0.75
 74
     0
  0
LTYPE
  5
53
330
5
100
AcDbSymbolTableRecord
100
AcDbLinetypeTableRecord
  2
AMZIGZAG
 70
     0
  3
/\/-/\/-/\/-/\/-/\/-/\/
 72
    65
 73
     2
 40
11.00009999999999
 49
0.0001
 74
     4
 75
   135
340
52
 46
0.04
 50
0.0
 44
0.0
 45
0.0
 49
-11.0
 74
     0
  0
LTYPE
  5
166
330
5
100
AcDbSymbolTableRecord
100
AcDbLinetypeTableRecord
  2
ACJISTGL
 70
     0
  3
_ _ _ _ _
 72
    65
 73
     2
 40
3.0
 49
2.0
 74
     0
 49
-1.0
 74
     0
  0
LTYPE
  5
26A
330
5
100
AcDbSymbolTableRecord
100
AcDbLinetypeTableRecord
  2
ACJISTGB
 70
     0
  3
__ . . __ . .
 72
    65
 73
     6
 40
9.0
 49
4.0
 74
     0
 49
-1.0
 74
     0
 49
1.0
 74
     0
 49
-1.0
 74
     0
 49
1.0
 74
     0
 49
-1.0
 74
     0
  0
ENDTAB
  0
TABLE
  2
LAYER
  5
2
330
0
100
AcDbSymbolTable
 70
     7
  0
LAYER
  5
10
330
2
100
AcDbSymbolTableRecord
100
AcDbLayerTableRecord
  2
0
 70
     0
 62
     7
  6
CONTINUOUS
  0
LAYER
  5
3F9
330
2
100
AcDbSymbolTableRecord
100
AcDbLayerTableRecord
  2
AM_0
 70
     0
 62
     7
  6
CONTINUOUS
  0
LAYER
  5
BD4
330
2
100
AcDbSymbolTableRecord
100
AcDbLayerTableRecord
  2
AM_11
 70
     0
 62
     3
  6
AM_ISO09W050
  0
LAYER
  5
BD5
330
2
100
AcDbSymbolTableRecord
100
AcDbLayerTableRecord
  2
AM_7
 70
     0
 62
     4
  6
AM_ISO08W050
  0
LAYER
  5
BD6
330
2
100
AcDbSymbolTableRecord
100
AcDbLayerTableRecord
  2
AM_5
 70
     0
 62
     3
  6
CONTINUOUS
  0
LAYER
  5
BD7
330
2
100
AcDbSymbolTableRecord
100
AcDbLayerTableRecord
  2
DEFPOINTS
 70
     0
 62
     7
  6
CONTINUOUS
  0
LAYER
  5
E59
330
2
100
AcDbSymbolTableRecord
100
AcDbLayerTableRecord
  2
AM_6
 70
     0
 62
     2
  6
CONTINUOUS
  0
ENDTAB
  0
TABLE
  2
STYLE
  5
3
330
0
100
AcDbSymbolTable
 70
     5
  0
STYLE
  5
11
330
3
100
AcDbSymbolTableRecord
100
AcDbTextStyleTableRecord
  2
STANDARD
 70
     0
 40
0.0
 41
1.0
 50
0.0
 71
     0
 42
2.5
  3
simplex.shx
  4
EXTFONT.SHX
  0
STYLE
  5
52
330
3
100
AcDbSymbolTableRecord
100
AcDbTextStyleTableRecord
  2

 70
     1
 40
0.0
 41
1.0
 50
0.0
 71
     0
 42
2.5
  3
ltypeshp.shx
  4

  0
STYLE
  5
6B
330
3
100
AcDbSymbolTableRecord
100
AcDbTextStyleTableRecord
  2
ASAMI
 70
     0
 40
0.0
 41
1.0
 50
0.0
 71
     0
 42
2.5
  3
simplex.shx
  4
EXTFONT.SHX
  0
STYLE
  5
262
330
3
100
AcDbSymbolTableRecord
100
AcDbTextStyleTableRecord
  2
ACJISTS
 70
     0
 40
1.0
 41
1.0
 50
0.0
 71
     0
 42
2.5
  3
simplex.shx
  4
bigfont.shx
  0
STYLE
  5
269
330
3
100
AcDbSymbolTableRecord
100
AcDbTextStyleTableRecord
  2
ACJISGDT
 70
     0
 40
0.0
 41
1.0
 50
0.0
 71
     0
 42
2.5
  3
amgdtans.shx
  4

  0
ENDTAB
  0
TABLE
  2
VIEW
  5
6
330
0
100
AcDbSymbolTable
 70
     0
  0
ENDTAB
  0
TABLE
  2
UCS
  5
7
330
0
100
AcDbSymbolTable
 70
     0
  0
ENDTAB
  0
TABLE
  2
APPID
  5
9
330
0
100
AcDbSymbolTable
 70
    12
  0
APPID
  5
12
330
9
100
AcDbSymbolTableRecord
100
AcDbRegAppTableRecord
  2
ACAD
 70
     0
  0
APPID
  5
30
330
9
100
AcDbSymbolTableRecord
100
AcDbRegAppTableRecord
  2
MCAD_NO_VIS
 70
     0
  0
APPID
  5
31
330
9
100
AcDbSymbolTableRecord
100
AcDbRegAppTableRecord
  2
ACAD_TEMP_GRAPHIC
 70
     0
  0
APPID
  5
2C2
330
9
100
AcDbSymbolTableRecord
100
AcDbRegAppTableRecord
  2
GENIUS_GENDTOL_13
 70
     0
  0
APPID
  5
339
330
9
100
AcDbSymbolTableRecord
100
AcDbRegAppTableRecord
  2
GENIUS_GENODEF_13
 70
     0
  0
APPID
  5
33A
330
9
100
AcDbSymbolTableRecord
100
AcDbRegAppTableRecord
  2
GENIUS_GENOBJ-N-RSBK_13
 70
     0
  0
APPID
  5
33B
330
9
100
AcDbSymbolTableRecord
100
AcDbRegAppTableRecord
  2
GENIUS_GENOBJ-N-LIB_13
 70
     0
  0
APPID
  5
33C
330
9
100
AcDbSymbolTableRecord
100
AcDbRegAppTableRecord
  2
GENIUS_GENSCALE_13
 70
     0
  0
APPID
  5
378
330
9
100
AcDbSymbolTableRecord
100
AcDbRegAppTableRecord
  2
GENIUS_GENDIMSH_14
 70
     0
  0
APPID
  5
BD8
330
9
100
AcDbSymbolTableRecord
100
AcDbRegAppTableRecord
  2
GENIUS_GENOBJ-N-CEN_13
 70
     0
  0
APPID
  5
BD9
330
9
100
AcDbSymbolTableRecord
100
AcDbRegAppTableRecord
  2
GENIUS_GENFIL_13
 70
     0
  0
APPID
  5
BDA
330
9
100
AcDbSymbolTableRecord
100
AcDbRegAppTableRecord
  2
GENIUS_GENOBJ-N-CHA_13
 70
     0
  0
ENDTAB
  0
TABLE
  2
DIMSTYLE
  5
A
330
0
100
AcDbSymbolTable
 70
     8
  0
DIMSTYLE
105
58
102
{ACAD_REACTORS
330
16EA
330
177A
330
1936
330
237E
102
}
330
A
100
AcDbSymbolTableRecord
100
AcDbDimStyleTableRecord
  2
AM_JIS
 70
     0
  3

  4
"
  5
OPEN30
  6

  7

 40
0.5
 41
2.5
 42
1.0
 43
12.0
 44
1.0
 45
0.0
 46
0.0
 47
0.1
 48
0.1
140
3.2
141
0.0
142
0.0
143
0.0393701
144
1.0
145
0.0
146
0.71
147
1.5
 71
     0
 72
     0
 73
     0
 74
     0
 75
     0
 76
     0
 77
     3
 78
     8
170
     0
171
     2
172
     1
173
     0
174
     0
175
     0
176
   256
177
   256
178
     2
270
     2
271
     3
272
     3
273
     2
274
     2
340
6B
275
     0
280
     0
281
     0
282
     0
283
     0
284
     0
285
     0
286
     0
287
     3
288
     0
  0
DIMSTYLE
105
5F
330
A
100
AcDbSymbolTableRecord
100
AcDbDimStyleTableRecord
  2
AM_JIS$3
 70
     0
  3

  4
"
  5
OPEN30
  6

  7

 40
0.5
 41
2.5
 42
1.0
 43
10.0
 44
1.0
 45
0.0
 46
0.0
 47
0.1
 48
0.1
140
3.2
141
0.0
142
0.0
143
0.0393701
144
1.0
145
0.0
146
0.71
147
1.5
 71
     0
 72
     0
 73
     0
 74
     1
 75
     0
 76
     0
 77
     3
 78
     8
170
     0
171
     2
172
     0
173
     0
174
     0
175
     0
176
   256
177
   256
178
     2
270
     2
271
     2
272
     3
273
     2
274
     2
340
6B
275
     0
280
     0
281
     0
282
     0
283
     0
284
     0
285
     0
286
     0
287
     0
288
     1
  0
DIMSTYLE
105
60
330
A
100
AcDbSymbolTableRecord
100
AcDbDimStyleTableRecord
  2
AM_JIS$4
 70
     0
  3

  4
"
  5
OPEN30
  6

  7

 40
0.5
 41
2.5
 42
1.0
 43
10.0
 44
1.0
 45
0.0
 46
0.0
 47
0.1
 48
0.1
140
3.2
141
0.0
142
0.0
143
0.0393701
144
1.0
145
0.0
146
0.71
147
1.5
 71
     0
 72
     0
 73
     0
 74
     1
 75
     0
 76
     0
 77
     3
 78
     8
170
     0
171
     2
172
     0
173
     0
174
     0
175
     0
176
   256
177
   256
178
     2
270
     2
271
     2
272
     3
273
     2
274
     2
340
6B
275
     0
280
     0
281
     0
282
     0
283
     0
284
     0
285
     0
286
     0
287
     0
288
     1
  0
DIMSTYLE
105
61
330
A
100
AcDbSymbolTableRecord
100
AcDbDimStyleTableRecord
  2
AM_JIS$6
 70
     0
  3

  4
"
  5
OPEN30
  6

  7

 40
0.5
 41
2.5
 42
1.0
 43
10.0
 44
1.0
 45
0.0
 46
0.0
 47
0.1
 48
0.1
140
3.2
141
0.0
142
0.0
143
0.0393701
144
1.0
145
0.0
146
0.71
147
1.5
 71
     0
 72
     0
 73
     0
 74
     0
 75
     0
 76
     0
 77
     0
 78
     8
170
     0
171
     2
172
     1
173
     0
174
     0
175
     0
176
   256
177
   256
178
     2
270
     2
271
     2
272
     2
273
     2
274
     2
340
6B
275
     0
280
     0
281
     0
282
     0
283
     0
284
     0
285
     0
286
     0
287
     3
288
     0
  0
DIMSTYLE
105
62
330
A
100
AcDbSymbolTableRecord
100
AcDbDimStyleTableRecord
  2
AM_JIS$7
 70
     0
  3

  4
"
  5
OPEN30
  6

  7

 40
0.5
 41
2.5
 42
1.0
 43
10.0
 44
1.0
 45
0.0
 46
0.0
 47
0.1
 48
0.1
140
3.2
141
0.0
142
0.0
143
0.0393701
144
1.0
145
0.0
146
0.71
147
1.5
 71
     0
 72
     0
 73
     0
 74
     0
 75
     0
 76
     0
 77
     3
 78
     8
170
     0
171
     2
172
     1
173
     0
174
     0
175
     0
176
   256
177
   256
178
     2
270
     2
271
     2
272
     3
273
     2
274
     2
340
6B
275
     0
280
     0
281
     0
282
     0
283
     0
284
     0
285
     0
286
     0
287
     3
288
     0
  0
DIMSTYLE
105
63
330
A
100
AcDbSymbolTableRecord
100
AcDbDimStyleTableRecord
  2
AM_JIS$SF
 70
     0
  3

  4
"
  5
OPEN30
  6

  7

 40
0.5
 41
2.5
 42
1.0
 43
10.0
 44
1.0
 45
0.0
 46
0.0
 47
0.1
 48
0.1
140
3.2
141
0.0
142
0.0
143
0.0393701
144
1.0
145
0.0
146
0.71
147
1.5
 71
     0
 72
     0
 73
     0
 74
     0
 75
     1
 76
     1
 77
     3
 78
     8
170
     0
171
     2
172
     1
173
     0
174
     0
175
     0
176
   256
177
   256
178
     2
270
     2
271
     2
272
     2
273
     2
274
     2
340
6B
275
     0
280
     0
281
     0
282
     0
283
     0
284
     0
285
     0
286
     0
287
     3
288
     0
  0
DIMSTYLE
105
68
330
A
100
AcDbSymbolTableRecord
100
AcDbDimStyleTableRecord
  2
AM_JIS$SH
 70
     0
  3

  4
"
  5

  6
GENAXEH
  7
OPEN30
 40
0.5
 41
2.5
 42
1.0
 43
10.0
 44
1.0
 45
0.0
 46
0.0
 47
0.1
 48
0.1
140
3.2
141
0.0
142
0.0
143
0.0393701
144
2.0
145
0.0
146
0.71
147
1.5
 71
     0
 72
     0
 73
     0
 74
     0
 75
     1
 76
     1
 77
     3
 78
     8
170
     0
171
     2
172
     1
173
     1
174
     0
175
     0
176
   256
177
   256
178
     2
270
     2
271
     2
272
     2
273
     2
274
     2
340
6B
275
     0
280
     0
281
     0
282
     0
283
     0
284
     0
285
     0
286
     0
287
     3
288
     0
  0
DIMSTYLE
105
B34
330
A
100
AcDbSymbolTableRecord
100
AcDbDimStyleTableRecord
  2
AM_JIS$2
 70
     0
  3

  4
"
  5
OPEN30
  6

  7

 40
0.5
 41
2.5
 42
1.0
 43
12.0
 44
1.0
 45
0.0
 46
0.0
 47
0.1
 48
0.1
140
3.2
141
0.0
142
0.0
143
0.0393701
144
1.0
145
0.0
146
0.71
147
1.5
 71
     0
 72
     0
 73
     0
 74
     0
 75
     0
 76
     0
 77
     3
 78
     8
170
     0
171
     2
172
     1
173
     0
174
     0
175
     0
176
   256
177
   256
178
     2
270
     2
271
     3
272
     3
273
     2
274
     2
340
6B
275
     0
280
     0
281
     0
282
     0
283
     0
284
     0
285
     0
286
     0
287
     3
288
     0
  0
ENDTAB
  0
TABLE
  2
BLOCK_RECORD
  5
1
330
0
100
AcDbSymbolTable
 70
     9
  0
BLOCK_RECORD
  5
1F
102
{ACAD_XDICTIONARY
360
74
102
}
330
1
100
AcDbSymbolTableRecord
100
AcDbBlockTableRecord
  2
*MODEL_SPACE
  0
BLOCK_RECORD
  5
101
102
{ACAD_XDICTIONARY
360
2E62
102
}
330
1
100
AcDbSymbolTableRecord
100
AcDbBlockTableRecord
  2
*PAPER_SPACE
  0
BLOCK_RECORD
  5
59
330
1
100
AcDbSymbolTableRecord
100
AcDbBlockTableRecord
  2
_OPEN30
  0
BLOCK_RECORD
  5
64
330
1
100
AcDbSymbolTableRecord
100
AcDbBlockTableRecord
  2
GENAXEH
  0
BLOCK_RECORD
  5
16EB
330
1
100
AcDbSymbolTableRecord
100
AcDbBlockTableRecord
  2
*D5
  0
BLOCK_RECORD
  5
177B
330
1
100
AcDbSymbolTableRecord
100
AcDbBlockTableRecord
  2
*D6
  0
BLOCK_RECORD
  5
1937
330
1
100
AcDbSymbolTableRecord
100
AcDbBlockTableRecord
  2
*D7
  0
BLOCK_RECORD
  5
237F
330
1
100
AcDbSymbolTableRecord
100
AcDbBlockTableRecord
  2
*D8
  0
ENDTAB
  0
ENDSEC
  0
SECTION
  2
BLOCKS
  0
BLOCK
  5
20
330
1F
100
AcDbEntity
  8
0
100
AcDbBlockBegin
  2
*MODEL_SPACE
 70
     0
 10
0.0
 20
0.0
 30
0.0
  3
*MODEL_SPACE
  1

  0
ENDBLK
  5
21
330
1F
100
AcDbEntity
  8
0
100
AcDbBlockEnd
  0
BLOCK
  5
103
330
101
100
AcDbEntity
 67
     1
  8
0
100
AcDbBlockBegin
  2
*PAPER_SPACE
 70
     0
 10
0.0
 20
0.0
 30
0.0
  3
*PAPER_SPACE
  1

  0
ENDBLK
  5
104
330
101
100
AcDbEntity
 67
     1
  8
0
100
AcDbBlockEnd
  0
BLOCK
  5
5D
330
59
100
AcDbEntity
  8
0
100
AcDbBlockBegin
  2
_OPEN30
 70
     0
 10
0.0
 20
0.0
 30
0.0
  3
_OPEN30
  1

  0
LINE
  5
5A
330
59
100
AcDbEntity
  8
0
 62
     0
100
AcDbLine
 10
-1.0
 20
0.26794919
 30
0.0
 11
0.0
 21
0.0
 31
0.0
  0
LINE
  5
5B
330
59
100
AcDbEntity
  8
0
 62
     0
100
AcDbLine
 10
0.0
 20
0.0
 30
0.0
 11
-1.0
 21
-0.26794919
 31
0.0
  0
LINE
  5
5C
330
59
100
AcDbEntity
  8
0
 62
     0
100
AcDbLine
 10
0.0
 20
0.0
 30
0.0
 11
-1.0
 21
0.0
 31
0.0
  0
ENDBLK
  5
5E
330
59
100
AcDbEntity
  8
0
100
AcDbBlockEnd
  0
BLOCK
  5
66
330
64
100
AcDbEntity
  8
0
100
AcDbBlockBegin
  2
GENAXEH
 70
     0
 10
0.0
 20
0.0
 30
0.0
  3
GENAXEH
  1

  0
LINE
  5
65
330
64
100
AcDbEntity
  8
0
100
AcDbLine
 10
-1.0
 20
0.0
 30
0.0
 11
1.0
 21
0.0
 31
0.0
  0
ENDBLK
  5
67
330
64
100
AcDbEntity
  8
0
100
AcDbBlockEnd
  0
BLOCK
  5
16F5
330
16EB
100
AcDbEntity
  8
0
100
AcDbBlockBegin
  2
*D5
 70
     1
 10
0.0
 20
0.0
 30
0.0
  3
*D5
  1

  0
LINE
  5
2DE9
330
16EB
100
AcDbEntity
  8
AM_5
100
AcDbLine
 10
-0.0000000000001437
 20
-5.000000000001778
 30
0.0
 11
-0.0000000000001442
 21
-12.5000010000001
 31
0.0
  0
LINE
  5
2DEA
330
16EB
100
AcDbEntity
  8
AM_5
100
AcDbLine
 10
-15.00000000000011
 20
-5.000000000000013
 30
0.0
 11
-15.00000000000011
 21
-12.5000010000001
 31
0.0
  0
LINE
  5
2DEB
330
16EB
100
AcDbEntity
  8
AM_5
100
AcDbLine
 10
-1.250000000000144
 20
-12.0000010000001
 30
0.0
 11
-13.75000000000011
 21
-12.0000010000001
 31
0.0
  0
INSERT
  5
2DEC
330
16EB
100
AcDbEntity
  8
AM_5
100
AcDbBlockReference
  2
_OPEN30
 10
-0.0000000000001442
 20
-12.0000010000001
 30
0.0
 41
1.25
 42
1.25
 43
1.25
  0
INSERT
  5
2DED
330
16EB
100
AcDbEntity
  8
AM_5
100
AcDbBlockReference
  2
_OPEN30
 10
-15.00000000000011
 20
-12.0000010000001
 30
0.0
 41
1.25
 42
1.25
 43
1.25
 50
180.0
  0
MTEXT
  5
2DEE
330
16EB
100
AcDbEntity
  8
AM_5
 62
     2
100
AcDbMText
 10
-7.500000000000128
 20
-10.45000100000009
 30
0.0
 40
1.6
 41
0.0
 71
     5
 72
     1
  1
15
  7
ASAMI
1001
ACAD
1000
MTEXTBEGIN
1070
    73
1070
     1
1070
    44
1040
1.0
1070
    74
1070
     0
1000
MTEXTEND
  0
POINT
  5
2DEF
330
16EB
100
AcDbEntity
  8
DEFPOINTS
 62
     0
100
AcDbPoint
 10
-0.0000000000001437
 20
-4.500000000001778
 30
0.0
  0
POINT
  5
2DF0
330
16EB
100
AcDbEntity
  8
DEFPOINTS
 62
     0
100
AcDbPoint
 10
-15.00000000000011
 20
-4.500000000000013
 30
0.0
  0
POINT
  5
2DF1
330
16EB
100
AcDbEntity
  8
DEFPOINTS
 62
     0
100
AcDbPoint
 10
-15.00000000000011
 20
-12.0000010000001
 30
0.0
  0
ENDBLK
  5
16F6
330
16EB
100
AcDbEntity
  8
0
100
AcDbBlockEnd
  0
BLOCK
  5
1785
330
177B
100
AcDbEntity
  8
0
100
AcDbBlockBegin
  2
*D6
 70
     1
 10
0.0
 20
0.0
 30
0.0
  3
*D6
  1

  0
LINE
  5
2DF2
330
177B
100
AcDbEntity
  8
AM_5
100
AcDbLine
 10
0.0000000000004469
 20
-5.000000000001778
 30
0.0
 11
0.0000000000004461
 21
-18.50000100000021
 31
0.0
  0
LINE
  5
2DF3
330
177B
100
AcDbEntity
  8
AM_5
100
AcDbLine
 10
-55.0
 20
-5.000000000000139
 30
0.0
 11
-55.0
 21
-18.50000100000021
 31
0.0
  0
LINE
  5
2DF4
330
177B
100
AcDbEntity
  8
AM_5
100
AcDbLine
 10
-1.249999999999553
 20
-18.00000100000021
 30
0.0
 11
-53.75
 21
-18.00000100000021
 31
0.0
  0
INSERT
  5
2DF5
330
177B
100
AcDbEntity
  8
AM_5
100
AcDbBlockReference
  2
_OPEN30
 10
0.0000000000004461
 20
-18.00000100000021
 30
0.0
 41
1.25
 42
1.25
 43
1.25
  0
INSERT
  5
2DF6
330
177B
100
AcDbEntity
  8
AM_5
100
AcDbBlockReference
  2
_OPEN30
 10
-55.0
 20
-18.00000100000021
 30
0.0
 41
1.25
 42
1.25
 43
1.25
 50
180.0
  0
MTEXT
  5
2DF7
330
177B
100
AcDbEntity
  8
AM_5
 62
     2
100
AcDbMText
 10
-27.49999999999977
 20
-16.45000100000021
 30
0.0
 40
1.6
 41
0.0
 71
     5
 72
     1
  1
55
  7
ASAMI
1001
ACAD
1000
MTEXTBEGIN
1070
    73
1070
     1
1070
    44
1040
1.0
1070
    74
1070
     0
1000
MTEXTEND
  0
POINT
  5
2DF8
330
177B
100
AcDbEntity
  8
DEFPOINTS
 62
     0
100
AcDbPoint
 10
0.0000000000004469
 20
-4.500000000001778
 30
0.0
  0
POINT
  5
2DF9
330
177B
100
AcDbEntity
  8
DEFPOINTS
 62
     0
100
AcDbPoint
 10
-55.0
 20
-4.500000000000139
 30
0.0
  0
POINT
  5
2DFA
330
177B
100
AcDbEntity
  8
DEFPOINTS
 62
     0
100
AcDbPoint
 10
-55.0
 20
-18.00000100000021
 30
0.0
  0
ENDBLK
  5
1786
330
177B
100
AcDbEntity
  8
0
100
AcDbBlockEnd
  0
BLOCK
  5
1943
330
1937
100
AcDbEntity
  8
0
100
AcDbBlockBegin
  2
*D7
 70
     1
 10
0.0
 20
0.0
 30
0.0
  3
*D7
  1

  0
LINE
  5
2BF7
330
1937
100
AcDbEntity
  8
AM_5
100
AcDbLine
 10
0.4999999999992049
 20
4.5
 30
0.0
 11
8.629789688840498
 21
4.499999999999997
 31
0.0
  0
LINE
  5
2BF8
330
1937
100
AcDbEntity
  8
AM_5
100
AcDbLine
 10
0.4999999999983064
 20
-4.5
 30
0.0
 11
8.629789688840494
 21
-4.500000000000003
 31
0.0
  0
LINE
  5
2BF9
330
1937
100
AcDbEntity
  8
AM_5
100
AcDbLine
 10
8.129789688840496
 20
3.249999999999997
 30
0.0
 11
8.129789688840496
 21
-3.250000000000003
 31
0.0
  0
INSERT
  5
2BFA
330
1937
100
AcDbEntity
  8
AM_5
100
AcDbBlockReference
  2
_OPEN30
 10
8.129789688840498
 20
4.499999999999997
 30
0.0
 41
1.25
 42
1.25
 43
1.25
 50
90.0
  0
INSERT
  5
2BFB
330
1937
100
AcDbEntity
  8
AM_5
100
AcDbBlockReference
  2
_OPEN30
 10
8.129789688840494
 20
-4.500000000000003
 30
0.0
 41
1.25
 42
1.25
 43
1.25
 50
270.0
  0
MTEXT
  5
2BFC
330
1937
100
AcDbEntity
  8
AM_5
 62
     2
100
AcDbMText
 10
6.579789688840495
 20
-0.0000000000000016
 30
0.0
 40
1.6
 41
0.0
 71
     5
 72
     1
  1
%%c9
  7
ASAMI
 11
0.0000000000000001
 21
1.0
 31
0.0
1001
ACAD
1000
MTEXTBEGIN
1070
    73
1070
     1
1070
    44
1040
1.0
1070
    74
1070
     0
1000
MTEXTEND
  0
POINT
  5
2BFD
330
1937
100
AcDbEntity
  8
DEFPOINTS
 62
     0
100
AcDbPoint
 10
-0.0000000000007951
 20
4.5
 30
0.0
  0
POINT
  5
2BFE
330
1937
100
AcDbEntity
  8
DEFPOINTS
 62
     0
100
AcDbPoint
 10
-0.0000000000016937
 20
-4.5
 30
0.0
  0
POINT
  5
2BFF
330
1937
100
AcDbEntity
  8
DEFPOINTS
 62
     0
100
AcDbPoint
 10
8.129789688840494
 20
-4.500000000000003
 30
0.0
  0
ENDBLK
  5
1944
330
1937
100
AcDbEntity
  8
0
100
AcDbBlockEnd
  0
BLOCK
  5
2389
330
237F
100
AcDbEntity
  8
0
100
AcDbBlockBegin
  2
*D8
 70
     1
 10
0.0
 20
0.0
 30
0.0
  3
*D8
  1

  0
LINE
  5
239D
330
237F
100
AcDbEntity
  8
AM_5
100
AcDbLine
 10
-55.0
 20
4.999999999999859
 30
0.0
 11
-64.56123869649855
 21
4.999999999999862
 31
0.0
  0
LINE
  5
239E
330
237F
100
AcDbEntity
  8
AM_5
100
AcDbLine
 10
-55.0
 20
-5.000000000000138
 30
0.0
 11
-64.56123869649855
 21
-5.000000000000135
 31
0.0
  0
LINE
  5
239F
330
237F
100
AcDbEntity
  8
AM_5
100
AcDbLine
 10
-64.06123869649855
 20
3.749999999999862
 30
0.0
 11
-64.06123869649855
 21
-3.750000000000135
 31
0.0
  0
INSERT
  5
23A0
330
237F
100
AcDbEntity
  8
AM_5
100
AcDbBlockReference
  2
_OPEN30
 10
-64.06123869649855
 20
4.999999999999862
 30
0.0
 41
1.25
 42
1.25
 43
1.25
 50
90.0
  0
INSERT
  5
23A1
330
237F
100
AcDbEntity
  8
AM_5
100
AcDbBlockReference
  2
_OPEN30
 10
-64.06123869649855
 20
-5.000000000000135
 30
0.0
 41
1.25
 42
1.25
 43
1.25
 50
270.0
  0
MTEXT
  5
23A2
330
237F
100
AcDbEntity
  8
AM_5
 62
     2
100
AcDbMText
 10
-65.61123869649854
 20
-0.0000000000001469
 30
0.0
 40
1.6
 41
0.0
 71
     5
 72
     1
  1
%%c10
  7
ASAMI
 11
0.0000000000000001
 21
1.0
 31
0.0
1001
ACAD
1000
MTEXTBEGIN
1070
    73
1070
     1
1070
    44
1040
1.0
1070
    74
1070
     0
1000
MTEXTEND
  0
POINT
  5
23A3
330
237F
100
AcDbEntity
  8
DEFPOINTS
 62
     0
100
AcDbPoint
 10
-54.5
 20
4.999999999999859
 30
0.0
  0
POINT
  5
23A4
330
237F
100
AcDbEntity
  8
DEFPOINTS
 62
     0
100
AcDbPoint
 10
-54.5
 20
-5.000000000000138
 30
0.0
  0
POINT
  5
23A5
330
237F
100
AcDbEntity
  8
DEFPOINTS
 62
     0
100
AcDbPoint
 10
-64.06123869649855
 20
-5.000000000000135
 30
0.0
  0
ENDBLK
  5
238A
330
237F
100
AcDbEntity
  8
0
100
AcDbBlockEnd
  0
ENDSEC
  0
SECTION
  2
ENTITIES
  0
TEXT
  5
E5A
330
1F
100
AcDbEntity
  8
AM_6
100
AcDbText
 10
-35.71428571428548
 20
-29.25000100000021
 30
0.0
 40
2.5
  1
SSM4090
 72
     4
 11
-27.49999999999976
 21
-28.00000100000021
 31
0.0
100
AcDbText
  0
LINE
  5
13DC
330
1F
100
AcDbEntity
  8
AM_7
  6
AM_ISO08W050X2
100
AcDbLine
 10
1.129788688840505
 20
-0.000000000000095
 30
0.0
 11
-57.06123769649856
 21
-0.0000000000001386
 31
0.0
1001
GENIUS_GENODEF_13
1002
{
1000
HIER
1070
     0
1002
}
1002
{
1000
MANEDIT
1070
     0
1002
}
1002
{
1000
NOSEL
1070
     0
1002
}
1002
{
1000
BEHIND
1070
     0
1002
}
1002
{
1000
REACTOR
1002
}
1001
GENIUS_GENOBJ-N-CEN_13
1002
{
1000
OWNER
1000
GEN
1002
}
  0
DIMENSION
  5
16EA
330
1F
100
AcDbEntity
  8
AM_5
100
AcDbDimension
  2
*D5
 10
-15.00000000000011
 20
-12.0000010000001
 30
0.0
 11
-7.500000000000128
 21
-10.45000100000009
 31
0.0
 70
    32
  1
<>
  3
AM_JIS
100
AcDbAlignedDimension
 13
-0.0000000000001437
 23
-4.500000000001778
 33
0.0
 14
-15.00000000000011
 24
-4.500000000000013
 34
0.0
 50
0.0000000000001641
100
AcDbRotatedDimension
1001
GENIUS_GENDTOL_13
1000

1000
h7
1000

1040
0.0
  0
DIMENSION
  5
177A
330
1F
100
AcDbEntity
  8
AM_5
100
AcDbDimension
  2
*D6
 10
-55.0
 20
-18.00000100000021
 30
0.0
 11
-27.49999999999977
 21
-16.45000100000021
 31
0.0
 70
    32
  1
<>
  3
AM_JIS
100
AcDbAlignedDimension
 13
0.0000000000004469
 23
-4.500000000001778
 33
0.0
 14
-55.0
 24
-4.500000000000139
 34
0.0
 50
0.0000000000001641
100
AcDbRotatedDimension
1001
GENIUS_GENDTOL_13
1000

1000
h7
1000

1040
0.0
  0
DIMENSION
  5
1936
330
1F
100
AcDbEntity
  8
AM_5
100
AcDbDimension
  2
*D7
 10
8.129789688840494
 20
-4.500000000000003
 30
0.0
 11
6.579789688840495
 21
-0.0000000000000016
 31
0.0
 70
    32
  1
%%c<>
  3
AM_JIS
100
AcDbAlignedDimension
 13
-0.0000000000007951
 23
4.5
 33
0.0
 14
-0.0000000000016937
 24
-4.5
 34
0.0
 50
90.00000000000003
100
AcDbRotatedDimension
1001
GENIUS_GENDTOL_13
1000

1000
h7
1000

1040
0.0
  0
LINE
  5
2378
330
1F
100
AcDbEntity
  8
AM_0
100
AcDbLine
 10
-54.5
 20
4.999999999999857
 30
0.0
 11
-23.5
 21
4.999999999999874
 31
0.0
  0
LINE
  5
2379
330
1F
100
AcDbEntity
  8
AM_0
100
AcDbLine
 10
-23.5
 20
-5.000000000000124
 30
0.0
 11
-54.5
 21
-5.000000000000139
 31
0.0
  0
LINE
  5
237C
330
1F
100
AcDbEntity
  8
AM_0
100
AcDbLine
 10
-54.5
 20
4.999999999999859
 30
0.0
 11
-54.5
 21
-5.000000000000138
 31
0.0
  0
LINE
  5
237D
330
1F
100
AcDbEntity
  8
AM_0
100
AcDbLine
 10
-55.0
 20
-4.500000000000139
 30
0.0
 11
-55.0
 21
4.499999999999857
 31
0.0
  0
DIMENSION
  5
237E
330
1F
100
AcDbEntity
  8
AM_5
100
AcDbDimension
  2
*D8
 10
-64.06123869649855
 20
-5.000000000000135
 30
0.0
 11
-65.61123869649854
 21
-0.0000000000001469
 31
0.0
 70
    32
  1
%%c<>
  3
AM_JIS
100
AcDbAlignedDimension
 13
-54.5
 23
4.999999999999859
 33
0.0
 14
-54.5
 24
-5.000000000000138
 34
0.0
 50
270.0
100
AcDbRotatedDimension
1001
GENIUS_GENDTOL_13
1000

1000
h7
1000

1040
0.0
  0
LINE
  5
23A8
330
1F
100
AcDbEntity
  8
AM_0
100
AcDbLine
 10
-54.5
 20
4.999999999999857
 30
0.0
 11
-55.0
 21
4.499999999999857
 31
0.0
1001
GENIUS_GENFIL_13
1070
     0
1040
0.5
1040
0.5
1040
20.0
1040
0.0
1002
{
1002
}
1001
GENIUS_GENODEF_13
1002
{
1000
HIER
1070
     0
1002
}
1002
{
1000
MANEDIT
1070
     0
1002
}
1002
{
1000
NOSEL
1070
     0
1002
}
1002
{
1000
BEHIND
1070
     0
1002
}
1002
{
1000
REACTOR
1002
}
1001
GENIUS_GENOBJ-N-CHA_13
1002
{
1000
OWNER
1000
GEN
1002
}
  0
LINE
  5
23AB
330
1F
100
AcDbEntity
  8
AM_0
100
AcDbLine
 10
-55.0
 20
-4.500000000000139
 30
0.0
 11
-54.5
 21
-5.000000000000139
 31
0.0
1001
GENIUS_GENFIL_13
1070
     0
1040
0.5
1040
0.5
1040
20.0
1040
0.0
1002
{
1002
}
1001
GENIUS_GENODEF_13
1002
{
1000
HIER
1070
     0
1002
}
1002
{
1000
MANEDIT
1070
     0
1002
}
1002
{
1000
NOSEL
1070
     0
1002
}
1002
{
1000
BEHIND
1070
     0
1002
}
1002
{
1000
REACTOR
1002
}
1001
GENIUS_GENOBJ-N-CHA_13
1002
{
1000
OWNER
1000
GEN
1002
}
  0
LINE
  5
23BD
330
1F
100
AcDbEntity
  8
AM_0
100
AcDbLine
 10
-23.5
 20
-5.000000000000124
 30
0.0
 11
-23.5
 21
4.999999999999873
 31
0.0
  0
LINE
  5
2613
330
1F
100
AcDbEntity
  8
AM_0
100
AcDbLine
 10
-0.8220249301025448
 20
2.400426732609351
 30
0.0
 11
-1.814629708232937
 21
2.707608080275265
 31
0.0
  0
LINE
  5
2614
330
1F
100
AcDbEntity
  8
AM_0
100
AcDbLine
 10
-0.0000000000001545
 20
0.0
 30
0.0
 11
-0.068411413742244
 21
-0.761508078377176
 31
0.0
  0
LINE
  5
2615
330
1F
100
AcDbEntity
  8
AM_0
100
AcDbLine
 10
-0.0000000000001545
 20
0.0
 30
0.0
 11
-0.0808530784062435
 21
0.9000000000001023
 31
0.0
  0
LINE
  5
2616
330
1F
100
AcDbEntity
  8
AM_0
100
AcDbLine
 10
-1.814629708232935
 20
-0.0000000000000043
 30
0.0
 11
-1.814629708232935
 21
-0.7200000000000145
 31
0.0
  0
LINE
  5
2617
330
1F
100
AcDbEntity
  8
AM_0
100
AcDbLine
 10
-1.814629708232935
 20
-0.7200000000000145
 30
0.0
 11
-0.0889153268240966
 21
-0.7200000000000104
 31
0.0
  0
LINE
  5
2618
330
1F
100
AcDbEntity
  8
AM_0
100
AcDbLine
 10
-0.0000000000001545
 20
0.0
 30
0.0
 11
-1.814629708232935
 21
-0.0000000000000043
 31
0.0
  0
LINE
  5
2619
330
1F
100
AcDbEntity
  8
AM_0
100
AcDbLine
 10
-0.0808530784062435
 20
-1.194208069106867
 30
0.0
 11
-0.0000000000001545
 21
-0.9000000000000001
 31
0.0
  0
LINE
  5
261A
330
1F
100
AcDbEntity
  8
AM_0
100
AcDbLine
 10
-0.6625778760214871
 20
-1.326289288649893
 30
0.0
 11
-0.0808530784062435
 21
-1.194208069106867
 31
0.0
  0
LINE
  5
261B
330
1F
100
AcDbEntity
  8
AM_0
100
AcDbLine
 10
-0.0000000000001545
 20
-0.9000000000000001
 30
0.0
 11
-0.4445766341198849
 21
0.0000000000000469
 31
0.0
  0
LINE
  5
261C
330
1F
100
AcDbEntity
  8
AM_0
100
AcDbLine
 10
-1.814629708232935
 20
-0.7200000000000145
 30
0.0
 11
-0.6625778760214871
 21
-1.326289288649893
 31
0.0
  0
LINE
  5
261D
330
1F
100
AcDbEntity
  8
AM_0
100
AcDbLine
 10
-0.0000000000001545
 20
0.0
 30
0.0
 11
-0.0000000000001565
 21
4.5
 31
0.0
  0
LINE
  5
261E
330
1F
100
AcDbEntity
  8
AM_0
100
AcDbLine
 10
-0.0808530784062435
 20
0.9000000000001023
 30
0.0
 11
-0.8220249301025448
 21
2.400426732609351
 31
0.0
  0
LINE
  5
261F
330
1F
100
AcDbEntity
  8
AM_0
100
AcDbLine
 10
-0.0000000000001525
 20
-4.5
 30
0.0
 11
-0.0808530784062395
 21
-4.260097041859642
 31
0.0
  0
LINE
  5
2620
330
1F
100
AcDbEntity
  8
AM_0
100
AcDbLine
 10
-0.0808530784062395
 20
-4.260097041859592
 30
0.0
 11
-0.5274700829351638
 21
-3.597854989915723
 31
0.0
  0
LINE
  5
2621
330
1F
100
AcDbEntity
  8
AM_0
100
AcDbLine
 10
-0.0000000000001525
 20
-4.5
 30
0.0
 11
-0.0000000000001545
 21
-0.9000000000000001
 31
0.0
  0
LINE
  5
2622
330
1F
100
AcDbEntity
  8
AM_0
100
AcDbLine
 10
-0.0808530784062395
 20
-4.260097041859642
 30
0.0
 11
-0.0808530784062435
 21
-1.194208069106867
 31
0.0
  0
LINE
  5
2642
330
1F
100
AcDbEntity
  8
AM_11
100
AcDbLine
 10
-15.00000000000011
 20
-4.500000000000013
 30
0.0
 11
-0.0000000000001525
 21
-4.5
 31
0.0
  0
LINE
  5
2643
330
1F
100
AcDbEntity
  8
AM_11
100
AcDbLine
 10
-0.0000000000007483
 20
4.5
 30
0.0
 11
-15.00000000000011
 21
4.499999999999984
 31
0.0
  0
SPLINE
  5
2645
330
1F
100
AcDbEntity
  8
AM_0
100
AcDbSpline
210
0.0
220
0.0
230
1.0
 70
     8
 71
     3
 72
     8
 73
     4
 74
     0
 42
0.0000000001
 43
0.0000000001
 40
4.542668862435135
 40
4.542668862435135
 40
4.542668862435135
 40
4.542668862435135
 40
14.36247867694493
 40
14.36247867694493
 40
14.36247867694493
 40
14.36247867694493
 10
-0.5274700829340905
 20
-3.597854989910966
 30
0.0
 10
-2.941096053887936
 20
-2.841305117915577
 30
0.0
 10
-5.26089541873592
 20
-1.420652558957764
 30
0.0
 10
-7.580694783583904
 20
0.0000000000000426
 30
0.0
  0
SPLINE
  5
2646
330
1F
100
AcDbEntity
  8
AM_0
100
AcDbSpline
210
0.0
220
0.0
230
1.0
 70
     8
 71
     3
 72
     8
 73
     4
 74
     0
 42
0.0000000001
 43
0.0000000001
 40
0.3581103616548037
 40
0.3581103616548037
 40
0.3581103616548037
 40
0.3581103616548037
 40
12.40023413887867
 40
12.40023413887867
 40
12.40023413887867
 40
12.40023413887867
 10
-8.853187698402489
 20
4.3612608805674
 30
0.0
 10
-5.775456122510269
 20
4.272087543356549
 30
0.0
 10
-2.91683977714941
 20
2.702431015636496
 30
0.0
 10
-0.0899492748802902
 20
0.918414320948068
 30
0.0
  0
SPLINE
  5
2647
330
1F
100
AcDbEntity
  8
AM_0
100
AcDbSpline
210
0.0
220
0.0
230
1.0
 70
     8
 71
     3
 72
     8
 73
     4
 74
     0
 42
0.0000000001
 43
0.0000000001
 40
0.0
 40
0.0
 40
0.0
 40
0.0
 40
14.48999654934396
 40
14.48999654934396
 40
14.48999654934396
 40
14.48999654934396
 10
-10.472398726885
 20
4.500000000000094
 30
0.0
 10
-6.753158005906684
 20
4.500000000000097
 30
0.0
 10
-3.376579002953421
 20
2.250000000000097
 30
0.0
 10
-0.0000000000001545
 20
0.0000000000001023
 30
0.0
  0
SPLINE
  5
2648
330
1F
100
AcDbEntity
  8
AM_0
100
AcDbSpline
210
0.0
220
0.0
230
1.0
 70
     8
 71
     3
 72
     8
 73
     4
 74
     0
 42
0.0000000001
 43
0.0000000001
 40
0.0
 40
0.0
 40
0.0
 40
0.0
 40
14.48999654934396
 40
14.48999654934396
 40
14.48999654934396
 40
14.48999654934396
 10
-0.0000000000001525
 20
-4.5
 30
0.0
 10
-3.719240720978475
 20
-4.500000000000003
 30
0.0
 10
-7.095819723931745
 20
-2.250000000000003
 30
0.0
 10
-10.472398726885
 20
-0.0000000000000085
 30
0.0
  0
SPLINE
  5
2649
330
1F
100
AcDbEntity
  8
AM_0
100
AcDbSpline
210
0.0
220
0.0
230
1.0
 70
     8
 71
     3
 72
     8
 73
     4
 74
     0
 42
0.0000000001
 43
0.0000000001
 40
1.870660592686466
 40
1.870660592686466
 40
1.870660592686466
 40
1.870660592686466
 40
14.43901837670146
 40
14.43901837670146
 40
14.43901837670146
 40
14.43901837670146
 10
-0.0808530784062395
 20
-4.260097041859592
 30
0.0
 10
-3.238716046360996
 20
-3.799710550891335
 30
0.0
 10
-6.183534018887609
 20
-1.899855275445644
 30
0.0
 10
-9.128351991414218
 20
0.0000000000000426
 30
0.0
  0
SPLINE
  5
264C
330
1F
100
AcDbEntity
  8
AM_0
100
AcDbSpline
210
0.0
220
0.0
230
1.0
 70
     8
 71
     3
 72
     8
 73
     4
 74
     0
 42
0.0000000001
 43
0.0000000001
 40
0.7142832446738512
 40
0.7142832446738512
 40
0.7142832446738512
 40
0.7142832446738512
 40
9.361146747480315
 40
9.361146747480315
 40
9.361146747480315
 40
9.361146747480315
 10
-7.032817886832038
 20
4.140538010841858
 30
0.0
 10
-4.830514063443001
 20
4.019205095074421
 30
0.0
 10
-2.729323757090039
 20
3.18219289451966
 30
0.0
 10
-0.6651861339113678
 20
2.082922604532849
 30
0.0
  0
SPLINE
  5
264D
330
1F
100
AcDbEntity
  8
AM_0
100
AcDbSpline
210
0.0
220
0.0
230
1.0
 70
     8
 71
     3
 72
     8
 73
     4
 74
     0
 42
0.0000000001
 43
0.0000000001
 40
0.0
 40
0.0
 40
0.0
 40
0.0
 40
2.586565323616715
 40
2.586565323616715
 40
2.586565323616715
 40
2.586565323616715
 10
-0.0000000000001565
 20
3.667232418015566
 30
0.0
 10
-0.4260321037653023
 20
3.072098876535906
 30
0.0
 10
-1.157292081455908
 20
2.816526417231914
 30
0.0
 10
-1.814629708232937
 20
2.707608080275265
 30
0.0
  0
SPLINE
  5
264E
330
1F
100
AcDbEntity
  8
AM_0
100
AcDbSpline
210
0.0
220
0.0
230
1.0
 70
     8
 71
     3
 72
     8
 73
     4
 74
     0
 42
0.0000000001
 43
0.0000000001
 40
0.0
 40
0.0
 40
0.0
 40
0.0
 40
5.635889483499127
 40
5.635889483499127
 40
5.635889483499127
 40
5.635889483499127
 10
-0.0000000000001565
 20
4.5
 30
0.0
 10
-1.446600045388879
 20
4.499999999999995
 30
0.0
 10
-2.841361407658672
 20
4.15961462608122
 30
0.0
 10
-4.204446761661349
 20
3.611236894534114
 30
0.0
  0
SPLINE
  5
2656
330
1F
100
AcDbEntity
  8
AM_0
100
AcDbSpline
210
0.0
220
0.0
230
1.0
 70
     8
 71
     3
 72
     8
 73
     4
 74
     0
 42
0.0000000001
 43
0.0000000001
 40
0.0
 40
0.0
 40
0.0
 40
0.0
 40
5.635889483499305
 40
5.635889483499305
 40
5.635889483499305
 40
5.635889483499305
 10
-10.47239872688516
 20
4.500000000000094
 30
0.0
 10
-11.91899877227394
 20
4.50000000000009
 30
0.0
 10
-13.31376013454377
 20
4.159614626081314
 30
0.0
 10
-14.56749398052486
 20
3.831734644195135
 30
0.0
  0
ELLIPSE
  5
2657
330
1F
100
AcDbEntity
  8
AM_0
100
AcDbEllipse
 10
1.529026566431542
 20
-2.289492148246118
 30
0.0
 11
0.0000000000000026
 21
2.736628303964443
 31
0.0
210
0.0
220
0.0
230
1.0
 40
0.8555881312814431
 41
1.211124581303827
 42
2.069278538290319
  0
LINE
  5
267C
330
1F
100
AcDbEntity
  8
AM_0
100
AcDbLine
 10
-23.5
 20
4.999999999999873
 30
0.0
 11
-22.12626129027297
 21
4.499999999999978
 31
0.0
  0
LINE
  5
267D
330
1F
100
AcDbEntity
  8
AM_0
100
AcDbLine
 10
-22.12626129027297
 20
4.499999999999978
 30
0.0
 11
-22.12626129027297
 21
-4.500000000000227
 31
0.0
  0
LINE
  5
267E
330
1F
100
AcDbEntity
  8
AM_0
100
AcDbLine
 10
-22.12626129027297
 20
-4.500000000000227
 30
0.0
 11
-23.5
 21
-5.000000000000125
 31
0.0
  0
LINE
  5
267F
330
1F
100
AcDbEntity
  8
AM_0
100
AcDbLine
 10
-22.12626129027297
 20
4.499999999999978
 30
0.0
 11
-18.33948445129459
 21
4.499999999999978
 31
0.0
  0
LINE
  5
2680
330
1F
100
AcDbEntity
  8
AM_0
100
AcDbLine
 10
-22.12626129027297
 20
-4.500000000000174
 30
0.0
 11
-18.14900656886034
 21
-4.500000000000405
 31
0.0
  0
LINE
  5
2AF0
330
1F
100
AcDbEntity
  8
AM_11
100
AcDbLine
 10
-15.00000000000011
 20
4.499999999999984
 30
0.0
 11
-15.00000000000011
 21
-4.500000000000015
 31
0.0
  0
ELLIPSE
  5
2B2F
330
1F
100
AcDbEntity
  8
AM_0
100
AcDbEllipse
 10
-18.53322251655045
 20
-11.96010572035423
 30
0.0
 11
0.0000000000000928
 21
10.53159528451652
 31
0.0
210
0.0
220
0.0
230
1.0
 40
0.7575757575757543
 41
-0.4587681791449427
 42
-0.2312569029271085
  0
ELLIPSE
  5
2B30
330
1F
100
AcDbEntity
  8
AM_0
100
AcDbEllipse
 10
-18.53839504872115
 20
4.075036888182602
 30
0.0
 11
-0.0000000000000018
 21
8.590427592697768
 31
0.0
210
0.0
220
0.0
230
1.0
 40
0.7575757575757589
 41
3.201461614289986
 42
3.427250019213442
  0
SPLINE
  5
2B31
330
1F
100
AcDbEntity
  8
AM_0
100
AcDbSpline
210
0.0
220
0.0
230
1.0
 70
     8
 71
     3
 72
     8
 73
     4
 74
     0
 42
0.0000000001
 43
0.0000000001
 40
0.0
 40
0.0
 40
0.0
 40
0.0
 40
4.451443990518192
 40
4.451443990518192
 40
4.451443990518192
 40
4.451443990518192
 10
-16.70454545454589
 20
-4.167277560667474
 30
0.0
 10
-14.97331953785417
 20
-4.155700053422832
 30
0.0
 10
-13.98659719149079
 20
-3.956101572823113
 30
0.0
 10
-13.01710538628281
 20
-3.618767294031536
 30
0.0
  0
POLYLINE
  5
2B32
330
1F
100
AcDbEntity
  8
AM_0
100
AcDb2dPolyline
 66
     1
 10
0.0
 20
0.0
 30
0.0
 70
     2
  0
VERTEX
  5
2B33
330
2B32
100
AcDbEntity
  8
AM_0
100
AcDbVertex
100
AcDb2dVertex
 10
-16.70454545454589
 20
-4.167277560667474
 30
0.0
 42
-0.0230918143391583
  0
VERTEX
  5
2B34
330
2B32
100
AcDbEntity
  8
AM_0
100
AcDbVertex
100
AcDb2dVertex
 10
-17.09762573543391
 20
-4.03578113143507
 30
0.0
 42
-0.0355587143075394
 70
     1
  0
VERTEX
  5
2B35
330
2B32
100
AcDbEntity
  8
AM_0
100
AcDbVertex
100
AcDb2dVertex
 10
-17.34375000000043
 20
-3.911461650682779
 30
0.0
 42
-0.0216088548285507
  0
VERTEX
  5
2B36
330
2B32
100
AcDbEntity
  8
AM_0
100
AcDbVertex
100
AcDb2dVertex
 10
-17.91799378830216
 20
-3.517063059316027
 30
0.0
 42
-0.0414110700152503
 70
     1
  0
VERTEX
  5
2B37
330
2B32
100
AcDbEntity
  8
AM_0
100
AcDbVertex
100
AcDb2dVertex
 10
-18.19602272727316
 20
-3.262874866505619
 30
0.0
 42
-0.0653031023268945
  0
VERTEX
  5
2B38
330
2B32
100
AcDbEntity
  8
AM_0
100
AcDbVertex
100
AcDb2dVertex
 10
-18.37511952951778
 20
-3.010047280933423
 30
0.0
 42
-0.1569363594221426
 70
     1
  0
VERTEX
  5
2B39
330
2B32
100
AcDbEntity
  8
AM_0
100
AcDbVertex
100
AcDb2dVertex
 10
-18.40909090909134
 20
-2.870103992313121
 30
0.0
 42
-0.1617045000652558
  0
VERTEX
  5
2B3A
330
2B32
100
AcDbEntity
  8
AM_0
100
AcDbVertex
100
AcDb2dVertex
 10
-18.37453272941458
 20
-2.733309293835606
 30
0.0
 42
-0.0680210806811403
 70
     1
  0
VERTEX
  5
2B3B
330
2B32
100
AcDbEntity
  8
AM_0
100
AcDbVertex
100
AcDb2dVertex
 10
-18.19602272727316
 20
-2.494325713570585
 30
0.0
 42
-0.0450747416233525
  0
VERTEX
  5
2B3C
330
2B32
100
AcDbEntity
  8
AM_0
100
AcDbVertex
100
AcDb2dVertex
 10
-17.92061079070737
 20
-2.263078497309432
 30
0.0
 42
-0.0231467319857815
 70
     1
  0
VERTEX
  5
2B3D
330
2B32
100
AcDbEntity
  8
AM_0
100
AcDbVertex
100
AcDb2dVertex
 10
-17.34375000000043
 20
-1.913709311193379
 30
0.0
 42
-0.0364444523572374
  0
VERTEX
  5
2B3E
330
2B32
100
AcDbEntity
  8
AM_0
100
AcDbVertex
100
AcDb2dVertex
 10
-17.09322189958786
 20
-1.807405828667743
 30
0.0
 42
-0.0242139410122645
 70
     1
  0
VERTEX
  5
2B3F
330
2B32
100
AcDbEntity
  8
AM_0
100
AcDbVertex
100
AcDb2dVertex
 10
-16.70454545454589
 20
-1.708871187558635
 30
0.0
  0
SEQEND
  5
2B40
330
2B32
100
AcDbEntity
  8
AM_0
  0
SPLINE
  5
2B41
330
1F
100
AcDbEntity
  8
AM_0
100
AcDbSpline
210
0.0
220
0.0
230
1.0
 70
     8
 71
     3
 72
     8
 73
     4
 74
     0
 42
0.0000000001
 43
0.0000000001
 40
0.0
 40
0.0
 40
0.0
 40
0.0
 40
11.45610476152127
 40
11.45610476152127
 40
11.45610476152127
 40
11.45610476152127
 10
-8.08264855773152
 20
-4.365255303302154
 30
0.0
 10
-10.68630873080453
 20
-4.365255303302157
 30
0.0
 10
-13.10991245927947
 20
-2.991282084674924
 30
0.0
 10
-15.4963188654656
 20
-1.333463848761091
 30
0.0
  0
SPLINE
  5
2B42
330
1F
100
AcDbEntity
  8
AM_0
100
AcDbSpline
210
0.0
220
0.0
230
1.0
 70
     8
 71
     3
 72
     8
 73
     4
 74
     0
 42
0.0000000001
 43
0.0000000001
 40
0.0
 40
0.0
 40
0.0
 40
0.0
 40
9.068166399416787
 40
9.068166399416787
 40
9.068166399416787
 40
9.068166399416787
 10
-9.272727272727838
 20
-4.500000000000303
 30
0.0
 10
-11.33367418168619
 20
-4.500000000000311
 30
0.0
 10
-13.27579021351131
 20
-3.618778842842268
 30
0.0
 10
-15.17344240918643
 20
-2.407824588622236
 30
0.0
  0
SPLINE
  5
2B43
330
1F
100
AcDbEntity
  8
AM_0
100
AcDbSpline
210
0.0
220
0.0
230
1.0
 70
     8
 71
     3
 72
     8
 73
     4
 74
     0
 42
0.0000000001
 43
0.0000000001
 40
0.0
 40
0.0
 40
0.0
 40
0.0
 40
2.764560748519282
 40
2.764560748519282
 40
2.764560748519282
 40
2.764560748519282
 10
-8.08264855773152
 20
-4.365255303302253
 30
0.0
 10
-7.454339296704415
 20
-4.365255303302253
 30
0.0
 10
-6.836515483720096
 20
-4.285243033659459
 30
0.0
 10
-6.227169526757198
 20
-4.140538010859199
 30
0.0
  0
SPLINE
  5
2B44
330
1F
100
AcDbEntity
  8
AM_0
100
AcDbSpline
210
0.0
220
0.0
230
1.0
 70
     8
 71
     3
 72
     8
 73
     4
 74
     0
 42
0.0000000001
 43
0.0000000001
 40
0.0
 40
0.0
 40
0.0
 40
0.0
 40
12.79333816032526
 40
12.79333816032526
 40
12.79333816032526
 40
12.79333816032526
 10
-6.712284081153787
 20
-4.155700053422725
 30
0.0
 10
-9.619860935773164
 20
-4.155700053422725
 30
0.0
 10
-12.32119667405882
 20
-2.507070186141294
 30
0.0
 10
-15.00000000000038
 20
-0.6783229463750793
 30
0.0
  0
SPLINE
  5
2B45
330
1F
100
AcDbEntity
  8
AM_0
100
AcDbSpline
210
0.0
220
0.0
230
1.0
 70
     8
 71
     3
 72
     8
 73
     4
 74
     0
 42
0.0000000001
 43
0.0000000001
 40
0.0
 40
0.0
 40
0.0
 40
0.0
 40
2.130230809022907
 40
2.130230809022907
 40
2.130230809022907
 40
2.130230809022907
 10
-9.272727272727838
 20
-4.500000000000407
 30
0.0
 10
-8.788583907040806
 20
-4.500000000000407
 30
0.0
 10
-8.310998122361741
 20
-4.451370559038556
 30
0.0
 10
-7.839005863174951
 20
-4.361260880567717
 30
0.0
  0
SPLINE
  5
2B46
330
1F
100
AcDbEntity
  8
AM_0
100
AcDbSpline
210
0.0
220
0.0
230
1.0
 70
     8
 71
     3
 72
     8
 73
     4
 74
     0
 42
0.0000000001
 43
0.0000000001
 40
0.0
 40
0.0
 40
0.0
 40
0.0
 40
4.451443990518192
 40
4.451443990518192
 40
4.451443990518192
 40
4.451443990518192
 10
-6.712284081153787
 20
-4.155700053422824
 30
0.0
 10
-5.700592265126911
 20
-4.155700053422824
 30
0.0
 10
-4.713869918763525
 20
-3.956101572823097
 30
0.0
 10
-3.982294650734747
 20
-3.698638239268985
 30
0.0
  0
LINE
  5
2BD6
330
1F
100
AcDbEntity
  8
AM_0
100
AcDbLine
 10
-15.49631886548925
 20
-1.333463848820379
 30
0.0
 11
-15.00000000000043
 21
-2.517491267880048
 31
0.0
  0
LINE
  5
2BD7
330
1F
100
AcDbEntity
  8
AM_0
100
AcDbLine
 10
-15.00000000000039
 20
-0.678322946375074
 30
0.0
 11
-15.49631886548925
 21
-1.333463848820379
 31
0.0
  0
SPLINE
  5
2BD8
330
1F
100
AcDbEntity
  8
AM_0
100
AcDbSpline
210
0.0
220
0.0
230
1.0
 70
     8
 71
     3
 72
     8
 73
     4
 74
     0
 42
0.0000000001
 43
0.0000000001
 40
0.3581103616548037
 40
0.3581103616548037
 40
0.3581103616548037
 40
0.3581103616548037
 40
14.43901837670146
 40
14.43901837670146
 40
14.43901837670146
 40
14.43901837670146
 10
-18.33948445129258
 20
4.499999999999833
 30
0.0
 10
-14.97089467900072
 20
4.256990107247734
 30
0.0
 10
-12.04962333520734
 20
2.128495053623815
 30
0.0
 10
-9.128351991413996
 20
-0.000000000000103
 30
0.0
  0
SPLINE
  5
2BD9
330
1F
100
AcDbEntity
  8
AM_0
100
AcDbSpline
210
0.0
220
0.0
230
1.0
 70
     8
 71
     3
 72
     8
 73
     4
 74
     0
 42
0.0000000001
 43
0.0000000001
 40
6.768271472310175
 40
6.768271472310175
 40
6.768271472310175
 40
6.768271472310175
 40
14.48999654934396
 40
14.48999654934396
 40
14.48999654934396
 40
14.48999654934396
 10
-15.00000000000032
 20
3.177505684479867
 30
0.0
 10
-13.41645200803297
 20
2.215341609016865
 30
0.0
 10
-11.862132250952
 20
1.122374010047494
 30
0.0
 10
-10.47239872688477
 20
-0.0000000000001601
 30
0.0
  0
SPLINE
  5
2BDA
330
1F
100
AcDbEntity
  8
AM_0
100
AcDbSpline
210
0.0
220
0.0
230
1.0
 70
     8
 71
     3
 72
     8
 73
     4
 74
     0
 42
0.0000000001
 43
0.0000000001
 40
1.090140354492627
 40
1.090140354492627
 40
1.090140354492627
 40
1.090140354492627
 40
14.36247867694493
 40
14.36247867694493
 40
14.36247867694493
 40
14.36247867694493
 10
-16.17533212050841
 20
4.085588585951997
 30
0.0
 10
-13.13316330715724
 20
3.840274253231116
 30
0.0
 10
-10.3569290453704
 20
1.92013712661545
 30
0.0
 10
-7.580694783583541
 20
-0.0000000000002078
 30
0.0
  0
POLYLINE
  5
2BDB
330
1F
100
AcDbEntity
  8
AM_0
100
AcDb2dPolyline
 66
     1
 10
0.0
 20
0.0
 30
0.0
 70
     2
  0
VERTEX
  5
2BDC
330
2BDB
100
AcDbEntity
  8
AM_0
100
AcDbVertex
100
AcDb2dVertex
 10
-15.00000000000015
 20
3.177505684480149
 30
0.0
 42
0.076325459528174
  0
VERTEX
  5
2BDD
330
2BDB
100
AcDbEntity
  8
AM_0
100
AcDbVertex
100
AcDb2dVertex
 10
-15.9542971234363
 20
3.571061618873471
 30
0.0
 42
0.0187918863228812
 70
     1
  0
VERTEX
  5
2BDE
330
2BDB
100
AcDbEntity
  8
AM_0
100
AcDbVertex
100
AcDb2dVertex
 10
-16.43789716165234
 20
3.627605645475526
 30
0.0
 42
0.0075788461628208
  0
VERTEX
  5
2BDF
330
2BDB
100
AcDbEntity
  8
AM_0
100
AcDbVertex
100
AcDb2dVertex
 10
-17.72346000494585
 20
3.688060685633193
 30
0.0
 42
0.0232722457202398
 70
     1
  0
VERTEX
  5
2BE0
330
2BDB
100
AcDbEntity
  8
AM_0
100
AcDbVertex
100
AcDb2dVertex
 10
-18.14244261619779
 20
3.673632191857624
 30
0.0
 42
0.0542958387243925
  0
VERTEX
  5
2BE1
330
2BDB
100
AcDbEntity
  8
AM_0
100
AcDbVertex
100
AcDb2dVertex
 10
-18.5426444936959
 20
3.576901179064751
 30
0.0
 42
0.4413285869607302
 70
     1
  0
VERTEX
  5
2BE2
330
2BDB
100
AcDbEntity
  8
AM_0
100
AcDbVertex
100
AcDb2dVertex
 10
-18.56857897983416
 20
3.506026680524222
 30
0.0
 42
0.0678159998049314
  0
VERTEX
  5
2BE3
330
2BDB
100
AcDbEntity
  8
AM_0
100
AcDbVertex
100
AcDb2dVertex
 10
-18.53665012854462
 20
3.431849568085745
 30
0.0
 42
0.006836731909696
 70
     1
  0
VERTEX
  5
2BE4
330
2BDB
100
AcDbEntity
  8
AM_0
100
AcDbVertex
100
AcDb2dVertex
 10
-18.14244261619779
 20
2.769340649016946
 30
0.0
 42
0.0061465077983929
  0
VERTEX
  5
2BE5
330
2BDB
100
AcDbEntity
  8
AM_0
100
AcDbVertex
100
AcDb2dVertex
 10
-17.54823279255198
 20
1.822390211005316
 30
0.0
 42
0.0040253861954876
 70
     1
  0
VERTEX
  5
2BE6
330
2BDB
100
AcDbEntity
  8
AM_0
100
AcDbVertex
100
AcDb2dVertex
 10
-16.6188372095316
 20
0.4011502780410475
 30
0.0
 42
0.0594163782683759
  0
VERTEX
  5
2BE7
330
2BDB
100
AcDbEntity
  8
AM_0
100
AcDbVertex
100
AcDb2dVertex
 10
-16.19864929232375
 20
-0.0971648315947071
 30
0.0
 42
0.0276211612502514
 70
     1
  0
VERTEX
  5
2BE8
330
2BDB
100
AcDbEntity
  8
AM_0
100
AcDbVertex
100
AcDb2dVertex
 10
-15.00000000000039
 20
-0.6783229463750722
 30
0.0
  0
SEQEND
  5
2BE9
330
2BDB
100
AcDbEntity
  8
AM_0
  0
LINE
  5
2BEB
330
1F
100
AcDbEntity
  8
AM_0
100
AcDbLine
 10
-15.00000000000047
 20
3.1775056844809
 30
0.0
 11
-15.25468862826981
 21
3.759802094920673
 31
0.0
  0
VIEWPORT
  5
110
330
101
100
AcDbEntity
 67
     1
  8
0
100
AcDbViewport
 10
420.5
 20
297.0
 30
0.0
 40
948.9782706766916
 41
628.452
 68
     1
 69
     1
1001
ACAD
1000
MVIEW
1002
{
1070
    16
1010
0.0
1020
0.0
1030
0.0
1010
0.0
1020
0.0
1030
1.0
1040
0.0
1040
628.452
1040
420.5
1040
297.0
1040
50.0
1040
0.0
1040
0.0
1070
     0
1070
   100
1070
     1
1070
     1
1070
     0
1070
     0
1070
     0
1070
     0
1040
0.0
1040
0.0
1040
0.0
1040
10.0
1040
10.0
1040
10.0
1040
10.0
1070
     0
1002
{
1002
}
1002
}
  0
ENDSEC
  0
SECTION
  2
OBJECTS
  0
DICTIONARY
  5
C
330
0
100
AcDbDictionary
  3
ACAD_GROUP
350
D
  3
ACAD_LAYOUT
350
1A
  3
ACAD_MLINESTYLE
350
17
  3
ACAD_PLOTSETTINGS
350
19
  3
ACAD_PLOTSTYLENAME
350
E
  3
ACDBVARIABLEDICTIONARY
350
34
  3
ACMDICTIONARY
350
43
  3
AMG
350
2B
  3
AMGSNAPSETTINGS
350
6E
  3
DWGPROPS
350
2E2E
  3
ACDBHEADERROUNDTRIPXREC
350
2E3A
  0
DICTIONARY
  5
74
330
1F
100
AcDbDictionary
280
     1
  3
ACAD_INDEX
360
2E30
  3
ACAD_LAYOUTSELFREF
360
2E5D
  0
DICTIONARY
  5
2E62
330
101
100
AcDbDictionary
280
     1
  3
ACAD_LAYOUTSELFREF
360
2E63
  0
DICTIONARY
  5
D
102
{ACAD_REACTORS
330
C
102
}
330
C
100
AcDbDictionary
  0
DICTIONARY
  5
1A
102
{ACAD_REACTORS
330
C
102
}
330
C
100
AcDbDictionary
  0
DICTIONARY
  5
17
102
{ACAD_REACTORS
330
C
102
}
330
C
100
AcDbDictionary
  3
STANDARD
350
18
  0
DICTIONARY
  5
19
102
{ACAD_REACTORS
330
C
102
}
330
C
100
AcDbDictionary
  0
ACDBDICTIONARYWDFLT
  5
E
102
{ACAD_REACTORS
330
C
102
}
330
C
100
AcDbDictionary
281
     1
  3
Normal
350
F
100
AcDbDictionaryWithDefault
340
F
  0
DICTIONARY
  5
34
102
{ACAD_REACTORS
330
C
102
}
330
C
100
AcDbDictionary
  3
INDEXCTL
350
35
  3
SORTENTS
350
B5E
  0
DICTIONARY
  5
43
102
{ACAD_REACTORS
330
C
102
}
330
C
100
AcDbDictionary
  3
ACMSTDDICTIONARY
350
260
  0
DICTIONARY
  5
2B
102
{ACAD_REACTORS
330
C
102
}
330
C
100
AcDbDictionary
  3
ACMGSETTINGS
350
2C
  0
DICTIONARY
  5
6E
102
{ACAD_REACTORS
330
C
102
}
330
C
100
AcDbDictionary
  0
XRECORD
  5
2E2E
102
{ACAD_REACTORS
330
C
102
}
330
C
100
AcDbXrecord
  1
DWGPROPS COOKIE
  2

  3

  4

  6

  7

  8

  9

300
AmdtFileType=82
301
=
302
=
303
=
304
=
305
=
306
=
307
=
308
=
309
=
 40
0.0701149884259259
 41
2452836.771637361
 42
2452845.694817338
  1

 90
        1
  0
DICTIONARY
  5
2E3A
102
{ACAD_REACTORS
330
C
102
}
330
C
100
AcDbDictionary
  3
TSTACKALIGN
350
2E3B
  3
TSTACKSIZE
350
2E3C
  3
HYPERLINKBASE
350
2E3D
  3
STYLESHEET
350
2E3E
  3
LAYOUTDICT
350
2E3F
  3
PLOTSETDICT
350
2E40
  3
PLOTSTYLNAMDICT
350
2E41
  3
LWETCUNION
350
2E42
  3
INSUNITS
350
2E43
  3
CEPSNTYPE
350
2E44
  3
FINGERPRINTGUID
350
2E45
  3
VERSIONGUID
350
2E46
  3
PSVPSCALE
350
2E47
  3
DIMSTYLEDATA
350
2E48
  3
PUCSORTHOREF
350
2E49
  3
PUCSORTHOVIEW
350
2E4A
  3
PUCSBASE
350
2E4B
  3
PUCSORGTOP
350
2E4C
  3
PUCSORGBOTTOM
350
2E4D
  3
PUCSORGLEFT
350
2E4E
  3
PUCSORGRIGHT
350
2E4F
  3
PUCSORGFRONT
350
2E50
  3
PUCSORGBACK
350
2E51
  3
UCSORTHOREF
350
2E52
  3
UCSORTHOVIEW
350
2E53
  3
UCSBASE
350
2E54
  3
UCSORGTOP
350
2E55
  3
UCSORGBOTTOM
350
2E56
  3
UCSORGLEFT
350
2E57
  3
UCSORGRIGHT
350
2E58
  3
UCSORGFRONT
350
2E59
  3
UCSORGBACK
350
2E5A
  0
DICTIONARY
  5
2E30
102
{ACAD_REACTORS
330
74
102
}
330
74
100
AcDbDictionary
  3
*A1
350
2E31
  0
XRECORD
  5
2E5D
102
{ACAD_REACTORS
330
74
102
}
330
74
100
AcDbXrecord
340
1F
  0
XRECORD
  5
2E63
102
{ACAD_REACTORS
330
2E62
102
}
330
2E62
100
AcDbXrecord
340
101
  0
MLINESTYLE
  5
18
102
{ACAD_REACTORS
330
17
102
}
330
17
100
AcDbMlineStyle
  2
STANDARD
 70
     0
  3

 62
   256
 51
90.0
 52
90.0
 71
     2
 49
0.5
 62
   256
  6
BYLAYER
 49
-0.5
 62
   256
  6
BYLAYER
  0
ACDBPLACEHOLDER
  5
F
102
{ACAD_REACTORS
330
E
102
}
330
E
100
AcDbPlaceHolder
280
     0
  0
DICTIONARYVAR
  5
35
102
{ACAD_REACTORS
330
34
102
}
330
34
100
DictionaryVariables
280
     0
  1
1
  0
DICTIONARYVAR
  5
B5E
102
{ACAD_REACTORS
330
34
102
}
330
34
100
DictionaryVariables
280
     0
  1
96
  0
DICTIONARY
  5
260
102
{ACAD_REACTORS
330
43
102
}
330
43
100
AcDbDictionary
  0
DICTIONARY
  5
2C
102
{ACAD_REACTORS
330
2B
102
}
330
2B
100
AcDbDictionary
  3
DWGSETTINGS
350
2D
  0
XRECORD
  5
2E3B
102
{ACAD_REACTORS
330
2E3A
102
}
330
2E3A
100
AcDbXrecord
 90
        1
  0
XRECORD
  5
2E3C
102
{ACAD_REACTORS
330
2E3A
102
}
330
2E3A
100
AcDbXrecord
 90
       70
  0
XRECORD
  5
2E3D
102
{ACAD_REACTORS
330
2E3A
102
}
330
2E3A
100
AcDbXrecord
  1

  0
XRECORD
  5
2E3E
102
{ACAD_REACTORS
330
2E3A
102
}
330
2E3A
100
AcDbXrecord
  1
ASAMI.ctb
  0
XRECORD
  5
2E3F
102
{ACAD_REACTORS
330
2E3A
102
}
330
2E3A
100
AcDbXrecord
340
1A
  0
XRECORD
  5
2E40
102
{ACAD_REACTORS
330
2E3A
102
}
330
2E3A
100
AcDbXrecord
340
19
  0
XRECORD
  5
2E41
102
{ACAD_REACTORS
330
2E3A
102
}
330
2E3A
100
AcDbXrecord
340
E
  0
XRECORD
  5
2E42
102
{ACAD_REACTORS
330
2E3A
102
}
330
2E3A
100
AcDbXrecord
 90
    10781
  0
XRECORD
  5
2E43
102
{ACAD_REACTORS
330
2E3A
102
}
330
2E3A
100
AcDbXrecord
 90
        4
  0
XRECORD
  5
2E44
102
{ACAD_REACTORS
330
2E3A
102
}
330
2E3A
100
AcDbXrecord
 90
        0
  0
XRECORD
  5
2E45
102
{ACAD_REACTORS
330
2E3A
102
}
330
2E3A
100
AcDbXrecord
  1
{AFB28963-8C59-40AE-9337-C84526B81ACE}
  0
XRECORD
  5
2E46
102
{ACAD_REACTORS
330
2E3A
102
}
330
2E3A
100
AcDbXrecord
  1
{8BB61B10-C85B-412A-898F-C3649A484542}
  0
XRECORD
  5
2E47
102
{ACAD_REACTORS
330
2E3A
102
}
330
2E3A
100
AcDbXrecord
 40
0.0
  0
XRECORD
  5
2E48
102
{ACAD_REACTORS
330
2E3A
102
}
330
2E3A
100
AcDbXrecord
1000
DSTYLE
1002
{
1070
    79
 70
     2
1070
   341
340
59
1070
   342
340
59
1070
   371
 70
    -1
1070
   372
 70
    -1
1002
}
  0
XRECORD
  5
2E49
102
{ACAD_REACTORS
330
2E3A
102
}
330
2E3A
100
AcDbXrecord
340
0
  0
XRECORD
  5
2E4A
102
{ACAD_REACTORS
330
2E3A
102
}
330
2E3A
100
AcDbXrecord
 70
     0
  0
XRECORD
  5
2E4B
102
{ACAD_REACTORS
330
2E3A
102
}
330
2E3A
100
AcDbXrecord
340
0
  0
XRECORD
  5
2E4C
102
{ACAD_REACTORS
330
2E3A
102
}
330
2E3A
100
AcDbXrecord
 10
0.0
 20
0.0
 30
0.0
  0
XRECORD
  5
2E4D
102
{ACAD_REACTORS
330
2E3A
102
}
330
2E3A
100
AcDbXrecord
 10
0.0
 20
0.0
 30
0.0
  0
XRECORD
  5
2E4E
102
{ACAD_REACTORS
330
2E3A
102
}
330
2E3A
100
AcDbXrecord
 10
0.0
 20
0.0
 30
0.0
  0
XRECORD
  5
2E4F
102
{ACAD_REACTORS
330
2E3A
102
}
330
2E3A
100
AcDbXrecord
 10
0.0
 20
0.0
 30
0.0
  0
XRECORD
  5
2E50
102
{ACAD_REACTORS
330
2E3A
102
}
330
2E3A
100
AcDbXrecord
 10
0.0
 20
0.0
 30
0.0
  0
XRECORD
  5
2E51
102
{ACAD_REACTORS
330
2E3A
102
}
330
2E3A
100
AcDbXrecord
 10
0.0
 20
0.0
 30
0.0
  0
XRECORD
  5
2E52
102
{ACAD_REACTORS
330
2E3A
102
}
330
2E3A
100
AcDbXrecord
340
0
  0
XRECORD
  5
2E53
102
{ACAD_REACTORS
330
2E3A
102
}
330
2E3A
100
AcDbXrecord
 70
     0
  0
XRECORD
  5
2E54
102
{ACAD_REACTORS
330
2E3A
102
}
330
2E3A
100
AcDbXrecord
340
0
  0
XRECORD
  5
2E55
102
{ACAD_REACTORS
330
2E3A
102
}
330
2E3A
100
AcDbXrecord
 10
0.0
 20
0.0
 30
0.0
  0
XRECORD
  5
2E56
102
{ACAD_REACTORS
330
2E3A
102
}
330
2E3A
100
AcDbXrecord
 10
0.0
 20
0.0
 30
0.0
  0
XRECORD
  5
2E57
102
{ACAD_REACTORS
330
2E3A
102
}
330
2E3A
100
AcDbXrecord
 10
0.0
 20
0.0
 30
0.0
  0
XRECORD
  5
2E58
102
{ACAD_REACTORS
330
2E3A
102
}
330
2E3A
100
AcDbXrecord
 10
0.0
 20
0.0
 30
0.0
  0
XRECORD
  5
2E59
102
{ACAD_REACTORS
330
2E3A
102
}
330
2E3A
100
AcDbXrecord
 10
0.0
 20
0.0
 30
0.0
  0
XRECORD
  5
2E5A
102
{ACAD_REACTORS
330
2E3A
102
}
330
2E3A
100
AcDbXrecord
 10
0.0
 20
0.0
 30
0.0
  0
LAYER_INDEX
  5
2E31
102
{ACAD_REACTORS
330
2E30
102
}
330
2E30
100
AcDbIndex
 40
2453151.798959201
100
AcDbLayerIndex
  8
0
360
2E32
 90
        0
  8
AM_0
360
2E33
 90
       55
  8
AM_11
360
2E34
 90
        3
  8
AM_7
360
2E35
 90
        1
  8
AM_5
360
2E36
 90
        4
  8
Defpoints
360
2E37
 90
        0
  8
AM_6
360
2E38
 90
        1
  0
XRECORD
  5
2D
102
{ACAD_REACTORS
330
2C
102
}
330
2C
100
AcDbXrecord
  1
VERSION
140
15.0
  1
PRODUCT
  2
AutoCAD Mechanical 2000
  0
IDBUFFER
  5
2E32
330
0
100
AcDbIdBuffer
  0
IDBUFFER
  5
2E33
330
0
100
AcDbIdBuffer
330
2BD6
330
2BD7
330
2BD8
330
2BD9
330
2BDA
330
2BDB
330
2BEB
330
2378
330
2379
330
237C
330
237D
330
23A8
330
23AB
330
23BD
330
2613
330
2614
330
2615
330
2616
330
2617
330
2618
330
2619
330
261A
330
261B
330
261C
330
261D
330
261E
330
261F
330
2620
330
2621
330
2622
330
2645
330
2646
330
2647
330
2648
330
2649
330
264C
330
264D
330
264E
330
2656
330
2657
330
267C
330
267D
330
267E
330
267F
330
2680
330
2B2F
330
2B30
330
2B31
330
2B32
330
2B41
330
2B42
330
2B43
330
2B44
330
2B45
330
2B46
  0
IDBUFFER
  5
2E34
330
0
100
AcDbIdBuffer
330
2642
330
2643
330
2AF0
  0
IDBUFFER
  5
2E35
330
0
100
AcDbIdBuffer
330
13DC
  0
IDBUFFER
  5
2E36
330
0
100
AcDbIdBuffer
330
16EA
330
177A
330
1936
330
237E
  0
IDBUFFER
  5
2E37
330
0
100
AcDbIdBuffer
  0
IDBUFFER
  5
2E38
330
0
100
AcDbIdBuffer
330
E5A
  0
ENDSEC
  0
EOF
