  0
SECTION
  2
HEADER
  9
$ACADVER
  1
AC1014
  9
$ACADMAINTVER
 70
     9
  9
$DWGCODEPAGE
  3
ANSI_932
  9
$INSBASE
 10
0.0
 20
0.0
 30
0.0
  9
$EXTMIN
 10
-84.14349790496837
 20
-30.25000100999994
 30
-0.00000001
  9
$EXTMAX
 10
12.05776903085493
 20
6.662369266392416
 30
0.00000001
  9
$LIMMIN
 10
-86.91905687729684
 20
-36.22404333772897
  9
$LIMMAX
 10
15.71817719241209
 20
16.31752723149139
  9
$ORTHOMODE
 70
     0
  9
$REGENMODE
 70
     1
  9
$FILLMODE
 70
     1
  9
$QTEXTMODE
 70
     0
  9
$MIRRTEXT
 70
     0
  9
$DRAGMODE
 70
     2
  9
$LTSCALE
 40
1.0
  9
$OSMODE
 70
    55
  9
$ATTMODE
 70
     1
  9
$TEXTSIZE
 40
2.5
  9
$TRACEWID
 40
1.0
  9
$TEXTSTYLE
  7
STANDARD
  9
$CLAYER
  8
AM_0
  9
$CELTYPE
  6
BYLAYER
  9
$CECOLOR
 62
   256
  9
$CELTSCALE
 40
1.0
  9
$DELOBJ
 70
     1
  9
$DISPSILH
 70
     0
  9
$DIMSCALE
 40
0.5
  9
$DIMASZ
 40
2.5
  9
$DIMEXO
 40
1.0
  9
$DIMDLI
 40
12.0
  9
$DIMRND
 40
0.0
  9
$DIMDLE
 40
0.0
  9
$DIMEXE
 40
1.0
  9
$DIMTP
 40
0.1
  9
$DIMTM
 40
0.1
  9
$DIMTXT
 40
3.2
  9
$DIMCEN
 40
0.0
  9
$DIMTSZ
 40
0.0
  9
$DIMTOL
 70
     0
  9
$DIMLIM
 70
     0
  9
$DIMTIH
 70
     0
  9
$DIMTOH
 70
     0
  9
$DIMSE1
 70
     0
  9
$DIMSE2
 70
     0
  9
$DIMTAD
 70
     3
  9
$DIMZIN
 70
     8
  9
$DIMBLK
  1
OPEN30
  9
$DIMASO
 70
     1
  9
$DIMSHO
 70
     1
  9
$DIMPOST
  1

  9
$DIMAPOST
  1
"
  9
$DIMALT
 70
     0
  9
$DIMALTD
 70
     2
  9
$DIMALTF
 40
0.0393701
  9
$DIMLFAC
 40
1.0
  9
$DIMTOFL
 70
     1
  9
$DIMTVP
 40
0.0
  9
$DIMTIX
 70
     0
  9
$DIMSOXD
 70
     0
  9
$DIMSAH
 70
     0
  9
$DIMBLK1
  1

  9
$DIMBLK2
  1

  9
$DIMSTYLE
  2
AM_JIS
  9
$DIMCLRD
 70
   256
  9
$DIMCLRE
 70
   256
  9
$DIMCLRT
 70
     2
  9
$DIMTFAC
 40
0.71
  9
$DIMGAP
 40
1.5
  9
$DIMJUST
 70
     0
  9
$DIMSD1
 70
     0
  9
$DIMSD2
 70
     0
  9
$DIMTOLJ
 70
     0
  9
$DIMTZIN
 70
     0
  9
$DIMALTZ
 70
     0
  9
$DIMALTTZ
 70
     0
  9
$DIMFIT
 70
     3
  9
$DIMUPT
 70
     0
  9
$DIMUNIT
 70
     2
  9
$DIMDEC
 70
     3
  9
$DIMTDEC
 70
     3
  9
$DIMALTU
 70
     2
  9
$DIMALTTD
 70
     2
  9
$DIMTXSTY
  7
ASAMI
  9
$DIMAUNIT
 70
     0
  9
$LUNITS
 70
     2
  9
$LUPREC
 70
     2
  9
$SKETCHINC
 40
1.0
  9
$FILLETRAD
 40
2.5
  9
$AUNITS
 70
     0
  9
$AUPREC
 70
     0
  9
$MENU
  1
.
  9
$ELEVATION
 40
0.0
  9
$PELEVATION
 40
0.0
  9
$THICKNESS
 40
0.0
  9
$LIMCHECK
 70
     0
  9
$BLIPMODE
 70
     0
  9
$CHAMFERA
 40
1.0
  9
$CHAMFERB
 40
1.0
  9
$CHAMFERC
 40
20.0
  9
$CHAMFERD
 40
0.0
  9
$SKPOLY
 70
     0
  9
$TDCREATE
 40
2452836.771637361
  9
$TDUPDATE
 40
2453151.799817153
  9
$TDINDWG
 40
0.0463075000
  9
$TDUSRTIMER
 40
0.0463075000
  9
$USRTIMER
 70
     1
  9
$ANGBASE
 50
0.0
  9
$ANGDIR
 70
     0
  9
$PDMODE
 70
     0
  9
$PDSIZE
 40
0.0
  9
$PLINEWID
 40
0.0
  9
$COORDS
 70
     1
  9
$SPLFRAME
 70
     0
  9
$SPLINETYPE
 70
     6
  9
$SPLINESEGS
 70
     8
  9
$ATTDIA
 70
     1
  9
$ATTREQ
 70
     1
  9
$HANDLING
 70
 12289
  9
$HANDSEED
  5
1BE9
  9
$SURFTAB1
 70
     6
  9
$SURFTAB2
 70
     6
  9
$SURFTYPE
 70
     6
  9
$SURFU
 70
     6
  9
$SURFV
 70
     6
  9
$UCSNAME
  2

  9
$UCSORG
 10
0.0
 20
0.0
 30
0.0
  9
$UCSXDIR
 10
1.0
 20
0.0
 30
0.0
  9
$UCSYDIR
 10
0.0
 20
1.0
 30
0.0
  9
$PUCSNAME
  2

  9
$PUCSORG
 10
0.0
 20
0.0
 30
0.0
  9
$PUCSXDIR
 10
1.0
 20
0.0
 30
0.0
  9
$PUCSYDIR
 10
0.0
 20
1.0
 30
0.0
  9
$USERI1
 70
     0
  9
$USERI2
 70
     0
  9
$USERI3
 70
     0
  9
$USERI4
 70
     0
  9
$USERI5
 70
     0
  9
$USERR1
 40
0.0
  9
$USERR2
 40
0.0
  9
$USERR3
 40
0.0
  9
$USERR4
 40
0.0
  9
$USERR5
 40
0.0
  9
$WORLDVIEW
 70
     1
  9
$SHADEDGE
 70
     3
  9
$SHADEDIF
 70
    70
  9
$TILEMODE
 70
     1
  9
$MAXACTVP
 70
    64
  9
$PINSBASE
 10
0.0
 20
0.0
 30
0.0
  9
$PLIMCHECK
 70
     0
  9
$PEXTMIN
 10
1.000000000000000E+20
 20
1.000000000000000E+20
 30
1.000000000000000E+20
  9
$PEXTMAX
 10
-1.000000000000000E+20
 20
-1.000000000000000E+20
 30
-1.000000000000000E+20
  9
$PLIMMIN
 10
0.0
 20
0.0
  9
$PLIMMAX
 10
841.0
 20
594.0
  9
$UNITMODE
 70
     0
  9
$VISRETAIN
 70
     1
  9
$PLINEGEN
 70
     0
  9
$PSLTSCALE
 70
     0
  9
$TREEDEPTH
 70
  3020
  9
$PICKSTYLE
 70
     0
  9
$CMLSTYLE
  2
STANDARD
  9
$CMLJUST
 70
     0
  9
$CMLSCALE
 40
20.0
  9
$PROXYGRAPHICS
 70
     1
  9
$MEASUREMENT
 70
     1
  0
ENDSEC
  0
SECTION
  2
CLASSES
  0
CLASS
  1
ACDBDICTIONARYWDFLT
  2
AcDbDictionaryWithDefault
  3
AutoCAD 2000
 90
        0
280
     0
281
     0
  0
CLASS
  1
ACDBPLACEHOLDER
  2
AcDbPlaceHolder
  3
AutoCAD 2000
 90
        0
280
     0
281
     0
  0
CLASS
  1
LAYOUT
  2
AcDbLayout
  3
AutoCAD 2000
 90
        0
280
     0
281
     0
  0
CLASS
  1
AMGSETTINGSOBJ
  2
AmgSettingsObj
  3
"AcadM|Product Description: AutoCAD Mechanical 2000|Company: Autodesk"
 90
        0
280
     0
281
     0
  0
CLASS
  1
ACME_DOCUMENT
  2
AcMeDbDoc
  3
AcMeServices
 90
        0
280
     0
281
     0
  0
CLASS
  1
ACMESCOPE
  2
AcMeScope
  3
AcMeServices
 90
        0
280
     0
281
     0
  0
CLASS
  1
ACMECOMMANDHISTORY
  2
AcMeCommandHistory
  3
AcMeServices
 90
        0
280
     0
281
     0
  0
CLASS
  1
DICTIONARYVAR
  2
AcDbDictionaryVar
  3
AutoCAD 2000
 90
        0
280
     0
281
     0
  0
CLASS
  1
ACIMSYSVARMAN
  2
AcImSysVarManager
  3
AcMeServices
 90
        0
280
     0
281
     0
  0
CLASS
  1
ACIMREALSYSVAR
  2
AcImRealSysVar
  3
AcMeServices
 90
        0
280
     0
281
     0
  0
CLASS
  1
ACIMINTSYSVAR
  2
AcImIntSysVar
  3
AcMeServices
 90
        0
280
     0
281
     0
  0
CLASS
  1
ACMEDRAWINGMAN
  2
AcMeDrawingMan
  3
AcMeServices
 90
        0
280
     0
281
     0
  0
CLASS
  1
ACMEVIEW
  2
AcMeView
  3
AcMeServices
 90
        0
280
     0
281
     0
  0
CLASS
  1
ACDBENTITYCACHE
  2
AcMeEntityCache
  3
AcMeServices
 90
        0
280
     0
281
     0
  0
CLASS
  1
GSMANAGER
  2
AcMeGSManager
  3
AcMeServices
 90
        0
280
     0
281
     0
  0
CLASS
  1
AmdtInternalReactor
  2
AmdtInternalReactor
  3
AcMeServices
 90
        0
280
     0
281
     0
  0
CLASS
  1
ACMESTATEMGR
  2
AcMeStateMgr
  3
AcMeServices
 90
        0
280
     0
281
     0
  0
CLASS
  1
ACME_DATABASE
  2
AcMeDbDatabase
  3
AcMeServices
 90
        0
280
     0
281
     0
  0
CLASS
  1
ACRFINSADJUSTERMGR
  2
AcRfInsAdjusterMgr
  3
AcMeServices
 90
        0
280
     0
281
     0
  0
CLASS
  1
ACMDATADICTIONARY
  2
AcmDataDictionary
  3
"AcmSymBB|Product Description: AutoCAD Mechanical 2000|Company: Autodesk"
 90
        0
280
     0
281
     0
  0
CLASS
  1
ACMDATAENTRYBLOCK
  2
AcmDataEntryBlock
  3
"AcmSymBB|Product Description: AutoCAD Mechanical 2000|Company: Autodesk"
 90
        0
280
     0
281
     0
  0
CLASS
  1
AMGOBJPROPCFG
  2
AmgObjPropCfg
  3
"AmgLay|Product Description: AutoCAD Mechanical 2000|Company: Autodesk"
 90
        1
280
     0
281
     0
  0
CLASS
  1
ACAMGFILTERDAT
  2
AcAmgFilterDat
  3
"AcadM|Product Description: AutoCAD Mechanical 2000|Company: Autodesk"
 90
        0
280
     0
281
     0
  0
CLASS
  1
LAYER_INDEX
  2
AcDbLayerIndex
  3
AutoCAD 2000
 90
        0
280
     0
281
     0
  0
CLASS
  1
IDBUFFER
  2
AcDbIdBuffer
  3
AutoCAD 2000
 90
        0
280
     0
281
     0
  0
CLASS
  1
ACIMSTRSYSVAR
  2
AcImStrSysVar
  3
AcMeServices
 90
        0
280
     0
281
     0
  0
CLASS
  1
ACMSTANDARDJIS
  2
AcmStandardJIS
  3
"AcmSymBB|Product Description: AutoCAD Mechanical 2000|Company: Autodesk"
 90
        0
280
     0
281
     0
  0
CLASS
  1
ACMSURFSTANDARDJIS
  2
AcmSurfTextStdJIS
  3
"AcmSymBB|Product Description: AutoCAD Mechanical 2000|Company: Autodesk"
 90
        0
280
     0
281
     0
  0
CLASS
  1
ACMFCFSTANDARDJIS
  2
AcmFCFStdJIS
  3
"AcmSymBB|Product Description: AutoCAD Mechanical 2000|Company: Autodesk"
 90
        0
280
     0
281
     0
  0
CLASS
  1
ACMWELDSTANDARDJIS
  2
AcmWeldingStdJIS
  3
"AcmSymBB|Product Description: AutoCAD Mechanical 2000|Company: Autodesk"
 90
        0
280
     0
281
     0
  0
CLASS
  1
ACMIDSTANDARDJIS
  2
AcmIdStdJIS
  3
"AcmSymBB|Product Description: AutoCAD Mechanical 2000|Company: Autodesk"
 90
        0
280
     0
281
     0
  0
CLASS
  1
ACMDATUMSTANDARDJIS
  2
AcmDatumStdJIS
  3
"AcmSymBB|Product Description: AutoCAD Mechanical 2000|Company: Autodesk"
 90
        0
280
     0
281
     0
  0
CLASS
  1
ACMBOMSTANDARDJIS
  2
AcmBOMStdJIS
  3
"AcmSymBB|Product Description: AutoCAD Mechanical 2000|Company: Autodesk"
 90
        0
280
     0
281
     0
  0
CLASS
  1
ACMSTANDARDANSI
  2
AcmStandardANSI
  3
"AcmSymBB|Product Description: AutoCAD Mechanical 2000|Company: Autodesk"
 90
        0
280
     0
281
     0
  0
CLASS
  1
ACMSURFSTANDARDANSI
  2
AcmSurfTextStdANSI
  3
"AcmSymBB|Product Description: AutoCAD Mechanical 2000|Company: Autodesk"
 90
        0
280
     0
281
     0
  0
CLASS
  1
ACMFCFSTANDARDANSI
  2
AcmFCFStdANSI
  3
"AcmSymBB|Product Description: AutoCAD Mechanical 2000|Company: Autodesk"
 90
        0
280
     0
281
     0
  0
CLASS
  1
ACMWELDSTANDARDANSI
  2
AcmWeldingStdANSI
  3
"AcmSymBB|Product Description: AutoCAD Mechanical 2000|Company: Autodesk"
 90
        0
280
     0
281
     0
  0
CLASS
  1
ACMIDSTANDARDANSI
  2
AcmIdStdANSI
  3
"AcmSymBB|Product Description: AutoCAD Mechanical 2000|Company: Autodesk"
 90
        0
280
     0
281
     0
  0
CLASS
  1
ACMDATUMSTANDARDANSI
  2
AcmDatumStdANSI
  3
"AcmSymBB|Product Description: AutoCAD Mechanical 2000|Company: Autodesk"
 90
        0
280
     0
281
     0
  0
CLASS
  1
ACMBOMSTANDARDANSI
  2
AcmBOMStdANSI
  3
"AcmSymBB|Product Description: AutoCAD Mechanical 2000|Company: Autodesk"
 90
        0
280
     0
281
     0
  0
CLASS
  1
ACMSTANDARDBSI
  2
AcmStandardBSI
  3
"AcmSymBB|Product Description: AutoCAD Mechanical 2000|Company: Autodesk"
 90
        0
280
     0
281
     0
  0
CLASS
  1
ACMSURFSTANDARDBSI
  2
AcmSurfTextStdBSI
  3
"AcmSymBB|Product Description: AutoCAD Mechanical 2000|Company: Autodesk"
 90
        0
280
     0
281
     0
  0
CLASS
  1
ACMFCFSTANDARDBSI
  2
AcmFCFStdBSI
  3
"AcmSymBB|Product Description: AutoCAD Mechanical 2000|Company: Autodesk"
 90
        0
280
     0
281
     0
  0
CLASS
  1
ACMWELDSTANDARDBSI
  2
AcmWeldingStdBSI
  3
"AcmSymBB|Product Description: AutoCAD Mechanical 2000|Company: Autodesk"
 90
        0
280
     0
281
     0
  0
CLASS
  1
ACMIDSTANDARDBSI
  2
AcmIdStdBSI
  3
"AcmSymBB|Product Description: AutoCAD Mechanical 2000|Company: Autodesk"
 90
        0
280
     0
281
     0
  0
CLASS
  1
ACMDATUMSTANDARDBSI
  2
AcmDatumStdBSI
  3
"AcmSymBB|Product Description: AutoCAD Mechanical 2000|Company: Autodesk"
 90
        0
280
     0
281
     0
  0
CLASS
  1
ACMBOMSTANDARDBSI
  2
AcmBOMStdBSI
  3
"AcmSymBB|Product Description: AutoCAD Mechanical 2000|Company: Autodesk"
 90
        0
280
     0
281
     0
  0
CLASS
  1
LONG_TRANSACTION
  2
AcDbLongTransaction
  3
AutoCAD 2000
 90
        0
280
     0
281
     0
  0
CLASS
  1
LWPOLYLINE
  2
AcDbPolyline
  3
AutoCAD 2000
 90
        0
280
     0
281
     1
  0
CLASS
  1
HATCH
  2
AcDbHatch
  3
AutoCAD 2000
 90
        0
280
     0
281
     1
  0
CLASS
  1
XRECORD
  2
AcDbXrecord
  3
AutoCAD 2000
 90
        0
280
     0
281
     0
  0
ENDSEC
  0
SECTION
  2
TABLES
  0
TABLE
  2
VPORT
  5
8
330
0
100
AcDbSymbolTable
 70
     3
  0
VPORT
  5
1BBE
330
8
100
AcDbSymbolTableRecord
100
AcDbViewportTableRecord
  2
*ACTIVE
 70
     0
 10
0.0
 20
0.0
 11
1.0
 21
1.0
 12
-36.04286847704393
 22
-11.79521133842925
 13
0.0
 23
0.0
 14
2.5
 24
2.5
 15
10.0
 25
10.0
 16
0.0
 26
0.0
 36
1.0
 17
0.0
 27
0.0
 37
0.0
 40
61.69267282793581
 41
1.56570841889117
 42
50.0
 43
0.0
 44
0.0
 50
0.0
 51
0.0
 71
     0
 72
   100
 73
     1
 74
     3
 75
     0
 76
     0
 77
     0
 78
     0
  0
ENDTAB
  0
TABLE
  2
LTYPE
  5
5
330
0
100
AcDbSymbolTable
 70
    10
  0
LTYPE
  5
14
330
5
100
AcDbSymbolTableRecord
100
AcDbLinetypeTableRecord
  2
BYBLOCK
 70
     0
  3

 72
    65
 73
     0
 40
0.0
  0
LTYPE
  5
15
330
5
100
AcDbSymbolTableRecord
100
AcDbLinetypeTableRecord
  2
BYLAYER
 70
     0
  3

 72
    65
 73
     0
 40
0.0
  0
LTYPE
  5
16
330
5
100
AcDbSymbolTableRecord
100
AcDbLinetypeTableRecord
  2
CONTINUOUS
 70
     0
  3
Solid line
 72
    65
 73
     0
 40
0.0
  0
LTYPE
  5
4B
330
5
100
AcDbSymbolTableRecord
100
AcDbLinetypeTableRecord
  2
AM_ISO02W050
 70
     0
  3
__ __ __ __ __ __ __ __ __ __ __ __ __ __ __
 72
    65
 73
     2
 40
7.5
 49
6.0
 74
     0
 49
-1.5
 74
     0
  0
LTYPE
  5
4C
330
5
100
AcDbSymbolTableRecord
100
AcDbLinetypeTableRecord
  2
AM_ISO08W050
 70
     0
  3
____ . ____ . ____ . ____ . ____ . ____ . ____
 72
    65
 73
     4
 40
18.0
 49
12.0
 74
     0
 49
-1.5
 74
     0
 49
3.0
 74
     0
 49
-1.5
 74
     0
  0
LTYPE
  5
4D
330
5
100
AcDbSymbolTableRecord
100
AcDbLinetypeTableRecord
  2
AM_ISO09W050
 70
     0
  3
_____ . . _____ . . _____ . . ____ .. ____
 72
    65
 73
     6
 40
22.5
 49
12.0
 74
     0
 49
-1.5
 74
     0
 49
3.0
 74
     0
 49
-1.5
 74
     0
 49
3.0
 74
     0
 49
-1.5
 74
     0
  0
LTYPE
  5
4E
330
5
100
AcDbSymbolTableRecord
100
AcDbLinetypeTableRecord
  2
AMCONSTR
 70
     0
  3
_______________________
 72
    65
 73
     2
 40
9999.0
 49
9999.0
 74
     0
 49
0.0
 74
     0
  0
LTYPE
  5
4F
330
5
100
AcDbSymbolTableRecord
100
AcDbLinetypeTableRecord
  2
AM_ISO02W050X2
 70
     0
  3
 _ _ _ _ _ _ _ _ _ _ _ _
 72
    65
 73
     2
 40
3.75
 49
3.0
 74
     0
 49
-0.75
 74
     0
  0
LTYPE
  5
50
330
5
100
AcDbSymbolTableRecord
100
AcDbLinetypeTableRecord
  2
AM_ISO08W050X2
 70
     0
  3
__ . __ . __ . __ . __ . __
 72
    65
 73
     4
 40
9.0
 49
6.0
 74
     0
 49
-0.75
 74
     0
 49
1.5
 74
     0
 49
-0.75
 74
     0
  0
LTYPE
  5
53
330
5
100
AcDbSymbolTableRecord
100
AcDbLinetypeTableRecord
  2
AMZIGZAG
 70
     0
  3
/\/-/\/-/\/-/\/-/\/-/\/
 72
    65
 73
     2
 40
11.00009999999999
 49
0.0001
 74
     4
 75
   135
340
52
 46
0.04
 50
0.0
 44
0.0
 45
0.0
 49
-11.0
 74
     0
  0
LTYPE
  5
166
330
5
100
AcDbSymbolTableRecord
100
AcDbLinetypeTableRecord
  2
ACJISTGL
 70
     0
  3
_ _ _ _ _
 72
    65
 73
     2
 40
3.0
 49
2.0
 74
     0
 49
-1.0
 74
     0
  0
LTYPE
  5
26A
330
5
100
AcDbSymbolTableRecord
100
AcDbLinetypeTableRecord
  2
ACJISTGB
 70
     0
  3
__ . . __ . .
 72
    65
 73
     6
 40
9.0
 49
4.0
 74
     0
 49
-1.0
 74
     0
 49
1.0
 74
     0
 49
-1.0
 74
     0
 49
1.0
 74
     0
 49
-1.0
 74
     0
  0
ENDTAB
  0
TABLE
  2
LAYER
  5
2
330
0
100
AcDbSymbolTable
 70
     7
  0
LAYER
  5
10
330
2
100
AcDbSymbolTableRecord
100
AcDbLayerTableRecord
  2
0
 70
     0
 62
     7
  6
CONTINUOUS
  0
LAYER
  5
3F9
330
2
100
AcDbSymbolTableRecord
100
AcDbLayerTableRecord
  2
AM_0
 70
     0
 62
     7
  6
CONTINUOUS
  0
LAYER
  5
BD4
330
2
100
AcDbSymbolTableRecord
100
AcDbLayerTableRecord
  2
AM_11
 70
     0
 62
     3
  6
AM_ISO09W050
  0
LAYER
  5
BD5
330
2
100
AcDbSymbolTableRecord
100
AcDbLayerTableRecord
  2
AM_7
 70
     0
 62
     4
  6
AM_ISO08W050
  0
LAYER
  5
BD6
330
2
100
AcDbSymbolTableRecord
100
AcDbLayerTableRecord
  2
AM_5
 70
     0
 62
     3
  6
CONTINUOUS
  0
LAYER
  5
BD7
330
2
100
AcDbSymbolTableRecord
100
AcDbLayerTableRecord
  2
DEFPOINTS
 70
     0
 62
     7
  6
CONTINUOUS
  0
LAYER
  5
E59
330
2
100
AcDbSymbolTableRecord
100
AcDbLayerTableRecord
  2
AM_6
 70
     0
 62
     2
  6
CONTINUOUS
  0
ENDTAB
  0
TABLE
  2
STYLE
  5
3
330
0
100
AcDbSymbolTable
 70
     5
  0
STYLE
  5
11
330
3
100
AcDbSymbolTableRecord
100
AcDbTextStyleTableRecord
  2
STANDARD
 70
     0
 40
0.0
 41
1.0
 50
0.0
 71
     0
 42
2.5
  3
simplex.shx
  4
EXTFONT.SHX
  0
STYLE
  5
52
330
3
100
AcDbSymbolTableRecord
100
AcDbTextStyleTableRecord
  2

 70
     1
 40
0.0
 41
1.0
 50
0.0
 71
     0
 42
2.5
  3
ltypeshp.shx
  4

  0
STYLE
  5
6B
330
3
100
AcDbSymbolTableRecord
100
AcDbTextStyleTableRecord
  2
ASAMI
 70
     0
 40
0.0
 41
1.0
 50
0.0
 71
     0
 42
2.5
  3
simplex.shx
  4
EXTFONT.SHX
  0
STYLE
  5
262
330
3
100
AcDbSymbolTableRecord
100
AcDbTextStyleTableRecord
  2
ACJISTS
 70
     0
 40
1.0
 41
1.0
 50
0.0
 71
     0
 42
2.5
  3
simplex.shx
  4
bigfont.shx
  0
STYLE
  5
269
330
3
100
AcDbSymbolTableRecord
100
AcDbTextStyleTableRecord
  2
ACJISGDT
 70
     0
 40
0.0
 41
1.0
 50
0.0
 71
     0
 42
2.5
  3
amgdtans.shx
  4

  0
ENDTAB
  0
TABLE
  2
VIEW
  5
6
330
0
100
AcDbSymbolTable
 70
     0
  0
ENDTAB
  0
TABLE
  2
UCS
  5
7
330
0
100
AcDbSymbolTable
 70
     0
  0
ENDTAB
  0
TABLE
  2
APPID
  5
9
330
0
100
AcDbSymbolTable
 70
    12
  0
APPID
  5
12
330
9
100
AcDbSymbolTableRecord
100
AcDbRegAppTableRecord
  2
ACAD
 70
     0
  0
APPID
  5
30
330
9
100
AcDbSymbolTableRecord
100
AcDbRegAppTableRecord
  2
MCAD_NO_VIS
 70
     0
  0
APPID
  5
31
330
9
100
AcDbSymbolTableRecord
100
AcDbRegAppTableRecord
  2
ACAD_TEMP_GRAPHIC
 70
     0
  0
APPID
  5
2C2
330
9
100
AcDbSymbolTableRecord
100
AcDbRegAppTableRecord
  2
GENIUS_GENDTOL_13
 70
     0
  0
APPID
  5
339
330
9
100
AcDbSymbolTableRecord
100
AcDbRegAppTableRecord
  2
GENIUS_GENODEF_13
 70
     0
  0
APPID
  5
33A
330
9
100
AcDbSymbolTableRecord
100
AcDbRegAppTableRecord
  2
GENIUS_GENOBJ-N-RSBK_13
 70
     0
  0
APPID
  5
33B
330
9
100
AcDbSymbolTableRecord
100
AcDbRegAppTableRecord
  2
GENIUS_GENOBJ-N-LIB_13
 70
     0
  0
APPID
  5
33C
330
9
100
AcDbSymbolTableRecord
100
AcDbRegAppTableRecord
  2
GENIUS_GENSCALE_13
 70
     0
  0
APPID
  5
378
330
9
100
AcDbSymbolTableRecord
100
AcDbRegAppTableRecord
  2
GENIUS_GENDIMSH_14
 70
     0
  0
APPID
  5
BD8
330
9
100
AcDbSymbolTableRecord
100
AcDbRegAppTableRecord
  2
GENIUS_GENOBJ-N-CEN_13
 70
     0
  0
APPID
  5
BD9
330
9
100
AcDbSymbolTableRecord
100
AcDbRegAppTableRecord
  2
GENIUS_GENFIL_13
 70
     0
  0
APPID
  5
BDA
330
9
100
AcDbSymbolTableRecord
100
AcDbRegAppTableRecord
  2
GENIUS_GENOBJ-N-CHA_13
 70
     0
  0
ENDTAB
  0
TABLE
  2
DIMSTYLE
  5
A
330
0
100
AcDbSymbolTable
 70
     8
  0
DIMSTYLE
105
58
102
{ACAD_REACTORS
330
D71
330
D7A
330
EB4
330
DA6
102
}
330
A
100
AcDbSymbolTableRecord
100
AcDbDimStyleTableRecord
  2
AM_JIS
 70
     0
  3

  4
"
  5
OPEN30
  6

  7

 40
0.5
 41
2.5
 42
1.0
 43
12.0
 44
1.0
 45
0.0
 46
0.0
 47
0.1
 48
0.1
140
3.2
141
0.0
142
0.0
143
0.0393701
144
1.0
145
0.0
146
0.71
147
1.5
 71
     0
 72
     0
 73
     0
 74
     0
 75
     0
 76
     0
 77
     3
 78
     8
170
     0
171
     2
172
     1
173
     0
174
     0
175
     0
176
   256
177
   256
178
     2
270
     2
271
     3
272
     3
273
     2
274
     2
340
6B
275
     0
280
     0
281
     0
282
     0
283
     0
284
     0
285
     0
286
     0
287
     3
288
     0
  0
DIMSTYLE
105
5F
330
A
100
AcDbSymbolTableRecord
100
AcDbDimStyleTableRecord
  2
AM_JIS$3
 70
     0
  3

  4
"
  5
OPEN30
  6

  7

 40
0.5
 41
2.5
 42
1.0
 43
10.0
 44
1.0
 45
0.0
 46
0.0
 47
0.1
 48
0.1
140
3.2
141
0.0
142
0.0
143
0.0393701
144
1.0
145
0.0
146
0.71
147
1.5
 71
     0
 72
     0
 73
     0
 74
     1
 75
     0
 76
     0
 77
     3
 78
     8
170
     0
171
     2
172
     0
173
     0
174
     0
175
     0
176
   256
177
   256
178
     2
270
     2
271
     2
272
     3
273
     2
274
     2
340
6B
275
     0
280
     0
281
     0
282
     0
283
     0
284
     0
285
     0
286
     0
287
     0
288
     1
  0
DIMSTYLE
105
60
330
A
100
AcDbSymbolTableRecord
100
AcDbDimStyleTableRecord
  2
AM_JIS$4
 70
     0
  3

  4
"
  5
OPEN30
  6

  7

 40
0.5
 41
2.5
 42
1.0
 43
10.0
 44
1.0
 45
0.0
 46
0.0
 47
0.1
 48
0.1
140
3.2
141
0.0
142
0.0
143
0.0393701
144
1.0
145
0.0
146
0.71
147
1.5
 71
     0
 72
     0
 73
     0
 74
     1
 75
     0
 76
     0
 77
     3
 78
     8
170
     0
171
     2
172
     0
173
     0
174
     0
175
     0
176
   256
177
   256
178
     2
270
     2
271
     2
272
     3
273
     2
274
     2
340
6B
275
     0
280
     0
281
     0
282
     0
283
     0
284
     0
285
     0
286
     0
287
     0
288
     1
  0
DIMSTYLE
105
61
330
A
100
AcDbSymbolTableRecord
100
AcDbDimStyleTableRecord
  2
AM_JIS$6
 70
     0
  3

  4
"
  5
OPEN30
  6

  7

 40
0.5
 41
2.5
 42
1.0
 43
10.0
 44
1.0
 45
0.0
 46
0.0
 47
0.1
 48
0.1
140
3.2
141
0.0
142
0.0
143
0.0393701
144
1.0
145
0.0
146
0.71
147
1.5
 71
     0
 72
     0
 73
     0
 74
     0
 75
     0
 76
     0
 77
     0
 78
     8
170
     0
171
     2
172
     1
173
     0
174
     0
175
     0
176
   256
177
   256
178
     2
270
     2
271
     2
272
     2
273
     2
274
     2
340
6B
275
     0
280
     0
281
     0
282
     0
283
     0
284
     0
285
     0
286
     0
287
     3
288
     0
  0
DIMSTYLE
105
62
330
A
100
AcDbSymbolTableRecord
100
AcDbDimStyleTableRecord
  2
AM_JIS$7
 70
     0
  3

  4
"
  5
OPEN30
  6

  7

 40
0.5
 41
2.5
 42
1.0
 43
10.0
 44
1.0
 45
0.0
 46
0.0
 47
0.1
 48
0.1
140
3.2
141
0.0
142
0.0
143
0.0393701
144
1.0
145
0.0
146
0.71
147
1.5
 71
     0
 72
     0
 73
     0
 74
     0
 75
     0
 76
     0
 77
     3
 78
     8
170
     0
171
     2
172
     1
173
     0
174
     0
175
     0
176
   256
177
   256
178
     2
270
     2
271
     2
272
     3
273
     2
274
     2
340
6B
275
     0
280
     0
281
     0
282
     0
283
     0
284
     0
285
     0
286
     0
287
     3
288
     0
  0
DIMSTYLE
105
63
330
A
100
AcDbSymbolTableRecord
100
AcDbDimStyleTableRecord
  2
AM_JIS$SF
 70
     0
  3

  4
"
  5
OPEN30
  6

  7

 40
0.5
 41
2.5
 42
1.0
 43
10.0
 44
1.0
 45
0.0
 46
0.0
 47
0.1
 48
0.1
140
3.2
141
0.0
142
0.0
143
0.0393701
144
1.0
145
0.0
146
0.71
147
1.5
 71
     0
 72
     0
 73
     0
 74
     0
 75
     1
 76
     1
 77
     3
 78
     8
170
     0
171
     2
172
     1
173
     0
174
     0
175
     0
176
   256
177
   256
178
     2
270
     2
271
     2
272
     2
273
     2
274
     2
340
6B
275
     0
280
     0
281
     0
282
     0
283
     0
284
     0
285
     0
286
     0
287
     3
288
     0
  0
DIMSTYLE
105
68
330
A
100
AcDbSymbolTableRecord
100
AcDbDimStyleTableRecord
  2
AM_JIS$SH
 70
     0
  3

  4
"
  5

  6
GENAXEH
  7
OPEN30
 40
0.5
 41
2.5
 42
1.0
 43
10.0
 44
1.0
 45
0.0
 46
0.0
 47
0.1
 48
0.1
140
3.2
141
0.0
142
0.0
143
0.0393701
144
2.0
145
0.0
146
0.71
147
1.5
 71
     0
 72
     0
 73
     0
 74
     0
 75
     1
 76
     1
 77
     3
 78
     8
170
     0
171
     2
172
     1
173
     1
174
     0
175
     0
176
   256
177
   256
178
     2
270
     2
271
     2
272
     2
273
     2
274
     2
340
6B
275
     0
280
     0
281
     0
282
     0
283
     0
284
     0
285
     0
286
     0
287
     3
288
     0
  0
DIMSTYLE
105
B34
330
A
100
AcDbSymbolTableRecord
100
AcDbDimStyleTableRecord
  2
AM_JIS$2
 70
     0
  3

  4
"
  5
OPEN30
  6

  7

 40
0.5
 41
2.5
 42
1.0
 43
12.0
 44
1.0
 45
0.0
 46
0.0
 47
0.1
 48
0.1
140
3.2
141
0.0
142
0.0
143
0.0393701
144
1.0
145
0.0
146
0.71
147
1.5
 71
     0
 72
     0
 73
     0
 74
     0
 75
     0
 76
     0
 77
     3
 78
     8
170
     0
171
     2
172
     1
173
     0
174
     0
175
     0
176
   256
177
   256
178
     2
270
     2
271
     3
272
     3
273
     2
274
     2
340
6B
275
     0
280
     0
281
     0
282
     0
283
     0
284
     0
285
     0
286
     0
287
     3
288
     0
  0
ENDTAB
  0
TABLE
  2
BLOCK_RECORD
  5
1
330
0
100
AcDbSymbolTable
 70
     9
  0
BLOCK_RECORD
  5
1F
102
{ACAD_XDICTIONARY
360
74
102
}
330
1
100
AcDbSymbolTableRecord
100
AcDbBlockTableRecord
  2
*MODEL_SPACE
  0
BLOCK_RECORD
  5
101
102
{ACAD_XDICTIONARY
360
1BE7
102
}
330
1
100
AcDbSymbolTableRecord
100
AcDbBlockTableRecord
  2
*PAPER_SPACE
  0
BLOCK_RECORD
  5
59
330
1
100
AcDbSymbolTableRecord
100
AcDbBlockTableRecord
  2
_OPEN30
  0
BLOCK_RECORD
  5
64
330
1
100
AcDbSymbolTableRecord
100
AcDbBlockTableRecord
  2
GENAXEH
  0
BLOCK_RECORD
  5
DDA
330
1
100
AcDbSymbolTableRecord
100
AcDbBlockTableRecord
  2
*D5
  0
BLOCK_RECORD
  5
DF3
330
1
100
AcDbSymbolTableRecord
100
AcDbBlockTableRecord
  2
*D6
  0
BLOCK_RECORD
  5
DFF
330
1
100
AcDbSymbolTableRecord
100
AcDbBlockTableRecord
  2
*D7
  0
BLOCK_RECORD
  5
EB5
330
1
100
AcDbSymbolTableRecord
100
AcDbBlockTableRecord
  2
*D8
  0
ENDTAB
  0
ENDSEC
  0
SECTION
  2
BLOCKS
  0
BLOCK
  5
20
330
1F
100
AcDbEntity
  8
0
100
AcDbBlockBegin
  2
*MODEL_SPACE
 70
     0
 10
0.0
 20
0.0
 30
0.0
  3
*MODEL_SPACE
  1

  0
ENDBLK
  5
21
330
1F
100
AcDbEntity
  8
0
100
AcDbBlockEnd
  0
BLOCK
  5
103
330
101
100
AcDbEntity
 67
     1
  8
0
100
AcDbBlockBegin
  2
*PAPER_SPACE
 70
     0
 10
0.0
 20
0.0
 30
0.0
  3
*PAPER_SPACE
  1

  0
ENDBLK
  5
104
330
101
100
AcDbEntity
 67
     1
  8
0
100
AcDbBlockEnd
  0
BLOCK
  5
5D
330
59
100
AcDbEntity
  8
0
100
AcDbBlockBegin
  2
_OPEN30
 70
     0
 10
0.0
 20
0.0
 30
0.0
  3
_OPEN30
  1

  0
LINE
  5
5A
330
59
100
AcDbEntity
  8
0
 62
     0
100
AcDbLine
 10
-1.0
 20
0.26794919
 30
0.0
 11
0.0
 21
0.0
 31
0.0
  0
LINE
  5
5B
330
59
100
AcDbEntity
  8
0
 62
     0
100
AcDbLine
 10
0.0
 20
0.0
 30
0.0
 11
-1.0
 21
-0.26794919
 31
0.0
  0
LINE
  5
5C
330
59
100
AcDbEntity
  8
0
 62
     0
100
AcDbLine
 10
0.0
 20
0.0
 30
0.0
 11
-1.0
 21
0.0
 31
0.0
  0
ENDBLK
  5
5E
330
59
100
AcDbEntity
  8
0
100
AcDbBlockEnd
  0
BLOCK
  5
66
330
64
100
AcDbEntity
  8
0
100
AcDbBlockBegin
  2
GENAXEH
 70
     0
 10
0.0
 20
0.0
 30
0.0
  3
GENAXEH
  1

  0
LINE
  5
65
330
64
100
AcDbEntity
  8
0
100
AcDbLine
 10
-1.0
 20
0.0
 30
0.0
 11
1.0
 21
0.0
 31
0.0
  0
ENDBLK
  5
67
330
64
100
AcDbEntity
  8
0
100
AcDbBlockEnd
  0
BLOCK
  5
DE4
330
DDA
100
AcDbEntity
  8
0
100
AcDbBlockBegin
  2
*D5
 70
     1
 10
0.0
 20
0.0
 30
0.0
  3
*D5
  1

  0
LINE
  5
1585
330
DDA
100
AcDbEntity
  8
AM_5
100
AcDbLine
 10
-0.0000000000000029
 20
-6.5000000000005
 30
0.0
 11
-0.0000000000000037
 21
-19.50000100999994
 31
0.0
  0
LINE
  5
1586
330
DDA
100
AcDbEntity
  8
AM_5
100
AcDbLine
 10
-70.0
 20
-5.500000000000003
 30
0.0
 11
-70.0
 21
-19.50000100999994
 31
0.0
  0
LINE
  5
1587
330
DDA
100
AcDbEntity
  8
AM_5
100
AcDbLine
 10
-1.250000000000003
 20
-19.00000100999994
 30
0.0
 11
-68.75
 21
-19.00000100999994
 31
0.0
  0
INSERT
  5
1588
330
DDA
100
AcDbEntity
  8
AM_5
100
AcDbBlockReference
  2
_OPEN30
 10
-0.0000000000000036
 20
-19.00000100999994
 30
0.0
 41
1.25
 42
1.25
 43
1.25
  0
INSERT
  5
1589
330
DDA
100
AcDbEntity
  8
AM_5
100
AcDbBlockReference
  2
_OPEN30
 10
-70.0
 20
-19.00000100999994
 30
0.0
 41
1.25
 42
1.25
 43
1.25
 50
180.0
  0
MTEXT
  5
158A
330
DDA
100
AcDbEntity
  8
AM_5
 62
     2
100
AcDbMText
 10
-35.0
 20
-17.45000100999994
 30
0.0
 40
1.6
 41
0.0
 71
     5
 72
     1
  1
70
  7
ASAMI
1001
ACAD
1000
MTEXTBEGIN
1070
    73
1070
     1
1070
    44
1040
1.0
1070
    74
1070
     0
1000
MTEXTEND
  0
POINT
  5
158B
330
DDA
100
AcDbEntity
  8
DEFPOINTS
 62
     0
100
AcDbPoint
 10
-0.0000000000000028
 20
-6.0000000000005
 30
0.0
  0
POINT
  5
158C
330
DDA
100
AcDbEntity
  8
DEFPOINTS
 62
     0
100
AcDbPoint
 10
-70.0
 20
-5.000000000000003
 30
0.0
  0
POINT
  5
158D
330
DDA
100
AcDbEntity
  8
DEFPOINTS
 62
     0
100
AcDbPoint
 10
-70.0
 20
-19.00000100999994
 30
0.0
  0
ENDBLK
  5
DE5
330
DDA
100
AcDbEntity
  8
0
100
AcDbBlockEnd
  0
BLOCK
  5
DFD
330
DF3
100
AcDbEntity
  8
0
100
AcDbBlockBegin
  2
*D6
 70
     1
 10
0.0
 20
0.0
 30
0.0
  3
*D6
  1

  0
LINE
  5
1A7C
330
DF3
100
AcDbEntity
  8
AM_5
100
AcDbLine
 10
-18.00000000000022
 20
-6.00000000000001
 30
0.0
 11
-18.00000000000022
 21
-13.50000100999994
 31
0.0
  0
LINE
  5
1A7D
330
DF3
100
AcDbEntity
  8
AM_5
100
AcDbLine
 10
-0.0000000000000031
 20
-6.000000000000539
 30
0.0
 11
-0.0000000000000035
 21
-13.50000100999994
 31
0.0
  0
LINE
  5
1A7E
330
DF3
100
AcDbEntity
  8
AM_5
100
AcDbLine
 10
-16.75000000000022
 20
-13.00000100999994
 30
0.0
 11
-1.250000000000003
 21
-13.00000100999994
 31
0.0
  0
INSERT
  5
1A7F
330
DF3
100
AcDbEntity
  8
AM_5
100
AcDbBlockReference
  2
_OPEN30
 10
-18.00000000000022
 20
-13.00000100999994
 30
0.0
 41
1.25
 42
1.25
 43
1.25
 50
180.0
  0
INSERT
  5
1A80
330
DF3
100
AcDbEntity
  8
AM_5
100
AcDbBlockReference
  2
_OPEN30
 10
-0.0000000000000035
 20
-13.00000100999994
 30
0.0
 41
1.25
 42
1.25
 43
1.25
  0
MTEXT
  5
1A81
330
DF3
100
AcDbEntity
  8
AM_5
 62
     2
100
AcDbMText
 10
-9.000000000000115
 20
-11.45000100999994
 30
0.0
 40
1.6
 41
0.0
 71
     5
 72
     1
  1
18
  7
ASAMI
1001
ACAD
1000
MTEXTBEGIN
1070
    73
1070
     1
1070
    44
1040
1.0
1070
    74
1070
     0
1000
MTEXTEND
  0
POINT
  5
1A82
330
DF3
100
AcDbEntity
  8
DEFPOINTS
 62
     0
100
AcDbPoint
 10
-18.00000000000022
 20
-5.50000000000001
 30
0.0
  0
POINT
  5
1A83
330
DF3
100
AcDbEntity
  8
DEFPOINTS
 62
     0
100
AcDbPoint
 10
-0.000000000000003
 20
-5.500000000000539
 30
0.0
  0
POINT
  5
1A84
330
DF3
100
AcDbEntity
  8
DEFPOINTS
 62
     0
100
AcDbPoint
 10
-0.0000000000000035
 20
-13.00000100999994
 30
0.0
  0
ENDBLK
  5
DFE
330
DF3
100
AcDbEntity
  8
0
100
AcDbBlockEnd
  0
BLOCK
  5
E0A
330
DFF
100
AcDbEntity
  8
0
100
AcDbBlockBegin
  2
*D7
 70
     1
 10
0.0
 20
0.0
 30
0.0
  3
*D7
  1

  0
LINE
  5
1A85
330
DFF
100
AcDbEntity
  8
AM_5
100
AcDbLine
 10
0.4999999999999963
 20
5.500000000000003
 30
0.0
 11
12.05776903085493
 21
5.5
 31
0.0
  0
LINE
  5
1A86
330
DFF
100
AcDbEntity
  8
AM_5
100
AcDbLine
 10
0.4999999999999963
 20
-5.500000000000537
 30
0.0
 11
12.05776903085492
 21
-5.50000000000054
 31
0.0
  0
LINE
  5
1A87
330
DFF
100
AcDbEntity
  8
AM_5
100
AcDbLine
 10
11.55776903085492
 20
4.25
 30
0.0
 11
11.55776903085492
 21
-4.25000000000054
 31
0.0
  0
INSERT
  5
1A88
330
DFF
100
AcDbEntity
  8
AM_5
100
AcDbBlockReference
  2
_OPEN30
 10
11.55776903085492
 20
5.5
 30
0.0
 41
1.25
 42
1.25
 43
1.25
 50
90.0
  0
INSERT
  5
1A89
330
DFF
100
AcDbEntity
  8
AM_5
100
AcDbBlockReference
  2
_OPEN30
 10
11.55776903085492
 20
-5.50000000000054
 30
0.0
 41
1.25
 42
1.25
 43
1.25
 50
270.0
  0
MTEXT
  5
1A8A
330
DFF
100
AcDbEntity
  8
AM_5
 62
     2
100
AcDbMText
 10
10.00776903085492
 20
-0.0000000000002683
 30
0.0
 40
1.6
 41
0.0
 71
     5
 72
     1
  1
%%c11
  7
ASAMI
 11
0.0000000000000001
 21
1.0
 31
0.0
1001
ACAD
1000
MTEXTBEGIN
1070
    73
1070
     1
1070
    44
1040
1.0
1070
    74
1070
     0
1000
MTEXTEND
  0
POINT
  5
1A8B
330
DFF
100
AcDbEntity
  8
DEFPOINTS
 62
     0
100
AcDbPoint
 10
-0.0000000000000037
 20
5.500000000000003
 30
0.0
  0
POINT
  5
1A8C
330
DFF
100
AcDbEntity
  8
DEFPOINTS
 62
     0
100
AcDbPoint
 10
-0.0000000000000037
 20
-5.500000000000537
 30
0.0
  0
POINT
  5
1A8D
330
DFF
100
AcDbEntity
  8
DEFPOINTS
 62
     0
100
AcDbPoint
 10
11.55776903085492
 20
-5.50000000000054
 30
0.0
  0
ENDBLK
  5
E0B
330
DFF
100
AcDbEntity
  8
0
100
AcDbBlockEnd
  0
BLOCK
  5
EBF
330
EB5
100
AcDbEntity
  8
0
100
AcDbBlockBegin
  2
*D8
 70
     1
 10
0.0
 20
0.0
 30
0.0
  3
*D8
  1

  0
LINE
  5
EE9
330
EB5
100
AcDbEntity
  8
AM_5
100
AcDbLine
 10
-69.50000000000001
 20
5.999999999999998
 30
0.0
 11
-82.29349790496838
 21
6.000000000000002
 31
0.0
  0
LINE
  5
EEA
330
EB5
100
AcDbEntity
  8
AM_5
100
AcDbLine
 10
-69.5
 20
-6.000000000000001
 30
0.0
 11
-82.29349790496838
 21
-5.999999999999997
 31
0.0
  0
LINE
  5
EEB
330
EB5
100
AcDbEntity
  8
AM_5
100
AcDbLine
 10
-81.79349790496837
 20
4.750000000000001
 30
0.0
 11
-81.79349790496837
 21
-4.749999999999998
 31
0.0
  0
INSERT
  5
EEC
330
EB5
100
AcDbEntity
  8
AM_5
100
AcDbBlockReference
  2
_OPEN30
 10
-81.79349790496837
 20
6.000000000000001
 30
0.0
 41
1.25
 42
1.25
 43
1.25
 50
90.0
  0
INSERT
  5
EED
330
EB5
100
AcDbEntity
  8
AM_5
100
AcDbBlockReference
  2
_OPEN30
 10
-81.79349790496837
 20
-5.999999999999998
 30
0.0
 41
1.25
 42
1.25
 43
1.25
 50
270.0
  0
MTEXT
  5
EEE
330
EB5
100
AcDbEntity
  8
AM_5
 62
     2
100
AcDbMText
 10
-83.34349790496837
 20
-0.0000000000000108
 30
0.0
 40
1.6
 41
0.0
 71
     5
 72
     1
  1
%%c12
  7
ASAMI
 11
0.0000000000000001
 21
1.0
 31
0.0
1001
ACAD
1000
MTEXTBEGIN
1070
    73
1070
     1
1070
    44
1040
1.0
1070
    74
1070
     0
1000
MTEXTEND
  0
POINT
  5
EEF
330
EB5
100
AcDbEntity
  8
DEFPOINTS
 62
     0
100
AcDbPoint
 10
-69.00000000000002
 20
5.999999999999998
 30
0.0
  0
POINT
  5
EF0
330
EB5
100
AcDbEntity
  8
DEFPOINTS
 62
     0
100
AcDbPoint
 10
-69.0
 20
-6.000000000000001
 30
0.0
  0
POINT
  5
EF1
330
EB5
100
AcDbEntity
  8
DEFPOINTS
 62
     0
100
AcDbPoint
 10
-81.79349790496837
 20
-5.999999999999998
 30
0.0
  0
ENDBLK
  5
EC0
330
EB5
100
AcDbEntity
  8
0
100
AcDbBlockEnd
  0
ENDSEC
  0
SECTION
  2
ENTITIES
  0
DIMENSION
  5
D71
330
1F
100
AcDbEntity
  8
AM_5
100
AcDbDimension
  2
*D5
 10
-70.0
 20
-19.00000100999994
 30
0.0
 11
-35.0
 21
-17.45000100999994
 31
0.0
 70
    32
  1
<>
  3
AM_JIS
100
AcDbAlignedDimension
 13
-0.0000000000000028
 23
-6.0000000000005
 33
0.0
 14
-70.0
 24
-5.000000000000003
 34
0.0
100
AcDbRotatedDimension
1001
GENIUS_GENDTOL_13
1000

1000
h7
1000

1040
0.0
  0
LINE
  5
D74
330
1F
100
AcDbEntity
  8
AM_7
  6
AM_ISO08W050X2
100
AcDbLine
 10
4.557768030854926
 20
0.0
 30
0.0
 11
-74.79349690496838
 21
-0.0000000000000355
 31
0.0
1001
GENIUS_GENODEF_13
1002
{
1000
HIER
1070
     0
1002
}
1002
{
1000
MANEDIT
1070
     0
1002
}
1002
{
1000
NOSEL
1070
     0
1002
}
1002
{
1000
BEHIND
1070
     0
1002
}
1002
{
1000
REACTOR
1002
}
1001
GENIUS_GENOBJ-N-CEN_13
1002
{
1000
OWNER
1000
GEN
1002
}
  0
DIMENSION
  5
D7A
330
1F
100
AcDbEntity
  8
AM_5
100
AcDbDimension
  2
*D6
 10
-0.0000000000000035
 20
-13.00000100999994
 30
0.0
 11
-9.000000000000115
 21
-11.45000100999994
 31
0.0
 70
    32
  1
<>
  3
AM_JIS
100
AcDbAlignedDimension
 13
-18.00000000000022
 23
-5.50000000000001
 33
0.0
 14
-0.000000000000003
 24
-5.500000000000539
 34
0.0
100
AcDbRotatedDimension
1001
GENIUS_GENDTOL_13
1000

1000
h7
1000

1040
0.0
  0
DIMENSION
  5
DA6
330
1F
100
AcDbEntity
  8
AM_5
100
AcDbDimension
  2
*D7
 10
11.55776903085492
 20
-5.50000000000054
 30
0.0
 11
10.00776903085492
 21
-0.0000000000002683
 31
0.0
 70
    32
  1
%%c<>
  3
AM_JIS
100
AcDbAlignedDimension
 13
-0.0000000000000037
 23
5.500000000000003
 33
0.0
 14
-0.0000000000000037
 24
-5.500000000000537
 34
0.0
 50
270.0
100
AcDbRotatedDimension
1001
GENIUS_GENDTOL_13
1000

1000
h7
1000

1040
0.0
  0
TEXT
  5
E5A
330
1F
100
AcDbEntity
  8
AM_6
100
AcDbText
 10
-42.73809523809522
 20
-30.25000100999994
 30
0.0
 40
2.5
  1
SSM4110
 72
     4
 11
-34.99999999999999
 21
-29.00000100999994
 31
0.0
100
AcDbText
  0
LINE
  5
EB1
330
1F
100
AcDbEntity
  8
AM_0
100
AcDbLine
 10
-27.00000000000001
 20
-5.999999999999951
 30
0.0
 11
-69.0
 21
-6.000000000000002
 31
0.0
  0
LINE
  5
EB2
330
1F
100
AcDbEntity
  8
AM_0
100
AcDbLine
 10
-69.0
 20
-6.000000000000001
 30
0.0
 11
-69.0
 21
5.999999999999998
 31
0.0
  0
LINE
  5
EB3
330
1F
100
AcDbEntity
  8
AM_0
100
AcDbLine
 10
-70.0
 20
-5.000000000000003
 30
0.0
 11
-70.0
 21
4.999999999999998
 31
0.0
  0
DIMENSION
  5
EB4
330
1F
100
AcDbEntity
  8
AM_5
100
AcDbDimension
  2
*D8
 10
-81.79349790496837
 20
-5.999999999999998
 30
0.0
 11
-83.34349790496837
 21
-0.0000000000000108
 31
0.0
 70
    32
  1
%%c<>
  3
AM_JIS
100
AcDbAlignedDimension
 13
-69.00000000000002
 23
5.999999999999998
 33
0.0
 14
-69.0
 24
-6.000000000000001
 34
0.0
 50
270.0
100
AcDbRotatedDimension
1001
GENIUS_GENDTOL_13
1000

1000
h7
1000

1040
0.0
  0
LINE
  5
EC2
330
1F
100
AcDbEntity
  8
AM_0
100
AcDbLine
 10
-27.00000000000001
 20
6.000000000000005
 30
0.0
 11
-69.0
 21
5.999999999999998
 31
0.0
  0
LINE
  5
ED2
330
1F
100
AcDbEntity
  8
AM_0
100
AcDbLine
 10
-69.0
 20
5.999999999999998
 30
0.0
 11
-70.0
 21
4.999999999999998
 31
0.0
1001
GENIUS_GENFIL_13
1070
     0
1040
1.0
1040
1.0
1040
20.0
1040
0.0
1002
{
1002
}
1001
GENIUS_GENODEF_13
1002
{
1000
HIER
1070
     0
1002
}
1002
{
1000
MANEDIT
1070
     0
1002
}
1002
{
1000
NOSEL
1070
     0
1002
}
1002
{
1000
BEHIND
1070
     0
1002
}
1002
{
1000
REACTOR
1002
}
1001
GENIUS_GENOBJ-N-CHA_13
1002
{
1000
OWNER
1000
GEN
1002
}
  0
LINE
  5
ED5
330
1F
100
AcDbEntity
  8
AM_0
100
AcDbLine
 10
-70.0
 20
-5.000000000000003
 30
0.0
 11
-69.0
 21
-6.000000000000002
 31
0.0
1001
GENIUS_GENFIL_13
1070
     0
1040
1.0
1040
1.0
1040
20.0
1040
0.0
1002
{
1002
}
1001
GENIUS_GENODEF_13
1002
{
1000
HIER
1070
     0
1002
}
1002
{
1000
MANEDIT
1070
     0
1002
}
1002
{
1000
NOSEL
1070
     0
1002
}
1002
{
1000
BEHIND
1070
     0
1002
}
1002
{
1000
REACTOR
1002
}
1001
GENIUS_GENOBJ-N-CHA_13
1002
{
1000
OWNER
1000
GEN
1002
}
  0
LINE
  5
15E0
330
1F
100
AcDbEntity
  8
AM_0
100
AcDbLine
 10
-27.00000000000001
 20
-5.999999999999951
 30
0.0
 11
-27.00000000000001
 21
6.000000000000006
 31
0.0
  0
SPLINE
  5
17FF
330
1F
100
AcDbEntity
  8
AM_0
100
AcDbSpline
210
0.0
220
0.0
230
1.0
 70
     8
 71
     3
 72
     8
 73
     4
 74
     0
 42
0.0000000001
 43
0.0000000001
 40
10.38442441395913
 40
10.38442441395913
 40
10.38442441395913
 40
10.38442441395913
 40
14.43901837670146
 40
14.43901837670146
 40
14.43901837670146
 40
14.43901837670146
 10
-18.39032595257708
 20
2.827142172400566
 30
0.0
 10
-15.75421173264363
 20
1.498199075012532
 30
0.0
 10
-14.3971090362249
 20
0.7490995375062966
 30
0.0
 10
-13.04000633980617
 20
0.0000000000000568
 30
0.0
  0
SPLINE
  5
1802
330
1F
100
AcDbEntity
  8
AM_0
100
AcDbSpline
210
0.0
220
0.0
230
1.0
 70
     8
 71
     3
 72
     8
 73
     4
 74
     0
 42
0.0000000001
 43
0.0000000001
 40
0.7142832446738512
 40
0.7142832446738512
 40
0.7142832446738512
 40
0.7142832446738512
 40
9.361146747480315
 40
9.361146747480315
 40
9.361146747480315
 40
9.361146747480315
 10
-10.04650016971837
 20
5.060657568806714
 30
0.0
 10
-6.900471637275337
 20
4.912361782868742
 30
0.0
 10
-3.898885486593055
 20
3.889346871079588
 30
0.0
 10
-0.9502297250931874
 20
2.545794294429043
 30
0.0
  0
SPLINE
  5
1803
330
1F
100
AcDbEntity
  8
AM_0
100
AcDbSpline
210
0.0
220
0.0
230
1.0
 70
     8
 71
     3
 72
     8
 73
     4
 74
     2
 42
0.0000000001
 43
0.0000000001
 44
0.0000000001
 12
-0.6417012268563095
 22
-0.7669547153848834
 32
0.0
 13
-0.990099942783104
 23
-0.140364180975397
 33
0.0
 40
0.0
 40
0.0
 40
0.0
 40
0.0
 40
2.845221855978386
 40
2.845221855978386
 40
2.845221855978386
 40
2.845221855978386
 10
-0.0000000000002238
 20
4.482172955352361
 30
0.0
 10
-0.6085941185534627
 20
3.75478751576611
 30
0.0
 10
-1.653211455187819
 20
3.442421176616785
 30
0.0
 10
-2.592229454124298
 20
3.309298764780884
 30
0.0
 11
-0.0000000000002238
 21
4.482172955352361
 31
0.0
 11
-2.592229454124298
 21
3.309298764780884
 31
0.0
  0
SPLINE
  5
1804
330
1F
100
AcDbEntity
  8
AM_0
100
AcDbSpline
210
0.0
220
0.0
230
1.0
 70
     8
 71
     3
 72
     8
 73
     4
 74
     0
 42
0.0000000001
 43
0.0000000001
 40
0.0
 40
0.0
 40
0.0
 40
0.0
 40
5.635889483499127
 40
5.635889483499127
 40
5.635889483499127
 40
5.635889483499127
 10
-0.0000000000002256
 20
5.500000000000003
 30
0.0
 10
-2.066492810616567
 20
5.500000000000003
 30
0.0
 10
-4.058933179219952
 20
5.083973431877051
 30
0.0
 10
-6.006123830348437
 20
4.413733982208363
 30
0.0
  0
SPLINE
  5
1805
330
1F
100
AcDbEntity
  8
AM_0
100
AcDbSpline
210
0.0
220
0.0
230
1.0
 70
     8
 71
     3
 72
     8
 73
     4
 74
     0
 42
0.0000000001
 43
0.0000000001
 40
4.542668862435135
 40
4.542668862435135
 40
4.542668862435135
 40
4.542668862435135
 40
14.36247867694493
 40
14.36247867694493
 40
14.36247867694493
 40
14.36247867694493
 10
-0.753499999998688
 20
-4.397378321002282
 30
0.0
 10
-4.201405820541316
 20
-3.472706255230143
 30
0.0
 10
-7.51527873573436
 20
-1.736353127615043
 30
0.0
 10
-10.8291516509274
 20
0.0000000000000568
 30
0.0
  0
SPLINE
  5
1806
330
1F
100
AcDbEntity
  8
AM_0
100
AcDbSpline
210
0.0
220
0.0
230
1.0
 70
     8
 71
     3
 72
     8
 73
     4
 74
     0
 42
0.0000000001
 43
0.0000000001
 40
0.3581103616548037
 40
0.3581103616548037
 40
0.3581103616548037
 40
0.3581103616548037
 40
12.40023413887867
 40
12.40023413887867
 40
12.40023413887867
 40
12.40023413887867
 10
-12.64692945925466
 20
5.330429965137934
 30
0.0
 10
-8.250337467665785
 20
5.221440330769116
 30
0.0
 10
-4.166755315965247
 20
3.302971241333501
 30
0.0
 10
-0.1284940716356235
 20
1.122506392269862
 30
0.0
  0
SPLINE
  5
1807
330
1F
100
AcDbEntity
  8
AM_0
100
AcDbSpline
210
0.0
220
0.0
230
1.0
 70
     8
 71
     3
 72
     8
 73
     4
 74
     2
 42
0.0000000001
 43
0.0000000001
 44
0.0000000001
 12
1.0
 22
0.0000000000000006
 32
0.0
 40
0.0
 40
0.0
 40
0.0
 40
0.0
 40
15.93899620427835
 40
15.93899620427835
 40
15.93899620427835
 40
15.93899620427835
 10
-14.96000000000021
 20
5.50000000000011
 30
0.0
 10
-9.647001265240769
 20
5.500000000000113
 30
0.0
 10
-4.823500632620496
 20
2.75000000000012
 30
0.0
 10
-0.000000000000222
 20
0.0000000000001279
 30
0.0
 11
-14.96000000000021
 21
5.50000000000011
 31
0.0
 11
-0.000000000000222
 21
0.0000000000001279
 31
0.0
  0
SPLINE
  5
1808
330
1F
100
AcDbEntity
  8
AM_0
100
AcDbSpline
210
0.0
220
0.0
230
1.0
 70
     8
 71
     3
 72
     8
 73
     4
 74
     2
 42
0.0000000001
 43
0.0000000001
 44
0.0000000001
 12
-1.0
 22
-0.0000000000000008
 32
0.0
 40
0.0
 40
0.0
 40
0.0
 40
0.0
 40
15.93899620427835
 40
15.93899620427835
 40
15.93899620427835
 40
15.93899620427835
 10
-0.0000000000002167
 20
-5.499999999999996
 30
0.0
 10
-5.312998734759668
 20
-5.5
 30
0.0
 10
-10.13649936737994
 20
-2.750000000000005
 30
0.0
 10
-14.96000000000021
 20
-0.0000000000000107
 30
0.0
 11
-0.0000000000002167
 21
-5.499999999999996
 31
0.0
 11
-14.96000000000021
 21
-0.0000000000000107
 31
0.0
  0
SPLINE
  5
180B
330
1F
100
AcDbEntity
  8
AM_0
100
AcDbSpline
210
0.0
220
0.0
230
1.0
 70
     8
 71
     3
 72
     8
 73
     4
 74
     0
 42
0.0000000001
 43
0.0000000001
 40
1.870660592686466
 40
1.870660592686466
 40
1.870660592686466
 40
1.870660592686466
 40
14.43901837670146
 40
14.43901837670146
 40
14.43901837670146
 40
14.43901837670146
 10
-0.1155000000002069
 20
-5.206785273383939
 30
0.0
 10
-4.62656105035192
 20
-4.64409067331163
 30
0.0
 10
-8.833283695079046
 20
-2.322045336655783
 30
0.0
 10
-13.04000633980617
 20
0.0000000000000568
 30
0.0
  0
LINE
  5
181F
330
1F
100
AcDbEntity
  8
AM_0
100
AcDbLine
 10
-2.592229454124296
 20
0.0
 30
0.0
 11
-2.592229454124295
 21
-0.8800000000000132
 31
0.0
  0
LINE
  5
1820
330
1F
100
AcDbEntity
  8
AM_0
100
AcDbLine
 10
-0.0000000000002203
 20
0.0
 30
0.0
 11
-0.0977268700585832
 21
-0.9307320957943261
 31
0.0
  0
LINE
  5
1821
330
1F
100
AcDbEntity
  8
AM_0
100
AcDbLine
 10
-0.0000000000002203
 20
-1.099999999999997
 30
0.0
 11
-0.6350852961088372
 21
0.0000000000000639
 31
0.0
  0
LINE
  5
1830
330
1F
100
AcDbEntity
  8
AM_11
100
AcDbLine
 10
-0.0000000000010694
 20
5.500000000000003
 30
0.0
 11
-18.00000000000022
 21
5.499999999999986
 31
0.0
  0
LINE
  5
1831
330
1F
100
AcDbEntity
  8
AM_0
100
AcDbLine
 10
-0.1155000000002104
 20
1.100000000000125
 30
0.0
 11
-1.174276617520662
 21
2.933854895411435
 31
0.0
  0
LINE
  5
1832
330
1F
100
AcDbEntity
  8
AM_0
100
AcDbLine
 10
-0.0000000000002203
 20
0.0
 30
0.0
 11
-0.1155000000002104
 21
1.100000000000125
 31
0.0
  0
LINE
  5
1833
330
1F
100
AcDbEntity
  8
AM_0
100
AcDbLine
 10
-1.174276617520662
 20
2.933854895411435
 30
0.0
 11
-2.592229454124298
 21
3.309298764780887
 31
0.0
  0
LINE
  5
1834
330
1F
100
AcDbEntity
  8
AM_0
100
AcDbLine
 10
-0.0000000000002203
 20
0.0
 30
0.0
 11
-2.592229454124296
 21
0.0
 31
0.0
  0
LINE
  5
1835
330
1F
100
AcDbEntity
  8
AM_0
100
AcDbLine
 10
-0.0000000000002203
 20
0.0
 30
0.0
 11
-0.0000000000002256
 21
5.500000000000003
 31
0.0
  0
LINE
  5
1839
330
1F
100
AcDbEntity
  8
AM_11
100
AcDbLine
 10
-18.00000000000022
 20
-5.50000000000001
 30
0.0
 11
-0.0000000000002167
 21
-5.499999999999996
 31
0.0
  0
LINE
  5
183A
330
1F
100
AcDbEntity
  8
AM_0
100
AcDbLine
 10
-0.1155000000002069
 20
-5.206785273383939
 30
0.0
 11
-0.753500000000221
 21
-4.397378321008098
 31
0.0
  0
LINE
  5
183B
330
1F
100
AcDbEntity
  8
AM_0
100
AcDbLine
 10
-0.0000000000002167
 20
-5.499999999999996
 30
0.0
 11
-0.0000000000002203
 21
-1.099999999999997
 31
0.0
  0
LINE
  5
183C
330
1F
100
AcDbEntity
  8
AM_0
100
AcDbLine
 10
-0.1155000000002069
 20
-5.206785273384003
 30
0.0
 11
-0.1155000000002087
 21
-1.459587640019503
 31
0.0
  0
LINE
  5
183D
330
1F
100
AcDbEntity
  8
AM_0
100
AcDbLine
 10
-0.1155000000002087
 20
-1.459587640019503
 30
0.0
 11
-0.0000000000002203
 21
-1.099999999999997
 31
0.0
  0
LINE
  5
183E
330
1F
100
AcDbEntity
  8
AM_0
100
AcDbLine
 10
-0.946503784260507
 20
-1.621020241683197
 30
0.0
 11
-0.1155000000002087
 21
-1.459587640019503
 31
0.0
  0
LINE
  5
183F
330
1F
100
AcDbEntity
  8
AM_0
100
AcDbLine
 10
-2.592229454124295
 20
-0.8800000000000132
 30
0.0
 11
-0.1270170592219362
 21
-0.8800000000000132
 31
0.0
  0
LINE
  5
1840
330
1F
100
AcDbEntity
  8
AM_0
100
AcDbLine
 10
-2.592229454124295
 20
-0.8800000000000132
 30
0.0
 11
-0.946503784260507
 21
-1.621020241683197
 31
0.0
  0
ARC
  5
1841
330
1F
100
AcDbEntity
  8
AM_0
100
AcDbCircle
 10
2.184240500229702
 20
-2.798268181189691
 30
0.0
 40
3.344767927067655
100
AcDbArc
 50
159.3923269732582
 51
208.5609268810354
  0
LINE
  5
1842
330
1F
100
AcDbEntity
  8
AM_0
100
AcDbLine
 10
-0.0000000000002167
 20
-5.499999999999996
 30
0.0
 11
-0.1155000000002069
 21
-5.206785273384003
 31
0.0
  0
POLYLINE
  5
1A36
330
1F
100
AcDbEntity
  8
AM_0
100
AcDb2dPolyline
 66
     1
 10
0.0
 20
0.0
 30
0.0
 70
     2
  0
VERTEX
  5
1A37
330
1A36
100
AcDbEntity
  8
AM_0
100
AcDbVertex
100
AcDb2dVertex
 10
-20.92612383034899
 20
4.413657028188868
 30
0.0
 42
-0.0080850818469205
  0
VERTEX
  5
1A38
330
1A36
100
AcDbEntity
  8
AM_0
100
AcDbVertex
100
AcDb2dVertex
 10
-21.4776367707859
 20
4.586409066097143
 30
0.0
 42
-0.0113772357485858
 70
     1
  0
VERTEX
  5
1A39
330
1A36
100
AcDbEntity
  8
AM_0
100
AcDbVertex
100
AcDb2dVertex
 10
-21.87057435570908
 20
4.726557661860912
 30
0.0
 42
-0.0082896290467094
  0
VERTEX
  5
1A3A
330
1A36
100
AcDbEntity
  8
AM_0
100
AcDbVertex
100
AcDb2dVertex
 10
-23.12292951898871
 20
5.229577568245669
 30
0.0
 42
-0.2726804491113656
 70
     1
  0
VERTEX
  5
1A3B
330
1A36
100
AcDbEntity
  8
AM_0
100
AcDbVertex
100
AcDb2dVertex
 10
-23.14924684652786
 20
5.264934472675879
 30
0.0
 42
-0.4014058829339297
  0
VERTEX
  5
1A3C
330
1A36
100
AcDbEntity
  8
AM_0
100
AcDbVertex
100
AcDb2dVertex
 10
-23.10153726505421
 20
5.326919446882246
 30
0.0
 42
-0.0313656446754737
 70
     1
  0
VERTEX
  5
1A3D
330
1A36
100
AcDbEntity
  8
AM_0
100
AcDbVertex
100
AcDb2dVertex
 10
-22.24196069351372
 20
5.403331807137629
 30
0.0
 42
-0.0039726403541645
  0
VERTEX
  5
1A3E
330
1A36
100
AcDbEntity
  8
AM_0
100
AcDbVertex
100
AcDb2dVertex
 10
-21.45916033014262
 20
5.417428687495981
 30
0.0
 42
0.0019401889352083
 70
     1
  0
VERTEX
  5
1A3F
330
1A36
100
AcDbEntity
  8
AM_0
100
AcDbVertex
100
AcDb2dVertex
 10
-19.85625000000016
 20
5.439777042247175
 30
0.0
 42
0.0036525506412497
  0
VERTEX
  5
1A40
330
1A36
100
AcDbEntity
  8
AM_0
100
AcDbVertex
100
AcDb2dVertex
 10
-19.22592791692574
 20
5.455618415998554
 30
0.0
 42
0.0018773371428962
 70
     1
  0
VERTEX
  5
1A41
330
1A36
100
AcDbEntity
  8
AM_0
100
AcDbVertex
100
AcDb2dVertex
 10
-18.00000000000017
 20
5.499999999999982
 30
0.0
  0
SEQEND
  5
1A42
330
1A36
100
AcDbEntity
  8
AM_0
  0
LINE
  5
1A43
330
1F
100
AcDbEntity
  8
AM_0
100
AcDbLine
 10
-18.39032595257708
 20
2.827142172400566
 30
0.0
 11
-18.00000000000017
 21
1.72691090987713
 31
0.0
  0
LINE
  5
1A44
330
1F
100
AcDbEntity
  8
AM_0
100
AcDbLine
 10
-18.00000000000017
 20
3.448674539460629
 30
0.0
 11
-18.39032595257708
 21
2.827142172400566
 31
0.0
  0
SPLINE
  5
1A45
330
1F
100
AcDbEntity
  8
AM_0
100
AcDbSpline
210
0.0
220
0.0
230
1.0
 70
     8
 71
     3
 72
     8
 73
     4
 74
     0
 42
0.0000000001
 43
0.0000000001
 40
4.48458745047074
 40
4.48458745047074
 40
4.48458745047074
 40
4.48458745047074
 40
14.36247867694493
 40
14.36247867694493
 40
14.36247867694493
 40
14.36247867694493
 10
-20.926123830349
 20
4.413657028188875
 30
0.0
 10
-17.45609873299186
 20
3.49324633558319
 30
0.0
 10
-14.12262519195969
 20
1.746623167791607
 30
0.0
 10
-10.78915165092759
 20
0.0000000000000533
 30
0.0
  0
LWPOLYLINE
  5
1A46
330
1F
100
AcDbEntity
  8
AM_0
100
AcDbPolyline
 90
        7
 70
     0
 43
0.0
 10
-18.00000000000016
 20
1.726910909877123
 10
-19.85625000000016
 20
2.120414671358485
 10
-22.33125000000016
 20
1.991111303449695
 10
-22.95000000000016
 20
1.254651882903058
 10
-22.33125000000016
 20
-0.0479542017905281
 10
-19.85625000000016
 20
-2.441844226287134
 10
-18.00000000000015
 20
-3.652570018224199
  0
SPLINE
  5
1A47
330
1F
100
AcDbEntity
  8
AM_0
100
AcDbSpline
210
0.0
220
0.0
230
1.0
 70
     8
 71
     3
 72
     8
 73
     4
 74
     0
 42
0.0000000001
 43
0.0000000001
 40
0.0
 40
0.0
 40
0.0
 40
0.0
 40
1.412269715655734
 40
1.412269715655734
 40
1.412269715655734
 40
1.412269715655734
 10
-16.46000000000037
 20
-5.424175620503678
 30
0.0
 10
-16.97783222907416
 20
-5.424175620503678
 30
0.0
 10
-17.49101449253919
 20
-5.398052116922823
 30
0.0
 10
-18.00000000000015
 20
-5.348351241007502
 30
0.0
  0
SPLINE
  5
1A48
330
1F
100
AcDbEntity
  8
AM_0
100
AcDbSpline
210
0.0
220
0.0
230
1.0
 70
     8
 71
     3
 72
     8
 73
     4
 74
     0
 42
0.0000000001
 43
0.0000000001
 40
0.0
 40
0.0
 40
0.0
 40
0.0
 40
2.130230809022907
 40
2.130230809022907
 40
2.130230809022907
 40
2.130230809022907
 10
-14.92000000000039
 20
-5.50000000000001
 30
0.0
 10
-14.13891537002531
 20
-5.50000000000001
 30
0.0
 10
-13.36841030407642
 20
-5.440564016602191
 30
0.0
 10
-12.60692945925506
 20
-5.330429965137827
 30
0.0
  0
SPLINE
  5
1A49
330
1F
100
AcDbEntity
  8
AM_0
100
AcDbSpline
210
0.0
220
0.0
230
1.0
 70
     8
 71
     3
 72
     8
 73
     4
 74
     0
 42
0.0000000001
 43
0.0000000001
 40
0.0
 40
0.0
 40
0.0
 40
0.0
 40
6.769478140335353
 40
6.769478140335353
 40
6.769478140335353
 40
6.769478140335353
 10
-10.78915165092758
 20
-5.079188954182843
 30
0.0
 10
-13.2712936357172
 20
-5.079188954182843
 30
0.0
 10
-15.66027293930557
 20
-4.515011196457319
 30
0.0
 10
-18.00000000000015
 20
-3.652570018224199
 30
0.0
  0
SPLINE
  5
1A4A
330
1F
100
AcDbEntity
  8
AM_0
100
AcDbSpline
210
0.0
220
0.0
230
1.0
 70
     8
 71
     3
 72
     8
 73
     4
 74
     0
 42
0.0000000001
 43
0.0000000001
 40
0.0
 40
0.0
 40
0.0
 40
0.0
 40
4.662554012798695
 40
4.662554012798695
 40
4.662554012798695
 40
4.662554012798695
 10
-13.00000633980632
 20
-5.335312037368812
 30
0.0
 10
-14.70960947783248
 20
-5.335312037368812
 30
0.0
 10
-16.37109472573494
 20
-5.057147192356008
 30
0.0
 10
-18.00000000000015
 20
-4.590640687016321
 30
0.0
  0
SPLINE
  5
1A4B
330
1F
100
AcDbEntity
  8
AM_0
100
AcDbSpline
210
0.0
220
0.0
230
1.0
 70
     8
 71
     3
 72
     8
 73
     4
 74
     0
 42
0.0000000001
 43
0.0000000001
 40
0.0
 40
0.0
 40
0.0
 40
0.0
 40
4.451443990518192
 40
4.451443990518192
 40
4.451443990518192
 40
4.451443990518192
 10
-10.78915165092758
 20
-5.079188954182964
 30
0.0
 10
-9.156955521070893
 20
-5.079188954182964
 30
0.0
 10
-7.565043468937973
 20
-4.835235255672191
 30
0.0
 10
-6.000930023202416
 20
-4.422937803815809
 30
0.0
  0
SPLINE
  5
1A4C
330
1F
100
AcDbEntity
  8
AM_0
100
AcDbSpline
210
0.0
220
0.0
230
1.0
 70
     8
 71
     3
 72
     8
 73
     4
 74
     0
 42
0.0000000001
 43
0.0000000001
 40
0.0
 40
0.0
 40
0.0
 40
0.0
 40
2.764560748519282
 40
2.764560748519282
 40
2.764560748519282
 40
2.764560748519282
 10
-13.00000633980632
 20
-5.335312037368932
 30
0.0
 10
-11.98633406534926
 20
-5.335312037368932
 30
0.0
 10
-10.98957831373457
 20
-5.237519263361068
 30
0.0
 10
-10.00650016983442
 20
-5.060657568827426
 30
0.0
  0
SPLINE
  5
1A4D
330
1F
100
AcDbEntity
  8
AM_0
100
AcDbSpline
210
0.0
220
0.0
230
1.0
 70
     8
 71
     3
 72
     8
 73
     4
 74
     0
 42
0.0000000001
 43
0.0000000001
 40
0.0
 40
0.0
 40
0.0
 40
0.0
 40
1.412269715655931
 40
1.412269715655931
 40
1.412269715655931
 40
1.412269715655931
 10
-14.92000000000039
 20
-5.499999999999882
 30
0.0
 10
-15.43783222907424
 20
-5.499999999999882
 30
0.0
 10
-15.95101449253934
 20
-5.473876496419027
 30
0.0
 10
-16.46000000000039
 20
-5.424175620503678
 30
0.0
  0
LINE
  5
1A4E
330
1F
100
AcDbEntity
  8
AM_0
100
AcDbLine
 10
-18.00000000000016
 20
-3.652570018224199
 30
0.0
 11
-18.00000000000028
 21
-5.348351241007531
 31
0.0
  0
ARC
  5
1A4F
330
1F
100
AcDbEntity
  8
AM_0
100
AcDbCircle
 10
-17.98214300989501
 20
-17.09002843032157
 30
0.0
 40
11.74169076794961
100
AcDbArc
 50
90.08713656171535
 51
99.21891394236288
  0
SPLINE
  5
1A51
330
1F
100
AcDbEntity
  8
AM_0
100
AcDbSpline
210
0.0
220
0.0
230
1.0
 70
     8
 71
     3
 72
     8
 73
     4
 74
     0
 42
0.0000000001
 43
0.0000000001
 40
11.41055204919593
 40
11.41055204919593
 40
11.41055204919593
 40
11.41055204919593
 40
14.48999654934393
 40
14.48999654934393
 40
14.48999654934393
 40
14.48999654934393
 10
-18.00000000000022
 20
1.726910909877137
 30
0.0
 10
-17.01020097058044
 20
1.168871551703876
 30
0.0
 10
-15.98510048529043
 20
0.5844357758519969
 30
0.0
 10
-14.96000000000044
 20
0.0000000000001172
 30
0.0
  0
LINE
  5
1A68
330
1F
100
AcDbEntity
  8
AM_11
100
AcDbLine
 10
-17.99999999999895
 20
5.5
 30
0.0
 11
-18.00000000000022
 21
-5.50000000000001
 31
0.0
  0
LINE
  5
1A9D
330
1F
100
AcDbEntity
  8
AM_0
100
AcDbLine
 10
-27.00000000000001
 20
6.000000000000006
 30
0.0
 11
-25.62626129027264
 21
5.499999999999986
 31
0.0
  0
LINE
  5
1A9E
330
1F
100
AcDbEntity
  8
AM_0
100
AcDbLine
 10
-25.62626129027264
 20
5.499999999999986
 30
0.0
 11
-25.62626129027263
 21
-5.499999999999928
 31
0.0
  0
LINE
  5
1A9F
330
1F
100
AcDbEntity
  8
AM_0
100
AcDbLine
 10
-25.62626129027263
 20
-5.499999999999928
 30
0.0
 11
-27.00000000000001
 21
-5.999999999999951
 31
0.0
  0
LINE
  5
1AA0
330
1F
100
AcDbEntity
  8
AM_0
100
AcDbLine
 10
-25.62626129027263
 20
-5.499999999999928
 30
0.0
 11
-19.86324456868725
 21
-5.499999999999991
 31
0.0
  0
LINE
  5
1AA1
330
1F
100
AcDbEntity
  8
AM_0
100
AcDbLine
 10
-25.62626129027264
 20
5.499999999999986
 30
0.0
 11
-14.96000000000021
 21
5.50000000000011
 31
0.0
  0
VIEWPORT
  5
110
330
101
100
AcDbEntity
 67
     1
  8
0
100
AcDbViewport
 10
420.5
 20
297.0
 30
0.0
 40
948.9782706766916
 41
628.452
 68
     1
 69
     1
1001
ACAD
1000
MVIEW
1002
{
1070
    16
1010
0.0
1020
0.0
1030
0.0
1010
0.0
1020
0.0
1030
1.0
1040
0.0
1040
628.452
1040
420.5
1040
297.0
1040
50.0
1040
0.0
1040
0.0
1070
     0
1070
   100
1070
     1
1070
     1
1070
     0
1070
     0
1070
     0
1070
     0
1040
0.0
1040
0.0
1040
0.0
1040
10.0
1040
10.0
1040
10.0
1040
10.0
1070
     0
1002
{
1002
}
1002
}
  0
ENDSEC
  0
SECTION
  2
OBJECTS
  0
DICTIONARY
  5
C
330
0
100
AcDbDictionary
  3
ACAD_GROUP
350
D
  3
ACAD_LAYOUT
350
1A
  3
ACAD_MLINESTYLE
350
17
  3
ACAD_PLOTSETTINGS
350
19
  3
ACAD_PLOTSTYLENAME
350
E
  3
ACDBVARIABLEDICTIONARY
350
34
  3
ACMDICTIONARY
350
43
  3
AMG
350
2B
  3
AMGSNAPSETTINGS
350
6E
  3
DWGPROPS
350
1BB3
  3
ACDBHEADERROUNDTRIPXREC
350
1BBF
  0
DICTIONARY
  5
74
330
1F
100
AcDbDictionary
280
     1
  3
ACAD_INDEX
360
1BB5
  3
ACAD_LAYOUTSELFREF
360
1BE2
  0
DICTIONARY
  5
1BE7
330
101
100
AcDbDictionary
280
     1
  3
ACAD_LAYOUTSELFREF
360
1BE8
  0
DICTIONARY
  5
D
102
{ACAD_REACTORS
330
C
102
}
330
C
100
AcDbDictionary
  0
DICTIONARY
  5
1A
102
{ACAD_REACTORS
330
C
102
}
330
C
100
AcDbDictionary
  0
DICTIONARY
  5
17
102
{ACAD_REACTORS
330
C
102
}
330
C
100
AcDbDictionary
  3
STANDARD
350
18
  0
DICTIONARY
  5
19
102
{ACAD_REACTORS
330
C
102
}
330
C
100
AcDbDictionary
  0
ACDBDICTIONARYWDFLT
  5
E
102
{ACAD_REACTORS
330
C
102
}
330
C
100
AcDbDictionary
281
     1
  3
Normal
350
F
100
AcDbDictionaryWithDefault
340
F
  0
DICTIONARY
  5
34
102
{ACAD_REACTORS
330
C
102
}
330
C
100
AcDbDictionary
  3
INDEXCTL
350
35
  3
SORTENTS
350
B5E
  0
DICTIONARY
  5
43
102
{ACAD_REACTORS
330
C
102
}
330
C
100
AcDbDictionary
  3
ACMSTDDICTIONARY
350
260
  0
DICTIONARY
  5
2B
102
{ACAD_REACTORS
330
C
102
}
330
C
100
AcDbDictionary
  3
ACMGSETTINGS
350
2C
  0
DICTIONARY
  5
6E
102
{ACAD_REACTORS
330
C
102
}
330
C
100
AcDbDictionary
  0
XRECORD
  5
1BB3
102
{ACAD_REACTORS
330
C
102
}
330
C
100
AcDbXrecord
  1
DWGPROPS COOKIE
  2

  3

  4

  6

  7

  8

  9

300
AmdtFileType=82
301
=
302
=
303
=
304
=
305
=
306
=
307
=
308
=
309
=
 40
0.0460586574074074
 41
2452836.771637361
 42
2452845.708606944
  1

 90
        1
  0
DICTIONARY
  5
1BBF
102
{ACAD_REACTORS
330
C
102
}
330
C
100
AcDbDictionary
  3
TSTACKALIGN
350
1BC0
  3
TSTACKSIZE
350
1BC1
  3
HYPERLINKBASE
350
1BC2
  3
STYLESHEET
350
1BC3
  3
LAYOUTDICT
350
1BC4
  3
PLOTSETDICT
350
1BC5
  3
PLOTSTYLNAMDICT
350
1BC6
  3
LWETCUNION
350
1BC7
  3
INSUNITS
350
1BC8
  3
CEPSNTYPE
350
1BC9
  3
FINGERPRINTGUID
350
1BCA
  3
VERSIONGUID
350
1BCB
  3
PSVPSCALE
350
1BCC
  3
DIMSTYLEDATA
350
1BCD
  3
PUCSORTHOREF
350
1BCE
  3
PUCSORTHOVIEW
350
1BCF
  3
PUCSBASE
350
1BD0
  3
PUCSORGTOP
350
1BD1
  3
PUCSORGBOTTOM
350
1BD2
  3
PUCSORGLEFT
350
1BD3
  3
PUCSORGRIGHT
350
1BD4
  3
PUCSORGFRONT
350
1BD5
  3
PUCSORGBACK
350
1BD6
  3
UCSORTHOREF
350
1BD7
  3
UCSORTHOVIEW
350
1BD8
  3
UCSBASE
350
1BD9
  3
UCSORGTOP
350
1BDA
  3
UCSORGBOTTOM
350
1BDB
  3
UCSORGLEFT
350
1BDC
  3
UCSORGRIGHT
350
1BDD
  3
UCSORGFRONT
350
1BDE
  3
UCSORGBACK
350
1BDF
  0
DICTIONARY
  5
1BB5
102
{ACAD_REACTORS
330
74
102
}
330
74
100
AcDbDictionary
  3
*A1
350
1BB6
  0
XRECORD
  5
1BE2
102
{ACAD_REACTORS
330
74
102
}
330
74
100
AcDbXrecord
340
1F
  0
XRECORD
  5
1BE8
102
{ACAD_REACTORS
330
1BE7
102
}
330
1BE7
100
AcDbXrecord
340
101
  0
MLINESTYLE
  5
18
102
{ACAD_REACTORS
330
17
102
}
330
17
100
AcDbMlineStyle
  2
STANDARD
 70
     0
  3

 62
   256
 51
90.0
 52
90.0
 71
     2
 49
0.5
 62
   256
  6
BYLAYER
 49
-0.5
 62
   256
  6
BYLAYER
  0
ACDBPLACEHOLDER
  5
F
102
{ACAD_REACTORS
330
E
102
}
330
E
100
AcDbPlaceHolder
280
     0
  0
DICTIONARYVAR
  5
35
102
{ACAD_REACTORS
330
34
102
}
330
34
100
DictionaryVariables
280
     0
  1
1
  0
DICTIONARYVAR
  5
B5E
102
{ACAD_REACTORS
330
34
102
}
330
34
100
DictionaryVariables
280
     0
  1
96
  0
DICTIONARY
  5
260
102
{ACAD_REACTORS
330
43
102
}
330
43
100
AcDbDictionary
  0
DICTIONARY
  5
2C
102
{ACAD_REACTORS
330
2B
102
}
330
2B
100
AcDbDictionary
  3
DWGSETTINGS
350
2D
  0
XRECORD
  5
1BC0
102
{ACAD_REACTORS
330
1BBF
102
}
330
1BBF
100
AcDbXrecord
 90
        1
  0
XRECORD
  5
1BC1
102
{ACAD_REACTORS
330
1BBF
102
}
330
1BBF
100
AcDbXrecord
 90
       70
  0
XRECORD
  5
1BC2
102
{ACAD_REACTORS
330
1BBF
102
}
330
1BBF
100
AcDbXrecord
  1

  0
XRECORD
  5
1BC3
102
{ACAD_REACTORS
330
1BBF
102
}
330
1BBF
100
AcDbXrecord
  1
ASAMI.ctb
  0
XRECORD
  5
1BC4
102
{ACAD_REACTORS
330
1BBF
102
}
330
1BBF
100
AcDbXrecord
340
1A
  0
XRECORD
  5
1BC5
102
{ACAD_REACTORS
330
1BBF
102
}
330
1BBF
100
AcDbXrecord
340
19
  0
XRECORD
  5
1BC6
102
{ACAD_REACTORS
330
1BBF
102
}
330
1BBF
100
AcDbXrecord
340
E
  0
XRECORD
  5
1BC7
102
{ACAD_REACTORS
330
1BBF
102
}
330
1BBF
100
AcDbXrecord
 90
    10781
  0
XRECORD
  5
1BC8
102
{ACAD_REACTORS
330
1BBF
102
}
330
1BBF
100
AcDbXrecord
 90
        4
  0
XRECORD
  5
1BC9
102
{ACAD_REACTORS
330
1BBF
102
}
330
1BBF
100
AcDbXrecord
 90
        0
  0
XRECORD
  5
1BCA
102
{ACAD_REACTORS
330
1BBF
102
}
330
1BBF
100
AcDbXrecord
  1
{AFB28963-8C59-40AE-9337-C84526B81ACE}
  0
XRECORD
  5
1BCB
102
{ACAD_REACTORS
330
1BBF
102
}
330
1BBF
100
AcDbXrecord
  1
{DEC88386-E1FF-4985-AE11-03428F9C25B5}
  0
XRECORD
  5
1BCC
102
{ACAD_REACTORS
330
1BBF
102
}
330
1BBF
100
AcDbXrecord
 40
0.0
  0
XRECORD
  5
1BCD
102
{ACAD_REACTORS
330
1BBF
102
}
330
1BBF
100
AcDbXrecord
1000
DSTYLE
1002
{
1070
    79
 70
     2
1070
   341
340
59
1070
   342
340
59
1070
   371
 70
    -1
1070
   372
 70
    -1
1002
}
  0
XRECORD
  5
1BCE
102
{ACAD_REACTORS
330
1BBF
102
}
330
1BBF
100
AcDbXrecord
340
0
  0
XRECORD
  5
1BCF
102
{ACAD_REACTORS
330
1BBF
102
}
330
1BBF
100
AcDbXrecord
 70
     0
  0
XRECORD
  5
1BD0
102
{ACAD_REACTORS
330
1BBF
102
}
330
1BBF
100
AcDbXrecord
340
0
  0
XRECORD
  5
1BD1
102
{ACAD_REACTORS
330
1BBF
102
}
330
1BBF
100
AcDbXrecord
 10
0.0
 20
0.0
 30
0.0
  0
XRECORD
  5
1BD2
102
{ACAD_REACTORS
330
1BBF
102
}
330
1BBF
100
AcDbXrecord
 10
0.0
 20
0.0
 30
0.0
  0
XRECORD
  5
1BD3
102
{ACAD_REACTORS
330
1BBF
102
}
330
1BBF
100
AcDbXrecord
 10
0.0
 20
0.0
 30
0.0
  0
XRECORD
  5
1BD4
102
{ACAD_REACTORS
330
1BBF
102
}
330
1BBF
100
AcDbXrecord
 10
0.0
 20
0.0
 30
0.0
  0
XRECORD
  5
1BD5
102
{ACAD_REACTORS
330
1BBF
102
}
330
1BBF
100
AcDbXrecord
 10
0.0
 20
0.0
 30
0.0
  0
XRECORD
  5
1BD6
102
{ACAD_REACTORS
330
1BBF
102
}
330
1BBF
100
AcDbXrecord
 10
0.0
 20
0.0
 30
0.0
  0
XRECORD
  5
1BD7
102
{ACAD_REACTORS
330
1BBF
102
}
330
1BBF
100
AcDbXrecord
340
0
  0
XRECORD
  5
1BD8
102
{ACAD_REACTORS
330
1BBF
102
}
330
1BBF
100
AcDbXrecord
 70
     0
  0
XRECORD
  5
1BD9
102
{ACAD_REACTORS
330
1BBF
102
}
330
1BBF
100
AcDbXrecord
340
0
  0
XRECORD
  5
1BDA
102
{ACAD_REACTORS
330
1BBF
102
}
330
1BBF
100
AcDbXrecord
 10
0.0
 20
0.0
 30
0.0
  0
XRECORD
  5
1BDB
102
{ACAD_REACTORS
330
1BBF
102
}
330
1BBF
100
AcDbXrecord
 10
0.0
 20
0.0
 30
0.0
  0
XRECORD
  5
1BDC
102
{ACAD_REACTORS
330
1BBF
102
}
330
1BBF
100
AcDbXrecord
 10
0.0
 20
0.0
 30
0.0
  0
XRECORD
  5
1BDD
102
{ACAD_REACTORS
330
1BBF
102
}
330
1BBF
100
AcDbXrecord
 10
0.0
 20
0.0
 30
0.0
  0
XRECORD
  5
1BDE
102
{ACAD_REACTORS
330
1BBF
102
}
330
1BBF
100
AcDbXrecord
 10
0.0
 20
0.0
 30
0.0
  0
XRECORD
  5
1BDF
102
{ACAD_REACTORS
330
1BBF
102
}
330
1BBF
100
AcDbXrecord
 10
0.0
 20
0.0
 30
0.0
  0
LAYER_INDEX
  5
1BB6
102
{ACAD_REACTORS
330
1BB5
102
}
330
1BB5
100
AcDbIndex
 40
2453151.799817153
100
AcDbLayerIndex
  8
0
360
1BB7
 90
        0
  8
AM_0
360
1BB8
 90
       53
  8
AM_11
360
1BB9
 90
        3
  8
AM_7
360
1BBA
 90
        1
  8
AM_5
360
1BBB
 90
        4
  8
Defpoints
360
1BBC
 90
        0
  8
AM_6
360
1BBD
 90
        1
  0
XRECORD
  5
2D
102
{ACAD_REACTORS
330
2C
102
}
330
2C
100
AcDbXrecord
  1
VERSION
140
15.0
  1
PRODUCT
  2
AutoCAD Mechanical 2000
  0
IDBUFFER
  5
1BB7
330
0
100
AcDbIdBuffer
  0
IDBUFFER
  5
1BB8
330
0
100
AcDbIdBuffer
330
1A9D
330
1A9E
330
1A9F
330
1AA0
330
1AA1
330
EB1
330
EB2
330
EB3
330
EC2
330
ED2
330
ED5
330
15E0
330
17FF
330
1802
330
1803
330
1804
330
1805
330
1806
330
1807
330
1808
330
180B
330
181F
330
1820
330
1821
330
1831
330
1832
330
1833
330
1834
330
1835
330
183A
330
183B
330
183C
330
183D
330
183E
330
183F
330
1840
330
1841
330
1842
330
1A36
330
1A43
330
1A44
330
1A45
330
1A46
330
1A47
330
1A48
330
1A49
330
1A4A
330
1A4B
330
1A4C
330
1A4D
330
1A4E
330
1A4F
330
1A51
  0
IDBUFFER
  5
1BB9
330
0
100
AcDbIdBuffer
330
1830
330
1839
330
1A68
  0
IDBUFFER
  5
1BBA
330
0
100
AcDbIdBuffer
330
D74
  0
IDBUFFER
  5
1BBB
330
0
100
AcDbIdBuffer
330
D71
330
D7A
330
DA6
330
EB4
  0
IDBUFFER
  5
1BBC
330
0
100
AcDbIdBuffer
  0
IDBUFFER
  5
1BBD
330
0
100
AcDbIdBuffer
330
E5A
  0
ENDSEC
  0
EOF
