  0
SECTION
  2
HEADER
  9
$ACADVER
  1
AC1014
  9
$ACADMAINTVER
 70
     9
  9
$DWGCODEPAGE
  3
ANSI_932
  9
$INSBASE
 10
0.0
 20
0.0
 30
0.0
  9
$EXTMIN
 10
-84.14349790496837
 20
-30.25000100999994
 30
-0.00000001
  9
$EXTMAX
 10
12.05776903085493
 20
7.241770759560766
 30
0.00000001
  9
$LIMMIN
 10
-86.91905687729684
 20
-36.22404333772897
  9
$LIMMAX
 10
15.71817719241209
 20
16.31752723149139
  9
$ORTHOMODE
 70
     0
  9
$REGENMODE
 70
     1
  9
$FILLMODE
 70
     1
  9
$QTEXTMODE
 70
     0
  9
$MIRRTEXT
 70
     0
  9
$DRAGMODE
 70
     2
  9
$LTSCALE
 40
1.0
  9
$OSMODE
 70
    55
  9
$ATTMODE
 70
     1
  9
$TEXTSIZE
 40
2.5
  9
$TRACEWID
 40
1.0
  9
$TEXTSTYLE
  7
STANDARD
  9
$CLAYER
  8
AM_0
  9
$CELTYPE
  6
BYLAYER
  9
$CECOLOR
 62
   256
  9
$CELTSCALE
 40
1.0
  9
$DELOBJ
 70
     1
  9
$DISPSILH
 70
     0
  9
$DIMSCALE
 40
0.5
  9
$DIMASZ
 40
2.5
  9
$DIMEXO
 40
1.0
  9
$DIMDLI
 40
12.0
  9
$DIMRND
 40
0.0
  9
$DIMDLE
 40
0.0
  9
$DIMEXE
 40
1.0
  9
$DIMTP
 40
0.1
  9
$DIMTM
 40
0.1
  9
$DIMTXT
 40
3.2
  9
$DIMCEN
 40
0.0
  9
$DIMTSZ
 40
0.0
  9
$DIMTOL
 70
     0
  9
$DIMLIM
 70
     0
  9
$DIMTIH
 70
     0
  9
$DIMTOH
 70
     0
  9
$DIMSE1
 70
     0
  9
$DIMSE2
 70
     0
  9
$DIMTAD
 70
     3
  9
$DIMZIN
 70
     8
  9
$DIMBLK
  1
OPEN30
  9
$DIMASO
 70
     1
  9
$DIMSHO
 70
     1
  9
$DIMPOST
  1

  9
$DIMAPOST
  1
"
  9
$DIMALT
 70
     0
  9
$DIMALTD
 70
     2
  9
$DIMALTF
 40
0.0393701
  9
$DIMLFAC
 40
1.0
  9
$DIMTOFL
 70
     1
  9
$DIMTVP
 40
0.0
  9
$DIMTIX
 70
     0
  9
$DIMSOXD
 70
     0
  9
$DIMSAH
 70
     0
  9
$DIMBLK1
  1

  9
$DIMBLK2
  1

  9
$DIMSTYLE
  2
AM_JIS
  9
$DIMCLRD
 70
   256
  9
$DIMCLRE
 70
   256
  9
$DIMCLRT
 70
     2
  9
$DIMTFAC
 40
0.71
  9
$DIMGAP
 40
1.5
  9
$DIMJUST
 70
     0
  9
$DIMSD1
 70
     0
  9
$DIMSD2
 70
     0
  9
$DIMTOLJ
 70
     0
  9
$DIMTZIN
 70
     0
  9
$DIMALTZ
 70
     0
  9
$DIMALTTZ
 70
     0
  9
$DIMFIT
 70
     3
  9
$DIMUPT
 70
     0
  9
$DIMUNIT
 70
     2
  9
$DIMDEC
 70
     3
  9
$DIMTDEC
 70
     3
  9
$DIMALTU
 70
     2
  9
$DIMALTTD
 70
     2
  9
$DIMTXSTY
  7
ASAMI
  9
$DIMAUNIT
 70
     0
  9
$LUNITS
 70
     2
  9
$LUPREC
 70
     2
  9
$SKETCHINC
 40
1.0
  9
$FILLETRAD
 40
2.5
  9
$AUNITS
 70
     0
  9
$AUPREC
 70
     0
  9
$MENU
  1
.
  9
$ELEVATION
 40
0.0
  9
$PELEVATION
 40
0.0
  9
$THICKNESS
 40
0.0
  9
$LIMCHECK
 70
     0
  9
$BLIPMODE
 70
     0
  9
$CHAMFERA
 40
1.0
  9
$CHAMFERB
 40
1.0
  9
$CHAMFERC
 40
20.0
  9
$CHAMFERD
 40
0.0
  9
$SKPOLY
 70
     0
  9
$TDCREATE
 40
2452836.771637361
  9
$TDUPDATE
 40
2453151.800067627
  9
$TDINDWG
 40
0.0393353819
  9
$TDUSRTIMER
 40
0.0393353819
  9
$USRTIMER
 70
     1
  9
$ANGBASE
 50
0.0
  9
$ANGDIR
 70
     0
  9
$PDMODE
 70
     0
  9
$PDSIZE
 40
0.0
  9
$PLINEWID
 40
0.0
  9
$COORDS
 70
     1
  9
$SPLFRAME
 70
     0
  9
$SPLINETYPE
 70
     6
  9
$SPLINESEGS
 70
     8
  9
$ATTDIA
 70
     1
  9
$ATTREQ
 70
     1
  9
$HANDLING
 70
 12289
  9
$HANDSEED
  5
1771
  9
$SURFTAB1
 70
     6
  9
$SURFTAB2
 70
     6
  9
$SURFTYPE
 70
     6
  9
$SURFU
 70
     6
  9
$SURFV
 70
     6
  9
$UCSNAME
  2

  9
$UCSORG
 10
0.0
 20
0.0
 30
0.0
  9
$UCSXDIR
 10
1.0
 20
0.0
 30
0.0
  9
$UCSYDIR
 10
0.0
 20
1.0
 30
0.0
  9
$PUCSNAME
  2

  9
$PUCSORG
 10
0.0
 20
0.0
 30
0.0
  9
$PUCSXDIR
 10
1.0
 20
0.0
 30
0.0
  9
$PUCSYDIR
 10
0.0
 20
1.0
 30
0.0
  9
$USERI1
 70
     0
  9
$USERI2
 70
     0
  9
$USERI3
 70
     0
  9
$USERI4
 70
     0
  9
$USERI5
 70
     0
  9
$USERR1
 40
0.0
  9
$USERR2
 40
0.0
  9
$USERR3
 40
0.0
  9
$USERR4
 40
0.0
  9
$USERR5
 40
0.0
  9
$WORLDVIEW
 70
     1
  9
$SHADEDGE
 70
     3
  9
$SHADEDIF
 70
    70
  9
$TILEMODE
 70
     1
  9
$MAXACTVP
 70
    64
  9
$PINSBASE
 10
0.0
 20
0.0
 30
0.0
  9
$PLIMCHECK
 70
     0
  9
$PEXTMIN
 10
1.000000000000000E+20
 20
1.000000000000000E+20
 30
1.000000000000000E+20
  9
$PEXTMAX
 10
-1.000000000000000E+20
 20
-1.000000000000000E+20
 30
-1.000000000000000E+20
  9
$PLIMMIN
 10
0.0
 20
0.0
  9
$PLIMMAX
 10
841.0
 20
594.0
  9
$UNITMODE
 70
     0
  9
$VISRETAIN
 70
     1
  9
$PLINEGEN
 70
     0
  9
$PSLTSCALE
 70
     0
  9
$TREEDEPTH
 70
  3020
  9
$PICKSTYLE
 70
     0
  9
$CMLSTYLE
  2
STANDARD
  9
$CMLJUST
 70
     0
  9
$CMLSCALE
 40
20.0
  9
$PROXYGRAPHICS
 70
     1
  9
$MEASUREMENT
 70
     1
  0
ENDSEC
  0
SECTION
  2
CLASSES
  0
CLASS
  1
ACDBDICTIONARYWDFLT
  2
AcDbDictionaryWithDefault
  3
AutoCAD 2000
 90
        0
280
     0
281
     0
  0
CLASS
  1
ACDBPLACEHOLDER
  2
AcDbPlaceHolder
  3
AutoCAD 2000
 90
        0
280
     0
281
     0
  0
CLASS
  1
LAYOUT
  2
AcDbLayout
  3
AutoCAD 2000
 90
        0
280
     0
281
     0
  0
CLASS
  1
AMGSETTINGSOBJ
  2
AmgSettingsObj
  3
"AcadM|Product Description: AutoCAD Mechanical 2000|Company: Autodesk"
 90
        0
280
     0
281
     0
  0
CLASS
  1
ACME_DOCUMENT
  2
AcMeDbDoc
  3
AcMeServices
 90
        0
280
     0
281
     0
  0
CLASS
  1
ACMESCOPE
  2
AcMeScope
  3
AcMeServices
 90
        0
280
     0
281
     0
  0
CLASS
  1
ACMECOMMANDHISTORY
  2
AcMeCommandHistory
  3
AcMeServices
 90
        0
280
     0
281
     0
  0
CLASS
  1
DICTIONARYVAR
  2
AcDbDictionaryVar
  3
AutoCAD 2000
 90
        0
280
     0
281
     0
  0
CLASS
  1
ACIMSYSVARMAN
  2
AcImSysVarManager
  3
AcMeServices
 90
        0
280
     0
281
     0
  0
CLASS
  1
ACIMREALSYSVAR
  2
AcImRealSysVar
  3
AcMeServices
 90
        0
280
     0
281
     0
  0
CLASS
  1
ACIMINTSYSVAR
  2
AcImIntSysVar
  3
AcMeServices
 90
        0
280
     0
281
     0
  0
CLASS
  1
ACMEDRAWINGMAN
  2
AcMeDrawingMan
  3
AcMeServices
 90
        0
280
     0
281
     0
  0
CLASS
  1
ACMEVIEW
  2
AcMeView
  3
AcMeServices
 90
        0
280
     0
281
     0
  0
CLASS
  1
ACDBENTITYCACHE
  2
AcMeEntityCache
  3
AcMeServices
 90
        0
280
     0
281
     0
  0
CLASS
  1
GSMANAGER
  2
AcMeGSManager
  3
AcMeServices
 90
        0
280
     0
281
     0
  0
CLASS
  1
AmdtInternalReactor
  2
AmdtInternalReactor
  3
AcMeServices
 90
        0
280
     0
281
     0
  0
CLASS
  1
ACMESTATEMGR
  2
AcMeStateMgr
  3
AcMeServices
 90
        0
280
     0
281
     0
  0
CLASS
  1
ACME_DATABASE
  2
AcMeDbDatabase
  3
AcMeServices
 90
        0
280
     0
281
     0
  0
CLASS
  1
ACRFINSADJUSTERMGR
  2
AcRfInsAdjusterMgr
  3
AcMeServices
 90
        0
280
     0
281
     0
  0
CLASS
  1
ACMDATADICTIONARY
  2
AcmDataDictionary
  3
"AcmSymBB|Product Description: AutoCAD Mechanical 2000|Company: Autodesk"
 90
        0
280
     0
281
     0
  0
CLASS
  1
ACMDATAENTRYBLOCK
  2
AcmDataEntryBlock
  3
"AcmSymBB|Product Description: AutoCAD Mechanical 2000|Company: Autodesk"
 90
        0
280
     0
281
     0
  0
CLASS
  1
AMGOBJPROPCFG
  2
AmgObjPropCfg
  3
"AmgLay|Product Description: AutoCAD Mechanical 2000|Company: Autodesk"
 90
        1
280
     0
281
     0
  0
CLASS
  1
ACAMGFILTERDAT
  2
AcAmgFilterDat
  3
"AcadM|Product Description: AutoCAD Mechanical 2000|Company: Autodesk"
 90
        0
280
     0
281
     0
  0
CLASS
  1
LAYER_INDEX
  2
AcDbLayerIndex
  3
AutoCAD 2000
 90
        0
280
     0
281
     0
  0
CLASS
  1
IDBUFFER
  2
AcDbIdBuffer
  3
AutoCAD 2000
 90
        0
280
     0
281
     0
  0
CLASS
  1
ACIMSTRSYSVAR
  2
AcImStrSysVar
  3
AcMeServices
 90
        0
280
     0
281
     0
  0
CLASS
  1
ACMSTANDARDJIS
  2
AcmStandardJIS
  3
"AcmSymBB|Product Description: AutoCAD Mechanical 2000|Company: Autodesk"
 90
        0
280
     0
281
     0
  0
CLASS
  1
ACMSURFSTANDARDJIS
  2
AcmSurfTextStdJIS
  3
"AcmSymBB|Product Description: AutoCAD Mechanical 2000|Company: Autodesk"
 90
        0
280
     0
281
     0
  0
CLASS
  1
ACMFCFSTANDARDJIS
  2
AcmFCFStdJIS
  3
"AcmSymBB|Product Description: AutoCAD Mechanical 2000|Company: Autodesk"
 90
        0
280
     0
281
     0
  0
CLASS
  1
ACMWELDSTANDARDJIS
  2
AcmWeldingStdJIS
  3
"AcmSymBB|Product Description: AutoCAD Mechanical 2000|Company: Autodesk"
 90
        0
280
     0
281
     0
  0
CLASS
  1
ACMIDSTANDARDJIS
  2
AcmIdStdJIS
  3
"AcmSymBB|Product Description: AutoCAD Mechanical 2000|Company: Autodesk"
 90
        0
280
     0
281
     0
  0
CLASS
  1
ACMDATUMSTANDARDJIS
  2
AcmDatumStdJIS
  3
"AcmSymBB|Product Description: AutoCAD Mechanical 2000|Company: Autodesk"
 90
        0
280
     0
281
     0
  0
CLASS
  1
ACMBOMSTANDARDJIS
  2
AcmBOMStdJIS
  3
"AcmSymBB|Product Description: AutoCAD Mechanical 2000|Company: Autodesk"
 90
        0
280
     0
281
     0
  0
CLASS
  1
ACMSTANDARDANSI
  2
AcmStandardANSI
  3
"AcmSymBB|Product Description: AutoCAD Mechanical 2000|Company: Autodesk"
 90
        0
280
     0
281
     0
  0
CLASS
  1
ACMSURFSTANDARDANSI
  2
AcmSurfTextStdANSI
  3
"AcmSymBB|Product Description: AutoCAD Mechanical 2000|Company: Autodesk"
 90
        0
280
     0
281
     0
  0
CLASS
  1
ACMFCFSTANDARDANSI
  2
AcmFCFStdANSI
  3
"AcmSymBB|Product Description: AutoCAD Mechanical 2000|Company: Autodesk"
 90
        0
280
     0
281
     0
  0
CLASS
  1
ACMWELDSTANDARDANSI
  2
AcmWeldingStdANSI
  3
"AcmSymBB|Product Description: AutoCAD Mechanical 2000|Company: Autodesk"
 90
        0
280
     0
281
     0
  0
CLASS
  1
ACMIDSTANDARDANSI
  2
AcmIdStdANSI
  3
"AcmSymBB|Product Description: AutoCAD Mechanical 2000|Company: Autodesk"
 90
        0
280
     0
281
     0
  0
CLASS
  1
ACMDATUMSTANDARDANSI
  2
AcmDatumStdANSI
  3
"AcmSymBB|Product Description: AutoCAD Mechanical 2000|Company: Autodesk"
 90
        0
280
     0
281
     0
  0
CLASS
  1
ACMBOMSTANDARDANSI
  2
AcmBOMStdANSI
  3
"AcmSymBB|Product Description: AutoCAD Mechanical 2000|Company: Autodesk"
 90
        0
280
     0
281
     0
  0
CLASS
  1
ACMSTANDARDBSI
  2
AcmStandardBSI
  3
"AcmSymBB|Product Description: AutoCAD Mechanical 2000|Company: Autodesk"
 90
        0
280
     0
281
     0
  0
CLASS
  1
ACMSURFSTANDARDBSI
  2
AcmSurfTextStdBSI
  3
"AcmSymBB|Product Description: AutoCAD Mechanical 2000|Company: Autodesk"
 90
        0
280
     0
281
     0
  0
CLASS
  1
ACMFCFSTANDARDBSI
  2
AcmFCFStdBSI
  3
"AcmSymBB|Product Description: AutoCAD Mechanical 2000|Company: Autodesk"
 90
        0
280
     0
281
     0
  0
CLASS
  1
ACMWELDSTANDARDBSI
  2
AcmWeldingStdBSI
  3
"AcmSymBB|Product Description: AutoCAD Mechanical 2000|Company: Autodesk"
 90
        0
280
     0
281
     0
  0
CLASS
  1
ACMIDSTANDARDBSI
  2
AcmIdStdBSI
  3
"AcmSymBB|Product Description: AutoCAD Mechanical 2000|Company: Autodesk"
 90
        0
280
     0
281
     0
  0
CLASS
  1
ACMDATUMSTANDARDBSI
  2
AcmDatumStdBSI
  3
"AcmSymBB|Product Description: AutoCAD Mechanical 2000|Company: Autodesk"
 90
        0
280
     0
281
     0
  0
CLASS
  1
ACMBOMSTANDARDBSI
  2
AcmBOMStdBSI
  3
"AcmSymBB|Product Description: AutoCAD Mechanical 2000|Company: Autodesk"
 90
        0
280
     0
281
     0
  0
CLASS
  1
LONG_TRANSACTION
  2
AcDbLongTransaction
  3
AutoCAD 2000
 90
        0
280
     0
281
     0
  0
CLASS
  1
LWPOLYLINE
  2
AcDbPolyline
  3
AutoCAD 2000
 90
        0
280
     0
281
     1
  0
CLASS
  1
HATCH
  2
AcDbHatch
  3
AutoCAD 2000
 90
        0
280
     0
281
     1
  0
CLASS
  1
XRECORD
  2
AcDbXrecord
  3
AutoCAD 2000
 90
        0
280
     0
281
     0
  0
ENDSEC
  0
SECTION
  2
TABLES
  0
TABLE
  2
VPORT
  5
8
330
0
100
AcDbSymbolTable
 70
     3
  0
VPORT
  5
1746
330
8
100
AcDbSymbolTableRecord
100
AcDbViewportTableRecord
  2
*ACTIVE
 70
     0
 10
0.0
 20
0.0
 11
1.0
 21
1.0
 12
-36.04286847704393
 22
-11.50458756899695
 13
0.0
 23
0.0
 14
2.5
 24
2.5
 15
10.0
 25
10.0
 16
0.0
 26
0.0
 36
1.0
 17
0.0
 27
0.0
 37
0.0
 40
61.69267282793581
 41
1.56570841889117
 42
50.0
 43
0.0
 44
0.0
 50
0.0
 51
0.0
 71
     0
 72
   100
 73
     1
 74
     3
 75
     0
 76
     0
 77
     0
 78
     0
  0
ENDTAB
  0
TABLE
  2
LTYPE
  5
5
330
0
100
AcDbSymbolTable
 70
    10
  0
LTYPE
  5
14
330
5
100
AcDbSymbolTableRecord
100
AcDbLinetypeTableRecord
  2
BYBLOCK
 70
     0
  3

 72
    65
 73
     0
 40
0.0
  0
LTYPE
  5
15
330
5
100
AcDbSymbolTableRecord
100
AcDbLinetypeTableRecord
  2
BYLAYER
 70
     0
  3

 72
    65
 73
     0
 40
0.0
  0
LTYPE
  5
16
330
5
100
AcDbSymbolTableRecord
100
AcDbLinetypeTableRecord
  2
CONTINUOUS
 70
     0
  3
Solid line
 72
    65
 73
     0
 40
0.0
  0
LTYPE
  5
4B
330
5
100
AcDbSymbolTableRecord
100
AcDbLinetypeTableRecord
  2
AM_ISO02W050
 70
     0
  3
__ __ __ __ __ __ __ __ __ __ __ __ __ __ __
 72
    65
 73
     2
 40
7.5
 49
6.0
 74
     0
 49
-1.5
 74
     0
  0
LTYPE
  5
4C
330
5
100
AcDbSymbolTableRecord
100
AcDbLinetypeTableRecord
  2
AM_ISO08W050
 70
     0
  3
____ . ____ . ____ . ____ . ____ . ____ . ____
 72
    65
 73
     4
 40
18.0
 49
12.0
 74
     0
 49
-1.5
 74
     0
 49
3.0
 74
     0
 49
-1.5
 74
     0
  0
LTYPE
  5
4D
330
5
100
AcDbSymbolTableRecord
100
AcDbLinetypeTableRecord
  2
AM_ISO09W050
 70
     0
  3
_____ . . _____ . . _____ . . ____ .. ____
 72
    65
 73
     6
 40
22.5
 49
12.0
 74
     0
 49
-1.5
 74
     0
 49
3.0
 74
     0
 49
-1.5
 74
     0
 49
3.0
 74
     0
 49
-1.5
 74
     0
  0
LTYPE
  5
4E
330
5
100
AcDbSymbolTableRecord
100
AcDbLinetypeTableRecord
  2
AMCONSTR
 70
     0
  3
_______________________
 72
    65
 73
     2
 40
9999.0
 49
9999.0
 74
     0
 49
0.0
 74
     0
  0
LTYPE
  5
4F
330
5
100
AcDbSymbolTableRecord
100
AcDbLinetypeTableRecord
  2
AM_ISO02W050X2
 70
     0
  3
 _ _ _ _ _ _ _ _ _ _ _ _
 72
    65
 73
     2
 40
3.75
 49
3.0
 74
     0
 49
-0.75
 74
     0
  0
LTYPE
  5
50
330
5
100
AcDbSymbolTableRecord
100
AcDbLinetypeTableRecord
  2
AM_ISO08W050X2
 70
     0
  3
__ . __ . __ . __ . __ . __
 72
    65
 73
     4
 40
9.0
 49
6.0
 74
     0
 49
-0.75
 74
     0
 49
1.5
 74
     0
 49
-0.75
 74
     0
  0
LTYPE
  5
53
330
5
100
AcDbSymbolTableRecord
100
AcDbLinetypeTableRecord
  2
AMZIGZAG
 70
     0
  3
/\/-/\/-/\/-/\/-/\/-/\/
 72
    65
 73
     2
 40
11.00009999999999
 49
0.0001
 74
     4
 75
   135
340
52
 46
0.04
 50
0.0
 44
0.0
 45
0.0
 49
-11.0
 74
     0
  0
LTYPE
  5
166
330
5
100
AcDbSymbolTableRecord
100
AcDbLinetypeTableRecord
  2
ACJISTGL
 70
     0
  3
_ _ _ _ _
 72
    65
 73
     2
 40
3.0
 49
2.0
 74
     0
 49
-1.0
 74
     0
  0
LTYPE
  5
26A
330
5
100
AcDbSymbolTableRecord
100
AcDbLinetypeTableRecord
  2
ACJISTGB
 70
     0
  3
__ . . __ . .
 72
    65
 73
     6
 40
9.0
 49
4.0
 74
     0
 49
-1.0
 74
     0
 49
1.0
 74
     0
 49
-1.0
 74
     0
 49
1.0
 74
     0
 49
-1.0
 74
     0
  0
ENDTAB
  0
TABLE
  2
LAYER
  5
2
330
0
100
AcDbSymbolTable
 70
     7
  0
LAYER
  5
10
330
2
100
AcDbSymbolTableRecord
100
AcDbLayerTableRecord
  2
0
 70
     0
 62
     7
  6
CONTINUOUS
  0
LAYER
  5
3F9
330
2
100
AcDbSymbolTableRecord
100
AcDbLayerTableRecord
  2
AM_0
 70
     0
 62
     7
  6
CONTINUOUS
  0
LAYER
  5
BD4
330
2
100
AcDbSymbolTableRecord
100
AcDbLayerTableRecord
  2
AM_11
 70
     0
 62
     3
  6
AM_ISO09W050
  0
LAYER
  5
BD5
330
2
100
AcDbSymbolTableRecord
100
AcDbLayerTableRecord
  2
AM_7
 70
     0
 62
     4
  6
AM_ISO08W050
  0
LAYER
  5
BD6
330
2
100
AcDbSymbolTableRecord
100
AcDbLayerTableRecord
  2
AM_5
 70
     0
 62
     3
  6
CONTINUOUS
  0
LAYER
  5
BD7
330
2
100
AcDbSymbolTableRecord
100
AcDbLayerTableRecord
  2
DEFPOINTS
 70
     0
 62
     7
  6
CONTINUOUS
  0
LAYER
  5
E59
330
2
100
AcDbSymbolTableRecord
100
AcDbLayerTableRecord
  2
AM_6
 70
     0
 62
     2
  6
CONTINUOUS
  0
ENDTAB
  0
TABLE
  2
STYLE
  5
3
330
0
100
AcDbSymbolTable
 70
     5
  0
STYLE
  5
11
330
3
100
AcDbSymbolTableRecord
100
AcDbTextStyleTableRecord
  2
STANDARD
 70
     0
 40
0.0
 41
1.0
 50
0.0
 71
     0
 42
2.5
  3
simplex.shx
  4
EXTFONT.SHX
  0
STYLE
  5
52
330
3
100
AcDbSymbolTableRecord
100
AcDbTextStyleTableRecord
  2

 70
     1
 40
0.0
 41
1.0
 50
0.0
 71
     0
 42
2.5
  3
ltypeshp.shx
  4

  0
STYLE
  5
6B
330
3
100
AcDbSymbolTableRecord
100
AcDbTextStyleTableRecord
  2
ASAMI
 70
     0
 40
0.0
 41
1.0
 50
0.0
 71
     0
 42
2.5
  3
simplex.shx
  4
EXTFONT.SHX
  0
STYLE
  5
262
330
3
100
AcDbSymbolTableRecord
100
AcDbTextStyleTableRecord
  2
ACJISTS
 70
     0
 40
1.0
 41
1.0
 50
0.0
 71
     0
 42
2.5
  3
simplex.shx
  4
bigfont.shx
  0
STYLE
  5
269
330
3
100
AcDbSymbolTableRecord
100
AcDbTextStyleTableRecord
  2
ACJISGDT
 70
     0
 40
0.0
 41
1.0
 50
0.0
 71
     0
 42
2.5
  3
amgdtans.shx
  4

  0
ENDTAB
  0
TABLE
  2
VIEW
  5
6
330
0
100
AcDbSymbolTable
 70
     0
  0
ENDTAB
  0
TABLE
  2
UCS
  5
7
330
0
100
AcDbSymbolTable
 70
     0
  0
ENDTAB
  0
TABLE
  2
APPID
  5
9
330
0
100
AcDbSymbolTable
 70
    12
  0
APPID
  5
12
330
9
100
AcDbSymbolTableRecord
100
AcDbRegAppTableRecord
  2
ACAD
 70
     0
  0
APPID
  5
30
330
9
100
AcDbSymbolTableRecord
100
AcDbRegAppTableRecord
  2
MCAD_NO_VIS
 70
     0
  0
APPID
  5
31
330
9
100
AcDbSymbolTableRecord
100
AcDbRegAppTableRecord
  2
ACAD_TEMP_GRAPHIC
 70
     0
  0
APPID
  5
2C2
330
9
100
AcDbSymbolTableRecord
100
AcDbRegAppTableRecord
  2
GENIUS_GENDTOL_13
 70
     0
  0
APPID
  5
339
330
9
100
AcDbSymbolTableRecord
100
AcDbRegAppTableRecord
  2
GENIUS_GENODEF_13
 70
     0
  0
APPID
  5
33A
330
9
100
AcDbSymbolTableRecord
100
AcDbRegAppTableRecord
  2
GENIUS_GENOBJ-N-RSBK_13
 70
     0
  0
APPID
  5
33B
330
9
100
AcDbSymbolTableRecord
100
AcDbRegAppTableRecord
  2
GENIUS_GENOBJ-N-LIB_13
 70
     0
  0
APPID
  5
33C
330
9
100
AcDbSymbolTableRecord
100
AcDbRegAppTableRecord
  2
GENIUS_GENSCALE_13
 70
     0
  0
APPID
  5
378
330
9
100
AcDbSymbolTableRecord
100
AcDbRegAppTableRecord
  2
GENIUS_GENDIMSH_14
 70
     0
  0
APPID
  5
BD8
330
9
100
AcDbSymbolTableRecord
100
AcDbRegAppTableRecord
  2
GENIUS_GENOBJ-N-CEN_13
 70
     0
  0
APPID
  5
BD9
330
9
100
AcDbSymbolTableRecord
100
AcDbRegAppTableRecord
  2
GENIUS_GENFIL_13
 70
     0
  0
APPID
  5
BDA
330
9
100
AcDbSymbolTableRecord
100
AcDbRegAppTableRecord
  2
GENIUS_GENOBJ-N-CHA_13
 70
     0
  0
ENDTAB
  0
TABLE
  2
DIMSTYLE
  5
A
330
0
100
AcDbSymbolTable
 70
     8
  0
DIMSTYLE
105
58
102
{ACAD_REACTORS
330
D71
330
D7A
330
EB4
330
DA6
102
}
330
A
100
AcDbSymbolTableRecord
100
AcDbDimStyleTableRecord
  2
AM_JIS
 70
     0
  3

  4
"
  5
OPEN30
  6

  7

 40
0.5
 41
2.5
 42
1.0
 43
12.0
 44
1.0
 45
0.0
 46
0.0
 47
0.1
 48
0.1
140
3.2
141
0.0
142
0.0
143
0.0393701
144
1.0
145
0.0
146
0.71
147
1.5
 71
     0
 72
     0
 73
     0
 74
     0
 75
     0
 76
     0
 77
     3
 78
     8
170
     0
171
     2
172
     1
173
     0
174
     0
175
     0
176
   256
177
   256
178
     2
270
     2
271
     3
272
     3
273
     2
274
     2
340
6B
275
     0
280
     0
281
     0
282
     0
283
     0
284
     0
285
     0
286
     0
287
     3
288
     0
  0
DIMSTYLE
105
5F
330
A
100
AcDbSymbolTableRecord
100
AcDbDimStyleTableRecord
  2
AM_JIS$3
 70
     0
  3

  4
"
  5
OPEN30
  6

  7

 40
0.5
 41
2.5
 42
1.0
 43
10.0
 44
1.0
 45
0.0
 46
0.0
 47
0.1
 48
0.1
140
3.2
141
0.0
142
0.0
143
0.0393701
144
1.0
145
0.0
146
0.71
147
1.5
 71
     0
 72
     0
 73
     0
 74
     1
 75
     0
 76
     0
 77
     3
 78
     8
170
     0
171
     2
172
     0
173
     0
174
     0
175
     0
176
   256
177
   256
178
     2
270
     2
271
     2
272
     3
273
     2
274
     2
340
6B
275
     0
280
     0
281
     0
282
     0
283
     0
284
     0
285
     0
286
     0
287
     0
288
     1
  0
DIMSTYLE
105
60
330
A
100
AcDbSymbolTableRecord
100
AcDbDimStyleTableRecord
  2
AM_JIS$4
 70
     0
  3

  4
"
  5
OPEN30
  6

  7

 40
0.5
 41
2.5
 42
1.0
 43
10.0
 44
1.0
 45
0.0
 46
0.0
 47
0.1
 48
0.1
140
3.2
141
0.0
142
0.0
143
0.0393701
144
1.0
145
0.0
146
0.71
147
1.5
 71
     0
 72
     0
 73
     0
 74
     1
 75
     0
 76
     0
 77
     3
 78
     8
170
     0
171
     2
172
     0
173
     0
174
     0
175
     0
176
   256
177
   256
178
     2
270
     2
271
     2
272
     3
273
     2
274
     2
340
6B
275
     0
280
     0
281
     0
282
     0
283
     0
284
     0
285
     0
286
     0
287
     0
288
     1
  0
DIMSTYLE
105
61
330
A
100
AcDbSymbolTableRecord
100
AcDbDimStyleTableRecord
  2
AM_JIS$6
 70
     0
  3

  4
"
  5
OPEN30
  6

  7

 40
0.5
 41
2.5
 42
1.0
 43
10.0
 44
1.0
 45
0.0
 46
0.0
 47
0.1
 48
0.1
140
3.2
141
0.0
142
0.0
143
0.0393701
144
1.0
145
0.0
146
0.71
147
1.5
 71
     0
 72
     0
 73
     0
 74
     0
 75
     0
 76
     0
 77
     0
 78
     8
170
     0
171
     2
172
     1
173
     0
174
     0
175
     0
176
   256
177
   256
178
     2
270
     2
271
     2
272
     2
273
     2
274
     2
340
6B
275
     0
280
     0
281
     0
282
     0
283
     0
284
     0
285
     0
286
     0
287
     3
288
     0
  0
DIMSTYLE
105
62
330
A
100
AcDbSymbolTableRecord
100
AcDbDimStyleTableRecord
  2
AM_JIS$7
 70
     0
  3

  4
"
  5
OPEN30
  6

  7

 40
0.5
 41
2.5
 42
1.0
 43
10.0
 44
1.0
 45
0.0
 46
0.0
 47
0.1
 48
0.1
140
3.2
141
0.0
142
0.0
143
0.0393701
144
1.0
145
0.0
146
0.71
147
1.5
 71
     0
 72
     0
 73
     0
 74
     0
 75
     0
 76
     0
 77
     3
 78
     8
170
     0
171
     2
172
     1
173
     0
174
     0
175
     0
176
   256
177
   256
178
     2
270
     2
271
     2
272
     3
273
     2
274
     2
340
6B
275
     0
280
     0
281
     0
282
     0
283
     0
284
     0
285
     0
286
     0
287
     3
288
     0
  0
DIMSTYLE
105
63
330
A
100
AcDbSymbolTableRecord
100
AcDbDimStyleTableRecord
  2
AM_JIS$SF
 70
     0
  3

  4
"
  5
OPEN30
  6

  7

 40
0.5
 41
2.5
 42
1.0
 43
10.0
 44
1.0
 45
0.0
 46
0.0
 47
0.1
 48
0.1
140
3.2
141
0.0
142
0.0
143
0.0393701
144
1.0
145
0.0
146
0.71
147
1.5
 71
     0
 72
     0
 73
     0
 74
     0
 75
     1
 76
     1
 77
     3
 78
     8
170
     0
171
     2
172
     1
173
     0
174
     0
175
     0
176
   256
177
   256
178
     2
270
     2
271
     2
272
     2
273
     2
274
     2
340
6B
275
     0
280
     0
281
     0
282
     0
283
     0
284
     0
285
     0
286
     0
287
     3
288
     0
  0
DIMSTYLE
105
68
330
A
100
AcDbSymbolTableRecord
100
AcDbDimStyleTableRecord
  2
AM_JIS$SH
 70
     0
  3

  4
"
  5

  6
GENAXEH
  7
OPEN30
 40
0.5
 41
2.5
 42
1.0
 43
10.0
 44
1.0
 45
0.0
 46
0.0
 47
0.1
 48
0.1
140
3.2
141
0.0
142
0.0
143
0.0393701
144
2.0
145
0.0
146
0.71
147
1.5
 71
     0
 72
     0
 73
     0
 74
     0
 75
     1
 76
     1
 77
     3
 78
     8
170
     0
171
     2
172
     1
173
     1
174
     0
175
     0
176
   256
177
   256
178
     2
270
     2
271
     2
272
     2
273
     2
274
     2
340
6B
275
     0
280
     0
281
     0
282
     0
283
     0
284
     0
285
     0
286
     0
287
     3
288
     0
  0
DIMSTYLE
105
B34
330
A
100
AcDbSymbolTableRecord
100
AcDbDimStyleTableRecord
  2
AM_JIS$2
 70
     0
  3

  4
"
  5
OPEN30
  6

  7

 40
0.5
 41
2.5
 42
1.0
 43
12.0
 44
1.0
 45
0.0
 46
0.0
 47
0.1
 48
0.1
140
3.2
141
0.0
142
0.0
143
0.0393701
144
1.0
145
0.0
146
0.71
147
1.5
 71
     0
 72
     0
 73
     0
 74
     0
 75
     0
 76
     0
 77
     3
 78
     8
170
     0
171
     2
172
     1
173
     0
174
     0
175
     0
176
   256
177
   256
178
     2
270
     2
271
     3
272
     3
273
     2
274
     2
340
6B
275
     0
280
     0
281
     0
282
     0
283
     0
284
     0
285
     0
286
     0
287
     3
288
     0
  0
ENDTAB
  0
TABLE
  2
BLOCK_RECORD
  5
1
330
0
100
AcDbSymbolTable
 70
     9
  0
BLOCK_RECORD
  5
1F
102
{ACAD_XDICTIONARY
360
74
102
}
330
1
100
AcDbSymbolTableRecord
100
AcDbBlockTableRecord
  2
*MODEL_SPACE
  0
BLOCK_RECORD
  5
101
102
{ACAD_XDICTIONARY
360
176F
102
}
330
1
100
AcDbSymbolTableRecord
100
AcDbBlockTableRecord
  2
*PAPER_SPACE
  0
BLOCK_RECORD
  5
59
330
1
100
AcDbSymbolTableRecord
100
AcDbBlockTableRecord
  2
_OPEN30
  0
BLOCK_RECORD
  5
64
330
1
100
AcDbSymbolTableRecord
100
AcDbBlockTableRecord
  2
GENAXEH
  0
BLOCK_RECORD
  5
DDA
330
1
100
AcDbSymbolTableRecord
100
AcDbBlockTableRecord
  2
*D5
  0
BLOCK_RECORD
  5
DF3
330
1
100
AcDbSymbolTableRecord
100
AcDbBlockTableRecord
  2
*D6
  0
BLOCK_RECORD
  5
DFF
330
1
100
AcDbSymbolTableRecord
100
AcDbBlockTableRecord
  2
*D7
  0
BLOCK_RECORD
  5
EB5
330
1
100
AcDbSymbolTableRecord
100
AcDbBlockTableRecord
  2
*D8
  0
ENDTAB
  0
ENDSEC
  0
SECTION
  2
BLOCKS
  0
BLOCK
  5
20
330
1F
100
AcDbEntity
  8
0
100
AcDbBlockBegin
  2
*MODEL_SPACE
 70
     0
 10
0.0
 20
0.0
 30
0.0
  3
*MODEL_SPACE
  1

  0
ENDBLK
  5
21
330
1F
100
AcDbEntity
  8
0
100
AcDbBlockEnd
  0
BLOCK
  5
103
330
101
100
AcDbEntity
 67
     1
  8
0
100
AcDbBlockBegin
  2
*PAPER_SPACE
 70
     0
 10
0.0
 20
0.0
 30
0.0
  3
*PAPER_SPACE
  1

  0
ENDBLK
  5
104
330
101
100
AcDbEntity
 67
     1
  8
0
100
AcDbBlockEnd
  0
BLOCK
  5
5D
330
59
100
AcDbEntity
  8
0
100
AcDbBlockBegin
  2
_OPEN30
 70
     0
 10
0.0
 20
0.0
 30
0.0
  3
_OPEN30
  1

  0
LINE
  5
5A
330
59
100
AcDbEntity
  8
0
 62
     0
100
AcDbLine
 10
-1.0
 20
0.26794919
 30
0.0
 11
0.0
 21
0.0
 31
0.0
  0
LINE
  5
5B
330
59
100
AcDbEntity
  8
0
 62
     0
100
AcDbLine
 10
0.0
 20
0.0
 30
0.0
 11
-1.0
 21
-0.26794919
 31
0.0
  0
LINE
  5
5C
330
59
100
AcDbEntity
  8
0
 62
     0
100
AcDbLine
 10
0.0
 20
0.0
 30
0.0
 11
-1.0
 21
0.0
 31
0.0
  0
ENDBLK
  5
5E
330
59
100
AcDbEntity
  8
0
100
AcDbBlockEnd
  0
BLOCK
  5
66
330
64
100
AcDbEntity
  8
0
100
AcDbBlockBegin
  2
GENAXEH
 70
     0
 10
0.0
 20
0.0
 30
0.0
  3
GENAXEH
  1

  0
LINE
  5
65
330
64
100
AcDbEntity
  8
0
100
AcDbLine
 10
-1.0
 20
0.0
 30
0.0
 11
1.0
 21
0.0
 31
0.0
  0
ENDBLK
  5
67
330
64
100
AcDbEntity
  8
0
100
AcDbBlockEnd
  0
BLOCK
  5
DE4
330
DDA
100
AcDbEntity
  8
0
100
AcDbBlockBegin
  2
*D5
 70
     1
 10
0.0
 20
0.0
 30
0.0
  3
*D5
  1

  0
LINE
  5
1585
330
DDA
100
AcDbEntity
  8
AM_5
100
AcDbLine
 10
-0.0000000000000029
 20
-6.5000000000005
 30
0.0
 11
-0.0000000000000037
 21
-19.50000100999994
 31
0.0
  0
LINE
  5
1586
330
DDA
100
AcDbEntity
  8
AM_5
100
AcDbLine
 10
-70.0
 20
-5.500000000000003
 30
0.0
 11
-70.0
 21
-19.50000100999994
 31
0.0
  0
LINE
  5
1587
330
DDA
100
AcDbEntity
  8
AM_5
100
AcDbLine
 10
-1.250000000000003
 20
-19.00000100999994
 30
0.0
 11
-68.75
 21
-19.00000100999994
 31
0.0
  0
INSERT
  5
1588
330
DDA
100
AcDbEntity
  8
AM_5
100
AcDbBlockReference
  2
_OPEN30
 10
-0.0000000000000036
 20
-19.00000100999994
 30
0.0
 41
1.25
 42
1.25
 43
1.25
  0
INSERT
  5
1589
330
DDA
100
AcDbEntity
  8
AM_5
100
AcDbBlockReference
  2
_OPEN30
 10
-70.0
 20
-19.00000100999994
 30
0.0
 41
1.25
 42
1.25
 43
1.25
 50
180.0
  0
MTEXT
  5
158A
330
DDA
100
AcDbEntity
  8
AM_5
 62
     2
100
AcDbMText
 10
-35.0
 20
-17.45000100999994
 30
0.0
 40
1.6
 41
0.0
 71
     5
 72
     1
  1
70
  7
ASAMI
1001
ACAD
1000
MTEXTBEGIN
1070
    73
1070
     1
1070
    44
1040
1.0
1070
    74
1070
     0
1000
MTEXTEND
  0
POINT
  5
158B
330
DDA
100
AcDbEntity
  8
DEFPOINTS
 62
     0
100
AcDbPoint
 10
-0.0000000000000028
 20
-6.0000000000005
 30
0.0
  0
POINT
  5
158C
330
DDA
100
AcDbEntity
  8
DEFPOINTS
 62
     0
100
AcDbPoint
 10
-70.0
 20
-5.000000000000003
 30
0.0
  0
POINT
  5
158D
330
DDA
100
AcDbEntity
  8
DEFPOINTS
 62
     0
100
AcDbPoint
 10
-70.0
 20
-19.00000100999994
 30
0.0
  0
ENDBLK
  5
DE5
330
DDA
100
AcDbEntity
  8
0
100
AcDbBlockEnd
  0
BLOCK
  5
DFD
330
DF3
100
AcDbEntity
  8
0
100
AcDbBlockBegin
  2
*D6
 70
     1
 10
0.0
 20
0.0
 30
0.0
  3
*D6
  1

  0
LINE
  5
158E
330
DF3
100
AcDbEntity
  8
AM_5
100
AcDbLine
 10
-17.99999999999994
 20
-6.500000000000039
 30
0.0
 11
-17.99999999999994
 21
-13.50000100999994
 31
0.0
  0
LINE
  5
158F
330
DF3
100
AcDbEntity
  8
AM_5
100
AcDbLine
 10
-0.0000000000000029
 20
-6.5000000000005
 30
0.0
 11
-0.0000000000000033
 21
-13.50000100999994
 31
0.0
  0
LINE
  5
1590
330
DF3
100
AcDbEntity
  8
AM_5
100
AcDbLine
 10
-16.74999999999994
 20
-13.00000100999994
 30
0.0
 11
-1.250000000000003
 21
-13.00000100999994
 31
0.0
  0
INSERT
  5
1591
330
DF3
100
AcDbEntity
  8
AM_5
100
AcDbBlockReference
  2
_OPEN30
 10
-17.99999999999994
 20
-13.00000100999994
 30
0.0
 41
1.25
 42
1.25
 43
1.25
 50
180.0
  0
INSERT
  5
1592
330
DF3
100
AcDbEntity
  8
AM_5
100
AcDbBlockReference
  2
_OPEN30
 10
-0.0000000000000033
 20
-13.00000100999994
 30
0.0
 41
1.25
 42
1.25
 43
1.25
  0
MTEXT
  5
1593
330
DF3
100
AcDbEntity
  8
AM_5
 62
     2
100
AcDbMText
 10
-8.999999999999975
 20
-11.45000100999994
 30
0.0
 40
1.6
 41
0.0
 71
     5
 72
     1
  1
18
  7
ASAMI
1001
ACAD
1000
MTEXTBEGIN
1070
    73
1070
     1
1070
    44
1040
1.0
1070
    74
1070
     0
1000
MTEXTEND
  0
POINT
  5
1594
330
DF3
100
AcDbEntity
  8
DEFPOINTS
 62
     0
100
AcDbPoint
 10
-17.99999999999994
 20
-6.000000000000039
 30
0.0
  0
POINT
  5
1595
330
DF3
100
AcDbEntity
  8
DEFPOINTS
 62
     0
100
AcDbPoint
 10
-0.0000000000000028
 20
-6.0000000000005
 30
0.0
  0
POINT
  5
1596
330
DF3
100
AcDbEntity
  8
DEFPOINTS
 62
     0
100
AcDbPoint
 10
-0.0000000000000033
 20
-13.00000100999994
 30
0.0
  0
ENDBLK
  5
DFE
330
DF3
100
AcDbEntity
  8
0
100
AcDbBlockEnd
  0
BLOCK
  5
E0A
330
DFF
100
AcDbEntity
  8
0
100
AcDbBlockBegin
  2
*D7
 70
     1
 10
0.0
 20
0.0
 30
0.0
  3
*D7
  1

  0
LINE
  5
1597
330
DFF
100
AcDbEntity
  8
AM_5
100
AcDbLine
 10
0.499999999999996
 20
5.999999999999974
 30
0.0
 11
12.05776903085493
 21
5.99999999999997
 31
0.0
  0
LINE
  5
1598
330
DFF
100
AcDbEntity
  8
AM_5
100
AcDbLine
 10
0.4999999999999965
 20
-6.000000000000498
 30
0.0
 11
12.05776903085492
 21
-6.000000000000501
 31
0.0
  0
LINE
  5
1599
330
DFF
100
AcDbEntity
  8
AM_5
100
AcDbLine
 10
11.55776903085492
 20
4.74999999999997
 30
0.0
 11
11.55776903085492
 21
-4.750000000000501
 31
0.0
  0
INSERT
  5
159A
330
DFF
100
AcDbEntity
  8
AM_5
100
AcDbBlockReference
  2
_OPEN30
 10
11.55776903085492
 20
5.99999999999997
 30
0.0
 41
1.25
 42
1.25
 43
1.25
 50
90.0
  0
INSERT
  5
159B
330
DFF
100
AcDbEntity
  8
AM_5
100
AcDbBlockReference
  2
_OPEN30
 10
11.55776903085492
 20
-6.000000000000501
 30
0.0
 41
1.25
 42
1.25
 43
1.25
 50
270.0
  0
MTEXT
  5
159C
330
DFF
100
AcDbEntity
  8
AM_5
 62
     2
100
AcDbMText
 10
10.00776903085492
 20
-0.0000000000002634
 30
0.0
 40
1.6
 41
0.0
 71
     5
 72
     1
  1
%%c12
  7
ASAMI
 11
0.0000000000000001
 21
1.0
 31
0.0
1001
ACAD
1000
MTEXTBEGIN
1070
    73
1070
     1
1070
    44
1040
1.0
1070
    74
1070
     0
1000
MTEXTEND
  0
POINT
  5
159D
330
DFF
100
AcDbEntity
  8
DEFPOINTS
 62
     0
100
AcDbPoint
 10
-0.0000000000000041
 20
5.999999999999974
 30
0.0
  0
POINT
  5
159E
330
DFF
100
AcDbEntity
  8
DEFPOINTS
 62
     0
100
AcDbPoint
 10
-0.0000000000000036
 20
-6.000000000000498
 30
0.0
  0
POINT
  5
159F
330
DFF
100
AcDbEntity
  8
DEFPOINTS
 62
     0
100
AcDbPoint
 10
11.55776903085492
 20
-6.000000000000501
 30
0.0
  0
ENDBLK
  5
E0B
330
DFF
100
AcDbEntity
  8
0
100
AcDbBlockEnd
  0
BLOCK
  5
EBF
330
EB5
100
AcDbEntity
  8
0
100
AcDbBlockBegin
  2
*D8
 70
     1
 10
0.0
 20
0.0
 30
0.0
  3
*D8
  1

  0
LINE
  5
EE9
330
EB5
100
AcDbEntity
  8
AM_5
100
AcDbLine
 10
-69.50000000000001
 20
5.999999999999998
 30
0.0
 11
-82.29349790496838
 21
6.000000000000002
 31
0.0
  0
LINE
  5
EEA
330
EB5
100
AcDbEntity
  8
AM_5
100
AcDbLine
 10
-69.5
 20
-6.000000000000001
 30
0.0
 11
-82.29349790496838
 21
-5.999999999999997
 31
0.0
  0
LINE
  5
EEB
330
EB5
100
AcDbEntity
  8
AM_5
100
AcDbLine
 10
-81.79349790496837
 20
4.750000000000001
 30
0.0
 11
-81.79349790496837
 21
-4.749999999999998
 31
0.0
  0
INSERT
  5
EEC
330
EB5
100
AcDbEntity
  8
AM_5
100
AcDbBlockReference
  2
_OPEN30
 10
-81.79349790496837
 20
6.000000000000001
 30
0.0
 41
1.25
 42
1.25
 43
1.25
 50
90.0
  0
INSERT
  5
EED
330
EB5
100
AcDbEntity
  8
AM_5
100
AcDbBlockReference
  2
_OPEN30
 10
-81.79349790496837
 20
-5.999999999999998
 30
0.0
 41
1.25
 42
1.25
 43
1.25
 50
270.0
  0
MTEXT
  5
EEE
330
EB5
100
AcDbEntity
  8
AM_5
 62
     2
100
AcDbMText
 10
-83.34349790496837
 20
-0.0000000000000108
 30
0.0
 40
1.6
 41
0.0
 71
     5
 72
     1
  1
%%c12
  7
ASAMI
 11
0.0000000000000001
 21
1.0
 31
0.0
1001
ACAD
1000
MTEXTBEGIN
1070
    73
1070
     1
1070
    44
1040
1.0
1070
    74
1070
     0
1000
MTEXTEND
  0
POINT
  5
EEF
330
EB5
100
AcDbEntity
  8
DEFPOINTS
 62
     0
100
AcDbPoint
 10
-69.00000000000002
 20
5.999999999999998
 30
0.0
  0
POINT
  5
EF0
330
EB5
100
AcDbEntity
  8
DEFPOINTS
 62
     0
100
AcDbPoint
 10
-69.0
 20
-6.000000000000001
 30
0.0
  0
POINT
  5
EF1
330
EB5
100
AcDbEntity
  8
DEFPOINTS
 62
     0
100
AcDbPoint
 10
-81.79349790496837
 20
-5.999999999999998
 30
0.0
  0
ENDBLK
  5
EC0
330
EB5
100
AcDbEntity
  8
0
100
AcDbBlockEnd
  0
ENDSEC
  0
SECTION
  2
ENTITIES
  0
DIMENSION
  5
D71
330
1F
100
AcDbEntity
  8
AM_5
100
AcDbDimension
  2
*D5
 10
-70.0
 20
-19.00000100999994
 30
0.0
 11
-35.0
 21
-17.45000100999994
 31
0.0
 70
    32
  1
<>
  3
AM_JIS
100
AcDbAlignedDimension
 13
-0.0000000000000028
 23
-6.0000000000005
 33
0.0
 14
-70.0
 24
-5.000000000000003
 34
0.0
100
AcDbRotatedDimension
1001
GENIUS_GENDTOL_13
1000

1000
h7
1000

1040
0.0
  0
LINE
  5
D74
330
1F
100
AcDbEntity
  8
AM_7
  6
AM_ISO08W050X2
100
AcDbLine
 10
4.557768030854926
 20
0.0
 30
0.0
 11
-74.79349690496838
 21
-0.0000000000000355
 31
0.0
1001
GENIUS_GENODEF_13
1002
{
1000
HIER
1070
     0
1002
}
1002
{
1000
MANEDIT
1070
     0
1002
}
1002
{
1000
NOSEL
1070
     0
1002
}
1002
{
1000
BEHIND
1070
     0
1002
}
1002
{
1000
REACTOR
1002
}
1001
GENIUS_GENOBJ-N-CEN_13
1002
{
1000
OWNER
1000
GEN
1002
}
  0
DIMENSION
  5
D7A
330
1F
100
AcDbEntity
  8
AM_5
100
AcDbDimension
  2
*D6
 10
-0.0000000000000033
 20
-13.00000100999994
 30
0.0
 11
-8.999999999999975
 21
-11.45000100999994
 31
0.0
 70
    32
  1
<>
  3
AM_JIS
100
AcDbAlignedDimension
 13
-17.99999999999994
 23
-6.000000000000039
 33
0.0
 14
-0.0000000000000028
 24
-6.0000000000005
 34
0.0
100
AcDbRotatedDimension
1001
GENIUS_GENDTOL_13
1000

1000
h7
1000

1040
0.0
  0
DIMENSION
  5
DA6
330
1F
100
AcDbEntity
  8
AM_5
100
AcDbDimension
  2
*D7
 10
11.55776903085492
 20
-6.000000000000501
 30
0.0
 11
10.00776903085492
 21
-0.0000000000002634
 31
0.0
 70
    32
  1
%%c<>
  3
AM_JIS
100
AcDbAlignedDimension
 13
-0.0000000000000041
 23
5.999999999999974
 33
0.0
 14
-0.0000000000000036
 24
-6.000000000000498
 34
0.0
 50
270.0
100
AcDbRotatedDimension
1001
GENIUS_GENDTOL_13
1000

1000
h7
1000

1040
0.0
  0
TEXT
  5
E5A
330
1F
100
AcDbEntity
  8
AM_6
100
AcDbText
 10
-42.97619047619047
 20
-30.25000100999994
 30
0.0
 40
2.5
  1
SSM4120
 72
     4
 11
-35.0
 21
-29.00000100999994
 31
0.0
100
AcDbText
  0
LINE
  5
EB1
330
1F
100
AcDbEntity
  8
AM_0
100
AcDbLine
 10
-19.8632445686873
 20
-5.999999999999996
 30
0.0
 11
-69.0
 21
-6.000000000000002
 31
0.0
  0
LINE
  5
EB2
330
1F
100
AcDbEntity
  8
AM_0
100
AcDbLine
 10
-69.0
 20
-6.000000000000001
 30
0.0
 11
-69.0
 21
5.999999999999998
 31
0.0
  0
LINE
  5
EB3
330
1F
100
AcDbEntity
  8
AM_0
100
AcDbLine
 10
-70.0
 20
-5.000000000000003
 30
0.0
 11
-70.0
 21
4.999999999999998
 31
0.0
  0
DIMENSION
  5
EB4
330
1F
100
AcDbEntity
  8
AM_5
100
AcDbDimension
  2
*D8
 10
-81.79349790496837
 20
-5.999999999999998
 30
0.0
 11
-83.34349790496837
 21
-0.0000000000000108
 31
0.0
 70
    32
  1
%%c<>
  3
AM_JIS
100
AcDbAlignedDimension
 13
-69.00000000000002
 23
5.999999999999998
 33
0.0
 14
-69.0
 24
-6.000000000000001
 34
0.0
 50
270.0
100
AcDbRotatedDimension
1001
GENIUS_GENDTOL_13
1000

1000
h7
1000

1040
0.0
  0
LINE
  5
EC2
330
1F
100
AcDbEntity
  8
AM_0
100
AcDbLine
 10
-14.96000000000022
 20
6.000000000000124
 30
0.0
 11
-69.0
 21
5.999999999999998
 31
0.0
  0
LINE
  5
ED2
330
1F
100
AcDbEntity
  8
AM_0
100
AcDbLine
 10
-69.0
 20
5.999999999999998
 30
0.0
 11
-70.0
 21
4.999999999999998
 31
0.0
1001
GENIUS_GENFIL_13
1070
     0
1040
1.0
1040
1.0
1040
20.0
1040
0.0
1002
{
1002
}
1001
GENIUS_GENODEF_13
1002
{
1000
HIER
1070
     0
1002
}
1002
{
1000
MANEDIT
1070
     0
1002
}
1002
{
1000
NOSEL
1070
     0
1002
}
1002
{
1000
BEHIND
1070
     0
1002
}
1002
{
1000
REACTOR
1002
}
1001
GENIUS_GENOBJ-N-CHA_13
1002
{
1000
OWNER
1000
GEN
1002
}
  0
LINE
  5
ED5
330
1F
100
AcDbEntity
  8
AM_0
100
AcDbLine
 10
-70.0
 20
-5.000000000000003
 30
0.0
 11
-69.0
 21
-6.000000000000002
 31
0.0
1001
GENIUS_GENFIL_13
1070
     0
1040
1.0
1040
1.0
1040
20.0
1040
0.0
1002
{
1002
}
1001
GENIUS_GENODEF_13
1002
{
1000
HIER
1070
     0
1002
}
1002
{
1000
MANEDIT
1070
     0
1002
}
1002
{
1000
NOSEL
1070
     0
1002
}
1002
{
1000
BEHIND
1070
     0
1002
}
1002
{
1000
REACTOR
1002
}
1001
GENIUS_GENOBJ-N-CHA_13
1002
{
1000
OWNER
1000
GEN
1002
}
  0
LINE
  5
16AE
330
1F
100
AcDbEntity
  8
AM_0
100
AcDbLine
 10
-1.17427661752066
 20
3.20056897681248
 30
0.0
 11
-2.592229454124292
 21
3.610144107033701
 31
0.0
  0
LINE
  5
16AF
330
1F
100
AcDbEntity
  8
AM_0
100
AcDbLine
 10
-0.1155000000002095
 20
1.200000000000141
 30
0.0
 11
-1.17427661752066
 21
3.20056897681248
 31
0.0
  0
LINE
  5
16B0
330
1F
100
AcDbEntity
  8
AM_0
100
AcDbLine
 10
-18.00000000000017
 20
3.762190406684325
 30
0.0
 11
-18.39032595257708
 21
3.084155097164259
 31
0.0
  0
LINE
  5
16B1
330
1F
100
AcDbEntity
  8
AM_0
100
AcDbLine
 10
-18.39032595257708
 20
3.084155097164259
 30
0.0
 11
-18.00000000000017
 21
1.883902810775055
 31
0.0
  0
POLYLINE
  5
16B2
330
1F
100
AcDbEntity
  8
AM_0
100
AcDb2dPolyline
 66
     1
 10
0.0
 20
0.0
 30
0.0
 70
     2
  0
VERTEX
  5
16B3
330
16B2
100
AcDbEntity
  8
AM_0
100
AcDbVertex
100
AcDb2dVertex
 10
-20.92612383034899
 20
4.814898576206044
 30
0.0
 42
-0.0080850818469205
  0
VERTEX
  5
16B4
330
16B2
100
AcDbEntity
  8
AM_0
100
AcDbVertex
100
AcDb2dVertex
 10
-21.4776367707859
 20
5.003355344833249
 30
0.0
 42
-0.0113772357485858
 70
     1
  0
VERTEX
  5
16B5
330
16B2
100
AcDbEntity
  8
AM_0
100
AcDbVertex
100
AcDb2dVertex
 10
-21.87057435570908
 20
5.156244722030091
 30
0.0
 42
-0.0082896290467094
  0
VERTEX
  5
16B6
330
16B2
100
AcDbEntity
  8
AM_0
100
AcDbVertex
100
AcDb2dVertex
 10
-23.12292951898871
 20
5.704993710813461
 30
0.0
 42
-0.2726804491113656
 70
     1
  0
VERTEX
  5
16B7
330
16B2
100
AcDbEntity
  8
AM_0
100
AcDbVertex
100
AcDb2dVertex
 10
-23.14924684652786
 20
5.743564879282782
 30
0.0
 42
-0.4014058829339297
  0
VERTEX
  5
16B8
330
16B2
100
AcDbEntity
  8
AM_0
100
AcDbVertex
100
AcDb2dVertex
 10
-23.10153726505421
 20
5.811184851144272
 30
0.0
 42
-0.0313656446754737
 70
     1
  0
VERTEX
  5
16B9
330
16B2
100
AcDbEntity
  8
AM_0
100
AcDbVertex
100
AcDb2dVertex
 10
-22.24196069351372
 20
5.894543789604689
 30
0.0
 42
-0.0039726403541645
  0
VERTEX
  5
16BA
330
16B2
100
AcDbEntity
  8
AM_0
100
AcDbVertex
100
AcDb2dVertex
 10
-21.45916033014262
 20
5.909922204541071
 30
0.0
 42
0.0019401889352083
 70
     1
  0
VERTEX
  5
16BB
330
16B2
100
AcDbEntity
  8
AM_0
100
AcDbVertex
100
AcDb2dVertex
 10
-19.85625000000016
 20
5.934302227906012
 30
0.0
 42
0.0036525506412497
  0
VERTEX
  5
16BC
330
16B2
100
AcDbEntity
  8
AM_0
100
AcDbVertex
100
AcDb2dVertex
 10
-19.22592791692574
 20
5.95158372654388
 30
0.0
 42
0.0018773371428962
 70
     1
  0
VERTEX
  5
16BD
330
16B2
100
AcDbEntity
  8
AM_0
100
AcDbVertex
100
AcDb2dVertex
 10
-18.00000000000017
 20
5.999999999999982
 30
0.0
  0
SEQEND
  5
16BE
330
16B2
100
AcDbEntity
  8
AM_0
  0
LINE
  5
16BF
330
1F
100
AcDbEntity
  8
AM_11
100
AcDbLine
 10
-0.0000000000010649
 20
6.000000000000007
 30
0.0
 11
-18.00000000000022
 21
5.999999999999989
 31
0.0
  0
LINE
  5
16C0
330
1F
100
AcDbEntity
  8
AM_0
100
AcDbLine
 10
-0.0000000000002265
 20
0.0000000000000036
 30
0.0
 11
-0.0977268700585787
 21
-1.015344104502897
 31
0.0
  0
LINE
  5
16C1
330
1F
100
AcDbEntity
  8
AM_0
100
AcDbLine
 10
-0.1155000000002095
 20
-1.592277425475817
 30
0.0
 11
-0.0000000000002265
 21
-1.199999999999992
 31
0.0
  0
LINE
  5
16C2
330
1F
100
AcDbEntity
  8
AM_0
100
AcDbLine
 10
-0.946503784260499
 20
-1.768385718199848
 30
0.0
 11
-0.1155000000002095
 21
-1.592277425475817
 31
0.0
  0
LINE
  5
16C3
330
1F
100
AcDbEntity
  8
AM_0
100
AcDbLine
 10
-0.0000000000002265
 20
-1.199999999999992
 30
0.0
 11
-0.6350852961088398
 21
0.0000000000000746
 31
0.0
  0
LINE
  5
16C4
330
1F
100
AcDbEntity
  8
AM_0
100
AcDbLine
 10
-2.592229454124292
 20
0.0000000000000036
 30
0.0
 11
-2.592229454124292
 21
-0.9600000000000115
 31
0.0
  0
LINE
  5
16C5
330
1F
100
AcDbEntity
  8
AM_0
100
AcDbLine
 10
-0.0000000000002265
 20
0.0000000000000036
 30
0.0
 11
-2.592229454124292
 21
0.0000000000000036
 31
0.0
  0
LINE
  5
16C6
330
1F
100
AcDbEntity
  8
AM_0
100
AcDbLine
 10
-2.592229454124292
 20
-0.9600000000000115
 30
0.0
 11
-0.946503784260499
 21
-1.768385718199848
 31
0.0
  0
LINE
  5
16C7
330
1F
100
AcDbEntity
  8
AM_0
100
AcDbLine
 10
-2.592229454124292
 20
-0.9600000000000115
 30
0.0
 11
-0.1270170592219406
 21
-0.9600000000000115
 31
0.0
  0
LINE
  5
16C8
330
1F
100
AcDbEntity
  8
AM_0
100
AcDbLine
 10
-0.0000000000002123
 20
-5.999999999999992
 30
0.0
 11
-0.1155000000002095
 21
-5.680129389146181
 31
0.0
  0
LINE
  5
16C9
330
1F
100
AcDbEntity
  8
AM_0
100
AcDbLine
 10
-0.1155000000002095
 20
-5.680129389146113
 30
0.0
 11
-0.7535000000002148
 21
-4.797139986554284
 31
0.0
  0
ELLIPSE
  5
16CA
330
1F
100
AcDbEntity
  8
AM_0
100
AcDbEllipse
 10
2.184240500229706
 20
-3.052656197661477
 30
0.0
 11
0.0000000000000026
 21
3.648837738619259
 31
0.0
210
0.0
220
0.0
230
1.0
 40
0.9166666666666669
 41
1.211124581303832
 42
2.069278538290319
  0
LINE
  5
16CB
330
1F
100
AcDbEntity
  8
AM_0
100
AcDbLine
 10
-0.1155000000002095
 20
-5.680129389146181
 30
0.0
 11
-0.1155000000002095
 21
-1.592277425475817
 31
0.0
  0
LINE
  5
16CC
330
1F
100
AcDbEntity
  8
AM_0
100
AcDbLine
 10
-0.0000000000002123
 20
-5.999999999999992
 30
0.0
 11
-0.0000000000002265
 21
-1.199999999999992
 31
0.0
  0
LINE
  5
16CD
330
1F
100
AcDbEntity
  8
AM_0
100
AcDbLine
 10
-18.00000000000016
 20
-3.984621838062761
 30
0.0
 11
-18.00000000000028
 21
-5.834564990190028
 31
0.0
  0
ELLIPSE
  5
16CE
330
1F
100
AcDbEntity
  8
AM_0
100
AcDbEllipse
 10
-17.98214300989501
 20
-18.64366737853261
 30
0.0
 11
-0.0000000000002047
 21
12.80911720139957
 31
0.0
210
0.0
220
0.0
230
1.0
 40
0.9166666666666527
 41
0.0015208199007808
 42
0.1609004017522271
  0
LINE
  5
16CF
330
1F
100
AcDbEntity
  8
AM_11
100
AcDbLine
 10
-18.00000000000022
 20
-6.000000000000007
 30
0.0
 11
-0.0000000000002123
 21
-5.999999999999992
 31
0.0
  0
LINE
  5
16D0
330
1F
100
AcDbEntity
  8
AM_0
100
AcDbLine
 10
-18.00000000000016
 20
1.883902810775047
 30
0.0
 11
-19.85625000000016
 21
2.313179641481987
 31
0.0
  0
LINE
  5
16D1
330
1F
100
AcDbEntity
  8
AM_0
100
AcDbLine
 10
-19.85625000000016
 20
2.313179641481987
 30
0.0
 11
-22.33125000000016
 21
2.172121421945124
 31
0.0
  0
LINE
  5
16D2
330
1F
100
AcDbEntity
  8
AM_0
100
AcDbLine
 10
-22.33125000000016
 20
2.172121421945124
 30
0.0
 11
-22.95000000000016
 21
1.368711144985159
 31
0.0
  0
LINE
  5
16D3
330
1F
100
AcDbEntity
  8
AM_0
100
AcDbLine
 10
-22.95000000000016
 20
1.368711144985159
 30
0.0
 11
-22.33125000000016
 21
-0.0523136746805726
 31
0.0
  0
LINE
  5
16D4
330
1F
100
AcDbEntity
  8
AM_0
100
AcDbLine
 10
-22.33125000000016
 20
-0.0523136746805726
 30
0.0
 11
-19.85625000000016
 21
-2.663830065040507
 31
0.0
  0
LINE
  5
16D5
330
1F
100
AcDbEntity
  8
AM_0
100
AcDbLine
 10
-19.85625000000016
 20
-2.663830065040507
 30
0.0
 11
-18.00000000000015
 21
-3.984621838062761
 31
0.0
  0
LINE
  5
16D6
330
1F
100
AcDbEntity
  8
AM_11
100
AcDbLine
 10
-17.99999999999895
 20
6.000000000000003
 30
0.0
 11
-18.00000000000022
 21
-6.000000000000007
 31
0.0
  0
LINE
  5
16D7
330
1F
100
AcDbEntity
  8
AM_0
100
AcDbLine
 10
-0.0000000000002265
 20
0.0000000000000036
 30
0.0
 11
-0.0000000000002265
 21
6.000000000000007
 31
0.0
  0
LINE
  5
16D8
330
1F
100
AcDbEntity
  8
AM_0
100
AcDbLine
 10
-0.0000000000002265
 20
0.0000000000000036
 30
0.0
 11
-0.1155000000002095
 21
1.200000000000141
 31
0.0
  0
SPLINE
  5
16D9
330
1F
100
AcDbEntity
  8
AM_0
100
AcDbSpline
210
0.0
220
0.0
230
1.0
 70
     8
 71
     3
 72
     8
 73
     4
 74
     0
 42
0.0000000001
 43
0.0000000001
 40
1.870660592686466
 40
1.870660592686466
 40
1.870660592686466
 40
1.870660592686466
 40
14.43901837670146
 40
14.43901837670146
 40
14.43901837670146
 40
14.43901837670146
 10
-0.1155000000002095
 20
-5.680129389146113
 30
0.0
 10
-4.626561050351923
 20
-5.066280734521775
 30
0.0
 10
-8.833283695079046
 20
-2.533140367260852
 30
0.0
 10
-13.04000633980617
 20
0.0000000000000675
 30
0.0
  0
SPLINE
  5
16DA
330
1F
100
AcDbEntity
  8
AM_0
100
AcDbSpline
210
0.0
220
0.0
230
1.0
 70
     8
 71
     3
 72
     8
 73
     4
 74
     0
 42
0.0000000001
 43
0.0000000001
 40
0.0
 40
0.0
 40
0.0
 40
0.0
 40
15.93899620427835
 40
15.93899620427835
 40
15.93899620427835
 40
15.93899620427835
 10
-0.0000000000002123
 20
-5.999999999999992
 30
0.0
 10
-5.312998734759664
 20
-5.999999999999996
 30
0.0
 10
-10.13649936737994
 20
-3.000000000000003
 30
0.0
 10
-14.96000000000021
 20
-0.0000000000000071
 30
0.0
  0
SPLINE
  5
16DB
330
1F
100
AcDbEntity
  8
AM_0
100
AcDbSpline
210
0.0
220
0.0
230
1.0
 70
     8
 71
     3
 72
     8
 73
     4
 74
     0
 42
0.0000000001
 43
0.0000000001
 40
0.0
 40
0.0
 40
0.0
 40
0.0
 40
15.93899620427834
 40
15.93899620427834
 40
15.93899620427834
 40
15.93899620427834
 10
-14.96000000000022
 20
6.000000000000124
 30
0.0
 10
-9.647001265240771
 20
6.000000000000127
 30
0.0
 10
-4.823500632620498
 20
3.000000000000135
 30
0.0
 10
-0.0000000000002265
 20
0.0000000000001421
 30
0.0
  0
SPLINE
  5
16DC
330
1F
100
AcDbEntity
  8
AM_0
100
AcDbSpline
210
0.0
220
0.0
230
1.0
 70
     8
 71
     3
 72
     8
 73
     4
 74
     0
 42
0.0000000001
 43
0.0000000001
 40
0.3581103616548037
 40
0.3581103616548037
 40
0.3581103616548037
 40
0.3581103616548037
 40
12.40023413887867
 40
12.40023413887867
 40
12.40023413887867
 40
12.40023413887867
 10
-12.64692945925466
 20
5.815014507423203
 30
0.0
 10
-8.250337467665787
 20
5.696116724475402
 30
0.0
 10
-4.166755315965246
 20
3.603241354182006
 30
0.0
 10
-0.128494071635628
 20
1.224552427930763
 30
0.0
  0
SPLINE
  5
16DD
330
1F
100
AcDbEntity
  8
AM_0
100
AcDbSpline
210
0.0
220
0.0
230
1.0
 70
     8
 71
     3
 72
     8
 73
     4
 74
     0
 42
0.0000000001
 43
0.0000000001
 40
4.542668862435135
 40
4.542668862435135
 40
4.542668862435135
 40
4.542668862435135
 40
14.36247867694493
 40
14.36247867694493
 40
14.36247867694493
 40
14.36247867694493
 10
-0.7534999999986943
 20
-4.797139986547939
 30
0.0
 10
-4.201405820541309
 20
-3.788406823887424
 30
0.0
 10
-7.515278735734354
 20
-1.894203411943678
 30
0.0
 10
-10.8291516509274
 20
0.0000000000000675
 30
0.0
  0
SPLINE
  5
16DE
330
1F
100
AcDbEntity
  8
AM_0
100
AcDbSpline
210
0.0
220
0.0
230
1.0
 70
     8
 71
     3
 72
     8
 73
     4
 74
     0
 42
0.0000000001
 43
0.0000000001
 40
0.0
 40
0.0
 40
0.0
 40
0.0
 40
5.635889483499127
 40
5.635889483499127
 40
5.635889483499127
 40
5.635889483499127
 10
-0.0000000000002265
 20
6.000000000000007
 30
0.0
 10
-2.066492810616565
 20
6.000000000000007
 30
0.0
 10
-4.058933179219947
 20
5.546152834774968
 30
0.0
 10
-6.006123830348442
 20
4.81498252604549
 30
0.0
  0
SPLINE
  5
16DF
330
1F
100
AcDbEntity
  8
AM_0
100
AcDbSpline
210
0.0
220
0.0
230
1.0
 70
     8
 71
     3
 72
     8
 73
     4
 74
     0
 42
0.0000000001
 43
0.0000000001
 40
0.0
 40
0.0
 40
0.0
 40
0.0
 40
2.845221855978378
 40
2.845221855978378
 40
2.845221855978378
 40
2.845221855978378
 10
-0.0000000000002265
 20
4.889643224020762
 30
0.0
 10
-0.6085941185534637
 20
4.096131835381214
 30
0.0
 10
-1.653211455187815
 20
3.755368556309225
 30
0.0
 10
-2.592229454124292
 20
3.610144107033693
 30
0.0
  0
SPLINE
  5
16E0
330
1F
100
AcDbEntity
  8
AM_0
100
AcDbSpline
210
0.0
220
0.0
230
1.0
 70
     8
 71
     3
 72
     8
 73
     4
 74
     0
 42
0.0000000001
 43
0.0000000001
 40
0.7142832446738512
 40
0.7142832446738512
 40
0.7142832446738512
 40
0.7142832446738512
 40
9.361146747480315
 40
9.361146747480315
 40
9.361146747480315
 40
9.361146747480315
 10
-10.04650016971838
 20
5.520717347789148
 30
0.0
 10
-6.900471637275329
 20
5.358940126765904
 30
0.0
 10
-3.898885486593058
 20
4.242923859359553
 30
0.0
 10
-0.9502297250931794
 20
2.777230139377142
 30
0.0
  0
SPLINE
  5
16E1
330
1F
100
AcDbEntity
  8
AM_0
100
AcDbSpline
210
0.0
220
0.0
230
1.0
 70
     8
 71
     3
 72
     8
 73
     4
 74
     0
 42
0.0000000001
 43
0.0000000001
 40
4.48458745047074
 40
4.48458745047074
 40
4.48458745047074
 40
4.48458745047074
 40
14.36247867694493
 40
14.36247867694493
 40
14.36247867694493
 40
14.36247867694493
 10
-20.926123830349
 20
4.814898576206051
 30
0.0
 10
-17.45609873299186
 20
3.810814184272576
 30
0.0
 10
-14.12262519195969
 20
1.905407092136304
 30
0.0
 10
-10.78915165092759
 20
0.0000000000000604
 30
0.0
  0
SPLINE
  5
16E2
330
1F
100
AcDbEntity
  8
AM_0
100
AcDbSpline
210
0.0
220
0.0
230
1.0
 70
     8
 71
     3
 72
     8
 73
     4
 74
     0
 42
0.0000000001
 43
0.0000000001
 40
0.0
 40
0.0
 40
0.0
 40
0.0
 40
1.412269715655734
 40
1.412269715655734
 40
1.412269715655734
 40
1.412269715655734
 10
-16.46000000000037
 20
-5.917282495094919
 30
0.0
 10
-16.97783222907416
 20
-5.917282495094919
 30
0.0
 10
-17.49101449253919
 20
-5.888784127552167
 30
0.0
 10
-18.00000000000015
 20
-5.834564990189999
 30
0.0
  0
SPLINE
  5
16E3
330
1F
100
AcDbEntity
  8
AM_0
100
AcDbSpline
210
0.0
220
0.0
230
1.0
 70
     8
 71
     3
 72
     8
 73
     4
 74
     0
 42
0.0000000001
 43
0.0000000001
 40
0.0
 40
0.0
 40
0.0
 40
0.0
 40
2.130230809022907
 40
2.130230809022907
 40
2.130230809022907
 40
2.130230809022907
 10
-14.92000000000039
 20
-6.000000000000007
 30
0.0
 10
-14.13891537002531
 20
-6.000000000000007
 30
0.0
 10
-13.36841030407642
 20
-5.935160745384205
 30
0.0
 10
-12.60692945925506
 20
-5.815014507423082
 30
0.0
  0
SPLINE
  5
16E4
330
1F
100
AcDbEntity
  8
AM_0
100
AcDbSpline
210
0.0
220
0.0
230
1.0
 70
     8
 71
     3
 72
     8
 73
     4
 74
     0
 42
0.0000000001
 43
0.0000000001
 40
0.0
 40
0.0
 40
0.0
 40
0.0
 40
6.769478140335353
 40
6.769478140335353
 40
6.769478140335353
 40
6.769478140335353
 10
-10.78915165092757
 20
-5.540933404563098
 30
0.0
 10
-13.2712936357172
 20
-5.540933404563098
 30
0.0
 10
-15.66027293930557
 20
-4.925466759771616
 30
0.0
 10
-18.00000000000015
 20
-3.984621838062761
 30
0.0
  0
SPLINE
  5
16E5
330
1F
100
AcDbEntity
  8
AM_0
100
AcDbSpline
210
0.0
220
0.0
230
1.0
 70
     8
 71
     3
 72
     8
 73
     4
 74
     0
 42
0.0000000001
 43
0.0000000001
 40
0.0
 40
0.0
 40
0.0
 40
0.0
 40
4.662554012798695
 40
4.662554012798695
 40
4.662554012798695
 40
4.662554012798695
 10
-13.00000633980632
 20
-5.820340404402337
 30
0.0
 10
-14.70960947783248
 20
-5.820340404402337
 30
0.0
 10
-16.37109472573494
 20
-5.51688784620655
 30
0.0
 10
-18.00000000000015
 20
-5.007971658563256
 30
0.0
  0
SPLINE
  5
16E6
330
1F
100
AcDbEntity
  8
AM_0
100
AcDbSpline
210
0.0
220
0.0
230
1.0
 70
     8
 71
     3
 72
     8
 73
     4
 74
     0
 42
0.0000000001
 43
0.0000000001
 40
0.0
 40
0.0
 40
0.0
 40
0.0
 40
4.451443990518192
 40
4.451443990518192
 40
4.451443990518192
 40
4.451443990518192
 10
-10.78915165092757
 20
-5.540933404563229
 30
0.0
 10
-9.156955521070898
 20
-5.540933404563229
 30
0.0
 10
-7.565043468937971
 20
-5.274802097096934
 30
0.0
 10
-6.000930023202413
 20
-4.825023058708151
 30
0.0
  0
SPLINE
  5
16E7
330
1F
100
AcDbEntity
  8
AM_0
100
AcDbSpline
210
0.0
220
0.0
230
1.0
 70
     8
 71
     3
 72
     8
 73
     4
 74
     0
 42
0.0000000001
 43
0.0000000001
 40
0.0
 40
0.0
 40
0.0
 40
0.0
 40
2.764560748519282
 40
2.764560748519282
 40
2.764560748519282
 40
2.764560748519282
 10
-13.00000633980632
 20
-5.820340404402468
 30
0.0
 10
-11.98633406534926
 20
-5.820340404402468
 30
0.0
 10
-10.98957831373456
 20
-5.713657378212072
 30
0.0
 10
-10.00650016983442
 20
-5.520717347811736
 30
0.0
  0
SPLINE
  5
16E8
330
1F
100
AcDbEntity
  8
AM_0
100
AcDbSpline
210
0.0
220
0.0
230
1.0
 70
     8
 71
     3
 72
     8
 73
     4
 74
     0
 42
0.0000000001
 43
0.0000000001
 40
0.0
 40
0.0
 40
0.0
 40
0.0
 40
1.412269715655931
 40
1.412269715655931
 40
1.412269715655931
 40
1.412269715655931
 10
-14.92000000000039
 20
-5.999999999999868
 30
0.0
 10
-15.43783222907424
 20
-5.999999999999868
 30
0.0
 10
-15.95101449253934
 20
-5.971501632457115
 30
0.0
 10
-16.46000000000039
 20
-5.917282495094919
 30
0.0
  0
SPLINE
  5
16E9
330
1F
100
AcDbEntity
  8
AM_0
100
AcDbSpline
210
0.0
220
0.0
230
1.0
 70
     8
 71
     3
 72
     8
 73
     4
 74
     0
 42
0.0000000001
 43
0.0000000001
 40
10.38442441395913
 40
10.38442441395913
 40
10.38442441395913
 40
10.38442441395913
 40
14.43901837670146
 40
14.43901837670146
 40
14.43901837670146
 40
14.43901837670146
 10
-18.39032595257708
 20
3.084155097164259
 30
0.0
 10
-15.75421173264362
 20
1.634398990922765
 30
0.0
 10
-14.3971090362249
 20
0.8171994954614199
 30
0.0
 10
-13.04000633980617
 20
0.0000000000000675
 30
0.0
  0
SPLINE
  5
16EA
330
1F
100
AcDbEntity
  8
AM_0
100
AcDbSpline
210
0.0
220
0.0
230
1.0
 70
     8
 71
     3
 72
     8
 73
     4
 74
     0
 42
0.0000000001
 43
0.0000000001
 40
11.41055204919593
 40
11.41055204919593
 40
11.41055204919593
 40
11.41055204919593
 40
14.48999654934393
 40
14.48999654934393
 40
14.48999654934393
 40
14.48999654934393
 10
-18.00000000000022
 20
1.883902810775062
 30
0.0
 10
-17.01020097058044
 20
1.275132601858778
 30
0.0
 10
-15.98510048529043
 20
0.6375663009294535
 30
0.0
 10
-14.96000000000044
 20
0.0000000000001315
 30
0.0
  0
VIEWPORT
  5
110
330
101
100
AcDbEntity
 67
     1
  8
0
100
AcDbViewport
 10
420.5
 20
297.0
 30
0.0
 40
948.9782706766916
 41
628.452
 68
     1
 69
     1
1001
ACAD
1000
MVIEW
1002
{
1070
    16
1010
0.0
1020
0.0
1030
0.0
1010
0.0
1020
0.0
1030
1.0
1040
0.0
1040
628.452
1040
420.5
1040
297.0
1040
50.0
1040
0.0
1040
0.0
1070
     0
1070
   100
1070
     1
1070
     1
1070
     0
1070
     0
1070
     0
1070
     0
1040
0.0
1040
0.0
1040
0.0
1040
10.0
1040
10.0
1040
10.0
1040
10.0
1070
     0
1002
{
1002
}
1002
}
  0
ENDSEC
  0
SECTION
  2
OBJECTS
  0
DICTIONARY
  5
C
330
0
100
AcDbDictionary
  3
ACAD_GROUP
350
D
  3
ACAD_LAYOUT
350
1A
  3
ACAD_MLINESTYLE
350
17
  3
ACAD_PLOTSETTINGS
350
19
  3
ACAD_PLOTSTYLENAME
350
E
  3
ACDBVARIABLEDICTIONARY
350
34
  3
ACMDICTIONARY
350
43
  3
AMG
350
2B
  3
AMGSNAPSETTINGS
350
6E
  3
DWGPROPS
350
173B
  3
ACDBHEADERROUNDTRIPXREC
350
1747
  0
DICTIONARY
  5
74
330
1F
100
AcDbDictionary
280
     1
  3
ACAD_INDEX
360
173D
  3
ACAD_LAYOUTSELFREF
360
176A
  0
DICTIONARY
  5
176F
330
101
100
AcDbDictionary
280
     1
  3
ACAD_LAYOUTSELFREF
360
1770
  0
DICTIONARY
  5
D
102
{ACAD_REACTORS
330
C
102
}
330
C
100
AcDbDictionary
  0
DICTIONARY
  5
1A
102
{ACAD_REACTORS
330
C
102
}
330
C
100
AcDbDictionary
  0
DICTIONARY
  5
17
102
{ACAD_REACTORS
330
C
102
}
330
C
100
AcDbDictionary
  3
STANDARD
350
18
  0
DICTIONARY
  5
19
102
{ACAD_REACTORS
330
C
102
}
330
C
100
AcDbDictionary
  0
ACDBDICTIONARYWDFLT
  5
E
102
{ACAD_REACTORS
330
C
102
}
330
C
100
AcDbDictionary
281
     1
  3
Normal
350
F
100
AcDbDictionaryWithDefault
340
F
  0
DICTIONARY
  5
34
102
{ACAD_REACTORS
330
C
102
}
330
C
100
AcDbDictionary
  3
INDEXCTL
350
35
  3
SORTENTS
350
B5E
  0
DICTIONARY
  5
43
102
{ACAD_REACTORS
330
C
102
}
330
C
100
AcDbDictionary
  3
ACMSTDDICTIONARY
350
260
  0
DICTIONARY
  5
2B
102
{ACAD_REACTORS
330
C
102
}
330
C
100
AcDbDictionary
  3
ACMGSETTINGS
350
2C
  0
DICTIONARY
  5
6E
102
{ACAD_REACTORS
330
C
102
}
330
C
100
AcDbDictionary
  0
XRECORD
  5
173B
102
{ACAD_REACTORS
330
C
102
}
330
C
100
AcDbXrecord
  1
DWGPROPS COOKIE
  2

  3

  4

  6

  7

  8

  9

300
AmdtFileType=82
301
=
302
=
303
=
304
=
305
=
306
=
307
=
308
=
309
=
 40
0.0391198032407408
 41
2452836.771637361
 42
2452845.708786701
  1

 90
        1
  0
DICTIONARY
  5
1747
102
{ACAD_REACTORS
330
C
102
}
330
C
100
AcDbDictionary
  3
TSTACKALIGN
350
1748
  3
TSTACKSIZE
350
1749
  3
HYPERLINKBASE
350
174A
  3
STYLESHEET
350
174B
  3
LAYOUTDICT
350
174C
  3
PLOTSETDICT
350
174D
  3
PLOTSTYLNAMDICT
350
174E
  3
LWETCUNION
350
174F
  3
INSUNITS
350
1750
  3
CEPSNTYPE
350
1751
  3
FINGERPRINTGUID
350
1752
  3
VERSIONGUID
350
1753
  3
PSVPSCALE
350
1754
  3
DIMSTYLEDATA
350
1755
  3
PUCSORTHOREF
350
1756
  3
PUCSORTHOVIEW
350
1757
  3
PUCSBASE
350
1758
  3
PUCSORGTOP
350
1759
  3
PUCSORGBOTTOM
350
175A
  3
PUCSORGLEFT
350
175B
  3
PUCSORGRIGHT
350
175C
  3
PUCSORGFRONT
350
175D
  3
PUCSORGBACK
350
175E
  3
UCSORTHOREF
350
175F
  3
UCSORTHOVIEW
350
1760
  3
UCSBASE
350
1761
  3
UCSORGTOP
350
1762
  3
UCSORGBOTTOM
350
1763
  3
UCSORGLEFT
350
1764
  3
UCSORGRIGHT
350
1765
  3
UCSORGFRONT
350
1766
  3
UCSORGBACK
350
1767
  0
DICTIONARY
  5
173D
102
{ACAD_REACTORS
330
74
102
}
330
74
100
AcDbDictionary
  3
*A1
350
173E
  0
XRECORD
  5
176A
102
{ACAD_REACTORS
330
74
102
}
330
74
100
AcDbXrecord
340
1F
  0
XRECORD
  5
1770
102
{ACAD_REACTORS
330
176F
102
}
330
176F
100
AcDbXrecord
340
101
  0
MLINESTYLE
  5
18
102
{ACAD_REACTORS
330
17
102
}
330
17
100
AcDbMlineStyle
  2
STANDARD
 70
     0
  3

 62
   256
 51
90.0
 52
90.0
 71
     2
 49
0.5
 62
   256
  6
BYLAYER
 49
-0.5
 62
   256
  6
BYLAYER
  0
ACDBPLACEHOLDER
  5
F
102
{ACAD_REACTORS
330
E
102
}
330
E
100
AcDbPlaceHolder
280
     0
  0
DICTIONARYVAR
  5
35
102
{ACAD_REACTORS
330
34
102
}
330
34
100
DictionaryVariables
280
     0
  1
1
  0
DICTIONARYVAR
  5
B5E
102
{ACAD_REACTORS
330
34
102
}
330
34
100
DictionaryVariables
280
     0
  1
96
  0
DICTIONARY
  5
260
102
{ACAD_REACTORS
330
43
102
}
330
43
100
AcDbDictionary
  0
DICTIONARY
  5
2C
102
{ACAD_REACTORS
330
2B
102
}
330
2B
100
AcDbDictionary
  3
DWGSETTINGS
350
2D
  0
XRECORD
  5
1748
102
{ACAD_REACTORS
330
1747
102
}
330
1747
100
AcDbXrecord
 90
        1
  0
XRECORD
  5
1749
102
{ACAD_REACTORS
330
1747
102
}
330
1747
100
AcDbXrecord
 90
       70
  0
XRECORD
  5
174A
102
{ACAD_REACTORS
330
1747
102
}
330
1747
100
AcDbXrecord
  1

  0
XRECORD
  5
174B
102
{ACAD_REACTORS
330
1747
102
}
330
1747
100
AcDbXrecord
  1
ASAMI.ctb
  0
XRECORD
  5
174C
102
{ACAD_REACTORS
330
1747
102
}
330
1747
100
AcDbXrecord
340
1A
  0
XRECORD
  5
174D
102
{ACAD_REACTORS
330
1747
102
}
330
1747
100
AcDbXrecord
340
19
  0
XRECORD
  5
174E
102
{ACAD_REACTORS
330
1747
102
}
330
1747
100
AcDbXrecord
340
E
  0
XRECORD
  5
174F
102
{ACAD_REACTORS
330
1747
102
}
330
1747
100
AcDbXrecord
 90
    10781
  0
XRECORD
  5
1750
102
{ACAD_REACTORS
330
1747
102
}
330
1747
100
AcDbXrecord
 90
        4
  0
XRECORD
  5
1751
102
{ACAD_REACTORS
330
1747
102
}
330
1747
100
AcDbXrecord
 90
        0
  0
XRECORD
  5
1752
102
{ACAD_REACTORS
330
1747
102
}
330
1747
100
AcDbXrecord
  1
{AFB28963-8C59-40AE-9337-C84526B81ACE}
  0
XRECORD
  5
1753
102
{ACAD_REACTORS
330
1747
102
}
330
1747
100
AcDbXrecord
  1
{51A2B2C1-78D4-45BA-8D25-C19D4CD4080A}
  0
XRECORD
  5
1754
102
{ACAD_REACTORS
330
1747
102
}
330
1747
100
AcDbXrecord
 40
0.0
  0
XRECORD
  5
1755
102
{ACAD_REACTORS
330
1747
102
}
330
1747
100
AcDbXrecord
1000
DSTYLE
1002
{
1070
    79
 70
     2
1070
   341
340
59
1070
   342
340
59
1070
   371
 70
    -1
1070
   372
 70
    -1
1002
}
  0
XRECORD
  5
1756
102
{ACAD_REACTORS
330
1747
102
}
330
1747
100
AcDbXrecord
340
0
  0
XRECORD
  5
1757
102
{ACAD_REACTORS
330
1747
102
}
330
1747
100
AcDbXrecord
 70
     0
  0
XRECORD
  5
1758
102
{ACAD_REACTORS
330
1747
102
}
330
1747
100
AcDbXrecord
340
0
  0
XRECORD
  5
1759
102
{ACAD_REACTORS
330
1747
102
}
330
1747
100
AcDbXrecord
 10
0.0
 20
0.0
 30
0.0
  0
XRECORD
  5
175A
102
{ACAD_REACTORS
330
1747
102
}
330
1747
100
AcDbXrecord
 10
0.0
 20
0.0
 30
0.0
  0
XRECORD
  5
175B
102
{ACAD_REACTORS
330
1747
102
}
330
1747
100
AcDbXrecord
 10
0.0
 20
0.0
 30
0.0
  0
XRECORD
  5
175C
102
{ACAD_REACTORS
330
1747
102
}
330
1747
100
AcDbXrecord
 10
0.0
 20
0.0
 30
0.0
  0
XRECORD
  5
175D
102
{ACAD_REACTORS
330
1747
102
}
330
1747
100
AcDbXrecord
 10
0.0
 20
0.0
 30
0.0
  0
XRECORD
  5
175E
102
{ACAD_REACTORS
330
1747
102
}
330
1747
100
AcDbXrecord
 10
0.0
 20
0.0
 30
0.0
  0
XRECORD
  5
175F
102
{ACAD_REACTORS
330
1747
102
}
330
1747
100
AcDbXrecord
340
0
  0
XRECORD
  5
1760
102
{ACAD_REACTORS
330
1747
102
}
330
1747
100
AcDbXrecord
 70
     0
  0
XRECORD
  5
1761
102
{ACAD_REACTORS
330
1747
102
}
330
1747
100
AcDbXrecord
340
0
  0
XRECORD
  5
1762
102
{ACAD_REACTORS
330
1747
102
}
330
1747
100
AcDbXrecord
 10
0.0
 20
0.0
 30
0.0
  0
XRECORD
  5
1763
102
{ACAD_REACTORS
330
1747
102
}
330
1747
100
AcDbXrecord
 10
0.0
 20
0.0
 30
0.0
  0
XRECORD
  5
1764
102
{ACAD_REACTORS
330
1747
102
}
330
1747
100
AcDbXrecord
 10
0.0
 20
0.0
 30
0.0
  0
XRECORD
  5
1765
102
{ACAD_REACTORS
330
1747
102
}
330
1747
100
AcDbXrecord
 10
0.0
 20
0.0
 30
0.0
  0
XRECORD
  5
1766
102
{ACAD_REACTORS
330
1747
102
}
330
1747
100
AcDbXrecord
 10
0.0
 20
0.0
 30
0.0
  0
XRECORD
  5
1767
102
{ACAD_REACTORS
330
1747
102
}
330
1747
100
AcDbXrecord
 10
0.0
 20
0.0
 30
0.0
  0
LAYER_INDEX
  5
173E
102
{ACAD_REACTORS
330
173D
102
}
330
173D
100
AcDbIndex
 40
2453151.800067627
100
AcDbLayerIndex
  8
0
360
173F
 90
        0
  8
AM_0
360
1740
 90
       52
  8
AM_11
360
1741
 90
        3
  8
AM_7
360
1742
 90
        1
  8
AM_5
360
1743
 90
        4
  8
Defpoints
360
1744
 90
        0
  8
AM_6
360
1745
 90
        1
  0
XRECORD
  5
2D
102
{ACAD_REACTORS
330
2C
102
}
330
2C
100
AcDbXrecord
  1
VERSION
140
15.0
  1
PRODUCT
  2
AutoCAD Mechanical 2000
  0
IDBUFFER
  5
173F
330
0
100
AcDbIdBuffer
  0
IDBUFFER
  5
1740
330
0
100
AcDbIdBuffer
330
16E7
330
16E8
330
16E9
330
16EA
330
EB1
330
EB2
330
EB3
330
EC2
330
ED2
330
ED5
330
16AE
330
16AF
330
16B0
330
16B1
330
16B2
330
16C0
330
16C1
330
16C2
330
16C3
330
16C4
330
16C5
330
16C6
330
16C7
330
16C8
330
16C9
330
16CA
330
16CB
330
16CC
330
16CD
330
16CE
330
16D0
330
16D1
330
16D2
330
16D3
330
16D4
330
16D5
330
16D7
330
16D8
330
16D9
330
16DA
330
16DB
330
16DC
330
16DD
330
16DE
330
16DF
330
16E0
330
16E1
330
16E2
330
16E3
330
16E4
330
16E5
330
16E6
  0
IDBUFFER
  5
1741
330
0
100
AcDbIdBuffer
330
16BF
330
16CF
330
16D6
  0
IDBUFFER
  5
1742
330
0
100
AcDbIdBuffer
330
D74
  0
IDBUFFER
  5
1743
330
0
100
AcDbIdBuffer
330
D71
330
D7A
330
DA6
330
EB4
  0
IDBUFFER
  5
1744
330
0
100
AcDbIdBuffer
  0
IDBUFFER
  5
1745
330
0
100
AcDbIdBuffer
330
E5A
  0
ENDSEC
  0
EOF
