  0
SECTION
  2
HEADER
  9
$ACADVER
  1
AC1014
  9
$ACADMAINTVER
 70
     9
  9
$DWGCODEPAGE
  3
ANSI_932
  9
$INSBASE
 10
0.0
 20
0.0
 30
0.0
  9
$EXTMIN
 10
-94.14349790496837
 20
-32.25000100000001
 30
-0.00000001
  9
$EXTMAX
 10
12.05776903085493
 20
8.46270102996422
 30
0.00000001
  9
$LIMMIN
 10
-96.48964381372685
 20
-39.88318434356182
  9
$LIMMAX
 10
16.11050586761723
 20
15.96719754207873
  9
$ORTHOMODE
 70
     0
  9
$REGENMODE
 70
     1
  9
$FILLMODE
 70
     1
  9
$QTEXTMODE
 70
     0
  9
$MIRRTEXT
 70
     0
  9
$DRAGMODE
 70
     2
  9
$LTSCALE
 40
1.0
  9
$OSMODE
 70
    55
  9
$ATTMODE
 70
     1
  9
$TEXTSIZE
 40
2.5
  9
$TRACEWID
 40
1.0
  9
$TEXTSTYLE
  7
STANDARD
  9
$CLAYER
  8
AM_0
  9
$CELTYPE
  6
BYLAYER
  9
$CECOLOR
 62
   256
  9
$CELTSCALE
 40
1.0
  9
$DELOBJ
 70
     1
  9
$DISPSILH
 70
     0
  9
$DIMSCALE
 40
0.5
  9
$DIMASZ
 40
2.5
  9
$DIMEXO
 40
1.0
  9
$DIMDLI
 40
12.0
  9
$DIMRND
 40
0.0
  9
$DIMDLE
 40
0.0
  9
$DIMEXE
 40
1.0
  9
$DIMTP
 40
0.1
  9
$DIMTM
 40
0.1
  9
$DIMTXT
 40
3.2
  9
$DIMCEN
 40
0.0
  9
$DIMTSZ
 40
0.0
  9
$DIMTOL
 70
     0
  9
$DIMLIM
 70
     0
  9
$DIMTIH
 70
     0
  9
$DIMTOH
 70
     0
  9
$DIMSE1
 70
     0
  9
$DIMSE2
 70
     0
  9
$DIMTAD
 70
     3
  9
$DIMZIN
 70
     8
  9
$DIMBLK
  1
OPEN30
  9
$DIMASO
 70
     1
  9
$DIMSHO
 70
     1
  9
$DIMPOST
  1

  9
$DIMAPOST
  1
"
  9
$DIMALT
 70
     0
  9
$DIMALTD
 70
     2
  9
$DIMALTF
 40
0.0393701
  9
$DIMLFAC
 40
1.0
  9
$DIMTOFL
 70
     1
  9
$DIMTVP
 40
0.0
  9
$DIMTIX
 70
     0
  9
$DIMSOXD
 70
     0
  9
$DIMSAH
 70
     0
  9
$DIMBLK1
  1

  9
$DIMBLK2
  1

  9
$DIMSTYLE
  2
AM_JIS
  9
$DIMCLRD
 70
   256
  9
$DIMCLRE
 70
   256
  9
$DIMCLRT
 70
     2
  9
$DIMTFAC
 40
0.71
  9
$DIMGAP
 40
1.5
  9
$DIMJUST
 70
     0
  9
$DIMSD1
 70
     0
  9
$DIMSD2
 70
     0
  9
$DIMTOLJ
 70
     0
  9
$DIMTZIN
 70
     0
  9
$DIMALTZ
 70
     0
  9
$DIMALTTZ
 70
     0
  9
$DIMFIT
 70
     3
  9
$DIMUPT
 70
     0
  9
$DIMUNIT
 70
     2
  9
$DIMDEC
 70
     3
  9
$DIMTDEC
 70
     3
  9
$DIMALTU
 70
     2
  9
$DIMALTTD
 70
     2
  9
$DIMTXSTY
  7
ASAMI
  9
$DIMAUNIT
 70
     0
  9
$LUNITS
 70
     2
  9
$LUPREC
 70
     2
  9
$SKETCHINC
 40
1.0
  9
$FILLETRAD
 40
2.5
  9
$AUNITS
 70
     0
  9
$AUPREC
 70
     0
  9
$MENU
  1
.
  9
$ELEVATION
 40
0.0
  9
$PELEVATION
 40
0.0
  9
$THICKNESS
 40
0.0
  9
$LIMCHECK
 70
     0
  9
$BLIPMODE
 70
     0
  9
$CHAMFERA
 40
1.0
  9
$CHAMFERB
 40
1.0
  9
$CHAMFERC
 40
20.0
  9
$CHAMFERD
 40
0.0
  9
$SKPOLY
 70
     0
  9
$TDCREATE
 40
2452836.771637361
  9
$TDUPDATE
 40
2453151.792570150
  9
$TDINDWG
 40
0.0582975116
  9
$TDUSRTIMER
 40
0.0582975116
  9
$USRTIMER
 70
     1
  9
$ANGBASE
 50
0.0
  9
$ANGDIR
 70
     0
  9
$PDMODE
 70
     0
  9
$PDSIZE
 40
0.0
  9
$PLINEWID
 40
0.0
  9
$COORDS
 70
     1
  9
$SPLFRAME
 70
     0
  9
$SPLINETYPE
 70
     6
  9
$SPLINESEGS
 70
     8
  9
$ATTDIA
 70
     1
  9
$ATTREQ
 70
     1
  9
$HANDLING
 70
 12289
  9
$HANDSEED
  5
1D59
  9
$SURFTAB1
 70
     6
  9
$SURFTAB2
 70
     6
  9
$SURFTYPE
 70
     6
  9
$SURFU
 70
     6
  9
$SURFV
 70
     6
  9
$UCSNAME
  2

  9
$UCSORG
 10
0.0
 20
0.0
 30
0.0
  9
$UCSXDIR
 10
1.0
 20
0.0
 30
0.0
  9
$UCSYDIR
 10
0.0
 20
1.0
 30
0.0
  9
$PUCSNAME
  2

  9
$PUCSORG
 10
0.0
 20
0.0
 30
0.0
  9
$PUCSXDIR
 10
1.0
 20
0.0
 30
0.0
  9
$PUCSYDIR
 10
0.0
 20
1.0
 30
0.0
  9
$USERI1
 70
     0
  9
$USERI2
 70
     0
  9
$USERI3
 70
     0
  9
$USERI4
 70
     0
  9
$USERI5
 70
     0
  9
$USERR1
 40
0.0
  9
$USERR2
 40
0.0
  9
$USERR3
 40
0.0
  9
$USERR4
 40
0.0
  9
$USERR5
 40
0.0
  9
$WORLDVIEW
 70
     1
  9
$SHADEDGE
 70
     3
  9
$SHADEDIF
 70
    70
  9
$TILEMODE
 70
     1
  9
$MAXACTVP
 70
    64
  9
$PINSBASE
 10
0.0
 20
0.0
 30
0.0
  9
$PLIMCHECK
 70
     0
  9
$PEXTMIN
 10
1.000000000000000E+20
 20
1.000000000000000E+20
 30
1.000000000000000E+20
  9
$PEXTMAX
 10
-1.000000000000000E+20
 20
-1.000000000000000E+20
 30
-1.000000000000000E+20
  9
$PLIMMIN
 10
0.0
 20
0.0
  9
$PLIMMAX
 10
841.0
 20
594.0
  9
$UNITMODE
 70
     0
  9
$VISRETAIN
 70
     1
  9
$PLINEGEN
 70
     0
  9
$PSLTSCALE
 70
     0
  9
$TREEDEPTH
 70
  3020
  9
$PICKSTYLE
 70
     0
  9
$CMLSTYLE
  2
STANDARD
  9
$CMLJUST
 70
     0
  9
$CMLSCALE
 40
20.0
  9
$PROXYGRAPHICS
 70
     1
  9
$MEASUREMENT
 70
     1
  0
ENDSEC
  0
SECTION
  2
CLASSES
  0
CLASS
  1
ACDBDICTIONARYWDFLT
  2
AcDbDictionaryWithDefault
  3
AutoCAD 2000
 90
        0
280
     0
281
     0
  0
CLASS
  1
ACDBPLACEHOLDER
  2
AcDbPlaceHolder
  3
AutoCAD 2000
 90
        0
280
     0
281
     0
  0
CLASS
  1
LAYOUT
  2
AcDbLayout
  3
AutoCAD 2000
 90
        0
280
     0
281
     0
  0
CLASS
  1
AMGSETTINGSOBJ
  2
AmgSettingsObj
  3
"AcadM|Product Description: AutoCAD Mechanical 2000|Company: Autodesk"
 90
        0
280
     0
281
     0
  0
CLASS
  1
ACME_DOCUMENT
  2
AcMeDbDoc
  3
AcMeServices
 90
        0
280
     0
281
     0
  0
CLASS
  1
ACMESCOPE
  2
AcMeScope
  3
AcMeServices
 90
        0
280
     0
281
     0
  0
CLASS
  1
ACMECOMMANDHISTORY
  2
AcMeCommandHistory
  3
AcMeServices
 90
        0
280
     0
281
     0
  0
CLASS
  1
DICTIONARYVAR
  2
AcDbDictionaryVar
  3
AutoCAD 2000
 90
        0
280
     0
281
     0
  0
CLASS
  1
ACIMSYSVARMAN
  2
AcImSysVarManager
  3
AcMeServices
 90
        0
280
     0
281
     0
  0
CLASS
  1
ACIMREALSYSVAR
  2
AcImRealSysVar
  3
AcMeServices
 90
        0
280
     0
281
     0
  0
CLASS
  1
ACIMINTSYSVAR
  2
AcImIntSysVar
  3
AcMeServices
 90
        0
280
     0
281
     0
  0
CLASS
  1
ACMEDRAWINGMAN
  2
AcMeDrawingMan
  3
AcMeServices
 90
        0
280
     0
281
     0
  0
CLASS
  1
ACMEVIEW
  2
AcMeView
  3
AcMeServices
 90
        0
280
     0
281
     0
  0
CLASS
  1
ACDBENTITYCACHE
  2
AcMeEntityCache
  3
AcMeServices
 90
        0
280
     0
281
     0
  0
CLASS
  1
GSMANAGER
  2
AcMeGSManager
  3
AcMeServices
 90
        0
280
     0
281
     0
  0
CLASS
  1
AmdtInternalReactor
  2
AmdtInternalReactor
  3
AcMeServices
 90
        0
280
     0
281
     0
  0
CLASS
  1
ACMESTATEMGR
  2
AcMeStateMgr
  3
AcMeServices
 90
        0
280
     0
281
     0
  0
CLASS
  1
ACME_DATABASE
  2
AcMeDbDatabase
  3
AcMeServices
 90
        0
280
     0
281
     0
  0
CLASS
  1
ACRFINSADJUSTERMGR
  2
AcRfInsAdjusterMgr
  3
AcMeServices
 90
        0
280
     0
281
     0
  0
CLASS
  1
ACMDATADICTIONARY
  2
AcmDataDictionary
  3
"AcmSymBB|Product Description: AutoCAD Mechanical 2000|Company: Autodesk"
 90
        0
280
     0
281
     0
  0
CLASS
  1
ACMDATAENTRYBLOCK
  2
AcmDataEntryBlock
  3
"AcmSymBB|Product Description: AutoCAD Mechanical 2000|Company: Autodesk"
 90
        0
280
     0
281
     0
  0
CLASS
  1
AMGOBJPROPCFG
  2
AmgObjPropCfg
  3
"AmgLay|Product Description: AutoCAD Mechanical 2000|Company: Autodesk"
 90
        1
280
     0
281
     0
  0
CLASS
  1
ACAMGFILTERDAT
  2
AcAmgFilterDat
  3
"AcadM|Product Description: AutoCAD Mechanical 2000|Company: Autodesk"
 90
        0
280
     0
281
     0
  0
CLASS
  1
LAYER_INDEX
  2
AcDbLayerIndex
  3
AutoCAD 2000
 90
        0
280
     0
281
     0
  0
CLASS
  1
IDBUFFER
  2
AcDbIdBuffer
  3
AutoCAD 2000
 90
        0
280
     0
281
     0
  0
CLASS
  1
ACIMSTRSYSVAR
  2
AcImStrSysVar
  3
AcMeServices
 90
        0
280
     0
281
     0
  0
CLASS
  1
ACMSTANDARDJIS
  2
AcmStandardJIS
  3
"AcmSymBB|Product Description: AutoCAD Mechanical 2000|Company: Autodesk"
 90
        0
280
     0
281
     0
  0
CLASS
  1
ACMSURFSTANDARDJIS
  2
AcmSurfTextStdJIS
  3
"AcmSymBB|Product Description: AutoCAD Mechanical 2000|Company: Autodesk"
 90
        0
280
     0
281
     0
  0
CLASS
  1
ACMFCFSTANDARDJIS
  2
AcmFCFStdJIS
  3
"AcmSymBB|Product Description: AutoCAD Mechanical 2000|Company: Autodesk"
 90
        0
280
     0
281
     0
  0
CLASS
  1
ACMWELDSTANDARDJIS
  2
AcmWeldingStdJIS
  3
"AcmSymBB|Product Description: AutoCAD Mechanical 2000|Company: Autodesk"
 90
        0
280
     0
281
     0
  0
CLASS
  1
ACMIDSTANDARDJIS
  2
AcmIdStdJIS
  3
"AcmSymBB|Product Description: AutoCAD Mechanical 2000|Company: Autodesk"
 90
        0
280
     0
281
     0
  0
CLASS
  1
ACMDATUMSTANDARDJIS
  2
AcmDatumStdJIS
  3
"AcmSymBB|Product Description: AutoCAD Mechanical 2000|Company: Autodesk"
 90
        0
280
     0
281
     0
  0
CLASS
  1
ACMBOMSTANDARDJIS
  2
AcmBOMStdJIS
  3
"AcmSymBB|Product Description: AutoCAD Mechanical 2000|Company: Autodesk"
 90
        0
280
     0
281
     0
  0
CLASS
  1
ACMSTANDARDANSI
  2
AcmStandardANSI
  3
"AcmSymBB|Product Description: AutoCAD Mechanical 2000|Company: Autodesk"
 90
        0
280
     0
281
     0
  0
CLASS
  1
ACMSURFSTANDARDANSI
  2
AcmSurfTextStdANSI
  3
"AcmSymBB|Product Description: AutoCAD Mechanical 2000|Company: Autodesk"
 90
        0
280
     0
281
     0
  0
CLASS
  1
ACMFCFSTANDARDANSI
  2
AcmFCFStdANSI
  3
"AcmSymBB|Product Description: AutoCAD Mechanical 2000|Company: Autodesk"
 90
        0
280
     0
281
     0
  0
CLASS
  1
ACMWELDSTANDARDANSI
  2
AcmWeldingStdANSI
  3
"AcmSymBB|Product Description: AutoCAD Mechanical 2000|Company: Autodesk"
 90
        0
280
     0
281
     0
  0
CLASS
  1
ACMIDSTANDARDANSI
  2
AcmIdStdANSI
  3
"AcmSymBB|Product Description: AutoCAD Mechanical 2000|Company: Autodesk"
 90
        0
280
     0
281
     0
  0
CLASS
  1
ACMDATUMSTANDARDANSI
  2
AcmDatumStdANSI
  3
"AcmSymBB|Product Description: AutoCAD Mechanical 2000|Company: Autodesk"
 90
        0
280
     0
281
     0
  0
CLASS
  1
ACMBOMSTANDARDANSI
  2
AcmBOMStdANSI
  3
"AcmSymBB|Product Description: AutoCAD Mechanical 2000|Company: Autodesk"
 90
        0
280
     0
281
     0
  0
CLASS
  1
ACMSTANDARDBSI
  2
AcmStandardBSI
  3
"AcmSymBB|Product Description: AutoCAD Mechanical 2000|Company: Autodesk"
 90
        0
280
     0
281
     0
  0
CLASS
  1
ACMSURFSTANDARDBSI
  2
AcmSurfTextStdBSI
  3
"AcmSymBB|Product Description: AutoCAD Mechanical 2000|Company: Autodesk"
 90
        0
280
     0
281
     0
  0
CLASS
  1
ACMFCFSTANDARDBSI
  2
AcmFCFStdBSI
  3
"AcmSymBB|Product Description: AutoCAD Mechanical 2000|Company: Autodesk"
 90
        0
280
     0
281
     0
  0
CLASS
  1
ACMWELDSTANDARDBSI
  2
AcmWeldingStdBSI
  3
"AcmSymBB|Product Description: AutoCAD Mechanical 2000|Company: Autodesk"
 90
        0
280
     0
281
     0
  0
CLASS
  1
ACMIDSTANDARDBSI
  2
AcmIdStdBSI
  3
"AcmSymBB|Product Description: AutoCAD Mechanical 2000|Company: Autodesk"
 90
        0
280
     0
281
     0
  0
CLASS
  1
ACMDATUMSTANDARDBSI
  2
AcmDatumStdBSI
  3
"AcmSymBB|Product Description: AutoCAD Mechanical 2000|Company: Autodesk"
 90
        0
280
     0
281
     0
  0
CLASS
  1
ACMBOMSTANDARDBSI
  2
AcmBOMStdBSI
  3
"AcmSymBB|Product Description: AutoCAD Mechanical 2000|Company: Autodesk"
 90
        0
280
     0
281
     0
  0
CLASS
  1
LONG_TRANSACTION
  2
AcDbLongTransaction
  3
AutoCAD 2000
 90
        0
280
     0
281
     0
  0
CLASS
  1
LWPOLYLINE
  2
AcDbPolyline
  3
AutoCAD 2000
 90
        0
280
     0
281
     1
  0
CLASS
  1
HATCH
  2
AcDbHatch
  3
AutoCAD 2000
 90
        0
280
     0
281
     1
  0
CLASS
  1
XRECORD
  2
AcDbXrecord
  3
AutoCAD 2000
 90
        0
280
     0
281
     0
  0
ENDSEC
  0
SECTION
  2
TABLES
  0
TABLE
  2
VPORT
  5
8
330
0
100
AcDbSymbolTable
 70
     3
  0
VPORT
  5
1D2E
330
8
100
AcDbSymbolTableRecord
100
AcDbViewportTableRecord
  2
*ACTIVE
 70
     0
 10
0.0
 20
0.0
 11
1.0
 21
1.0
 12
-41.04434432324804
 22
-11.89319082032091
 13
0.0
 23
0.0
 14
2.5
 24
2.5
 15
10.0
 25
10.0
 16
0.0
 26
0.0
 36
1.0
 17
0.0
 27
0.0
 37
0.0
 40
68.15103447576632
 41
1.56570841889117
 42
50.0
 43
0.0
 44
0.0
 50
0.0
 51
0.0
 71
     0
 72
   100
 73
     1
 74
     3
 75
     0
 76
     0
 77
     0
 78
     0
  0
ENDTAB
  0
TABLE
  2
LTYPE
  5
5
330
0
100
AcDbSymbolTable
 70
    10
  0
LTYPE
  5
14
330
5
100
AcDbSymbolTableRecord
100
AcDbLinetypeTableRecord
  2
BYBLOCK
 70
     0
  3

 72
    65
 73
     0
 40
0.0
  0
LTYPE
  5
15
330
5
100
AcDbSymbolTableRecord
100
AcDbLinetypeTableRecord
  2
BYLAYER
 70
     0
  3

 72
    65
 73
     0
 40
0.0
  0
LTYPE
  5
16
330
5
100
AcDbSymbolTableRecord
100
AcDbLinetypeTableRecord
  2
CONTINUOUS
 70
     0
  3
Solid line
 72
    65
 73
     0
 40
0.0
  0
LTYPE
  5
4B
330
5
100
AcDbSymbolTableRecord
100
AcDbLinetypeTableRecord
  2
AM_ISO02W050
 70
     0
  3
__ __ __ __ __ __ __ __ __ __ __ __ __ __ __
 72
    65
 73
     2
 40
7.5
 49
6.0
 74
     0
 49
-1.5
 74
     0
  0
LTYPE
  5
4C
330
5
100
AcDbSymbolTableRecord
100
AcDbLinetypeTableRecord
  2
AM_ISO08W050
 70
     0
  3
____ . ____ . ____ . ____ . ____ . ____ . ____
 72
    65
 73
     4
 40
18.0
 49
12.0
 74
     0
 49
-1.5
 74
     0
 49
3.0
 74
     0
 49
-1.5
 74
     0
  0
LTYPE
  5
4D
330
5
100
AcDbSymbolTableRecord
100
AcDbLinetypeTableRecord
  2
AM_ISO09W050
 70
     0
  3
_____ . . _____ . . _____ . . ____ .. ____
 72
    65
 73
     6
 40
22.5
 49
12.0
 74
     0
 49
-1.5
 74
     0
 49
3.0
 74
     0
 49
-1.5
 74
     0
 49
3.0
 74
     0
 49
-1.5
 74
     0
  0
LTYPE
  5
4E
330
5
100
AcDbSymbolTableRecord
100
AcDbLinetypeTableRecord
  2
AMCONSTR
 70
     0
  3
_______________________
 72
    65
 73
     2
 40
9999.0
 49
9999.0
 74
     0
 49
0.0
 74
     0
  0
LTYPE
  5
4F
330
5
100
AcDbSymbolTableRecord
100
AcDbLinetypeTableRecord
  2
AM_ISO02W050X2
 70
     0
  3
 _ _ _ _ _ _ _ _ _ _ _ _
 72
    65
 73
     2
 40
3.75
 49
3.0
 74
     0
 49
-0.75
 74
     0
  0
LTYPE
  5
50
330
5
100
AcDbSymbolTableRecord
100
AcDbLinetypeTableRecord
  2
AM_ISO08W050X2
 70
     0
  3
__ . __ . __ . __ . __ . __
 72
    65
 73
     4
 40
9.0
 49
6.0
 74
     0
 49
-0.75
 74
     0
 49
1.5
 74
     0
 49
-0.75
 74
     0
  0
LTYPE
  5
53
330
5
100
AcDbSymbolTableRecord
100
AcDbLinetypeTableRecord
  2
AMZIGZAG
 70
     0
  3
/\/-/\/-/\/-/\/-/\/-/\/
 72
    65
 73
     2
 40
11.00009999999999
 49
0.0001
 74
     4
 75
   135
340
52
 46
0.04
 50
0.0
 44
0.0
 45
0.0
 49
-11.0
 74
     0
  0
LTYPE
  5
166
330
5
100
AcDbSymbolTableRecord
100
AcDbLinetypeTableRecord
  2
ACJISTGL
 70
     0
  3
_ _ _ _ _
 72
    65
 73
     2
 40
3.0
 49
2.0
 74
     0
 49
-1.0
 74
     0
  0
LTYPE
  5
26A
330
5
100
AcDbSymbolTableRecord
100
AcDbLinetypeTableRecord
  2
ACJISTGB
 70
     0
  3
__ . . __ . .
 72
    65
 73
     6
 40
9.0
 49
4.0
 74
     0
 49
-1.0
 74
     0
 49
1.0
 74
     0
 49
-1.0
 74
     0
 49
1.0
 74
     0
 49
-1.0
 74
     0
  0
ENDTAB
  0
TABLE
  2
LAYER
  5
2
330
0
100
AcDbSymbolTable
 70
     7
  0
LAYER
  5
10
330
2
100
AcDbSymbolTableRecord
100
AcDbLayerTableRecord
  2
0
 70
     0
 62
     7
  6
CONTINUOUS
  0
LAYER
  5
3F9
330
2
100
AcDbSymbolTableRecord
100
AcDbLayerTableRecord
  2
AM_0
 70
     0
 62
     7
  6
CONTINUOUS
  0
LAYER
  5
BD4
330
2
100
AcDbSymbolTableRecord
100
AcDbLayerTableRecord
  2
AM_11
 70
     0
 62
     3
  6
AM_ISO09W050
  0
LAYER
  5
BD5
330
2
100
AcDbSymbolTableRecord
100
AcDbLayerTableRecord
  2
AM_7
 70
     0
 62
     4
  6
AM_ISO08W050
  0
LAYER
  5
BD6
330
2
100
AcDbSymbolTableRecord
100
AcDbLayerTableRecord
  2
AM_5
 70
     0
 62
     3
  6
CONTINUOUS
  0
LAYER
  5
BD7
330
2
100
AcDbSymbolTableRecord
100
AcDbLayerTableRecord
  2
DEFPOINTS
 70
     0
 62
     7
  6
CONTINUOUS
  0
LAYER
  5
E59
330
2
100
AcDbSymbolTableRecord
100
AcDbLayerTableRecord
  2
AM_6
 70
     0
 62
     2
  6
CONTINUOUS
  0
ENDTAB
  0
TABLE
  2
STYLE
  5
3
330
0
100
AcDbSymbolTable
 70
     5
  0
STYLE
  5
11
330
3
100
AcDbSymbolTableRecord
100
AcDbTextStyleTableRecord
  2
STANDARD
 70
     0
 40
0.0
 41
1.0
 50
0.0
 71
     0
 42
2.5
  3
simplex.shx
  4
EXTFONT.SHX
  0
STYLE
  5
52
330
3
100
AcDbSymbolTableRecord
100
AcDbTextStyleTableRecord
  2

 70
     1
 40
0.0
 41
1.0
 50
0.0
 71
     0
 42
2.5
  3
ltypeshp.shx
  4

  0
STYLE
  5
6B
330
3
100
AcDbSymbolTableRecord
100
AcDbTextStyleTableRecord
  2
ASAMI
 70
     0
 40
0.0
 41
1.0
 50
0.0
 71
     0
 42
2.5
  3
simplex.shx
  4
EXTFONT.SHX
  0
STYLE
  5
262
330
3
100
AcDbSymbolTableRecord
100
AcDbTextStyleTableRecord
  2
ACJISTS
 70
     0
 40
1.0
 41
1.0
 50
0.0
 71
     0
 42
2.5
  3
simplex.shx
  4
bigfont.shx
  0
STYLE
  5
269
330
3
100
AcDbSymbolTableRecord
100
AcDbTextStyleTableRecord
  2
ACJISGDT
 70
     0
 40
0.0
 41
1.0
 50
0.0
 71
     0
 42
2.5
  3
amgdtans.shx
  4

  0
ENDTAB
  0
TABLE
  2
VIEW
  5
6
330
0
100
AcDbSymbolTable
 70
     0
  0
ENDTAB
  0
TABLE
  2
UCS
  5
7
330
0
100
AcDbSymbolTable
 70
     0
  0
ENDTAB
  0
TABLE
  2
APPID
  5
9
330
0
100
AcDbSymbolTable
 70
    12
  0
APPID
  5
12
330
9
100
AcDbSymbolTableRecord
100
AcDbRegAppTableRecord
  2
ACAD
 70
     0
  0
APPID
  5
30
330
9
100
AcDbSymbolTableRecord
100
AcDbRegAppTableRecord
  2
MCAD_NO_VIS
 70
     0
  0
APPID
  5
31
330
9
100
AcDbSymbolTableRecord
100
AcDbRegAppTableRecord
  2
ACAD_TEMP_GRAPHIC
 70
     0
  0
APPID
  5
2C2
330
9
100
AcDbSymbolTableRecord
100
AcDbRegAppTableRecord
  2
GENIUS_GENDTOL_13
 70
     0
  0
APPID
  5
339
330
9
100
AcDbSymbolTableRecord
100
AcDbRegAppTableRecord
  2
GENIUS_GENODEF_13
 70
     0
  0
APPID
  5
33A
330
9
100
AcDbSymbolTableRecord
100
AcDbRegAppTableRecord
  2
GENIUS_GENOBJ-N-RSBK_13
 70
     0
  0
APPID
  5
33B
330
9
100
AcDbSymbolTableRecord
100
AcDbRegAppTableRecord
  2
GENIUS_GENOBJ-N-LIB_13
 70
     0
  0
APPID
  5
33C
330
9
100
AcDbSymbolTableRecord
100
AcDbRegAppTableRecord
  2
GENIUS_GENSCALE_13
 70
     0
  0
APPID
  5
378
330
9
100
AcDbSymbolTableRecord
100
AcDbRegAppTableRecord
  2
GENIUS_GENDIMSH_14
 70
     0
  0
APPID
  5
BD8
330
9
100
AcDbSymbolTableRecord
100
AcDbRegAppTableRecord
  2
GENIUS_GENOBJ-N-CEN_13
 70
     0
  0
APPID
  5
BD9
330
9
100
AcDbSymbolTableRecord
100
AcDbRegAppTableRecord
  2
GENIUS_GENFIL_13
 70
     0
  0
APPID
  5
BDA
330
9
100
AcDbSymbolTableRecord
100
AcDbRegAppTableRecord
  2
GENIUS_GENOBJ-N-CHA_13
 70
     0
  0
ENDTAB
  0
TABLE
  2
DIMSTYLE
  5
A
330
0
100
AcDbSymbolTable
 70
     8
  0
DIMSTYLE
105
58
102
{ACAD_REACTORS
330
D71
330
D7A
330
DA6
330
15D1
102
}
330
A
100
AcDbSymbolTableRecord
100
AcDbDimStyleTableRecord
  2
AM_JIS
 70
     0
  3

  4
"
  5
OPEN30
  6

  7

 40
0.5
 41
2.5
 42
1.0
 43
12.0
 44
1.0
 45
0.0
 46
0.0
 47
0.1
 48
0.1
140
3.2
141
0.0
142
0.0
143
0.0393701
144
1.0
145
0.0
146
0.71
147
1.5
 71
     0
 72
     0
 73
     0
 74
     0
 75
     0
 76
     0
 77
     3
 78
     8
170
     0
171
     2
172
     1
173
     0
174
     0
175
     0
176
   256
177
   256
178
     2
270
     2
271
     3
272
     3
273
     2
274
     2
340
6B
275
     0
280
     0
281
     0
282
     0
283
     0
284
     0
285
     0
286
     0
287
     3
288
     0
  0
DIMSTYLE
105
5F
330
A
100
AcDbSymbolTableRecord
100
AcDbDimStyleTableRecord
  2
AM_JIS$3
 70
     0
  3

  4
"
  5
OPEN30
  6

  7

 40
0.5
 41
2.5
 42
1.0
 43
10.0
 44
1.0
 45
0.0
 46
0.0
 47
0.1
 48
0.1
140
3.2
141
0.0
142
0.0
143
0.0393701
144
1.0
145
0.0
146
0.71
147
1.5
 71
     0
 72
     0
 73
     0
 74
     1
 75
     0
 76
     0
 77
     3
 78
     8
170
     0
171
     2
172
     0
173
     0
174
     0
175
     0
176
   256
177
   256
178
     2
270
     2
271
     2
272
     3
273
     2
274
     2
340
6B
275
     0
280
     0
281
     0
282
     0
283
     0
284
     0
285
     0
286
     0
287
     0
288
     1
  0
DIMSTYLE
105
60
330
A
100
AcDbSymbolTableRecord
100
AcDbDimStyleTableRecord
  2
AM_JIS$4
 70
     0
  3

  4
"
  5
OPEN30
  6

  7

 40
0.5
 41
2.5
 42
1.0
 43
10.0
 44
1.0
 45
0.0
 46
0.0
 47
0.1
 48
0.1
140
3.2
141
0.0
142
0.0
143
0.0393701
144
1.0
145
0.0
146
0.71
147
1.5
 71
     0
 72
     0
 73
     0
 74
     1
 75
     0
 76
     0
 77
     3
 78
     8
170
     0
171
     2
172
     0
173
     0
174
     0
175
     0
176
   256
177
   256
178
     2
270
     2
271
     2
272
     3
273
     2
274
     2
340
6B
275
     0
280
     0
281
     0
282
     0
283
     0
284
     0
285
     0
286
     0
287
     0
288
     1
  0
DIMSTYLE
105
61
330
A
100
AcDbSymbolTableRecord
100
AcDbDimStyleTableRecord
  2
AM_JIS$6
 70
     0
  3

  4
"
  5
OPEN30
  6

  7

 40
0.5
 41
2.5
 42
1.0
 43
10.0
 44
1.0
 45
0.0
 46
0.0
 47
0.1
 48
0.1
140
3.2
141
0.0
142
0.0
143
0.0393701
144
1.0
145
0.0
146
0.71
147
1.5
 71
     0
 72
     0
 73
     0
 74
     0
 75
     0
 76
     0
 77
     0
 78
     8
170
     0
171
     2
172
     1
173
     0
174
     0
175
     0
176
   256
177
   256
178
     2
270
     2
271
     2
272
     2
273
     2
274
     2
340
6B
275
     0
280
     0
281
     0
282
     0
283
     0
284
     0
285
     0
286
     0
287
     3
288
     0
  0
DIMSTYLE
105
62
330
A
100
AcDbSymbolTableRecord
100
AcDbDimStyleTableRecord
  2
AM_JIS$7
 70
     0
  3

  4
"
  5
OPEN30
  6

  7

 40
0.5
 41
2.5
 42
1.0
 43
10.0
 44
1.0
 45
0.0
 46
0.0
 47
0.1
 48
0.1
140
3.2
141
0.0
142
0.0
143
0.0393701
144
1.0
145
0.0
146
0.71
147
1.5
 71
     0
 72
     0
 73
     0
 74
     0
 75
     0
 76
     0
 77
     3
 78
     8
170
     0
171
     2
172
     1
173
     0
174
     0
175
     0
176
   256
177
   256
178
     2
270
     2
271
     2
272
     3
273
     2
274
     2
340
6B
275
     0
280
     0
281
     0
282
     0
283
     0
284
     0
285
     0
286
     0
287
     3
288
     0
  0
DIMSTYLE
105
63
330
A
100
AcDbSymbolTableRecord
100
AcDbDimStyleTableRecord
  2
AM_JIS$SF
 70
     0
  3

  4
"
  5
OPEN30
  6

  7

 40
0.5
 41
2.5
 42
1.0
 43
10.0
 44
1.0
 45
0.0
 46
0.0
 47
0.1
 48
0.1
140
3.2
141
0.0
142
0.0
143
0.0393701
144
1.0
145
0.0
146
0.71
147
1.5
 71
     0
 72
     0
 73
     0
 74
     0
 75
     1
 76
     1
 77
     3
 78
     8
170
     0
171
     2
172
     1
173
     0
174
     0
175
     0
176
   256
177
   256
178
     2
270
     2
271
     2
272
     2
273
     2
274
     2
340
6B
275
     0
280
     0
281
     0
282
     0
283
     0
284
     0
285
     0
286
     0
287
     3
288
     0
  0
DIMSTYLE
105
68
330
A
100
AcDbSymbolTableRecord
100
AcDbDimStyleTableRecord
  2
AM_JIS$SH
 70
     0
  3

  4
"
  5

  6
GENAXEH
  7
OPEN30
 40
0.5
 41
2.5
 42
1.0
 43
10.0
 44
1.0
 45
0.0
 46
0.0
 47
0.1
 48
0.1
140
3.2
141
0.0
142
0.0
143
0.0393701
144
2.0
145
0.0
146
0.71
147
1.5
 71
     0
 72
     0
 73
     0
 74
     0
 75
     1
 76
     1
 77
     3
 78
     8
170
     0
171
     2
172
     1
173
     1
174
     0
175
     0
176
   256
177
   256
178
     2
270
     2
271
     2
272
     2
273
     2
274
     2
340
6B
275
     0
280
     0
281
     0
282
     0
283
     0
284
     0
285
     0
286
     0
287
     3
288
     0
  0
DIMSTYLE
105
B34
330
A
100
AcDbSymbolTableRecord
100
AcDbDimStyleTableRecord
  2
AM_JIS$2
 70
     0
  3

  4
"
  5
OPEN30
  6

  7

 40
0.5
 41
2.5
 42
1.0
 43
12.0
 44
1.0
 45
0.0
 46
0.0
 47
0.1
 48
0.1
140
3.2
141
0.0
142
0.0
143
0.0393701
144
1.0
145
0.0
146
0.71
147
1.5
 71
     0
 72
     0
 73
     0
 74
     0
 75
     0
 76
     0
 77
     3
 78
     8
170
     0
171
     2
172
     1
173
     0
174
     0
175
     0
176
   256
177
   256
178
     2
270
     2
271
     3
272
     3
273
     2
274
     2
340
6B
275
     0
280
     0
281
     0
282
     0
283
     0
284
     0
285
     0
286
     0
287
     3
288
     0
  0
ENDTAB
  0
TABLE
  2
BLOCK_RECORD
  5
1
330
0
100
AcDbSymbolTable
 70
     9
  0
BLOCK_RECORD
  5
1F
102
{ACAD_XDICTIONARY
360
74
102
}
330
1
100
AcDbSymbolTableRecord
100
AcDbBlockTableRecord
  2
*MODEL_SPACE
  0
BLOCK_RECORD
  5
101
102
{ACAD_XDICTIONARY
360
1D57
102
}
330
1
100
AcDbSymbolTableRecord
100
AcDbBlockTableRecord
  2
*PAPER_SPACE
  0
BLOCK_RECORD
  5
59
330
1
100
AcDbSymbolTableRecord
100
AcDbBlockTableRecord
  2
_OPEN30
  0
BLOCK_RECORD
  5
64
330
1
100
AcDbSymbolTableRecord
100
AcDbBlockTableRecord
  2
GENAXEH
  0
BLOCK_RECORD
  5
DDA
330
1
100
AcDbSymbolTableRecord
100
AcDbBlockTableRecord
  2
*D5
  0
BLOCK_RECORD
  5
DF3
330
1
100
AcDbSymbolTableRecord
100
AcDbBlockTableRecord
  2
*D6
  0
BLOCK_RECORD
  5
DFF
330
1
100
AcDbSymbolTableRecord
100
AcDbBlockTableRecord
  2
*D7
  0
BLOCK_RECORD
  5
15D2
330
1
100
AcDbSymbolTableRecord
100
AcDbBlockTableRecord
  2
*D8
  0
ENDTAB
  0
ENDSEC
  0
SECTION
  2
BLOCKS
  0
BLOCK
  5
20
330
1F
100
AcDbEntity
  8
0
100
AcDbBlockBegin
  2
*MODEL_SPACE
 70
     0
 10
0.0
 20
0.0
 30
0.0
  3
*MODEL_SPACE
  1

  0
ENDBLK
  5
21
330
1F
100
AcDbEntity
  8
0
100
AcDbBlockEnd
  0
BLOCK
  5
103
330
101
100
AcDbEntity
 67
     1
  8
0
100
AcDbBlockBegin
  2
*PAPER_SPACE
 70
     0
 10
0.0
 20
0.0
 30
0.0
  3
*PAPER_SPACE
  1

  0
ENDBLK
  5
104
330
101
100
AcDbEntity
 67
     1
  8
0
100
AcDbBlockEnd
  0
BLOCK
  5
5D
330
59
100
AcDbEntity
  8
0
100
AcDbBlockBegin
  2
_OPEN30
 70
     0
 10
0.0
 20
0.0
 30
0.0
  3
_OPEN30
  1

  0
LINE
  5
5A
330
59
100
AcDbEntity
  8
0
 62
     0
100
AcDbLine
 10
-1.0
 20
0.26794919
 30
0.0
 11
0.0
 21
0.0
 31
0.0
  0
LINE
  5
5B
330
59
100
AcDbEntity
  8
0
 62
     0
100
AcDbLine
 10
0.0
 20
0.0
 30
0.0
 11
-1.0
 21
-0.26794919
 31
0.0
  0
LINE
  5
5C
330
59
100
AcDbEntity
  8
0
 62
     0
100
AcDbLine
 10
0.0
 20
0.0
 30
0.0
 11
-1.0
 21
0.0
 31
0.0
  0
ENDBLK
  5
5E
330
59
100
AcDbEntity
  8
0
100
AcDbBlockEnd
  0
BLOCK
  5
66
330
64
100
AcDbEntity
  8
0
100
AcDbBlockBegin
  2
GENAXEH
 70
     0
 10
0.0
 20
0.0
 30
0.0
  3
GENAXEH
  1

  0
LINE
  5
65
330
64
100
AcDbEntity
  8
0
100
AcDbLine
 10
-1.0
 20
0.0
 30
0.0
 11
1.0
 21
0.0
 31
0.0
  0
ENDBLK
  5
67
330
64
100
AcDbEntity
  8
0
100
AcDbBlockEnd
  0
BLOCK
  5
DE4
330
DDA
100
AcDbEntity
  8
0
100
AcDbBlockBegin
  2
*D5
 70
     1
 10
0.0
 20
0.0
 30
0.0
  3
*D5
  1

  0
LINE
  5
1A0B
330
DDA
100
AcDbEntity
  8
AM_5
100
AcDbLine
 10
-0.0000000000012435
 20
-7.500000000000156
 30
0.0
 11
-0.0000000000012444
 21
-21.500001
 31
0.0
  0
LINE
  5
1A0C
330
DDA
100
AcDbEntity
  8
AM_5
100
AcDbLine
 10
-80.0
 20
-7.500000000000003
 30
0.0
 11
-80.0
 21
-21.500001
 31
0.0
  0
LINE
  5
1A0D
330
DDA
100
AcDbEntity
  8
AM_5
100
AcDbLine
 10
-1.250000000001244
 20
-21.000001
 30
0.0
 11
-78.75
 21
-21.000001
 31
0.0
  0
INSERT
  5
1A0E
330
DDA
100
AcDbEntity
  8
AM_5
100
AcDbBlockReference
  2
_OPEN30
 10
-0.0000000000012443
 20
-21.000001
 30
0.0
 41
1.25
 42
1.25
 43
1.25
  0
INSERT
  5
1A0F
330
DDA
100
AcDbEntity
  8
AM_5
100
AcDbBlockReference
  2
_OPEN30
 10
-80.0
 20
-21.000001
 30
0.0
 41
1.25
 42
1.25
 43
1.25
 50
180.0
  0
MTEXT
  5
1A10
330
DDA
100
AcDbEntity
  8
AM_5
 62
     2
100
AcDbMText
 10
-40.00000000000063
 20
-19.450001
 30
0.0
 40
1.6
 41
0.0
 71
     5
 72
     1
  1
80
  7
ASAMI
1001
ACAD
1000
MTEXTBEGIN
1070
    73
1070
     1
1070
    44
1040
1.0
1070
    74
1070
     0
1000
MTEXTEND
  0
POINT
  5
1A11
330
DDA
100
AcDbEntity
  8
DEFPOINTS
 62
     0
100
AcDbPoint
 10
-0.0000000000012435
 20
-7.000000000000156
 30
0.0
  0
POINT
  5
1A12
330
DDA
100
AcDbEntity
  8
DEFPOINTS
 62
     0
100
AcDbPoint
 10
-80.0
 20
-7.000000000000003
 30
0.0
  0
POINT
  5
1A13
330
DDA
100
AcDbEntity
  8
DEFPOINTS
 62
     0
100
AcDbPoint
 10
-80.0
 20
-21.000001
 30
0.0
  0
ENDBLK
  5
DE5
330
DDA
100
AcDbEntity
  8
0
100
AcDbBlockEnd
  0
BLOCK
  5
DFD
330
DF3
100
AcDbEntity
  8
0
100
AcDbBlockBegin
  2
*D6
 70
     1
 10
0.0
 20
0.0
 30
0.0
  3
*D6
  1

  0
LINE
  5
1A26
330
DF3
100
AcDbEntity
  8
AM_5
100
AcDbLine
 10
-19.9999999999999
 20
-7.500000000000174
 30
0.0
 11
-19.9999999999999
 21
-15.500001
 31
0.0
  0
LINE
  5
1A27
330
DF3
100
AcDbEntity
  8
AM_5
100
AcDbLine
 10
-0.0000000000012435
 20
-7.500000000000156
 30
0.0
 11
-0.000000000001244
 21
-15.500001
 31
0.0
  0
LINE
  5
1A28
330
DF3
100
AcDbEntity
  8
AM_5
100
AcDbLine
 10
-18.7499999999999
 20
-15.000001
 30
0.0
 11
-1.250000000001243
 21
-15.000001
 31
0.0
  0
INSERT
  5
1A29
330
DF3
100
AcDbEntity
  8
AM_5
100
AcDbBlockReference
  2
_OPEN30
 10
-19.9999999999999
 20
-15.000001
 30
0.0
 41
1.25
 42
1.25
 43
1.25
 50
180.0
  0
INSERT
  5
1A2A
330
DF3
100
AcDbEntity
  8
AM_5
100
AcDbBlockReference
  2
_OPEN30
 10
-0.000000000001244
 20
-15.000001
 30
0.0
 41
1.25
 42
1.25
 43
1.25
  0
MTEXT
  5
1A2B
330
DF3
100
AcDbEntity
  8
AM_5
 62
     2
100
AcDbMText
 10
-10.00000000000057
 20
-13.450001
 30
0.0
 40
1.6
 41
0.0
 71
     5
 72
     1
  1
20
  7
ASAMI
1001
ACAD
1000
MTEXTBEGIN
1070
    73
1070
     1
1070
    44
1040
1.0
1070
    74
1070
     0
1000
MTEXTEND
  0
POINT
  5
1A2C
330
DF3
100
AcDbEntity
  8
DEFPOINTS
 62
     0
100
AcDbPoint
 10
-19.9999999999999
 20
-7.000000000000174
 30
0.0
  0
POINT
  5
1A2D
330
DF3
100
AcDbEntity
  8
DEFPOINTS
 62
     0
100
AcDbPoint
 10
-0.0000000000012435
 20
-7.000000000000156
 30
0.0
  0
POINT
  5
1A2E
330
DF3
100
AcDbEntity
  8
DEFPOINTS
 62
     0
100
AcDbPoint
 10
-0.000000000001244
 20
-15.000001
 30
0.0
  0
ENDBLK
  5
DFE
330
DF3
100
AcDbEntity
  8
0
100
AcDbBlockEnd
  0
BLOCK
  5
E0A
330
DFF
100
AcDbEntity
  8
0
100
AcDbBlockBegin
  2
*D7
 70
     1
 10
0.0
 20
0.0
 30
0.0
  3
*D7
  1

  0
LINE
  5
1A02
330
DFF
100
AcDbEntity
  8
AM_5
100
AcDbLine
 10
0.4999999999987708
 20
6.999999999999953
 30
0.0
 11
12.05776903085493
 21
6.99999999999995
 31
0.0
  0
LINE
  5
1A03
330
DFF
100
AcDbEntity
  8
AM_5
100
AcDbLine
 10
0.4999999999987565
 20
-7.000000000000156
 30
0.0
 11
12.05776903085492
 21
-7.000000000000159
 31
0.0
  0
LINE
  5
1A04
330
DFF
100
AcDbEntity
  8
AM_5
100
AcDbLine
 10
11.55776903085492
 20
5.74999999999995
 30
0.0
 11
11.55776903085492
 21
-5.750000000000159
 31
0.0
  0
INSERT
  5
1A05
330
DFF
100
AcDbEntity
  8
AM_5
100
AcDbBlockReference
  2
_OPEN30
 10
11.55776903085492
 20
6.99999999999995
 30
0.0
 41
1.25
 42
1.25
 43
1.25
 50
90.0
  0
INSERT
  5
1A06
330
DFF
100
AcDbEntity
  8
AM_5
100
AcDbBlockReference
  2
_OPEN30
 10
11.55776903085492
 20
-7.000000000000159
 30
0.0
 41
1.25
 42
1.25
 43
1.25
 50
270.0
  0
MTEXT
  5
1A07
330
DFF
100
AcDbEntity
  8
AM_5
 62
     2
100
AcDbMText
 10
10.00776903085492
 20
-0.0000000000001027
 30
0.0
 40
1.6
 41
0.0
 71
     5
 72
     1
  1
%%c14
  7
ASAMI
 11
0.0000000000000001
 21
1.0
 31
0.0
1001
ACAD
1000
MTEXTBEGIN
1070
    73
1070
     1
1070
    44
1040
1.0
1070
    74
1070
     0
1000
MTEXTEND
  0
POINT
  5
1A08
330
DFF
100
AcDbEntity
  8
DEFPOINTS
 62
     0
100
AcDbPoint
 10
-0.0000000000012292
 20
6.999999999999953
 30
0.0
  0
POINT
  5
1A09
330
DFF
100
AcDbEntity
  8
DEFPOINTS
 62
     0
100
AcDbPoint
 10
-0.0000000000012435
 20
-7.000000000000156
 30
0.0
  0
POINT
  5
1A0A
330
DFF
100
AcDbEntity
  8
DEFPOINTS
 62
     0
100
AcDbPoint
 10
11.55776903085492
 20
-7.000000000000159
 30
0.0
  0
ENDBLK
  5
E0B
330
DFF
100
AcDbEntity
  8
0
100
AcDbBlockEnd
  0
BLOCK
  5
15DC
330
15D2
100
AcDbEntity
  8
0
100
AcDbBlockBegin
  2
*D8
 70
     1
 10
0.0
 20
0.0
 30
0.0
  3
*D8
  1

  0
LINE
  5
15DE
330
15D2
100
AcDbEntity
  8
AM_5
100
AcDbLine
 10
-79.50000000000001
 20
7.999999999999999
 30
0.0
 11
-92.29349790496838
 21
8.000000000000003
 31
0.0
  0
LINE
  5
15DF
330
15D2
100
AcDbEntity
  8
AM_5
100
AcDbLine
 10
-79.5
 20
-8.0
 30
0.0
 11
-92.29349790496838
 21
-7.999999999999997
 31
0.0
  0
LINE
  5
15E0
330
15D2
100
AcDbEntity
  8
AM_5
100
AcDbLine
 10
-91.79349790496837
 20
6.750000000000002
 30
0.0
 11
-91.79349790496837
 21
-6.749999999999997
 31
0.0
  0
INSERT
  5
15E1
330
15D2
100
AcDbEntity
  8
AM_5
100
AcDbBlockReference
  2
_OPEN30
 10
-91.79349790496837
 20
8.000000000000001
 30
0.0
 41
1.25
 42
1.25
 43
1.25
 50
90.0
  0
INSERT
  5
15E2
330
15D2
100
AcDbEntity
  8
AM_5
100
AcDbBlockReference
  2
_OPEN30
 10
-91.79349790496837
 20
-7.999999999999997
 30
0.0
 41
1.25
 42
1.25
 43
1.25
 50
270.0
  0
MTEXT
  5
15E3
330
15D2
100
AcDbEntity
  8
AM_5
 62
     2
100
AcDbMText
 10
-93.34349790496837
 20
-0.000000000000012
 30
0.0
 40
1.6
 41
0.0
 71
     5
 72
     1
  1
%%c16
  7
ASAMI
 11
0.0000000000000001
 21
1.0
 31
0.0
1001
ACAD
1000
MTEXTBEGIN
1070
    73
1070
     1
1070
    44
1040
1.0
1070
    74
1070
     0
1000
MTEXTEND
  0
POINT
  5
15E4
330
15D2
100
AcDbEntity
  8
DEFPOINTS
 62
     0
100
AcDbPoint
 10
-79.00000000000002
 20
7.999999999999999
 30
0.0
  0
POINT
  5
15E5
330
15D2
100
AcDbEntity
  8
DEFPOINTS
 62
     0
100
AcDbPoint
 10
-79.0
 20
-8.0
 30
0.0
  0
POINT
  5
15E6
330
15D2
100
AcDbEntity
  8
DEFPOINTS
 62
     0
100
AcDbPoint
 10
-91.79349790496837
 20
-7.999999999999997
 30
0.0
  0
ENDBLK
  5
15DD
330
15D2
100
AcDbEntity
  8
0
100
AcDbBlockEnd
  0
ENDSEC
  0
SECTION
  2
ENTITIES
  0
DIMENSION
  5
D71
330
1F
100
AcDbEntity
  8
AM_5
100
AcDbDimension
  2
*D5
 10
-80.0
 20
-21.000001
 30
0.0
 11
-40.00000000000063
 21
-19.450001
 31
0.0
 70
    32
  1
<>
  3
AM_JIS
100
AcDbAlignedDimension
 13
-0.0000000000012435
 23
-7.000000000000156
 33
0.0
 14
-80.0
 24
-7.000000000000003
 34
0.0
100
AcDbRotatedDimension
1001
GENIUS_GENDTOL_13
1000

1000
h7
1000

1040
0.0
  0
LINE
  5
D74
330
1F
100
AcDbEntity
  8
AM_7
  6
AM_ISO08W050X2
100
AcDbLine
 10
4.557768030854926
 20
0.0
 30
0.0
 11
-84.79349690496837
 21
-0.0000000000000444
 31
0.0
1001
GENIUS_GENODEF_13
1002
{
1000
HIER
1070
     0
1002
}
1002
{
1000
MANEDIT
1070
     0
1002
}
1002
{
1000
NOSEL
1070
     0
1002
}
1002
{
1000
BEHIND
1070
     0
1002
}
1002
{
1000
REACTOR
1002
}
1001
GENIUS_GENOBJ-N-CEN_13
1002
{
1000
OWNER
1000
GEN
1002
}
  0
DIMENSION
  5
D7A
330
1F
100
AcDbEntity
  8
AM_5
100
AcDbDimension
  2
*D6
 10
-0.000000000001244
 20
-15.000001
 30
0.0
 11
-10.00000000000057
 21
-13.450001
 31
0.0
 70
    32
  1
<>
  3
AM_JIS
100
AcDbAlignedDimension
 13
-19.9999999999999
 23
-7.000000000000174
 33
0.0
 14
-0.0000000000012435
 24
-7.000000000000156
 34
0.0
100
AcDbRotatedDimension
1001
GENIUS_GENDTOL_13
1000

1000
h7
1000

1040
0.0
  0
DIMENSION
  5
DA6
330
1F
100
AcDbEntity
  8
AM_5
100
AcDbDimension
  2
*D7
 10
11.55776903085492
 20
-7.000000000000159
 30
0.0
 11
10.00776903085492
 21
-0.0000000000001027
 31
0.0
 70
    32
  1
%%c<>
  3
AM_JIS
100
AcDbAlignedDimension
 13
-0.0000000000012292
 23
6.999999999999953
 33
0.0
 14
-0.0000000000012435
 24
-7.000000000000156
 34
0.0
 50
270.0
100
AcDbRotatedDimension
1001
GENIUS_GENDTOL_13
1000

1000
h7
1000

1040
0.0
  0
TEXT
  5
E5A
330
1F
100
AcDbEntity
  8
AM_6
100
AcDbText
 10
-50.35714285714347
 20
-32.25000099999999
 30
0.0
 40
2.5
  1
SSM4140ZX
 72
     4
 11
-40.00000000000062
 21
-31.000001
 31
0.0
100
AcDbText
  0
LINE
  5
15CB
330
1F
100
AcDbEntity
  8
AM_0
100
AcDbLine
 10
-32.00000000000002
 20
8.000000000000017
 30
0.0
 11
-79.0
 21
8.0
 31
0.0
  0
LINE
  5
15CC
330
1F
100
AcDbEntity
  8
AM_0
100
AcDbLine
 10
-32.00000000000001
 20
-7.999999999999929
 30
0.0
 11
-79.0
 21
-8.000000000000001
 31
0.0
  0
LINE
  5
15CF
330
1F
100
AcDbEntity
  8
AM_0
100
AcDbLine
 10
-80.0
 20
-7.000000000000003
 30
0.0
 11
-80.0
 21
7.0
 31
0.0
  0
LINE
  5
15D0
330
1F
100
AcDbEntity
  8
AM_0
100
AcDbLine
 10
-79.0
 20
-8.0
 30
0.0
 11
-79.0
 21
7.999999999999999
 31
0.0
  0
DIMENSION
  5
15D1
330
1F
100
AcDbEntity
  8
AM_5
100
AcDbDimension
  2
*D8
 10
-91.79349790496837
 20
-7.999999999999997
 30
0.0
 11
-93.34349790496837
 21
-0.000000000000012
 31
0.0
 70
    32
  1
%%c<>
  3
AM_JIS
100
AcDbAlignedDimension
 13
-79.00000000000002
 23
7.999999999999999
 33
0.0
 14
-79.0
 24
-8.0
 34
0.0
 50
270.0
100
AcDbRotatedDimension
1001
GENIUS_GENDTOL_13
1000

1000
h7
1000

1040
0.0
  0
LINE
  5
15EF
330
1F
100
AcDbEntity
  8
AM_0
100
AcDbLine
 10
-79.0
 20
8.0
 30
0.0
 11
-80.0
 21
7.0
 31
0.0
1001
GENIUS_GENFIL_13
1070
     0
1040
1.0
1040
1.0
1040
20.0
1040
0.0
1002
{
1002
}
1001
GENIUS_GENODEF_13
1002
{
1000
HIER
1070
     0
1002
}
1002
{
1000
MANEDIT
1070
     0
1002
}
1002
{
1000
NOSEL
1070
     0
1002
}
1002
{
1000
BEHIND
1070
     0
1002
}
1002
{
1000
REACTOR
1002
}
1001
GENIUS_GENOBJ-N-CHA_13
1002
{
1000
OWNER
1000
GEN
1002
}
  0
LINE
  5
15F2
330
1F
100
AcDbEntity
  8
AM_0
100
AcDbLine
 10
-80.0
 20
-7.000000000000003
 30
0.0
 11
-79.0
 21
-8.000000000000001
 31
0.0
1001
GENIUS_GENFIL_13
1070
     0
1040
1.0
1040
1.0
1040
20.0
1040
0.0
1002
{
1002
}
1001
GENIUS_GENODEF_13
1002
{
1000
HIER
1070
     0
1002
}
1002
{
1000
MANEDIT
1070
     0
1002
}
1002
{
1000
NOSEL
1070
     0
1002
}
1002
{
1000
BEHIND
1070
     0
1002
}
1002
{
1000
REACTOR
1002
}
1001
GENIUS_GENOBJ-N-CHA_13
1002
{
1000
OWNER
1000
GEN
1002
}
  0
LINE
  5
1604
330
1F
100
AcDbEntity
  8
AM_0
100
AcDbLine
 10
-32.00000000000001
 20
-7.999999999999928
 30
0.0
 11
-32.00000000000001
 21
8.000000000000017
 31
0.0
  0
LINE
  5
175C
330
1F
100
AcDbEntity
  8
AM_0
100
AcDbLine
 10
-32.00000000000001
 20
8.000000000000017
 30
0.0
 11
-29.25252258054515
 21
6.999999999999928
 31
0.0
  0
LINE
  5
175D
330
1F
100
AcDbEntity
  8
AM_0
100
AcDbLine
 10
-29.25252258054515
 20
6.999999999999929
 30
0.0
 11
-29.25252258054641
 21
-7.000000000000079
 31
0.0
  0
LINE
  5
175E
330
1F
100
AcDbEntity
  8
AM_0
100
AcDbLine
 10
-29.25252258054641
 20
-7.000000000000301
 30
0.0
 11
-32.00000000000001
 21
-7.999999999999929
 31
0.0
  0
LINE
  5
175F
330
1F
100
AcDbEntity
  8
AM_0
100
AcDbLine
 10
-29.25252258054515
 20
6.999999999999929
 30
0.0
 11
-18.13333333333353
 21
7.000000000000095
 31
0.0
  0
LINE
  5
1760
330
1F
100
AcDbEntity
  8
AM_0
100
AcDbLine
 10
-29.2525225805458
 20
-7.000000000000079
 30
0.0
 11
-22.2054149609354
 21
-7.000000000000079
 31
0.0
  0
LINE
  5
19B1
330
1F
100
AcDbEntity
  8
AM_0
100
AcDbLine
 10
-0.0000000000001918
 20
-0.0000000000000462
 30
0.0
 11
-0.1400000000001782
 21
1.400000000000115
 31
0.0
  0
LINE
  5
19B2
330
1F
100
AcDbEntity
  8
AM_0
100
AcDbLine
 10
-1.423365596994663
 20
3.733997139614508
 30
0.0
 11
-3.142096308029373
 21
4.211834791539263
 31
0.0
  0
LINE
  5
19B3
330
1F
100
AcDbEntity
  8
AM_0
100
AcDbLine
 10
-0.0000000000001918
 20
-0.0000000000000462
 30
0.0
 11
-3.142096308029373
 21
-0.0000000000000462
 31
0.0
  0
LINE
  5
19B4
330
1F
100
AcDbEntity
  8
AM_0
100
AcDbLine
 10
-0.1400000000001782
 20
1.400000000000115
 30
0.0
 11
-1.423365596994663
 21
3.733997139614508
 31
0.0
  0
LINE
  5
19B5
330
1F
100
AcDbEntity
  8
AM_0
100
AcDbLine
 10
-0.1400000000001782
 20
-1.857656996388502
 30
0.0
 11
-0.0000000000001918
 21
-1.400000000000044
 31
0.0
  0
LINE
  5
19B6
330
1F
100
AcDbEntity
  8
AM_0
100
AcDbLine
 10
-1.147277314255084
 20
-2.063116671233206
 30
0.0
 11
-0.1400000000001782
 21
-1.857656996388502
 31
0.0
  0
LINE
  5
19B7
330
1F
100
AcDbEntity
  8
AM_0
100
AcDbLine
 10
-3.142096308029373
 20
-1.120000000000061
 30
0.0
 11
-1.147277314255084
 21
-2.063116671233206
 31
0.0
  0
LINE
  5
19B8
330
1F
100
AcDbEntity
  8
AM_0
100
AcDbLine
 10
-3.142096308029373
 20
-1.120000000000061
 30
0.0
 11
-0.1539600717840912
 21
-1.120000000000061
 31
0.0
  0
LINE
  5
19B9
330
1F
100
AcDbEntity
  8
AM_0
100
AcDbLine
 10
-0.0000000000001918
 20
-1.400000000000044
 30
0.0
 11
-0.7698003589197313
 21
0.0000000000000355
 31
0.0
  0
LINE
  5
19BA
330
1F
100
AcDbEntity
  8
AM_0
100
AcDbLine
 10
-0.0000000000001918
 20
-0.0000000000000462
 30
0.0
 11
-0.1184568121921501
 21
-1.184568121920097
 31
0.0
  0
LINE
  5
19BB
330
1F
100
AcDbEntity
  8
AM_0
100
AcDbLine
 10
-3.142096308029373
 20
-0.0000000000000462
 30
0.0
 11
-3.142096308029373
 21
-1.120000000000061
 31
0.0
  0
LINE
  5
19BC
330
1F
100
AcDbEntity
  8
AM_0
100
AcDbLine
 10
-0.0000000000001918
 20
-0.0000000000000462
 30
0.0
 11
-0.0000000000002061
 21
6.999999999999953
 31
0.0
  0
LINE
  5
19BD
330
1F
100
AcDbEntity
  8
AM_0
100
AcDbLine
 10
-0.0000000000001918
 20
-7.000000000000046
 30
0.0
 11
-0.1400000000001782
 21
-6.6268176206706
 31
0.0
  0
LINE
  5
19BE
330
1F
100
AcDbEntity
  8
AM_0
100
AcDbLine
 10
-0.1400000000001782
 20
-6.626817620670522
 30
0.0
 11
-0.9133333333335329
 21
-5.596663317646719
 31
0.0
  0
LINE
  5
19BF
330
1F
100
AcDbEntity
  8
AM_0
100
AcDbLine
 10
-0.0000000000001918
 20
-7.000000000000046
 30
0.0
 11
-0.0000000000001918
 21
-1.400000000000044
 31
0.0
  0
ELLIPSE
  5
19C0
330
1F
100
AcDbEntity
  8
AM_0
100
AcDbEllipse
 10
2.647564242702749
 20
-3.56143223060512
 30
0.0
 11
0.0000000000000031
 21
4.256977361722453
 31
0.0
210
0.0
220
0.0
230
1.0
 40
0.9523809523809568
 41
1.211124581303823
 42
2.069278538290321
  0
LINE
  5
19C1
330
1F
100
AcDbEntity
  8
AM_0
100
AcDbLine
 10
-0.1400000000001782
 20
-6.6268176206706
 30
0.0
 11
-0.1400000000001782
 21
-1.857656996388502
 31
0.0
  0
POLYLINE
  5
19C2
330
1F
100
AcDbEntity
  8
AM_0
100
AcDb2dPolyline
 66
     1
 10
0.0
 20
0.0
 30
0.0
 70
     2
  0
VERTEX
  5
19C3
330
19C2
100
AcDbEntity
  8
AM_0
100
AcDbVertex
100
AcDb2dVertex
 10
-24.09309150685916
 20
5.214643938376386
 30
0.0
 42
-0.0100635788804193
  0
VERTEX
  5
19C4
330
19C2
100
AcDbEntity
  8
AM_0
100
AcDbVertex
100
AcDb2dVertex
 10
-24.70846860484032
 20
5.552968211324952
 30
0.0
 42
-0.0111716247241469
 70
     1
  0
VERTEX
  5
19C5
330
19C2
100
AcDbEntity
  8
AM_0
100
AcDbVertex
100
AcDb2dVertex
 10
-25.25000000000019
 20
5.882180995587731
 30
0.0
 42
-0.0056817162269327
  0
VERTEX
  5
19C6
330
19C2
100
AcDbEntity
  8
AM_0
100
AcDbVertex
100
AcDb2dVertex
 10
-25.96572084860327
 20
6.351796220138862
 30
0.0
 42
-0.1012800428637157
 70
     1
  0
VERTEX
  5
19C7
330
19C2
100
AcDbEntity
  8
AM_0
100
AcDbVertex
100
AcDb2dVertex
 10
-26.00000000000019
 20
6.386820793789592
 30
0.0
 42
-0.5091829191374789
  0
VERTEX
  5
19C8
330
19C2
100
AcDbEntity
  8
AM_0
100
AcDbVertex
100
AcDb2dVertex
 10
-25.97810845099753
 20
6.450828815977057
 30
0.0
 42
-0.0351954426445148
 70
     1
  0
VERTEX
  5
19C9
330
19C2
100
AcDbEntity
  8
AM_0
100
AcDbVertex
100
AcDb2dVertex
 10
-25.25000000000019
 20
6.616762996118499
 30
0.0
 42
-0.011586529956417
  0
VERTEX
  5
19CA
330
19C2
100
AcDbEntity
  8
AM_0
100
AcDbVertex
100
AcDb2dVertex
 10
-24.59938264959995
 20
6.699272714891275
 30
0.0
 42
-0.0032183393648243
 70
     1
  0
VERTEX
  5
19CB
330
19C2
100
AcDbEntity
  8
AM_0
100
AcDbVertex
100
AcDb2dVertex
 10
-22.25000000000019
 20
6.923352599223786
 30
0.0
 42
-0.0129305071352978
  0
VERTEX
  5
19CC
330
19C2
100
AcDbEntity
  8
AM_0
100
AcDbVertex
100
AcDb2dVertex
 10
-21.46755437194876
 20
6.971297375387511
 30
0.0
 42
-0.0069037738036377
 70
     1
  0
VERTEX
  5
19CD
330
19C2
100
AcDbEntity
  8
AM_0
100
AcDbVertex
100
AcDb2dVertex
 10
-20.00000000000019
 20
7.000000000000081
 30
0.0
  0
SEQEND
  5
19CE
330
19C2
100
AcDbEntity
  8
AM_0
  0
LINE
  5
19CF
330
1F
100
AcDbEntity
  8
AM_0
100
AcDbLine
 10
-20.0000000000002
 20
3.57606082059592
 30
0.0
 11
-20.75337256613361
 21
2.78501962615584
 31
0.0
  0
LINE
  5
19D0
330
1F
100
AcDbEntity
  8
AM_0
100
AcDbLine
 10
-20.75337256613361
 20
2.78501962615584
 30
0.0
 11
-20.00000000000019
 21
1.112804194199537
 31
0.0
  0
LINE
  5
19D1
330
1F
100
AcDbEntity
  8
AM_0
100
AcDbLine
 10
-20.00000000000015
 20
-5.309869895559572
 30
0.0
 11
-20.00000000000018
 21
-6.903496244277501
 31
0.0
  0
ELLIPSE
  5
19D2
330
1F
100
AcDbEntity
  8
AM_0
100
AcDbEllipse
 10
-4.034328723890119
 20
-436.9997860406871
 30
0.0
 11
-0.0000000054954646
 21
430.4228719277154
 31
0.0
210
0.0
220
0.0
230
1.0
 40
0.9523809523662997
 41
0.0389574929283283
 42
0.0443421939606885
  0
LINE
  5
19D3
330
1F
100
AcDbEntity
  8
AM_11
100
AcDbLine
 10
-20.00000000000009
 20
7.000000000000131
 30
0.0
 11
-20.0000000000001
 21
-7.000000000000063
 31
0.0
  0
POLYLINE
  5
19D4
330
1F
100
AcDbEntity
  8
AM_0
100
AcDb2dPolyline
 66
     1
 10
0.0
 20
0.0
 30
0.0
 70
     2
  0
VERTEX
  5
19D5
330
19D4
100
AcDbEntity
  8
AM_0
100
AcDbVertex
100
AcDb2dVertex
 10
-20.00000000000019
 20
1.112804194199526
 30
0.0
 42
0.0405418597991228
  0
VERTEX
  5
19D6
330
19D4
100
AcDbEntity
  8
AM_0
100
AcDbVertex
100
AcDb2dVertex
 10
-21.18569776373079
 20
1.635008830722675
 30
0.0
 42
0.0478227441547119
 70
     1
  0
VERTEX
  5
19D7
330
19D4
100
AcDbEntity
  8
AM_0
100
AcDbVertex
100
AcDb2dVertex
 10
-22.25000000000019
 20
1.885548261193189
 30
0.0
 42
0.0443214214461838
  0
VERTEX
  5
19D8
330
19D4
100
AcDbEntity
  8
AM_0
100
AcDbVertex
100
AcDb2dVertex
 10
-24.36844399027394
 20
1.96652543737278
 30
0.0
 42
0.1039236762820958
 70
     1
  0
VERTEX
  5
19D9
330
19D4
100
AcDbEntity
  8
AM_0
100
AcDbVertex
100
AcDb2dVertex
 10
-25.25000000000019
 20
1.720980338400142
 30
0.0
 42
0.1017574481668659
  0
VERTEX
  5
19DA
330
19D4
100
AcDbEntity
  8
AM_0
100
AcDbVertex
100
AcDb2dVertex
 10
-25.83878143930588
 20
1.231976016641663
 30
0.0
 42
0.1704800302432918
 70
     1
  0
VERTEX
  5
19DB
330
19D4
100
AcDbEntity
  8
AM_0
100
AcDbVertex
100
AcDb2dVertex
 10
-26.00000000000019
 20
0.783668348613503
 30
0.0
 42
0.1172295991725115
  0
VERTEX
  5
19DC
330
19D4
100
AcDbEntity
  8
AM_0
100
AcDbVertex
100
AcDb2dVertex
 10
-25.88033995490173
 20
0.1943682922509424
 30
0.0
 42
0.0556068033830928
 70
     1
  0
VERTEX
  5
19DD
330
19D4
100
AcDbEntity
  8
AM_0
100
AcDbVertex
100
AcDb2dVertex
 10
-25.25000000000019
 20
-0.8741939409965091
 30
0.0
 42
0.0341135094462395
  0
VERTEX
  5
19DE
330
19D4
100
AcDbEntity
  8
AM_0
100
AcDbVertex
100
AcDb2dVertex
 10
-24.17381420397411
 20
-2.1271215877595
 30
0.0
 42
0.0212902001773867
 70
     1
  0
VERTEX
  5
19DF
330
19D4
100
AcDbEntity
  8
AM_0
100
AcDbVertex
100
AcDb2dVertex
 10
-22.25000000000018
 20
-3.920963063083092
 30
0.0
 42
0.0380483921513513
  0
VERTEX
  5
19E0
330
19D4
100
AcDbEntity
  8
AM_0
100
AcDbVertex
100
AcDb2dVertex
 10
-21.44525930564956
 20
-4.508436240185023
 30
0.0
 42
0.022795517676966
 70
     1
  0
VERTEX
  5
19E1
330
19D4
100
AcDbEntity
  8
AM_0
100
AcDbVertex
100
AcDb2dVertex
 10
-20.00000000000018
 20
-5.309869895559661
 30
0.0
  0
SEQEND
  5
19E2
330
19D4
100
AcDbEntity
  8
AM_0
  0
LINE
  5
19E3
330
1F
100
AcDbEntity
  8
AM_11
100
AcDbLine
 10
-20.0000000000001
 20
-7.000000000000061
 30
0.0
 11
-0.0000000000001918
 21
-7.000000000000046
 31
0.0
  0
LINE
  5
19E4
330
1F
100
AcDbEntity
  8
AM_11
100
AcDbLine
 10
-0.0000000000012292
 20
6.999999999999953
 30
0.0
 11
-20.00000000000009
 21
6.99999999999993
 31
0.0
  0
SPLINE
  5
19E5
330
1F
100
AcDbEntity
  8
AM_0
100
AcDbSpline
210
0.0
220
0.0
230
1.0
 70
     8
 71
     3
 72
     8
 73
     4
 74
     0
 42
0.0000000001
 43
0.0000000001
 40
1.870660592686466
 40
1.870660592686466
 40
1.870660592686466
 40
1.870660592686466
 40
14.43901837670146
 40
14.43901837670146
 40
14.43901837670146
 40
14.43901837670146
 10
-0.1400000000001782
 20
-6.626817620670522
 30
0.0
 10
-5.60795278830529
 20
-5.910660856942126
 30
0.0
 10
-10.70701053948968
 20
-2.95533042847105
 30
0.0
 10
-15.80606829067407
 20
0.0000000000000142
 30
0.0
  0
SPLINE
  5
19E6
330
1F
100
AcDbEntity
  8
AM_0
100
AcDbSpline
210
0.0
220
0.0
230
1.0
 70
     8
 71
     3
 72
     8
 73
     4
 74
     0
 42
0.0000000001
 43
0.0000000001
 40
5.522276060027962
 40
5.522276060027962
 40
5.522276060027962
 40
5.522276060027962
 40
14.36247867694493
 40
14.36247867694493
 40
14.36247867694493
 40
14.36247867694493
 10
-24.09309150685924
 20
5.214643938376479
 30
0.0
 10
-20.3584546073978
 20
3.978895583818282
 30
0.0
 10
-16.74234951638213
 20
1.989447791909149
 30
0.0
 10
-13.12624442536647
 20
0.0000000000000249
 30
0.0
  0
SPLINE
  5
19E7
330
1F
100
AcDbEntity
  8
AM_0
100
AcDbSpline
210
0.0
220
0.0
230
1.0
 70
     8
 71
     3
 72
     8
 73
     4
 74
     0
 42
0.0000000001
 43
0.0000000001
 40
0.0
 40
0.0
 40
0.0
 40
0.0
 40
5.291496149500158
 40
5.291496149500158
 40
5.291496149500158
 40
5.291496149500158
 10
-13.12624442536674
 20
-6.464422305323658
 30
0.0
 10
-15.47802049181125
 20
-6.464422305323658
 30
0.0
 10
-17.7607988574773
 20
-6.025691732179719
 30
0.0
 10
-20.00000000000015
 20
-5.309869895559572
 30
0.0
  0
SPLINE
  5
19E8
330
1F
100
AcDbEntity
  8
AM_0
100
AcDbSpline
210
0.0
220
0.0
230
1.0
 70
     8
 71
     3
 72
     8
 73
     4
 74
     0
 42
0.0000000001
 43
0.0000000001
 40
0.0
 40
0.0
 40
0.0
 40
0.0
 40
14.48999654934395
 40
14.48999654934395
 40
14.48999654934395
 40
14.48999654934395
 10
-0.0000000000001918
 20
-7.000000000000046
 30
0.0
 10
-6.439998466375286
 20
-7.000000000000049
 30
0.0
 10
-12.28666589985441
 20
-3.50000000000006
 30
0.0
 10
-18.13333333333351
 20
-0.0000000000000639
 30
0.0
  0
SPLINE
  5
19E9
330
1F
100
AcDbEntity
  8
AM_0
100
AcDbSpline
210
0.0
220
0.0
230
1.0
 70
     8
 71
     3
 72
     8
 73
     4
 74
     0
 42
0.0000000001
 43
0.0000000001
 40
0.0
 40
0.0
 40
0.0
 40
0.0
 40
14.48999654934396
 40
14.48999654934396
 40
14.48999654934396
 40
14.48999654934396
 10
-18.13333333333353
 20
7.000000000000095
 30
0.0
 10
-11.69333486695843
 20
7.000000000000095
 30
0.0
 10
-5.846667433479311
 20
3.500000000000103
 30
0.0
 10
-0.0000000000001918
 20
0.0000000000001137
 30
0.0
  0
SPLINE
  5
19EA
330
1F
100
AcDbEntity
  8
AM_0
100
AcDbSpline
210
0.0
220
0.0
230
1.0
 70
     8
 71
     3
 72
     8
 73
     4
 74
     0
 42
0.0000000001
 43
0.0000000001
 40
0.0
 40
0.0
 40
0.0
 40
0.0
 40
3.20279236890966
 40
3.20279236890966
 40
3.20279236890966
 40
3.20279236890966
 10
-15.8060682906743
 20
-6.790397138469447
 30
0.0
 10
-17.22953156574525
 20
-6.790397138469447
 30
0.0
 10
-18.62547395262367
 20
-6.623346780318669
 30
0.0
 10
-19.9999999999976
 20
-6.326300356653174
 30
0.0
  0
SPLINE
  5
19EB
330
1F
100
AcDbEntity
  8
AM_0
100
AcDbSpline
210
0.0
220
0.0
230
1.0
 70
     8
 71
     3
 72
     8
 73
     4
 74
     0
 42
0.0000000001
 43
0.0000000001
 40
10.38442441395913
 40
10.38442441395913
 40
10.38442441395913
 40
10.38442441395913
 40
14.43901837670146
 40
14.43901837670146
 40
14.43901837670146
 40
14.43901837670146
 10
-20.75337256614217
 20
2.785019626138133
 30
0.0
 10
-19.09601422138614
 20
1.906798822743169
 30
0.0
 10
-17.45104125603011
 20
0.953399411371592
 30
0.0
 10
-15.80606829067407
 20
0.0000000000000142
 30
0.0
  0
SPLINE
  5
19EC
330
1F
100
AcDbEntity
  8
AM_0
100
AcDbSpline
210
0.0
220
0.0
230
1.0
 70
     8
 71
     3
 72
     8
 73
     4
 74
     0
 42
0.0000000001
 43
0.0000000001
 40
0.0
 40
0.0
 40
0.0
 40
0.0
 40
2.130230809022907
 40
2.130230809022907
 40
2.130230809022907
 40
2.130230809022907
 10
-18.13333333333377
 20
-7.000000000000063
 30
0.0
 10
-17.18656408487913
 20
-7.000000000000063
 30
0.0
 10
-16.25261855039563
 20
-6.924354202948297
 30
0.0
 10
-15.32961146576368
 20
-6.784183591993642
 30
0.0
  0
SPLINE
  5
19ED
330
1F
100
AcDbEntity
  8
AM_0
100
AcDbSpline
210
0.0
220
0.0
230
1.0
 70
     8
 71
     3
 72
     8
 73
     4
 74
     0
 42
0.0000000001
 43
0.0000000001
 40
0.0
 40
0.0
 40
0.0
 40
0.0
 40
2.764560748519282
 40
2.764560748519282
 40
2.764560748519282
 40
2.764560748519282
 10
-15.8060682906743
 20
-6.790397138469604
 30
0.0
 10
-14.57737462466575
 20
-6.790397138469597
 30
0.0
 10
-13.36918583482975
 20
-6.66593360791413
 30
0.0
 10
-12.17757596343563
 20
-6.440836905780404
 30
0.0
  0
SPLINE
  5
19EE
330
1F
100
AcDbEntity
  8
AM_0
100
AcDbSpline
210
0.0
220
0.0
230
1.0
 70
     8
 71
     3
 72
     8
 73
     4
 74
     0
 42
0.0000000001
 43
0.0000000001
 40
0.3581103616548037
 40
0.3581103616548037
 40
0.3581103616548037
 40
0.3581103616548037
 40
12.40023413887867
 40
12.40023413887867
 40
12.40023413887867
 40
12.40023413887867
 10
-15.32961146576316
 20
6.784183591993691
 30
0.0
 10
-10.00040905171603
 20
6.645469511887917
 30
0.0
 10
-5.050612504200223
 20
4.203781579878945
 30
0.0
 10
-0.1557503898612893
 20
1.428644499252506
 30
0.0
  0
SPLINE
  5
19EF
330
1F
100
AcDbEntity
  8
AM_0
100
AcDbSpline
210
0.0
220
0.0
230
1.0
 70
     8
 71
     3
 72
     8
 73
     4
 74
     0
 42
0.0000000001
 43
0.0000000001
 40
4.542668862435135
 40
4.542668862435135
 40
4.542668862435135
 40
4.542668862435135
 40
14.36247867694493
 40
14.36247867694493
 40
14.36247867694493
 40
14.36247867694493
 10
-0.9133333333316713
 20
-5.596663317639318
 30
0.0
 10
-5.092613115807587
 20
-4.419807961202057
 30
0.0
 10
-9.10942877058703
 20
-2.209903980601016
 30
0.0
 10
-13.12624442536647
 20
0.0000000000000249
 30
0.0
  0
SPLINE
  5
19F0
330
1F
100
AcDbEntity
  8
AM_0
100
AcDbSpline
210
0.0
220
0.0
230
1.0
 70
     8
 71
     3
 72
     8
 73
     4
 74
     0
 42
0.0000000001
 43
0.0000000001
 40
0.0
 40
0.0
 40
0.0
 40
0.0
 40
5.635889483499127
 40
5.635889483499127
 40
5.635889483499127
 40
5.635889483499127
 10
-0.0000000000002061
 20
6.999999999999953
 30
0.0
 10
-2.504839770444256
 20
6.999999999999953
 30
0.0
 10
-4.919919005115026
 20
6.470511640570737
 30
0.0
 10
-7.280150097391967
 20
5.617479613719684
 30
0.0
  0
SPLINE
  5
19F1
330
1F
100
AcDbEntity
  8
AM_0
100
AcDbSpline
210
0.0
220
0.0
230
1.0
 70
     8
 71
     3
 72
     8
 73
     4
 74
     0
 42
0.0000000001
 43
0.0000000001
 40
0.0
 40
0.0
 40
0.0
 40
0.0
 40
2.586565323616714
 40
2.586565323616714
 40
2.586565323616714
 40
2.586565323616714
 10
-0.0000000000001918
 20
5.704583761357504
 30
0.0
 10
-0.7376898406707895
 20
4.778820474611364
 30
0.0
 10
-2.003892672954854
 20
4.381263315694045
 30
0.0
 10
-3.142096308029373
 20
4.211834791539263
 30
0.0
  0
SPLINE
  5
19F2
330
1F
100
AcDbEntity
  8
AM_0
100
AcDbSpline
210
0.0
220
0.0
230
1.0
 70
     8
 71
     3
 72
     8
 73
     4
 74
     0
 42
0.0000000001
 43
0.0000000001
 40
0.7142832446738512
 40
0.7142832446738512
 40
0.7142832446738512
 40
0.7142832446738512
 40
9.361146747480315
 40
9.361146747480315
 40
9.361146747480315
 40
9.361146747480315
 10
-12.17757596329493
 20
6.440836905753954
 30
0.0
 10
-8.364208045182159
 20
6.252096814560164
 30
0.0
 10
-4.725921801930901
 20
4.950077835919422
 30
0.0
 10
-1.151793606173484
 20
3.240101829273282
 30
0.0
  0
SPLINE
  5
19F3
330
1F
100
AcDbEntity
  8
AM_0
100
AcDbSpline
210
0.0
220
0.0
230
1.0
 70
     8
 71
     3
 72
     8
 73
     4
 74
     0
 42
0.0000000001
 43
0.0000000001
 40
0.0
 40
0.0
 40
0.0
 40
0.0
 40
4.451443990518192
 40
4.451443990518192
 40
4.451443990518192
 40
4.451443990518192
 10
-13.12624442536674
 20
-6.464422305323818
 30
0.0
 10
-11.14782487402529
 20
-6.464422305323818
 30
0.0
 10
-9.218234507803579
 20
-6.153935779946468
 30
0.0
 10
-7.322339422063507
 20
-5.629193568492915
 30
0.0
  0
SPLINE
  5
19F4
330
1F
100
AcDbEntity
  8
AM_0
100
AcDbSpline
210
0.0
220
0.0
230
1.0
 70
     8
 71
     3
 72
     8
 73
     4
 74
     0
 42
0.0000000001
 43
0.0000000001
 40
0.0
 40
0.0
 40
0.0
 40
0.0
 40
1.412269715655734
 40
1.412269715655734
 40
1.412269715655734
 40
1.412269715655734
 10
-18.13333333333377
 20
-6.999999999999904
 30
0.0
 10
-18.76100876251408
 20
-6.999999999999904
 30
0.0
 10
-19.38304786974443
 20
-6.966751904533403
 30
0.0
 10
-20.00000000000018
 20
-6.903496244277501
 30
0.0
  0
SPLINE
  5
19F5
330
1F
100
AcDbEntity
  8
AM_0
100
AcDbSpline
210
0.0
220
0.0
230
1.0
 70
     8
 71
     3
 72
     8
 73
     4
 74
     0
 42
0.0000000001
 43
0.0000000001
 40
12.94851199321065
 40
12.94851199321065
 40
12.94851199321065
 40
12.94851199321065
 40
14.48999654934396
 40
14.48999654934396
 40
14.48999654934396
 40
14.48999654934396
 10
-20.00000000000027
 20
1.112804194199416
 30
0.0
 10
-19.37730154586757
 20
0.7446787068712553
 30
0.0
 10
-18.75531743960054
 20
0.3723393534356738
 30
0.0
 10
-18.13333333333351
 20
0.0000000000000959
 30
0.0
  0
VIEWPORT
  5
110
330
101
100
AcDbEntity
 67
     1
  8
0
100
AcDbViewport
 10
420.5
 20
297.0
 30
0.0
 40
948.9782706766916
 41
628.452
 68
     1
 69
     1
1001
ACAD
1000
MVIEW
1002
{
1070
    16
1010
0.0
1020
0.0
1030
0.0
1010
0.0
1020
0.0
1030
1.0
1040
0.0
1040
628.452
1040
420.5
1040
297.0
1040
50.0
1040
0.0
1040
0.0
1070
     0
1070
   100
1070
     1
1070
     1
1070
     0
1070
     0
1070
     0
1070
     0
1040
0.0
1040
0.0
1040
0.0
1040
10.0
1040
10.0
1040
10.0
1040
10.0
1070
     0
1002
{
1002
}
1002
}
  0
ENDSEC
  0
SECTION
  2
OBJECTS
  0
DICTIONARY
  5
C
330
0
100
AcDbDictionary
  3
ACAD_GROUP
350
D
  3
ACAD_LAYOUT
350
1A
  3
ACAD_MLINESTYLE
350
17
  3
ACAD_PLOTSETTINGS
350
19
  3
ACAD_PLOTSTYLENAME
350
E
  3
ACDBVARIABLEDICTIONARY
350
34
  3
ACMDICTIONARY
350
43
  3
AMG
350
2B
  3
AMGSNAPSETTINGS
350
6E
  3
DWGPROPS
350
1D23
  3
ACDBHEADERROUNDTRIPXREC
350
1D2F
  0
DICTIONARY
  5
74
330
1F
100
AcDbDictionary
280
     1
  3
ACAD_INDEX
360
1D25
  3
ACAD_LAYOUTSELFREF
360
1D52
  0
DICTIONARY
  5
1D57
330
101
100
AcDbDictionary
280
     1
  3
ACAD_LAYOUTSELFREF
360
1D58
  0
DICTIONARY
  5
D
102
{ACAD_REACTORS
330
C
102
}
330
C
100
AcDbDictionary
  0
DICTIONARY
  5
1A
102
{ACAD_REACTORS
330
C
102
}
330
C
100
AcDbDictionary
  0
DICTIONARY
  5
17
102
{ACAD_REACTORS
330
C
102
}
330
C
100
AcDbDictionary
  3
STANDARD
350
18
  0
DICTIONARY
  5
19
102
{ACAD_REACTORS
330
C
102
}
330
C
100
AcDbDictionary
  0
ACDBDICTIONARYWDFLT
  5
E
102
{ACAD_REACTORS
330
C
102
}
330
C
100
AcDbDictionary
281
     1
  3
Normal
350
F
100
AcDbDictionaryWithDefault
340
F
  0
DICTIONARY
  5
34
102
{ACAD_REACTORS
330
C
102
}
330
C
100
AcDbDictionary
  3
INDEXCTL
350
35
  3
SORTENTS
350
B5E
  0
DICTIONARY
  5
43
102
{ACAD_REACTORS
330
C
102
}
330
C
100
AcDbDictionary
  3
ACMSTDDICTIONARY
350
260
  0
DICTIONARY
  5
2B
102
{ACAD_REACTORS
330
C
102
}
330
C
100
AcDbDictionary
  3
ACMGSETTINGS
350
2C
  0
DICTIONARY
  5
6E
102
{ACAD_REACTORS
330
C
102
}
330
C
100
AcDbDictionary
  0
XRECORD
  5
1D23
102
{ACAD_REACTORS
330
C
102
}
330
C
100
AcDbXrecord
  1
DWGPROPS COOKIE
  2

  3

  4

  6

  7

  8

  9

300
AmdtFileType=82
301
=
302
=
303
=
304
=
305
=
306
=
307
=
308
=
309
=
 40
0.0580803125
 41
2452836.771637361
 42
2452901.600292963
  1

 90
        1
  0
DICTIONARY
  5
1D2F
102
{ACAD_REACTORS
330
C
102
}
330
C
100
AcDbDictionary
  3
TSTACKALIGN
350
1D30
  3
TSTACKSIZE
350
1D31
  3
HYPERLINKBASE
350
1D32
  3
STYLESHEET
350
1D33
  3
LAYOUTDICT
350
1D34
  3
PLOTSETDICT
350
1D35
  3
PLOTSTYLNAMDICT
350
1D36
  3
LWETCUNION
350
1D37
  3
INSUNITS
350
1D38
  3
CEPSNTYPE
350
1D39
  3
FINGERPRINTGUID
350
1D3A
  3
VERSIONGUID
350
1D3B
  3
PSVPSCALE
350
1D3C
  3
DIMSTYLEDATA
350
1D3D
  3
PUCSORTHOREF
350
1D3E
  3
PUCSORTHOVIEW
350
1D3F
  3
PUCSBASE
350
1D40
  3
PUCSORGTOP
350
1D41
  3
PUCSORGBOTTOM
350
1D42
  3
PUCSORGLEFT
350
1D43
  3
PUCSORGRIGHT
350
1D44
  3
PUCSORGFRONT
350
1D45
  3
PUCSORGBACK
350
1D46
  3
UCSORTHOREF
350
1D47
  3
UCSORTHOVIEW
350
1D48
  3
UCSBASE
350
1D49
  3
UCSORGTOP
350
1D4A
  3
UCSORGBOTTOM
350
1D4B
  3
UCSORGLEFT
350
1D4C
  3
UCSORGRIGHT
350
1D4D
  3
UCSORGFRONT
350
1D4E
  3
UCSORGBACK
350
1D4F
  0
DICTIONARY
  5
1D25
102
{ACAD_REACTORS
330
74
102
}
330
74
100
AcDbDictionary
  3
*A1
350
1D26
  0
XRECORD
  5
1D52
102
{ACAD_REACTORS
330
74
102
}
330
74
100
AcDbXrecord
340
1F
  0
XRECORD
  5
1D58
102
{ACAD_REACTORS
330
1D57
102
}
330
1D57
100
AcDbXrecord
340
101
  0
MLINESTYLE
  5
18
102
{ACAD_REACTORS
330
17
102
}
330
17
100
AcDbMlineStyle
  2
STANDARD
 70
     0
  3

 62
   256
 51
90.0
 52
90.0
 71
     2
 49
0.5
 62
   256
  6
BYLAYER
 49
-0.5
 62
   256
  6
BYLAYER
  0
ACDBPLACEHOLDER
  5
F
102
{ACAD_REACTORS
330
E
102
}
330
E
100
AcDbPlaceHolder
280
     0
  0
DICTIONARYVAR
  5
35
102
{ACAD_REACTORS
330
34
102
}
330
34
100
DictionaryVariables
280
     0
  1
1
  0
DICTIONARYVAR
  5
B5E
102
{ACAD_REACTORS
330
34
102
}
330
34
100
DictionaryVariables
280
     0
  1
96
  0
DICTIONARY
  5
260
102
{ACAD_REACTORS
330
43
102
}
330
43
100
AcDbDictionary
  0
DICTIONARY
  5
2C
102
{ACAD_REACTORS
330
2B
102
}
330
2B
100
AcDbDictionary
  3
DWGSETTINGS
350
2D
  0
XRECORD
  5
1D30
102
{ACAD_REACTORS
330
1D2F
102
}
330
1D2F
100
AcDbXrecord
 90
        1
  0
XRECORD
  5
1D31
102
{ACAD_REACTORS
330
1D2F
102
}
330
1D2F
100
AcDbXrecord
 90
       70
  0
XRECORD
  5
1D32
102
{ACAD_REACTORS
330
1D2F
102
}
330
1D2F
100
AcDbXrecord
  1

  0
XRECORD
  5
1D33
102
{ACAD_REACTORS
330
1D2F
102
}
330
1D2F
100
AcDbXrecord
  1
ASAMI.ctb
  0
XRECORD
  5
1D34
102
{ACAD_REACTORS
330
1D2F
102
}
330
1D2F
100
AcDbXrecord
340
1A
  0
XRECORD
  5
1D35
102
{ACAD_REACTORS
330
1D2F
102
}
330
1D2F
100
AcDbXrecord
340
19
  0
XRECORD
  5
1D36
102
{ACAD_REACTORS
330
1D2F
102
}
330
1D2F
100
AcDbXrecord
340
E
  0
XRECORD
  5
1D37
102
{ACAD_REACTORS
330
1D2F
102
}
330
1D2F
100
AcDbXrecord
 90
    10781
  0
XRECORD
  5
1D38
102
{ACAD_REACTORS
330
1D2F
102
}
330
1D2F
100
AcDbXrecord
 90
        4
  0
XRECORD
  5
1D39
102
{ACAD_REACTORS
330
1D2F
102
}
330
1D2F
100
AcDbXrecord
 90
        0
  0
XRECORD
  5
1D3A
102
{ACAD_REACTORS
330
1D2F
102
}
330
1D2F
100
AcDbXrecord
  1
{AFB28963-8C59-40AE-9337-C84526B81ACE}
  0
XRECORD
  5
1D3B
102
{ACAD_REACTORS
330
1D2F
102
}
330
1D2F
100
AcDbXrecord
  1
{9DA12618-E320-458C-BC36-BE6365838E53}
  0
XRECORD
  5
1D3C
102
{ACAD_REACTORS
330
1D2F
102
}
330
1D2F
100
AcDbXrecord
 40
0.0
  0
XRECORD
  5
1D3D
102
{ACAD_REACTORS
330
1D2F
102
}
330
1D2F
100
AcDbXrecord
1000
DSTYLE
1002
{
1070
    79
 70
     2
1070
   341
340
59
1070
   342
340
59
1070
   371
 70
    -1
1070
   372
 70
    -1
1002
}
  0
XRECORD
  5
1D3E
102
{ACAD_REACTORS
330
1D2F
102
}
330
1D2F
100
AcDbXrecord
340
0
  0
XRECORD
  5
1D3F
102
{ACAD_REACTORS
330
1D2F
102
}
330
1D2F
100
AcDbXrecord
 70
     0
  0
XRECORD
  5
1D40
102
{ACAD_REACTORS
330
1D2F
102
}
330
1D2F
100
AcDbXrecord
340
0
  0
XRECORD
  5
1D41
102
{ACAD_REACTORS
330
1D2F
102
}
330
1D2F
100
AcDbXrecord
 10
0.0
 20
0.0
 30
0.0
  0
XRECORD
  5
1D42
102
{ACAD_REACTORS
330
1D2F
102
}
330
1D2F
100
AcDbXrecord
 10
0.0
 20
0.0
 30
0.0
  0
XRECORD
  5
1D43
102
{ACAD_REACTORS
330
1D2F
102
}
330
1D2F
100
AcDbXrecord
 10
0.0
 20
0.0
 30
0.0
  0
XRECORD
  5
1D44
102
{ACAD_REACTORS
330
1D2F
102
}
330
1D2F
100
AcDbXrecord
 10
0.0
 20
0.0
 30
0.0
  0
XRECORD
  5
1D45
102
{ACAD_REACTORS
330
1D2F
102
}
330
1D2F
100
AcDbXrecord
 10
0.0
 20
0.0
 30
0.0
  0
XRECORD
  5
1D46
102
{ACAD_REACTORS
330
1D2F
102
}
330
1D2F
100
AcDbXrecord
 10
0.0
 20
0.0
 30
0.0
  0
XRECORD
  5
1D47
102
{ACAD_REACTORS
330
1D2F
102
}
330
1D2F
100
AcDbXrecord
340
0
  0
XRECORD
  5
1D48
102
{ACAD_REACTORS
330
1D2F
102
}
330
1D2F
100
AcDbXrecord
 70
     0
  0
XRECORD
  5
1D49
102
{ACAD_REACTORS
330
1D2F
102
}
330
1D2F
100
AcDbXrecord
340
0
  0
XRECORD
  5
1D4A
102
{ACAD_REACTORS
330
1D2F
102
}
330
1D2F
100
AcDbXrecord
 10
0.0
 20
0.0
 30
0.0
  0
XRECORD
  5
1D4B
102
{ACAD_REACTORS
330
1D2F
102
}
330
1D2F
100
AcDbXrecord
 10
0.0
 20
0.0
 30
0.0
  0
XRECORD
  5
1D4C
102
{ACAD_REACTORS
330
1D2F
102
}
330
1D2F
100
AcDbXrecord
 10
0.0
 20
0.0
 30
0.0
  0
XRECORD
  5
1D4D
102
{ACAD_REACTORS
330
1D2F
102
}
330
1D2F
100
AcDbXrecord
 10
0.0
 20
0.0
 30
0.0
  0
XRECORD
  5
1D4E
102
{ACAD_REACTORS
330
1D2F
102
}
330
1D2F
100
AcDbXrecord
 10
0.0
 20
0.0
 30
0.0
  0
XRECORD
  5
1D4F
102
{ACAD_REACTORS
330
1D2F
102
}
330
1D2F
100
AcDbXrecord
 10
0.0
 20
0.0
 30
0.0
  0
LAYER_INDEX
  5
1D26
102
{ACAD_REACTORS
330
1D25
102
}
330
1D25
100
AcDbIndex
 40
2453151.79257015
100
AcDbLayerIndex
  8
0
360
1D27
 90
        0
  8
AM_0
360
1D28
 90
       52
  8
AM_11
360
1D29
 90
        3
  8
AM_7
360
1D2A
 90
        1
  8
AM_5
360
1D2B
 90
        4
  8
Defpoints
360
1D2C
 90
        0
  8
AM_6
360
1D2D
 90
        1
  0
XRECORD
  5
2D
102
{ACAD_REACTORS
330
2C
102
}
330
2C
100
AcDbXrecord
  1
VERSION
140
15.0
  1
PRODUCT
  2
AutoCAD Mechanical 2000
  0
IDBUFFER
  5
1D27
330
0
100
AcDbIdBuffer
  0
IDBUFFER
  5
1D28
330
0
100
AcDbIdBuffer
330
19F2
330
19F3
330
19F4
330
19F5
330
15CB
330
15CC
330
15CF
330
15D0
330
15EF
330
15F2
330
1604
330
175C
330
175D
330
175E
330
175F
330
1760
330
19B1
330
19B2
330
19B3
330
19B4
330
19B5
330
19B6
330
19B7
330
19B8
330
19B9
330
19BA
330
19BB
330
19BC
330
19BD
330
19BE
330
19BF
330
19C0
330
19C1
330
19C2
330
19CF
330
19D0
330
19D1
330
19D2
330
19D4
330
19E5
330
19E6
330
19E7
330
19E8
330
19E9
330
19EA
330
19EB
330
19EC
330
19ED
330
19EE
330
19EF
330
19F0
330
19F1
  0
IDBUFFER
  5
1D29
330
0
100
AcDbIdBuffer
330
19D3
330
19E3
330
19E4
  0
IDBUFFER
  5
1D2A
330
0
100
AcDbIdBuffer
330
D74
  0
IDBUFFER
  5
1D2B
330
0
100
AcDbIdBuffer
330
D71
330
D7A
330
DA6
330
15D1
  0
IDBUFFER
  5
1D2C
330
0
100
AcDbIdBuffer
  0
IDBUFFER
  5
1D2D
330
0
100
AcDbIdBuffer
330
E5A
  0
ENDSEC
  0
EOF
