  0
SECTION
  2
HEADER
  9
$ACADVER
  1
AC1014
  9
$ACADMAINTVER
 70
     9
  9
$DWGCODEPAGE
  3
ANSI_932
  9
$INSBASE
 10
0.0
 20
0.0
 30
0.0
  9
$EXTMIN
 10
-128.4934979049684
 20
-58.50000100000002
 30
-0.00000001
  9
$EXTMAX
 10
19.55776903085492
 20
10.9062760424702
 30
0.00000001
  9
$LIMMIN
 10
-131.0624561075803
 20
-69.77055201320382
  9
$LIMMAX
 10
25.09440007451314
 20
30.94130089900727
  9
$ORTHOMODE
 70
     0
  9
$REGENMODE
 70
     1
  9
$FILLMODE
 70
     1
  9
$QTEXTMODE
 70
     0
  9
$MIRRTEXT
 70
     0
  9
$DRAGMODE
 70
     2
  9
$LTSCALE
 40
1.0
  9
$OSMODE
 70
    55
  9
$ATTMODE
 70
     1
  9
$TEXTSIZE
 40
2.5
  9
$TRACEWID
 40
1.0
  9
$TEXTSTYLE
  7
STANDARD
  9
$CLAYER
  8
AM_0
  9
$CELTYPE
  6
BYLAYER
  9
$CECOLOR
 62
   256
  9
$CELTSCALE
 40
1.0
  9
$DELOBJ
 70
     1
  9
$DISPSILH
 70
     0
  9
$DIMSCALE
 40
1.0
  9
$DIMASZ
 40
2.5
  9
$DIMEXO
 40
1.0
  9
$DIMDLI
 40
12.0
  9
$DIMRND
 40
0.0
  9
$DIMDLE
 40
0.0
  9
$DIMEXE
 40
1.0
  9
$DIMTP
 40
0.1
  9
$DIMTM
 40
0.1
  9
$DIMTXT
 40
3.2
  9
$DIMCEN
 40
0.0
  9
$DIMTSZ
 40
0.0
  9
$DIMTOL
 70
     0
  9
$DIMLIM
 70
     0
  9
$DIMTIH
 70
     0
  9
$DIMTOH
 70
     0
  9
$DIMSE1
 70
     0
  9
$DIMSE2
 70
     0
  9
$DIMTAD
 70
     3
  9
$DIMZIN
 70
     8
  9
$DIMBLK
  1
OPEN30
  9
$DIMASO
 70
     1
  9
$DIMSHO
 70
     1
  9
$DIMPOST
  1

  9
$DIMAPOST
  1
"
  9
$DIMALT
 70
     0
  9
$DIMALTD
 70
     2
  9
$DIMALTF
 40
0.0393701
  9
$DIMLFAC
 40
1.0
  9
$DIMTOFL
 70
     1
  9
$DIMTVP
 40
0.0
  9
$DIMTIX
 70
     0
  9
$DIMSOXD
 70
     0
  9
$DIMSAH
 70
     0
  9
$DIMBLK1
  1

  9
$DIMBLK2
  1

  9
$DIMSTYLE
  2
AM_JIS
  9
$DIMCLRD
 70
   256
  9
$DIMCLRE
 70
   256
  9
$DIMCLRT
 70
     2
  9
$DIMTFAC
 40
0.71
  9
$DIMGAP
 40
1.5
  9
$DIMJUST
 70
     0
  9
$DIMSD1
 70
     0
  9
$DIMSD2
 70
     0
  9
$DIMTOLJ
 70
     0
  9
$DIMTZIN
 70
     0
  9
$DIMALTZ
 70
     0
  9
$DIMALTTZ
 70
     0
  9
$DIMFIT
 70
     3
  9
$DIMUPT
 70
     0
  9
$DIMUNIT
 70
     2
  9
$DIMDEC
 70
     3
  9
$DIMTDEC
 70
     3
  9
$DIMALTU
 70
     2
  9
$DIMALTTD
 70
     2
  9
$DIMTXSTY
  7
ASAMI
  9
$DIMAUNIT
 70
     0
  9
$LUNITS
 70
     2
  9
$LUPREC
 70
     2
  9
$SKETCHINC
 40
1.0
  9
$FILLETRAD
 40
2.5
  9
$AUNITS
 70
     0
  9
$AUPREC
 70
     0
  9
$MENU
  1
.
  9
$ELEVATION
 40
0.0
  9
$PELEVATION
 40
0.0
  9
$THICKNESS
 40
0.0
  9
$LIMCHECK
 70
     0
  9
$BLIPMODE
 70
     0
  9
$CHAMFERA
 40
1.0
  9
$CHAMFERB
 40
1.0
  9
$CHAMFERC
 40
20.0
  9
$CHAMFERD
 40
0.0
  9
$SKPOLY
 70
     0
  9
$TDCREATE
 40
2452836.771637361
  9
$TDUPDATE
 40
2453151.801420740
  9
$TDINDWG
 40
0.0502343866
  9
$TDUSRTIMER
 40
0.0502343866
  9
$USRTIMER
 70
     1
  9
$ANGBASE
 50
0.0
  9
$ANGDIR
 70
     0
  9
$PDMODE
 70
     0
  9
$PDSIZE
 40
0.0
  9
$PLINEWID
 40
0.0
  9
$COORDS
 70
     1
  9
$SPLFRAME
 70
     0
  9
$SPLINETYPE
 70
     6
  9
$SPLINESEGS
 70
     8
  9
$ATTDIA
 70
     1
  9
$ATTREQ
 70
     1
  9
$HANDLING
 70
 12289
  9
$HANDSEED
  5
1F43
  9
$SURFTAB1
 70
     6
  9
$SURFTAB2
 70
     6
  9
$SURFTYPE
 70
     6
  9
$SURFU
 70
     6
  9
$SURFV
 70
     6
  9
$UCSNAME
  2

  9
$UCSORG
 10
0.0
 20
0.0
 30
0.0
  9
$UCSXDIR
 10
1.0
 20
0.0
 30
0.0
  9
$UCSYDIR
 10
0.0
 20
1.0
 30
0.0
  9
$PUCSNAME
  2

  9
$PUCSORG
 10
0.0
 20
0.0
 30
0.0
  9
$PUCSXDIR
 10
1.0
 20
0.0
 30
0.0
  9
$PUCSYDIR
 10
0.0
 20
1.0
 30
0.0
  9
$USERI1
 70
     0
  9
$USERI2
 70
     0
  9
$USERI3
 70
     0
  9
$USERI4
 70
     0
  9
$USERI5
 70
     0
  9
$USERR1
 40
0.0
  9
$USERR2
 40
0.0
  9
$USERR3
 40
0.0
  9
$USERR4
 40
0.0
  9
$USERR5
 40
0.0
  9
$WORLDVIEW
 70
     1
  9
$SHADEDGE
 70
     3
  9
$SHADEDIF
 70
    70
  9
$TILEMODE
 70
     1
  9
$MAXACTVP
 70
    64
  9
$PINSBASE
 10
0.0
 20
0.0
 30
0.0
  9
$PLIMCHECK
 70
     0
  9
$PEXTMIN
 10
1.000000000000000E+20
 20
1.000000000000000E+20
 30
1.000000000000000E+20
  9
$PEXTMAX
 10
-1.000000000000000E+20
 20
-1.000000000000000E+20
 30
-1.000000000000000E+20
  9
$PLIMMIN
 10
0.0
 20
0.0
  9
$PLIMMAX
 10
841.0
 20
594.0
  9
$UNITMODE
 70
     0
  9
$VISRETAIN
 70
     1
  9
$PLINEGEN
 70
     0
  9
$PSLTSCALE
 70
     0
  9
$TREEDEPTH
 70
  3020
  9
$PICKSTYLE
 70
     0
  9
$CMLSTYLE
  2
STANDARD
  9
$CMLJUST
 70
     0
  9
$CMLSCALE
 40
20.0
  9
$PROXYGRAPHICS
 70
     1
  9
$MEASUREMENT
 70
     1
  0
ENDSEC
  0
SECTION
  2
CLASSES
  0
CLASS
  1
ACDBDICTIONARYWDFLT
  2
AcDbDictionaryWithDefault
  3
AutoCAD 2000
 90
        0
280
     0
281
     0
  0
CLASS
  1
ACDBPLACEHOLDER
  2
AcDbPlaceHolder
  3
AutoCAD 2000
 90
        0
280
     0
281
     0
  0
CLASS
  1
LAYOUT
  2
AcDbLayout
  3
AutoCAD 2000
 90
        0
280
     0
281
     0
  0
CLASS
  1
AMGSETTINGSOBJ
  2
AmgSettingsObj
  3
"AcadM|Product Description: AutoCAD Mechanical 2000|Company: Autodesk"
 90
        0
280
     0
281
     0
  0
CLASS
  1
ACME_DOCUMENT
  2
AcMeDbDoc
  3
AcMeServices
 90
        0
280
     0
281
     0
  0
CLASS
  1
ACMESCOPE
  2
AcMeScope
  3
AcMeServices
 90
        0
280
     0
281
     0
  0
CLASS
  1
ACMECOMMANDHISTORY
  2
AcMeCommandHistory
  3
AcMeServices
 90
        0
280
     0
281
     0
  0
CLASS
  1
DICTIONARYVAR
  2
AcDbDictionaryVar
  3
AutoCAD 2000
 90
        0
280
     0
281
     0
  0
CLASS
  1
ACIMSYSVARMAN
  2
AcImSysVarManager
  3
AcMeServices
 90
        0
280
     0
281
     0
  0
CLASS
  1
ACIMREALSYSVAR
  2
AcImRealSysVar
  3
AcMeServices
 90
        0
280
     0
281
     0
  0
CLASS
  1
ACIMINTSYSVAR
  2
AcImIntSysVar
  3
AcMeServices
 90
        0
280
     0
281
     0
  0
CLASS
  1
ACMEDRAWINGMAN
  2
AcMeDrawingMan
  3
AcMeServices
 90
        0
280
     0
281
     0
  0
CLASS
  1
ACMEVIEW
  2
AcMeView
  3
AcMeServices
 90
        0
280
     0
281
     0
  0
CLASS
  1
ACDBENTITYCACHE
  2
AcMeEntityCache
  3
AcMeServices
 90
        0
280
     0
281
     0
  0
CLASS
  1
GSMANAGER
  2
AcMeGSManager
  3
AcMeServices
 90
        0
280
     0
281
     0
  0
CLASS
  1
AmdtInternalReactor
  2
AmdtInternalReactor
  3
AcMeServices
 90
        0
280
     0
281
     0
  0
CLASS
  1
ACMESTATEMGR
  2
AcMeStateMgr
  3
AcMeServices
 90
        0
280
     0
281
     0
  0
CLASS
  1
ACME_DATABASE
  2
AcMeDbDatabase
  3
AcMeServices
 90
        0
280
     0
281
     0
  0
CLASS
  1
ACRFINSADJUSTERMGR
  2
AcRfInsAdjusterMgr
  3
AcMeServices
 90
        0
280
     0
281
     0
  0
CLASS
  1
ACMDATADICTIONARY
  2
AcmDataDictionary
  3
"AcmSymBB|Product Description: AutoCAD Mechanical 2000|Company: Autodesk"
 90
        0
280
     0
281
     0
  0
CLASS
  1
ACMDATAENTRYBLOCK
  2
AcmDataEntryBlock
  3
"AcmSymBB|Product Description: AutoCAD Mechanical 2000|Company: Autodesk"
 90
        0
280
     0
281
     0
  0
CLASS
  1
AMGOBJPROPCFG
  2
AmgObjPropCfg
  3
"AmgLay|Product Description: AutoCAD Mechanical 2000|Company: Autodesk"
 90
        1
280
     0
281
     0
  0
CLASS
  1
ACAMGFILTERDAT
  2
AcAmgFilterDat
  3
"AcadM|Product Description: AutoCAD Mechanical 2000|Company: Autodesk"
 90
        0
280
     0
281
     0
  0
CLASS
  1
LAYER_INDEX
  2
AcDbLayerIndex
  3
AutoCAD 2000
 90
        0
280
     0
281
     0
  0
CLASS
  1
IDBUFFER
  2
AcDbIdBuffer
  3
AutoCAD 2000
 90
        0
280
     0
281
     0
  0
CLASS
  1
ACIMSTRSYSVAR
  2
AcImStrSysVar
  3
AcMeServices
 90
        0
280
     0
281
     0
  0
CLASS
  1
ACMSTANDARDJIS
  2
AcmStandardJIS
  3
"AcmSymBB|Product Description: AutoCAD Mechanical 2000|Company: Autodesk"
 90
        0
280
     0
281
     0
  0
CLASS
  1
ACMSURFSTANDARDJIS
  2
AcmSurfTextStdJIS
  3
"AcmSymBB|Product Description: AutoCAD Mechanical 2000|Company: Autodesk"
 90
        0
280
     0
281
     0
  0
CLASS
  1
ACMFCFSTANDARDJIS
  2
AcmFCFStdJIS
  3
"AcmSymBB|Product Description: AutoCAD Mechanical 2000|Company: Autodesk"
 90
        0
280
     0
281
     0
  0
CLASS
  1
ACMWELDSTANDARDJIS
  2
AcmWeldingStdJIS
  3
"AcmSymBB|Product Description: AutoCAD Mechanical 2000|Company: Autodesk"
 90
        0
280
     0
281
     0
  0
CLASS
  1
ACMIDSTANDARDJIS
  2
AcmIdStdJIS
  3
"AcmSymBB|Product Description: AutoCAD Mechanical 2000|Company: Autodesk"
 90
        0
280
     0
281
     0
  0
CLASS
  1
ACMDATUMSTANDARDJIS
  2
AcmDatumStdJIS
  3
"AcmSymBB|Product Description: AutoCAD Mechanical 2000|Company: Autodesk"
 90
        0
280
     0
281
     0
  0
CLASS
  1
ACMBOMSTANDARDJIS
  2
AcmBOMStdJIS
  3
"AcmSymBB|Product Description: AutoCAD Mechanical 2000|Company: Autodesk"
 90
        0
280
     0
281
     0
  0
CLASS
  1
ACMSTANDARDANSI
  2
AcmStandardANSI
  3
"AcmSymBB|Product Description: AutoCAD Mechanical 2000|Company: Autodesk"
 90
        0
280
     0
281
     0
  0
CLASS
  1
ACMSURFSTANDARDANSI
  2
AcmSurfTextStdANSI
  3
"AcmSymBB|Product Description: AutoCAD Mechanical 2000|Company: Autodesk"
 90
        0
280
     0
281
     0
  0
CLASS
  1
ACMFCFSTANDARDANSI
  2
AcmFCFStdANSI
  3
"AcmSymBB|Product Description: AutoCAD Mechanical 2000|Company: Autodesk"
 90
        0
280
     0
281
     0
  0
CLASS
  1
ACMWELDSTANDARDANSI
  2
AcmWeldingStdANSI
  3
"AcmSymBB|Product Description: AutoCAD Mechanical 2000|Company: Autodesk"
 90
        0
280
     0
281
     0
  0
CLASS
  1
ACMIDSTANDARDANSI
  2
AcmIdStdANSI
  3
"AcmSymBB|Product Description: AutoCAD Mechanical 2000|Company: Autodesk"
 90
        0
280
     0
281
     0
  0
CLASS
  1
ACMDATUMSTANDARDANSI
  2
AcmDatumStdANSI
  3
"AcmSymBB|Product Description: AutoCAD Mechanical 2000|Company: Autodesk"
 90
        0
280
     0
281
     0
  0
CLASS
  1
ACMBOMSTANDARDANSI
  2
AcmBOMStdANSI
  3
"AcmSymBB|Product Description: AutoCAD Mechanical 2000|Company: Autodesk"
 90
        0
280
     0
281
     0
  0
CLASS
  1
ACMSTANDARDBSI
  2
AcmStandardBSI
  3
"AcmSymBB|Product Description: AutoCAD Mechanical 2000|Company: Autodesk"
 90
        0
280
     0
281
     0
  0
CLASS
  1
ACMSURFSTANDARDBSI
  2
AcmSurfTextStdBSI
  3
"AcmSymBB|Product Description: AutoCAD Mechanical 2000|Company: Autodesk"
 90
        0
280
     0
281
     0
  0
CLASS
  1
ACMFCFSTANDARDBSI
  2
AcmFCFStdBSI
  3
"AcmSymBB|Product Description: AutoCAD Mechanical 2000|Company: Autodesk"
 90
        0
280
     0
281
     0
  0
CLASS
  1
ACMWELDSTANDARDBSI
  2
AcmWeldingStdBSI
  3
"AcmSymBB|Product Description: AutoCAD Mechanical 2000|Company: Autodesk"
 90
        0
280
     0
281
     0
  0
CLASS
  1
ACMIDSTANDARDBSI
  2
AcmIdStdBSI
  3
"AcmSymBB|Product Description: AutoCAD Mechanical 2000|Company: Autodesk"
 90
        0
280
     0
281
     0
  0
CLASS
  1
ACMDATUMSTANDARDBSI
  2
AcmDatumStdBSI
  3
"AcmSymBB|Product Description: AutoCAD Mechanical 2000|Company: Autodesk"
 90
        0
280
     0
281
     0
  0
CLASS
  1
ACMBOMSTANDARDBSI
  2
AcmBOMStdBSI
  3
"AcmSymBB|Product Description: AutoCAD Mechanical 2000|Company: Autodesk"
 90
        0
280
     0
281
     0
  0
CLASS
  1
LONG_TRANSACTION
  2
AcDbLongTransaction
  3
AutoCAD 2000
 90
        0
280
     0
281
     0
  0
CLASS
  1
LWPOLYLINE
  2
AcDbPolyline
  3
AutoCAD 2000
 90
        0
280
     0
281
     1
  0
CLASS
  1
HATCH
  2
AcDbHatch
  3
AutoCAD 2000
 90
        0
280
     0
281
     1
  0
CLASS
  1
XRECORD
  2
AcDbXrecord
  3
AutoCAD 2000
 90
        0
280
     0
281
     0
  0
ENDSEC
  0
SECTION
  2
TABLES
  0
TABLE
  2
VPORT
  5
8
330
0
100
AcDbSymbolTable
 70
     3
  0
VPORT
  5
1F18
330
8
100
AcDbSymbolTableRecord
100
AcDbViewportTableRecord
  2
*ACTIVE
 70
     0
 10
0.0
 20
0.0
 11
1.0
 21
1.0
 12
-54.46729857407257
 22
-23.7943369487996
 13
0.0
 23
0.0
 14
2.5
 24
2.5
 15
10.0
 25
10.0
 16
0.0
 26
0.0
 36
1.0
 17
0.0
 27
0.0
 37
0.0
 40
94.93145637687952
 41
1.56570841889117
 42
50.0
 43
0.0
 44
0.0
 50
0.0
 51
0.0
 71
     0
 72
   100
 73
     1
 74
     3
 75
     0
 76
     0
 77
     0
 78
     0
  0
ENDTAB
  0
TABLE
  2
LTYPE
  5
5
330
0
100
AcDbSymbolTable
 70
    10
  0
LTYPE
  5
14
330
5
100
AcDbSymbolTableRecord
100
AcDbLinetypeTableRecord
  2
BYBLOCK
 70
     0
  3

 72
    65
 73
     0
 40
0.0
  0
LTYPE
  5
15
330
5
100
AcDbSymbolTableRecord
100
AcDbLinetypeTableRecord
  2
BYLAYER
 70
     0
  3

 72
    65
 73
     0
 40
0.0
  0
LTYPE
  5
16
330
5
100
AcDbSymbolTableRecord
100
AcDbLinetypeTableRecord
  2
CONTINUOUS
 70
     0
  3
Solid line
 72
    65
 73
     0
 40
0.0
  0
LTYPE
  5
4B
330
5
100
AcDbSymbolTableRecord
100
AcDbLinetypeTableRecord
  2
AM_ISO02W050
 70
     0
  3
__ __ __ __ __ __ __ __ __ __ __ __ __ __ __
 72
    65
 73
     2
 40
7.5
 49
6.0
 74
     0
 49
-1.5
 74
     0
  0
LTYPE
  5
4C
330
5
100
AcDbSymbolTableRecord
100
AcDbLinetypeTableRecord
  2
AM_ISO08W050
 70
     0
  3
____ . ____ . ____ . ____ . ____ . ____ . ____
 72
    65
 73
     4
 40
18.0
 49
12.0
 74
     0
 49
-1.5
 74
     0
 49
3.0
 74
     0
 49
-1.5
 74
     0
  0
LTYPE
  5
4D
330
5
100
AcDbSymbolTableRecord
100
AcDbLinetypeTableRecord
  2
AM_ISO09W050
 70
     0
  3
_____ . . _____ . . _____ . . ____ .. ____
 72
    65
 73
     6
 40
22.5
 49
12.0
 74
     0
 49
-1.5
 74
     0
 49
3.0
 74
     0
 49
-1.5
 74
     0
 49
3.0
 74
     0
 49
-1.5
 74
     0
  0
LTYPE
  5
4E
330
5
100
AcDbSymbolTableRecord
100
AcDbLinetypeTableRecord
  2
AMCONSTR
 70
     0
  3
_______________________
 72
    65
 73
     2
 40
9999.0
 49
9999.0
 74
     0
 49
0.0
 74
     0
  0
LTYPE
  5
4F
330
5
100
AcDbSymbolTableRecord
100
AcDbLinetypeTableRecord
  2
AM_ISO02W050X2
 70
     0
  3
 _ _ _ _ _ _ _ _ _ _ _ _
 72
    65
 73
     2
 40
3.75
 49
3.0
 74
     0
 49
-0.75
 74
     0
  0
LTYPE
  5
50
330
5
100
AcDbSymbolTableRecord
100
AcDbLinetypeTableRecord
  2
AM_ISO08W050X2
 70
     0
  3
__ . __ . __ . __ . __ . __
 72
    65
 73
     4
 40
9.0
 49
6.0
 74
     0
 49
-0.75
 74
     0
 49
1.5
 74
     0
 49
-0.75
 74
     0
  0
LTYPE
  5
53
330
5
100
AcDbSymbolTableRecord
100
AcDbLinetypeTableRecord
  2
AMZIGZAG
 70
     0
  3
/\/-/\/-/\/-/\/-/\/-/\/
 72
    65
 73
     2
 40
11.00009999999999
 49
0.0001
 74
     4
 75
   135
340
52
 46
0.04
 50
0.0
 44
0.0
 45
0.0
 49
-11.0
 74
     0
  0
LTYPE
  5
166
330
5
100
AcDbSymbolTableRecord
100
AcDbLinetypeTableRecord
  2
ACJISTGL
 70
     0
  3
_ _ _ _ _
 72
    65
 73
     2
 40
3.0
 49
2.0
 74
     0
 49
-1.0
 74
     0
  0
LTYPE
  5
26A
330
5
100
AcDbSymbolTableRecord
100
AcDbLinetypeTableRecord
  2
ACJISTGB
 70
     0
  3
__ . . __ . .
 72
    65
 73
     6
 40
9.0
 49
4.0
 74
     0
 49
-1.0
 74
     0
 49
1.0
 74
     0
 49
-1.0
 74
     0
 49
1.0
 74
     0
 49
-1.0
 74
     0
  0
ENDTAB
  0
TABLE
  2
LAYER
  5
2
330
0
100
AcDbSymbolTable
 70
     7
  0
LAYER
  5
10
330
2
100
AcDbSymbolTableRecord
100
AcDbLayerTableRecord
  2
0
 70
     0
 62
     7
  6
CONTINUOUS
  0
LAYER
  5
3F9
330
2
100
AcDbSymbolTableRecord
100
AcDbLayerTableRecord
  2
AM_0
 70
     0
 62
     7
  6
CONTINUOUS
  0
LAYER
  5
BD4
330
2
100
AcDbSymbolTableRecord
100
AcDbLayerTableRecord
  2
AM_11
 70
     0
 62
     3
  6
AM_ISO09W050
  0
LAYER
  5
BD5
330
2
100
AcDbSymbolTableRecord
100
AcDbLayerTableRecord
  2
AM_7
 70
     0
 62
     4
  6
AM_ISO08W050
  0
LAYER
  5
BD6
330
2
100
AcDbSymbolTableRecord
100
AcDbLayerTableRecord
  2
AM_5
 70
     0
 62
     3
  6
CONTINUOUS
  0
LAYER
  5
BD7
330
2
100
AcDbSymbolTableRecord
100
AcDbLayerTableRecord
  2
DEFPOINTS
 70
     0
 62
     7
  6
CONTINUOUS
  0
LAYER
  5
E59
330
2
100
AcDbSymbolTableRecord
100
AcDbLayerTableRecord
  2
AM_6
 70
     0
 62
     2
  6
CONTINUOUS
  0
ENDTAB
  0
TABLE
  2
STYLE
  5
3
330
0
100
AcDbSymbolTable
 70
     5
  0
STYLE
  5
11
330
3
100
AcDbSymbolTableRecord
100
AcDbTextStyleTableRecord
  2
STANDARD
 70
     0
 40
0.0
 41
1.0
 50
0.0
 71
     0
 42
2.5
  3
simplex.shx
  4
EXTFONT.SHX
  0
STYLE
  5
52
330
3
100
AcDbSymbolTableRecord
100
AcDbTextStyleTableRecord
  2

 70
     1
 40
0.0
 41
1.0
 50
0.0
 71
     0
 42
2.5
  3
ltypeshp.shx
  4

  0
STYLE
  5
6B
330
3
100
AcDbSymbolTableRecord
100
AcDbTextStyleTableRecord
  2
ASAMI
 70
     0
 40
0.0
 41
1.0
 50
0.0
 71
     0
 42
2.5
  3
simplex.shx
  4
EXTFONT.SHX
  0
STYLE
  5
262
330
3
100
AcDbSymbolTableRecord
100
AcDbTextStyleTableRecord
  2
ACJISTS
 70
     0
 40
1.0
 41
1.0
 50
0.0
 71
     0
 42
2.5
  3
simplex.shx
  4
bigfont.shx
  0
STYLE
  5
269
330
3
100
AcDbSymbolTableRecord
100
AcDbTextStyleTableRecord
  2
ACJISGDT
 70
     0
 40
0.0
 41
1.0
 50
0.0
 71
     0
 42
2.5
  3
amgdtans.shx
  4

  0
ENDTAB
  0
TABLE
  2
VIEW
  5
6
330
0
100
AcDbSymbolTable
 70
     0
  0
ENDTAB
  0
TABLE
  2
UCS
  5
7
330
0
100
AcDbSymbolTable
 70
     0
  0
ENDTAB
  0
TABLE
  2
APPID
  5
9
330
0
100
AcDbSymbolTable
 70
    12
  0
APPID
  5
12
330
9
100
AcDbSymbolTableRecord
100
AcDbRegAppTableRecord
  2
ACAD
 70
     0
  0
APPID
  5
30
330
9
100
AcDbSymbolTableRecord
100
AcDbRegAppTableRecord
  2
MCAD_NO_VIS
 70
     0
  0
APPID
  5
31
330
9
100
AcDbSymbolTableRecord
100
AcDbRegAppTableRecord
  2
ACAD_TEMP_GRAPHIC
 70
     0
  0
APPID
  5
2C2
330
9
100
AcDbSymbolTableRecord
100
AcDbRegAppTableRecord
  2
GENIUS_GENDTOL_13
 70
     0
  0
APPID
  5
339
330
9
100
AcDbSymbolTableRecord
100
AcDbRegAppTableRecord
  2
GENIUS_GENODEF_13
 70
     0
  0
APPID
  5
33A
330
9
100
AcDbSymbolTableRecord
100
AcDbRegAppTableRecord
  2
GENIUS_GENOBJ-N-RSBK_13
 70
     0
  0
APPID
  5
33B
330
9
100
AcDbSymbolTableRecord
100
AcDbRegAppTableRecord
  2
GENIUS_GENOBJ-N-LIB_13
 70
     0
  0
APPID
  5
33C
330
9
100
AcDbSymbolTableRecord
100
AcDbRegAppTableRecord
  2
GENIUS_GENSCALE_13
 70
     0
  0
APPID
  5
378
330
9
100
AcDbSymbolTableRecord
100
AcDbRegAppTableRecord
  2
GENIUS_GENDIMSH_14
 70
     0
  0
APPID
  5
BD8
330
9
100
AcDbSymbolTableRecord
100
AcDbRegAppTableRecord
  2
GENIUS_GENOBJ-N-CEN_13
 70
     0
  0
APPID
  5
BD9
330
9
100
AcDbSymbolTableRecord
100
AcDbRegAppTableRecord
  2
GENIUS_GENFIL_13
 70
     0
  0
APPID
  5
BDA
330
9
100
AcDbSymbolTableRecord
100
AcDbRegAppTableRecord
  2
GENIUS_GENOBJ-N-CHA_13
 70
     0
  0
ENDTAB
  0
TABLE
  2
DIMSTYLE
  5
A
330
0
100
AcDbSymbolTable
 70
     8
  0
DIMSTYLE
105
58
102
{ACAD_REACTORS
330
D71
330
D7A
330
1AAB
330
1B25
102
}
330
A
100
AcDbSymbolTableRecord
100
AcDbDimStyleTableRecord
  2
AM_JIS
 70
     0
  3

  4
"
  5
OPEN30
  6

  7

 40
1.0
 41
2.5
 42
1.0
 43
12.0
 44
1.0
 45
0.0
 46
0.0
 47
0.1
 48
0.1
140
3.2
141
0.0
142
0.0
143
0.0393701
144
1.0
145
0.0
146
0.71
147
1.5
 71
     0
 72
     0
 73
     0
 74
     0
 75
     0
 76
     0
 77
     3
 78
     8
170
     0
171
     2
172
     1
173
     0
174
     0
175
     0
176
   256
177
   256
178
     2
270
     2
271
     3
272
     3
273
     2
274
     2
340
6B
275
     0
280
     0
281
     0
282
     0
283
     0
284
     0
285
     0
286
     0
287
     3
288
     0
  0
DIMSTYLE
105
5F
330
A
100
AcDbSymbolTableRecord
100
AcDbDimStyleTableRecord
  2
AM_JIS$3
 70
     0
  3

  4
"
  5
OPEN30
  6

  7

 40
1.0
 41
2.5
 42
1.0
 43
10.0
 44
1.0
 45
0.0
 46
0.0
 47
0.1
 48
0.1
140
3.2
141
0.0
142
0.0
143
0.0393701
144
1.0
145
0.0
146
0.71
147
1.5
 71
     0
 72
     0
 73
     0
 74
     1
 75
     0
 76
     0
 77
     3
 78
     8
170
     0
171
     2
172
     0
173
     0
174
     0
175
     0
176
   256
177
   256
178
     2
270
     2
271
     2
272
     3
273
     2
274
     2
340
6B
275
     0
280
     0
281
     0
282
     0
283
     0
284
     0
285
     0
286
     0
287
     0
288
     1
  0
DIMSTYLE
105
60
330
A
100
AcDbSymbolTableRecord
100
AcDbDimStyleTableRecord
  2
AM_JIS$4
 70
     0
  3

  4
"
  5
OPEN30
  6

  7

 40
1.0
 41
2.5
 42
1.0
 43
10.0
 44
1.0
 45
0.0
 46
0.0
 47
0.1
 48
0.1
140
3.2
141
0.0
142
0.0
143
0.0393701
144
1.0
145
0.0
146
0.71
147
1.5
 71
     0
 72
     0
 73
     0
 74
     1
 75
     0
 76
     0
 77
     3
 78
     8
170
     0
171
     2
172
     0
173
     0
174
     0
175
     0
176
   256
177
   256
178
     2
270
     2
271
     2
272
     3
273
     2
274
     2
340
6B
275
     0
280
     0
281
     0
282
     0
283
     0
284
     0
285
     0
286
     0
287
     0
288
     1
  0
DIMSTYLE
105
61
330
A
100
AcDbSymbolTableRecord
100
AcDbDimStyleTableRecord
  2
AM_JIS$6
 70
     0
  3

  4
"
  5
OPEN30
  6

  7

 40
1.0
 41
2.5
 42
1.0
 43
10.0
 44
1.0
 45
0.0
 46
0.0
 47
0.1
 48
0.1
140
3.2
141
0.0
142
0.0
143
0.0393701
144
1.0
145
0.0
146
0.71
147
1.5
 71
     0
 72
     0
 73
     0
 74
     0
 75
     0
 76
     0
 77
     0
 78
     8
170
     0
171
     2
172
     1
173
     0
174
     0
175
     0
176
   256
177
   256
178
     2
270
     2
271
     2
272
     2
273
     2
274
     2
340
6B
275
     0
280
     0
281
     0
282
     0
283
     0
284
     0
285
     0
286
     0
287
     3
288
     0
  0
DIMSTYLE
105
62
330
A
100
AcDbSymbolTableRecord
100
AcDbDimStyleTableRecord
  2
AM_JIS$7
 70
     0
  3

  4
"
  5
OPEN30
  6

  7

 40
1.0
 41
2.5
 42
1.0
 43
10.0
 44
1.0
 45
0.0
 46
0.0
 47
0.1
 48
0.1
140
3.2
141
0.0
142
0.0
143
0.0393701
144
1.0
145
0.0
146
0.71
147
1.5
 71
     0
 72
     0
 73
     0
 74
     0
 75
     0
 76
     0
 77
     3
 78
     8
170
     0
171
     2
172
     1
173
     0
174
     0
175
     0
176
   256
177
   256
178
     2
270
     2
271
     2
272
     3
273
     2
274
     2
340
6B
275
     0
280
     0
281
     0
282
     0
283
     0
284
     0
285
     0
286
     0
287
     3
288
     0
  0
DIMSTYLE
105
63
330
A
100
AcDbSymbolTableRecord
100
AcDbDimStyleTableRecord
  2
AM_JIS$SF
 70
     0
  3

  4
"
  5
OPEN30
  6

  7

 40
1.0
 41
2.5
 42
1.0
 43
10.0
 44
1.0
 45
0.0
 46
0.0
 47
0.1
 48
0.1
140
3.2
141
0.0
142
0.0
143
0.0393701
144
1.0
145
0.0
146
0.71
147
1.5
 71
     0
 72
     0
 73
     0
 74
     0
 75
     1
 76
     1
 77
     3
 78
     8
170
     0
171
     2
172
     1
173
     0
174
     0
175
     0
176
   256
177
   256
178
     2
270
     2
271
     2
272
     2
273
     2
274
     2
340
6B
275
     0
280
     0
281
     0
282
     0
283
     0
284
     0
285
     0
286
     0
287
     3
288
     0
  0
DIMSTYLE
105
68
330
A
100
AcDbSymbolTableRecord
100
AcDbDimStyleTableRecord
  2
AM_JIS$SH
 70
     0
  3

  4
"
  5

  6
GENAXEH
  7
OPEN30
 40
1.0
 41
2.5
 42
1.0
 43
10.0
 44
1.0
 45
0.0
 46
0.0
 47
0.1
 48
0.1
140
3.2
141
0.0
142
0.0
143
0.0393701
144
2.0
145
0.0
146
0.71
147
1.5
 71
     0
 72
     0
 73
     0
 74
     0
 75
     1
 76
     1
 77
     3
 78
     8
170
     0
171
     2
172
     1
173
     1
174
     0
175
     0
176
   256
177
   256
178
     2
270
     2
271
     2
272
     2
273
     2
274
     2
340
6B
275
     0
280
     0
281
     0
282
     0
283
     0
284
     0
285
     0
286
     0
287
     3
288
     0
  0
DIMSTYLE
105
B34
330
A
100
AcDbSymbolTableRecord
100
AcDbDimStyleTableRecord
  2
AM_JIS$2
 70
     0
  3

  4
"
  5
OPEN30
  6

  7

 40
1.0
 41
2.5
 42
1.0
 43
12.0
 44
1.0
 45
0.0
 46
0.0
 47
0.1
 48
0.1
140
3.2
141
0.0
142
0.0
143
0.0393701
144
1.0
145
0.0
146
0.71
147
1.5
 71
     0
 72
     0
 73
     0
 74
     0
 75
     0
 76
     0
 77
     3
 78
     8
170
     0
171
     2
172
     1
173
     0
174
     0
175
     0
176
   256
177
   256
178
     2
270
     2
271
     3
272
     3
273
     2
274
     2
340
6B
275
     0
280
     0
281
     0
282
     0
283
     0
284
     0
285
     0
286
     0
287
     3
288
     0
  0
ENDTAB
  0
TABLE
  2
BLOCK_RECORD
  5
1
330
0
100
AcDbSymbolTable
 70
    10
  0
BLOCK_RECORD
  5
1F
102
{ACAD_XDICTIONARY
360
74
102
}
330
1
100
AcDbSymbolTableRecord
100
AcDbBlockTableRecord
  2
*MODEL_SPACE
  0
BLOCK_RECORD
  5
101
102
{ACAD_XDICTIONARY
360
1F41
102
}
330
1
100
AcDbSymbolTableRecord
100
AcDbBlockTableRecord
  2
*PAPER_SPACE
  0
BLOCK_RECORD
  5
59
330
1
100
AcDbSymbolTableRecord
100
AcDbBlockTableRecord
  2
_OPEN30
  0
BLOCK_RECORD
  5
64
330
1
100
AcDbSymbolTableRecord
100
AcDbBlockTableRecord
  2
GENAXEH
  0
BLOCK_RECORD
  5
DDA
330
1
100
AcDbSymbolTableRecord
100
AcDbBlockTableRecord
  2
*D5
  0
BLOCK_RECORD
  5
DF3
330
1
100
AcDbSymbolTableRecord
100
AcDbBlockTableRecord
  2
*D6
  0
BLOCK_RECORD
  5
1AAC
330
1
100
AcDbSymbolTableRecord
100
AcDbBlockTableRecord
  2
*D7
  0
BLOCK_RECORD
  5
1B26
330
1
100
AcDbSymbolTableRecord
100
AcDbBlockTableRecord
  2
*D8
  0
BLOCK_RECORD
  5
1EDD
330
1
100
AcDbSymbolTableRecord
100
AcDbBlockTableRecord
  2
A$C2C6773B8
  0
ENDTAB
  0
ENDSEC
  0
SECTION
  2
BLOCKS
  0
BLOCK
  5
20
330
1F
100
AcDbEntity
  8
0
100
AcDbBlockBegin
  2
*MODEL_SPACE
 70
     0
 10
0.0
 20
0.0
 30
0.0
  3
*MODEL_SPACE
  1

  0
ENDBLK
  5
21
330
1F
100
AcDbEntity
  8
0
100
AcDbBlockEnd
  0
BLOCK
  5
103
330
101
100
AcDbEntity
 67
     1
  8
0
100
AcDbBlockBegin
  2
*PAPER_SPACE
 70
     0
 10
0.0
 20
0.0
 30
0.0
  3
*PAPER_SPACE
  1

  0
ENDBLK
  5
104
330
101
100
AcDbEntity
 67
     1
  8
0
100
AcDbBlockEnd
  0
BLOCK
  5
5D
330
59
100
AcDbEntity
  8
0
100
AcDbBlockBegin
  2
_OPEN30
 70
     0
 10
0.0
 20
0.0
 30
0.0
  3
_OPEN30
  1

  0
LINE
  5
5A
330
59
100
AcDbEntity
  8
0
 62
     0
100
AcDbLine
 10
-1.0
 20
0.26794919
 30
0.0
 11
0.0
 21
0.0
 31
0.0
  0
LINE
  5
5B
330
59
100
AcDbEntity
  8
0
 62
     0
100
AcDbLine
 10
0.0
 20
0.0
 30
0.0
 11
-1.0
 21
-0.26794919
 31
0.0
  0
LINE
  5
5C
330
59
100
AcDbEntity
  8
0
 62
     0
100
AcDbLine
 10
0.0
 20
0.0
 30
0.0
 11
-1.0
 21
0.0
 31
0.0
  0
ENDBLK
  5
5E
330
59
100
AcDbEntity
  8
0
100
AcDbBlockEnd
  0
BLOCK
  5
66
330
64
100
AcDbEntity
  8
0
100
AcDbBlockBegin
  2
GENAXEH
 70
     0
 10
0.0
 20
0.0
 30
0.0
  3
GENAXEH
  1

  0
LINE
  5
65
330
64
100
AcDbEntity
  8
0
100
AcDbLine
 10
-1.0
 20
0.0
 30
0.0
 11
1.0
 21
0.0
 31
0.0
  0
ENDBLK
  5
67
330
64
100
AcDbEntity
  8
0
100
AcDbBlockEnd
  0
BLOCK
  5
DE4
330
DDA
100
AcDbEntity
  8
0
100
AcDbBlockBegin
  2
*D5
 70
     1
 10
0.0
 20
0.0
 30
0.0
  3
*D5
  1

  0
LINE
  5
1BDB
330
DDA
100
AcDbEntity
  8
AM_5
100
AcDbLine
 10
-0.000000000000311
 20
-10.00000000000011
 30
0.0
 11
-0.0000000000003126
 21
-37.00000100000001
 31
0.0
  0
LINE
  5
1BDC
330
DDA
100
AcDbEntity
  8
AM_5
100
AcDbLine
 10
-105.0
 20
-10.00000000000001
 30
0.0
 11
-105.0
 21
-37.00000100000001
 31
0.0
  0
LINE
  5
1BDD
330
DDA
100
AcDbEntity
  8
AM_5
100
AcDbLine
 10
-2.500000000000312
 20
-36.00000100000001
 30
0.0
 11
-102.5
 21
-36.00000100000001
 31
0.0
  0
INSERT
  5
1BDE
330
DDA
100
AcDbEntity
  8
AM_5
100
AcDbBlockReference
  2
_OPEN30
 10
-0.0000000000003126
 20
-36.00000100000001
 30
0.0
 41
2.5
 42
2.5
 43
2.5
  0
INSERT
  5
1BDF
330
DDA
100
AcDbEntity
  8
AM_5
100
AcDbBlockReference
  2
_OPEN30
 10
-105.0
 20
-36.00000100000001
 30
0.0
 41
2.5
 42
2.5
 43
2.5
 50
180.0
  0
MTEXT
  5
1BE0
330
DDA
100
AcDbEntity
  8
AM_5
 62
     2
100
AcDbMText
 10
-52.50000000000016
 20
-32.90000100000001
 30
0.0
 40
3.2
 41
0.0
 71
     5
 72
     1
  1
105
  7
ASAMI
1001
ACAD
1000
MTEXTBEGIN
1070
    73
1070
     1
1070
    44
1040
1.0
1070
    74
1070
     0
1000
MTEXTEND
  0
POINT
  5
1BE1
330
DDA
100
AcDbEntity
  8
DEFPOINTS
 62
     0
100
AcDbPoint
 10
-0.0000000000003109
 20
-9.000000000000111
 30
0.0
  0
POINT
  5
1BE2
330
DDA
100
AcDbEntity
  8
DEFPOINTS
 62
     0
100
AcDbPoint
 10
-105.0
 20
-9.000000000000017
 30
0.0
  0
POINT
  5
1BE3
330
DDA
100
AcDbEntity
  8
DEFPOINTS
 62
     0
100
AcDbPoint
 10
-105.0
 20
-36.00000100000001
 30
0.0
  0
ENDBLK
  5
DE5
330
DDA
100
AcDbEntity
  8
0
100
AcDbBlockEnd
  0
BLOCK
  5
DFD
330
DF3
100
AcDbEntity
  8
0
100
AcDbBlockBegin
  2
*D6
 70
     1
 10
0.0
 20
0.0
 30
0.0
  3
*D6
  1

  0
LINE
  5
1BD2
330
DF3
100
AcDbEntity
  8
AM_5
100
AcDbLine
 10
-40.00000000000025
 20
-10.00000000000003
 30
0.0
 11
-40.00000000000025
 21
-25.00000100000002
 31
0.0
  0
LINE
  5
1BD3
330
DF3
100
AcDbEntity
  8
AM_5
100
AcDbLine
 10
-0.000000000000311
 20
-10.00000000000011
 30
0.0
 11
-0.0000000000003119
 21
-25.00000100000002
 31
0.0
  0
LINE
  5
1BD4
330
DF3
100
AcDbEntity
  8
AM_5
100
AcDbLine
 10
-37.50000000000025
 20
-24.00000100000001
 30
0.0
 11
-2.500000000000311
 21
-24.00000100000001
 31
0.0
  0
INSERT
  5
1BD5
330
DF3
100
AcDbEntity
  8
AM_5
100
AcDbBlockReference
  2
_OPEN30
 10
-40.00000000000025
 20
-24.00000100000001
 30
0.0
 41
2.5
 42
2.5
 43
2.5
 50
180.0
  0
INSERT
  5
1BD6
330
DF3
100
AcDbEntity
  8
AM_5
100
AcDbBlockReference
  2
_OPEN30
 10
-0.0000000000003118
 20
-24.00000100000001
 30
0.0
 41
2.5
 42
2.5
 43
2.5
  0
MTEXT
  5
1BD7
330
DF3
100
AcDbEntity
  8
AM_5
 62
     2
100
AcDbMText
 10
-20.00000000000028
 20
-20.90000100000001
 30
0.0
 40
3.2
 41
0.0
 71
     5
 72
     1
  1
40
  7
ASAMI
1001
ACAD
1000
MTEXTBEGIN
1070
    73
1070
     1
1070
    44
1040
1.0
1070
    74
1070
     0
1000
MTEXTEND
  0
POINT
  5
1BD8
330
DF3
100
AcDbEntity
  8
DEFPOINTS
 62
     0
100
AcDbPoint
 10
-40.00000000000025
 20
-9.000000000000033
 30
0.0
  0
POINT
  5
1BD9
330
DF3
100
AcDbEntity
  8
DEFPOINTS
 62
     0
100
AcDbPoint
 10
-0.0000000000003109
 20
-9.000000000000111
 30
0.0
  0
POINT
  5
1BDA
330
DF3
100
AcDbEntity
  8
DEFPOINTS
 62
     0
100
AcDbPoint
 10
-0.0000000000003118
 20
-24.00000100000001
 30
0.0
  0
ENDBLK
  5
DFE
330
DF3
100
AcDbEntity
  8
0
100
AcDbBlockEnd
  0
BLOCK
  5
1AB6
330
1AAC
100
AcDbEntity
  8
0
100
AcDbBlockBegin
  2
*D7
 70
     1
 10
0.0
 20
0.0
 30
0.0
  3
*D7
  1

  0
LINE
  5
1AB9
330
1AAC
100
AcDbEntity
  8
AM_5
100
AcDbLine
 10
-105.0
 20
9.999999999999987
 30
0.0
 11
-124.7934979049683
 21
9.999999999999994
 31
0.0
  0
LINE
  5
1ABA
330
1AAC
100
AcDbEntity
  8
AM_5
100
AcDbLine
 10
-105.0
 20
-10.00000000000001
 30
0.0
 11
-124.7934979049683
 21
-10.0
 31
0.0
  0
LINE
  5
1ABB
330
1AAC
100
AcDbEntity
  8
AM_5
100
AcDbLine
 10
-123.7934979049683
 20
7.499999999999993
 30
0.0
 11
-123.7934979049683
 21
-7.500000000000006
 31
0.0
  0
INSERT
  5
1ABC
330
1AAC
100
AcDbEntity
  8
AM_5
100
AcDbBlockReference
  2
_OPEN30
 10
-123.7934979049683
 20
9.999999999999992
 30
0.0
 41
2.5
 42
2.5
 43
2.5
 50
90.0
  0
INSERT
  5
1ABD
330
1AAC
100
AcDbEntity
  8
AM_5
100
AcDbBlockReference
  2
_OPEN30
 10
-123.7934979049683
 20
-10.0
 30
0.0
 41
2.5
 42
2.5
 43
2.5
 50
270.0
  0
MTEXT
  5
1ABE
330
1AAC
100
AcDbEntity
  8
AM_5
 62
     2
100
AcDbMText
 10
-126.8934979049683
 20
-0.0000000000000258
 30
0.0
 40
3.2
 41
0.0
 71
     5
 72
     1
  1
%%c20
  7
ASAMI
 11
0.0000000000000001
 21
1.0
 31
0.0
1001
ACAD
1000
MTEXTBEGIN
1070
    73
1070
     1
1070
    44
1040
1.0
1070
    74
1070
     0
1000
MTEXTEND
  0
POINT
  5
1ABF
330
1AAC
100
AcDbEntity
  8
DEFPOINTS
 62
     0
100
AcDbPoint
 10
-104.0
 20
9.999999999999987
 30
0.0
  0
POINT
  5
1AC0
330
1AAC
100
AcDbEntity
  8
DEFPOINTS
 62
     0
100
AcDbPoint
 10
-104.0
 20
-10.00000000000001
 30
0.0
  0
POINT
  5
1AC1
330
1AAC
100
AcDbEntity
  8
DEFPOINTS
 62
     0
100
AcDbPoint
 10
-123.7934979049683
 20
-10.0
 30
0.0
  0
ENDBLK
  5
1AB7
330
1AAC
100
AcDbEntity
  8
0
100
AcDbBlockEnd
  0
BLOCK
  5
1B30
330
1B26
100
AcDbEntity
  8
0
100
AcDbBlockBegin
  2
*D8
 70
     1
 10
0.0
 20
0.0
 30
0.0
  3
*D8
  1

  0
LINE
  5
1BE4
330
1B26
100
AcDbEntity
  8
AM_5
100
AcDbLine
 10
1.000000000000007
 20
9.0
 30
0.0
 11
19.55776903085492
 21
8.999999999999994
 31
0.0
  0
LINE
  5
1BE5
330
1B26
100
AcDbEntity
  8
AM_5
100
AcDbLine
 10
0.9999999999996447
 20
-9.0
 30
0.0
 11
19.55776903085492
 21
-9.000000000000005
 31
0.0
  0
LINE
  5
1BE6
330
1B26
100
AcDbEntity
  8
AM_5
100
AcDbLine
 10
18.55776903085492
 20
6.499999999999993
 30
0.0
 11
18.55776903085492
 21
-6.500000000000006
 31
0.0
  0
INSERT
  5
1BE7
330
1B26
100
AcDbEntity
  8
AM_5
100
AcDbBlockReference
  2
_OPEN30
 10
18.55776903085492
 20
8.999999999999994
 30
0.0
 41
2.5
 42
2.5
 43
2.5
 50
90.0
  0
INSERT
  5
1BE8
330
1B26
100
AcDbEntity
  8
AM_5
100
AcDbBlockReference
  2
_OPEN30
 10
18.55776903085492
 20
-9.000000000000005
 30
0.0
 41
2.5
 42
2.5
 43
2.5
 50
270.0
  0
MTEXT
  5
1BE9
330
1B26
100
AcDbEntity
  8
AM_5
 62
     2
100
AcDbMText
 10
15.45776903085492
 20
-0.0000000000000025
 30
0.0
 40
3.2
 41
0.0
 71
     5
 72
     1
  1
%%c18
  7
ASAMI
 11
0.0000000000000001
 21
1.0
 31
0.0
1001
ACAD
1000
MTEXTBEGIN
1070
    73
1070
     1
1070
    44
1040
1.0
1070
    74
1070
     0
1000
MTEXTEND
  0
POINT
  5
1BEA
330
1B26
100
AcDbEntity
  8
DEFPOINTS
 62
     0
100
AcDbPoint
 10
0.0000000000000075
 20
9.0
 30
0.0
  0
POINT
  5
1BEB
330
1B26
100
AcDbEntity
  8
DEFPOINTS
 62
     0
100
AcDbPoint
 10
-0.0000000000003553
 20
-9.0
 30
0.0
  0
POINT
  5
1BEC
330
1B26
100
AcDbEntity
  8
DEFPOINTS
 62
     0
100
AcDbPoint
 10
18.55776903085492
 20
-9.000000000000005
 30
0.0
  0
ENDBLK
  5
1B31
330
1B26
100
AcDbEntity
  8
0
100
AcDbBlockEnd
  0
BLOCK
  5
1EE6
330
1EDD
100
AcDbEntity
  8
0
100
AcDbBlockBegin
  2
A$C2C6773B8
 70
     0
 10
0.0
 20
0.0
 30
0.0
  3
A$C2C6773B8
  1

  0
LINE
  5
1EDE
330
1EDD
100
AcDbEntity
  8
AM_0
100
AcDbLine
 10
-0.0000000000017009
 20
-0.0000000000161981
 30
0.0
 11
-3.534858346534529
 21
-0.0000000000161981
 31
0.0
  0
LINE
  5
1EDF
330
1EDD
100
AcDbEntity
  8
AM_0
100
AcDbLine
 10
-3.534858346534529
 20
-1.200000000016215
 30
0.0
 11
-0.1732050807585876
 21
-1.200000000016215
 31
0.0
  0
LINE
  5
1EE0
330
1EDD
100
AcDbEntity
  8
AM_0
100
AcDbLine
 10
-0.0000000000017009
 20
-1.500000000016198
 30
0.0
 11
-0.8660254037861774
 21
-0.0000000000161128
 31
0.0
  0
LINE
  5
1EE1
330
1EDD
100
AcDbEntity
  8
AM_0
100
AcDbLine
 10
-1.290686978538455
 20
-2.210482147766013
 30
0.0
 11
-0.1575000000016855
 21
-1.990346781860976
 31
0.0
  0
LINE
  5
1EE2
330
1EDD
100
AcDbEntity
  8
AM_0
100
AcDbLine
 10
-3.534858346534529
 20
-0.0000000000161981
 30
0.0
 11
-3.534858346534529
 21
-1.200000000016215
 31
0.0
  0
LINE
  5
1EE3
330
1EDD
100
AcDbEntity
  8
AM_0
100
AcDbLine
 10
-3.534858346534529
 20
-1.200000000016215
 30
0.0
 11
-1.290686978538455
 21
-2.210482147766013
 31
0.0
  0
LINE
  5
1EE4
330
1EDD
100
AcDbEntity
  8
AM_0
100
AcDbLine
 10
-0.0000000000017009
 20
-0.0000000000161981
 30
0.0
 11
-0.1332639137176512
 21
-1.269180130644824
 31
0.0
  0
LINE
  5
1EE5
330
1EDD
100
AcDbEntity
  8
AM_0
100
AcDbLine
 10
-0.1575000000016855
 20
-1.990346781860976
 30
0.0
 11
-0.0000000000017009
 21
-1.500000000016198
 31
0.0
  0
ENDBLK
  5
1EE7
330
1EDD
100
AcDbEntity
  8
0
100
AcDbBlockEnd
  0
ENDSEC
  0
SECTION
  2
ENTITIES
  0
DIMENSION
  5
D71
330
1F
100
AcDbEntity
  8
AM_5
100
AcDbDimension
  2
*D5
 10
-105.0
 20
-36.00000100000001
 30
0.0
 11
-52.50000000000016
 21
-32.90000100000001
 31
0.0
 70
    32
  1
<>
  3
AM_JIS
100
AcDbAlignedDimension
 13
-0.0000000000003109
 23
-9.000000000000111
 33
0.0
 14
-105.0
 24
-9.000000000000017
 34
0.0
100
AcDbRotatedDimension
1001
GENIUS_GENDTOL_13
1000

1000
h7
1000

1040
0.0
  0
LINE
  5
D74
330
1F
100
AcDbEntity
  8
AM_7
  6
AM_ISO08W050X2
100
AcDbLine
 10
4.557768030854926
 20
0.0
 30
0.0
 11
-109.7934969049683
 21
-0.0000000000000675
 31
0.0
1001
GENIUS_GENODEF_13
1002
{
1000
HIER
1070
     0
1002
}
1002
{
1000
MANEDIT
1070
     0
1002
}
1002
{
1000
NOSEL
1070
     0
1002
}
1002
{
1000
BEHIND
1070
     0
1002
}
1002
{
1000
REACTOR
1002
}
1001
GENIUS_GENOBJ-N-CEN_13
1002
{
1000
OWNER
1000
GEN
1002
}
  0
DIMENSION
  5
D7A
330
1F
100
AcDbEntity
  8
AM_5
100
AcDbDimension
  2
*D6
 10
-0.0000000000003118
 20
-24.00000100000001
 30
0.0
 11
-20.00000000000028
 21
-20.90000100000001
 31
0.0
 70
    32
  1
<>
  3
AM_JIS
100
AcDbAlignedDimension
 13
-40.00000000000025
 23
-9.000000000000033
 33
0.0
 14
-0.0000000000003109
 24
-9.000000000000111
 34
0.0
100
AcDbRotatedDimension
1001
GENIUS_GENDTOL_13
1000

1000
h7
1000

1040
0.0
  0
TEXT
  5
E5A
330
1F
100
AcDbEntity
  8
AM_6
100
AcDbText
 10
-68.4523809523811
 20
-58.50000100000001
 30
0.0
 40
5.0
  1
SSM4180
 72
     4
 11
-52.50000000000015
 21
-56.00000100000001
 31
0.0
100
AcDbText
  0
LINE
  5
1AA6
330
1F
100
AcDbEntity
  8
AM_0
100
AcDbLine
 10
-54.00000000000002
 20
-9.999999999999925
 30
0.0
 11
-104.0
 21
-10.00000000000001
 31
0.0
  0
LINE
  5
1AA7
330
1F
100
AcDbEntity
  8
AM_0
100
AcDbLine
 10
-104.0
 20
-10.00000000000001
 30
0.0
 11
-104.0
 21
9.999999999999987
 31
0.0
  0
LINE
  5
1AA8
330
1F
100
AcDbEntity
  8
AM_0
100
AcDbLine
 10
-105.0
 20
-9.000000000000017
 30
0.0
 11
-105.0
 21
8.999999999999987
 31
0.0
  0
DIMENSION
  5
1AAB
330
1F
100
AcDbEntity
  8
AM_5
100
AcDbDimension
  2
*D7
 10
-123.7934979049683
 20
-10.0
 30
0.0
 11
-126.8934979049683
 21
-0.0000000000000258
 31
0.0
 70
    32
  1
%%c<>
  3
AM_JIS
100
AcDbAlignedDimension
 13
-104.0
 23
9.999999999999987
 33
0.0
 14
-104.0
 24
-10.00000000000001
 34
0.0
 50
270.0
100
AcDbRotatedDimension
1001
GENIUS_GENDTOL_13
1000

1000
h7
1000

1040
0.0
  0
LINE
  5
1AB8
330
1F
100
AcDbEntity
  8
AM_0
100
AcDbLine
 10
-53.99999999999998
 20
9.999999999999973
 30
0.0
 11
-104.0
 21
9.999999999999987
 31
0.0
  0
LINE
  5
1AC4
330
1F
100
AcDbEntity
  8
AM_0
100
AcDbLine
 10
-104.0
 20
9.999999999999987
 30
0.0
 11
-105.0
 21
8.999999999999987
 31
0.0
1001
GENIUS_GENFIL_13
1070
     0
1040
1.0
1040
1.0
1040
20.0
1040
0.0
1002
{
1002
}
1001
GENIUS_GENODEF_13
1002
{
1000
HIER
1070
     0
1002
}
1002
{
1000
MANEDIT
1070
     0
1002
}
1002
{
1000
NOSEL
1070
     0
1002
}
1002
{
1000
BEHIND
1070
     0
1002
}
1002
{
1000
REACTOR
1002
}
1001
GENIUS_GENOBJ-N-CHA_13
1002
{
1000
OWNER
1000
GEN
1002
}
  0
LINE
  5
1AC7
330
1F
100
AcDbEntity
  8
AM_0
100
AcDbLine
 10
-105.0
 20
-9.000000000000017
 30
0.0
 11
-104.0
 21
-10.00000000000001
 31
0.0
1001
GENIUS_GENFIL_13
1070
     0
1040
1.0
1040
1.0
1040
20.0
1040
0.0
1002
{
1002
}
1001
GENIUS_GENODEF_13
1002
{
1000
HIER
1070
     0
1002
}
1002
{
1000
MANEDIT
1070
     0
1002
}
1002
{
1000
NOSEL
1070
     0
1002
}
1002
{
1000
BEHIND
1070
     0
1002
}
1002
{
1000
REACTOR
1002
}
1001
GENIUS_GENOBJ-N-CHA_13
1002
{
1000
OWNER
1000
GEN
1002
}
  0
DIMENSION
  5
1B25
330
1F
100
AcDbEntity
  8
AM_5
100
AcDbDimension
  2
*D8
 10
18.55776903085492
 20
-9.000000000000005
 30
0.0
 11
15.45776903085492
 21
-0.0000000000000025
 31
0.0
 70
    32
  1
%%c<>
  3
AM_JIS
100
AcDbAlignedDimension
 13
0.0000000000000075
 23
9.0
 33
0.0
 14
-0.0000000000003553
 24
-9.0
 34
0.0
 50
270.0
100
AcDbRotatedDimension
1001
GENIUS_GENDTOL_13
1000

1000
h7
1000

1040
0.0
  0
LINE
  5
1B32
330
1F
100
AcDbEntity
  8
AM_0
100
AcDbLine
 10
-0.0000000000003553
 20
0.0
 30
0.0
 11
-0.1909090909094268
 21
1.800000000000201
 31
0.0
  0
LINE
  5
1B33
330
1F
100
AcDbEntity
  8
AM_0
100
AcDbLine
 10
-1.564469064893391
 20
-2.652578577299777
 30
0.0
 11
-0.1909090909094268
 21
-2.388416138213736
 31
0.0
  0
LINE
  5
1B34
330
1F
100
AcDbEntity
  8
AM_0
100
AcDbLine
 10
-0.0000000000003553
 20
0.0
 30
0.0
 11
-0.0000000000003675
 21
9.0
 31
0.0
  0
LINE
  5
1B35
330
1F
100
AcDbEntity
  8
AM_0
100
AcDbLine
 10
-0.1909090909094268
 20
1.800000000000201
 30
0.0
 11
-1.94095308681101
 21
4.800853465218712
 31
0.0
  0
LINE
  5
1B36
330
1F
100
AcDbEntity
  8
AM_0
100
AcDbLine
 10
-0.0000000000003553
 20
-9.0
 30
0.0
 11
-0.1909090909094268
 21
-8.520194083719285
 31
0.0
  0
LINE
  5
1B37
330
1F
100
AcDbEntity
  8
AM_0
100
AcDbLine
 10
-0.1909090909094268
 20
-8.520194083719285
 30
0.0
 11
-0.1909090909094268
 21
-2.388416138213736
 31
0.0
  0
LINE
  5
1B38
330
1F
100
AcDbEntity
  8
AM_0
100
AcDbLine
 10
-0.0000000000003553
 20
-9.0
 30
0.0
 11
-0.0000000000003553
 21
-1.800000000000001
 31
0.0
  0
LINE
  5
1B39
330
1F
100
AcDbEntity
  8
AM_0
100
AcDbLine
 10
-0.1909090909094268
 20
-8.52019408371918
 30
0.0
 11
-1.245454545454904
 21
-7.195709979831443
 31
0.0
  0
LINE
  5
1B3B
330
1F
100
AcDbEntity
  8
AM_0
100
AcDbLine
 10
-1.94095308681101
 20
4.800853465218712
 30
0.0
 11
-4.284676783676522
 21
5.415216160550538
 31
0.0
  0
SPLINE
  5
1B3C
330
1F
100
AcDbEntity
  8
AM_0
100
AcDbSpline
210
0.0
220
0.0
230
1.0
 70
     8
 71
     3
 72
     8
 73
     4
 74
     0
 42
0.0000000001
 43
0.0000000001
 40
0.0
 40
0.0
 40
0.0
 40
0.0
 40
14.48999654934396
 40
14.48999654934396
 40
14.48999654934396
 40
14.48999654934396
 10
-24.72727272727308
 20
9.000000000000191
 30
0.0
 10
-15.94545663676159
 20
9.000000000000191
 30
0.0
 10
-7.972728318380973
 20
4.500000000000191
 30
0.0
 10
-0.0000000000003553
 20
0.0000000000002078
 30
0.0
  0
SPLINE
  5
1B3D
330
1F
100
AcDbEntity
  8
AM_0
100
AcDbSpline
210
0.0
220
0.0
230
1.0
 70
     8
 71
     3
 72
     8
 73
     4
 74
     0
 42
0.0000000001
 43
0.0000000001
 40
0.0
 40
0.0
 40
0.0
 40
0.0
 40
14.48999654934395
 40
14.48999654934395
 40
14.48999654934395
 40
14.48999654934395
 10
-0.0000000000003553
 20
-9.0
 30
0.0
 10
-8.78181609051184
 20
-9.000000000000015
 30
0.0
 10
-16.75454440889246
 20
-4.500000000000015
 30
0.0
 10
-24.72727272727306
 20
-0.000000000000016
 30
0.0
  0
SPLINE
  5
1B3E
330
1F
100
AcDbEntity
  8
AM_0
100
AcDbSpline
210
0.0
220
0.0
230
1.0
 70
     8
 71
     3
 72
     8
 73
     4
 74
     0
 42
0.0000000001
 43
0.0000000001
 40
0.0
 40
0.0
 40
0.0
 40
0.0
 40
4.451443990518192
 40
4.451443990518192
 40
4.451443990518192
 40
4.451443990518192
 10
-17.89942421640928
 20
-8.31140010684485
 30
0.0
 10
-15.20157937367095
 20
-8.31140010684485
 30
0.0
 10
-12.5703197833686
 20
-7.912203145645404
 30
0.0
 10
-9.985008302813964
 20
-7.23753458806225
 30
0.0
  0
SPLINE
  5
1B3F
330
1F
100
AcDbEntity
  8
AM_0
100
AcDbSpline
210
0.0
220
0.0
230
1.0
 70
     8
 71
     3
 72
     8
 73
     4
 74
     0
 42
0.0000000001
 43
0.0000000001
 40
0.7142832446738512
 40
0.7142832446738512
 40
0.7142832446738512
 40
0.7142832446738512
 40
9.361146747480315
 40
9.361146747480315
 40
9.361146747480315
 40
9.361146747480315
 10
-16.60578540449318
 20
8.281076021683713
 30
0.0
 10
-11.4057382434303
 20
8.038410190148852
 30
0.0
 10
-6.444438820814963
 20
6.364385789039327
 30
0.0
 10
-1.570627644782127
 20
4.165845209065707
 30
0.0
  0
SPLINE
  5
1B40
330
1F
100
AcDbEntity
  8
AM_0
100
AcDbSpline
210
0.0
220
0.0
230
1.0
 70
     8
 71
     3
 72
     8
 73
     4
 74
     0
 42
0.0000000001
 43
0.0000000001
 40
4.542668862435135
 40
4.542668862435135
 40
4.542668862435135
 40
4.542668862435135
 40
14.36247867694493
 40
14.36247867694493
 40
14.36247867694493
 40
14.36247867694493
 10
-1.245454545452371
 20
-7.195709979821923
 30
0.0
 10
-6.944472430646794
 20
-5.682610235831144
 30
0.0
 10
-12.42194832352785
 20
-2.841305117915536
 30
0.0
 10
-17.89942421640891
 20
0.0000000000000879
 30
0.0
  0
SPLINE
  5
1B41
330
1F
100
AcDbEntity
  8
AM_0
100
AcDbSpline
210
0.0
220
0.0
230
1.0
 70
     8
 71
     3
 72
     8
 73
     4
 74
     0
 42
0.0000000001
 43
0.0000000001
 40
0.3581103616548037
 40
0.3581103616548037
 40
0.3581103616548037
 40
0.3581103616548037
 40
12.40023413887867
 40
12.40023413887867
 40
12.40023413887867
 40
12.40023413887867
 10
-20.90401563513167
 20
8.722521761134803
 30
0.0
 10
-13.63692143415831
 20
8.544175086713098
 30
0.0
 10
-6.887198869364039
 20
5.404862031273002
 30
0.0
 10
-0.2123868952654817
 20
1.836828641896137
 30
0.0
  0
SPLINE
  5
1B42
330
1F
100
AcDbEntity
  8
AM_0
100
AcDbSpline
210
0.0
220
0.0
230
1.0
 70
     8
 71
     3
 72
     8
 73
     4
 74
     0
 42
0.0000000001
 43
0.0000000001
 40
1.870660592686466
 40
1.870660592686466
 40
1.870660592686466
 40
1.870660592686466
 40
14.43901837670146
 40
14.43901837670146
 40
14.43901837670146
 40
14.43901837670146
 10
-0.1909090909094268
 20
-8.52019408371918
 30
0.0
 10
-7.647208347689119
 20
-7.599421101782658
 30
0.0
 10
-14.60046891748602
 20
-3.799710550891289
 30
0.0
 10
-21.55372948728291
 20
0.0000000000000879
 30
0.0
  0
SPLINE
  5
1B43
330
1F
100
AcDbEntity
  8
AM_0
100
AcDbSpline
210
0.0
220
0.0
230
1.0
 70
     8
 71
     3
 72
     8
 73
     4
 74
     0
 42
0.0000000001
 43
0.0000000001
 40
0.0
 40
0.0
 40
0.0
 40
0.0
 40
2.130230809022907
 40
2.130230809022907
 40
2.130230809022907
 40
2.130230809022907
 10
-24.72727272727343
 20
-9.000000000000015
 30
0.0
 10
-23.436223752108
 20
-9.000000000000015
 30
0.0
 10
-22.1626616596305
 20
-8.902741118076313
 30
0.0
 10
-20.90401563513238
 20
-8.722521761134625
 30
0.0
  0
SPLINE
  5
1B44
330
1F
100
AcDbEntity
  8
AM_0
100
AcDbSpline
210
0.0
220
0.0
230
1.0
 70
     8
 71
     3
 72
     8
 73
     4
 74
     0
 42
0.0000000001
 43
0.0000000001
 40
0.0
 40
0.0
 40
0.0
 40
0.0
 40
2.764560748519282
 40
2.764560748519282
 40
2.764560748519282
 40
2.764560748519282
 10
-21.55372948728322
 20
-8.730510606603708
 30
0.0
 10
-19.87823812454429
 20
-8.730510606603708
 30
0.0
 10
-18.23070795658611
 20
-8.57048606731811
 30
0.0
 10
-16.60578540468504
 20
-8.281076021717606
 30
0.0
  0
SPLINE
  5
1B45
330
1F
100
AcDbEntity
  8
AM_0
100
AcDbSpline
210
0.0
220
0.0
230
1.0
 70
     8
 71
     3
 72
     8
 73
     4
 74
     0
 42
0.0000000001
 43
0.0000000001
 40
0.0
 40
0.0
 40
0.0
 40
0.0
 40
2.586565323616714
 40
2.586565323616714
 40
2.586565323616714
 40
2.586565323616714
 10
-0.0000000000003675
 20
7.334464836031135
 30
0.0
 10
-1.005940691823902
 20
6.144197753071816
 30
0.0
 10
-2.732580917665814
 20
5.633052834463832
 30
0.0
 10
-4.284676783676522
 20
5.415216160550538
 30
0.0
  0
SPLINE
  5
1B46
330
1F
100
AcDbEntity
  8
AM_0
100
AcDbSpline
210
0.0
220
0.0
230
1.0
 70
     8
 71
     3
 72
     8
 73
     4
 74
     0
 42
0.0000000001
 43
0.0000000001
 40
0.0
 40
0.0
 40
0.0
 40
0.0
 40
5.635889483499127
 40
5.635889483499127
 40
5.635889483499127
 40
5.635889483499127
 10
-0.0000000000003675
 20
9.0
 30
0.0
 10
-3.415690596060434
 20
9.0
 30
0.0
 10
-6.708980461520577
 20
8.319229252162452
 30
0.0
 10
-9.927477405534602
 20
7.22247378906824
 30
0.0
  0
ELLIPSE
  5
1B47
330
1F
100
AcDbEntity
  8
AM_0
100
AcDbEllipse
 10
3.610314876412746
 20
-4.578984296492215
 30
0.0
 11
5.528542028210999
 21
0.0000000000000052
 31
0.0
210
0.0
220
0.0
230
1.0
 40
0.9899999999999995
 41
2.781920908098718
 42
3.640074865085214
  0
LINE
  5
1B48
330
1F
100
AcDbEntity
  8
AM_0
100
AcDbLine
 10
-40.00000000000046
 20
7.380430058976377
 30
0.0
 11
-40.47891455107374
 21
8.201639350569967
 31
0.0
  0
LINE
  5
1B49
330
1F
100
AcDbEntity
  8
AM_0
100
AcDbLine
 10
-41.32351697463717
 20
-2.666927697639962
 30
0.0
 11
-40.00000000000034
 21
-5.034982535759302
 31
0.0
  0
LINE
  5
1B4A
330
1F
100
AcDbEntity
  8
AM_0
100
AcDbLine
 10
-40.0000000000002
 20
-1.356645892749351
 30
0.0
 11
-41.32351697463717
 21
-2.666927697639962
 31
0.0
  0
POLYLINE
  5
1B4B
330
1F
100
AcDbEntity
  8
AM_0
100
AcDb2dPolyline
 66
     1
 10
0.0
 20
0.0
 30
0.0
 70
     2
  0
VERTEX
  5
1B4C
330
1B4B
100
AcDbEntity
  8
AM_0
100
AcDbVertex
100
AcDb2dVertex
 10
-40.00000000000034
 20
7.380430058976385
 30
0.0
 42
0.0113495642762015
  0
VERTEX
  5
1B4D
330
1B4B
100
AcDbEntity
  8
AM_0
100
AcDbVertex
100
AcDb2dVertex
 10
-42.11949080718183
 20
7.694606121203257
 30
0.0
 42
0.0187918863228812
 70
     1
  0
VERTEX
  5
1B4E
330
1B4B
100
AcDbEntity
  8
AM_0
100
AcDbVertex
100
AcDb2dVertex
 10
-43.40909090909125
 20
7.80769417440735
 30
0.0
 42
0.0075788461628208
  0
VERTEX
  5
1B4F
330
1B4B
100
AcDbEntity
  8
AM_0
100
AcDbVertex
100
AcDb2dVertex
 10
-46.83725849120728
 20
7.928604254722685
 30
0.0
 42
0.0232722457202398
 70
     1
  0
VERTEX
  5
1B50
330
1B4B
100
AcDbEntity
  8
AM_0
100
AcDbVertex
100
AcDb2dVertex
 10
-47.95454545454581
 20
7.899747267171538
 30
0.0
 42
0.0542958387243925
  0
VERTEX
  5
1B51
330
1B4B
100
AcDbEntity
  8
AM_0
100
AcDbVertex
100
AcDb2dVertex
 10
-49.02175046120743
 20
7.706285241585803
 30
0.0
 42
0.4413285869607302
 70
     1
  0
VERTEX
  5
1B52
330
1B4B
100
AcDbEntity
  8
AM_0
100
AcDbVertex
100
AcDb2dVertex
 10
-49.09090909090943
 20
7.564536244504745
 30
0.0
 42
0.0678159998049314
  0
VERTEX
  5
1B53
330
1B4B
100
AcDbEntity
  8
AM_0
100
AcDbVertex
100
AcDb2dVertex
 10
-49.0057654874707
 20
7.416182019627792
 30
0.0
 42
0.006836731909696
 70
     1
  0
VERTEX
  5
1B54
330
1B4B
100
AcDbEntity
  8
AM_0
100
AcDbVertex
100
AcDb2dVertex
 10
-47.95454545454581
 20
6.091164181490194
 30
0.0
 42
0.0061465077983929
  0
VERTEX
  5
1B55
330
1B4B
100
AcDbEntity
  8
AM_0
100
AcDbVertex
100
AcDb2dVertex
 10
-46.36998592482365
 20
4.197263305466923
 30
0.0
 42
0.0040253861954876
 70
     1
  0
VERTEX
  5
1B56
330
1B4B
100
AcDbEntity
  8
AM_0
100
AcDbVertex
100
AcDb2dVertex
 10
-43.89159770343599
 20
1.354783439538384
 30
0.0
 42
0.0594163782683759
  0
VERTEX
  5
1B57
330
1B4B
100
AcDbEntity
  8
AM_0
100
AcDbVertex
100
AcDb2dVertex
 10
-42.77109659088171
 20
0.3581532202668853
 30
0.0
 42
0.0273113651513278
 70
     1
  0
VERTEX
  5
1B58
330
1B4B
100
AcDbEntity
  8
AM_0
100
AcDbVertex
100
AcDb2dVertex
 10
-40.00000000000034
 20
-1.356645892749343
 30
0.0
  0
SEQEND
  5
1B59
330
1B4B
100
AcDbEntity
  8
AM_0
  0
LINE
  5
1B5A
330
1F
100
AcDbEntity
  8
AM_11
100
AcDbLine
 10
-40.00000000000026
 20
8.999999999999975
 30
0.0
 11
-40.00000000000024
 21
-9.000000000000024
 31
0.0
  0
POLYLINE
  5
1B5B
330
1F
100
AcDbEntity
  8
AM_0
100
AcDb2dPolyline
 66
     1
 10
0.0
 20
0.0
 30
0.0
 70
     2
  0
VERTEX
  5
1B5C
330
1B5B
100
AcDbEntity
  8
AM_0
100
AcDbVertex
100
AcDb2dVertex
 10
-44.54545454545487
 20
-8.334555121334133
 30
0.0
 42
-0.0230918143391583
  0
VERTEX
  5
1B5D
330
1B5B
100
AcDbEntity
  8
AM_0
100
AcDbVertex
100
AcDb2dVertex
 10
-45.59366862782293
 20
-8.071562262869317
 30
0.0
 42
-0.0355587143075394
 70
     1
  0
VERTEX
  5
1B5E
330
1B5B
100
AcDbEntity
  8
AM_0
100
AcDbVertex
100
AcDb2dVertex
 10
-46.25000000000032
 20
-7.822923301364744
 30
0.0
 42
-0.0216088548285507
  0
VERTEX
  5
1B5F
330
1B5B
100
AcDbEntity
  8
AM_0
100
AcDbVertex
100
AcDb2dVertex
 10
-47.78131676880494
 20
-7.03412611863124
 30
0.0
 42
-0.0414110700152503
 70
     1
  0
VERTEX
  5
1B60
330
1B5B
100
AcDbEntity
  8
AM_0
100
AcDbVertex
100
AcDb2dVertex
 10
-48.52272727272762
 20
-6.525749733010423
 30
0.0
 42
-0.0653031023268945
  0
VERTEX
  5
1B61
330
1B5B
100
AcDbEntity
  8
AM_0
100
AcDbVertex
100
AcDb2dVertex
 10
-49.00031874537994
 20
-6.020094561866031
 30
0.0
 42
-0.1569363594221426
 70
     1
  0
VERTEX
  5
1B62
330
1B5B
100
AcDbEntity
  8
AM_0
100
AcDbVertex
100
AcDb2dVertex
 10
-49.09090909090942
 20
-5.740207984625428
 30
0.0
 42
-0.1617045000652558
  0
VERTEX
  5
1B63
330
1B5B
100
AcDbEntity
  8
AM_0
100
AcDbVertex
100
AcDb2dVertex
 10
-48.99875394510473
 20
-5.466618587670396
 30
0.0
 42
-0.0680210806811403
 70
     1
  0
VERTEX
  5
1B64
330
1B5B
100
AcDbEntity
  8
AM_0
100
AcDbVertex
100
AcDb2dVertex
 10
-48.52272727272762
 20
-4.988651427140349
 30
0.0
 42
-0.0450747416233525
  0
VERTEX
  5
1B65
330
1B5B
100
AcDbEntity
  8
AM_0
100
AcDbVertex
100
AcDb2dVertex
 10
-47.78829544188551
 20
-4.526156994618044
 30
0.0
 42
-0.0231467319857815
 70
     1
  0
VERTEX
  5
1B66
330
1B5B
100
AcDbEntity
  8
AM_0
100
AcDbVertex
100
AcDb2dVertex
 10
-46.25000000000032
 20
-3.827418622385943
 30
0.0
 42
-0.0364444523572374
  0
VERTEX
  5
1B67
330
1B5B
100
AcDbEntity
  8
AM_0
100
AcDbVertex
100
AcDb2dVertex
 10
-45.58192506556681
 20
-3.614811657334669
 30
0.0
 42
-0.0242139410122645
 70
     1
  0
VERTEX
  5
1B68
330
1B5B
100
AcDbEntity
  8
AM_0
100
AcDbVertex
100
AcDb2dVertex
 10
-44.54545454545487
 20
-3.417742375116455
 30
0.0
  0
SEQEND
  5
1B69
330
1B5B
100
AcDbEntity
  8
AM_0
  0
SPLINE
  5
1B6A
330
1F
100
AcDbEntity
  8
AM_0
100
AcDbSpline
210
0.0
220
0.0
230
1.0
 70
     8
 71
     3
 72
     8
 73
     4
 74
     0
 42
0.0000000001
 43
0.0000000001
 40
0.0
 40
0.0
 40
0.0
 40
0.0
 40
4.451443990518192
 40
4.451443990518192
 40
4.451443990518192
 40
4.451443990518192
 10
-44.5454545454549
 20
-8.334555121334133
 30
0.0
 10
-39.92885210094366
 20
-8.311400106844866
 30
0.0
 10
-37.29759251064132
 20
-7.912203145645412
 30
0.0
 10
-34.71228103008668
 20
-7.237534588062274
 30
0.0
  0
ELLIPSE
  5
1B6B
330
1F
100
AcDbEntity
  8
AM_0
100
AcDbEllipse
 10
-49.43572012992226
 20
8.150073776366019
 30
0.0
 11
-17.35439917716696
 21
0.0000000000032958
 31
0.0
210
0.0
220
0.0
230
1.0
 40
0.9900000000000138
 41
1.63066528749528
 42
1.856453692418738
  0
ELLIPSE
  5
1B6C
330
1F
100
AcDbEntity
  8
AM_0
100
AcDbEllipse
 10
-49.42192671080039
 20
-23.92021144070766
 30
0.0
 11
21.27595006972993
 21
0.0000000000178494
 31
0.0
210
0.0
220
0.0
230
1.0
 40
0.9900000000000174
 41
1.112028147649104
 42
1.339539423866939
  0
SPLINE
  5
1B6D
330
1F
100
AcDbEntity
  8
AM_0
100
AcDbSpline
210
0.0
220
0.0
230
1.0
 70
     8
 71
     3
 72
     8
 73
     4
 74
     0
 42
0.0000000001
 43
0.0000000001
 40
0.3581103616548037
 40
0.3581103616548037
 40
0.3581103616548037
 40
0.3581103616548037
 40
14.43901837670146
 40
14.43901837670146
 40
14.43901837670146
 40
14.43901837670146
 10
-46.11674938029248
 20
8.99999999999996
 30
0.0
 10
-37.13384332084755
 20
8.513980214495777
 30
0.0
 10
-29.34378640406522
 20
4.256990107247925
 30
0.0
 10
-21.55372948728291
 20
0.0000000000000879
 30
0.0
  0
SPLINE
  5
1B6E
330
1F
100
AcDbEntity
  8
AM_0
100
AcDbSpline
210
0.0
220
0.0
230
1.0
 70
     8
 71
     3
 72
     8
 73
     4
 74
     0
 42
0.0000000001
 43
0.0000000001
 40
0.0
 40
0.0
 40
0.0
 40
0.0
 40
11.45610476152127
 40
11.45610476152127
 40
11.45610476152127
 40
11.45610476152127
 10
-21.55372948728322
 20
-8.7305106066035
 30
0.0
 10
-28.49682328214462
 20
-8.7305106066035
 30
0.0
 10
-34.95976655807778
 20
-5.982564169349042
 30
0.0
 10
-41.32351697457412
 20
-2.666927697521377
 30
0.0
  0
SPLINE
  5
1B6F
330
1F
100
AcDbEntity
  8
AM_0
100
AcDbSpline
210
0.0
220
0.0
230
1.0
 70
     8
 71
     3
 72
     8
 73
     4
 74
     0
 42
0.0000000001
 43
0.0000000001
 40
0.0
 40
0.0
 40
0.0
 40
0.0
 40
12.79333816032526
 40
12.79333816032526
 40
12.79333816032526
 40
12.79333816032526
 10
-17.89942421640928
 20
-8.311400106844642
 30
0.0
 10
-25.65296249539429
 20
-8.311400106844642
 30
0.0
 10
-32.85652446415605
 20
-5.014140372281792
 30
0.0
 10
-40.0000000000002
 20
-1.356645892749351
 30
0.0
  0
SPLINE
  5
1B70
330
1F
100
AcDbEntity
  8
AM_0
100
AcDbSpline
210
0.0
220
0.0
230
1.0
 70
     8
 71
     3
 72
     8
 73
     4
 74
     0
 42
0.0000000001
 43
0.0000000001
 40
1.090140354492627
 40
1.090140354492627
 40
1.090140354492627
 40
1.090140354492627
 40
14.36247867694493
 40
14.36247867694493
 40
14.36247867694493
 40
14.36247867694493
 10
-40.65630061773891
 20
8.241392994858902
 30
0.0
 10
-32.70600694593879
 20
7.680548506462747
 30
0.0
 10
-25.30271558117389
 20
3.840274253231429
 30
0.0
 10
-17.89942421640891
 20
0.0000000000000879
 30
0.0
  0
SPLINE
  5
1B71
330
1F
100
AcDbEntity
  8
AM_0
100
AcDbSpline
210
0.0
220
0.0
230
1.0
 70
     8
 71
     3
 72
     8
 73
     4
 74
     0
 42
0.0000000001
 43
0.0000000001
 40
0.0
 40
0.0
 40
0.0
 40
0.0
 40
5.635889483499305
 40
5.635889483499305
 40
5.635889483499305
 40
5.635889483499305
 10
-24.72727272727344
 20
9.000000000000191
 30
0.0
 10
-28.14296332333366
 20
9.000000000000191
 30
0.0
 10
-31.43625318879385
 20
8.319229252162628
 30
0.0
 10
-34.65475013280793
 20
7.222473789068312
 30
0.0
  0
SPLINE
  5
1B72
330
1F
100
AcDbEntity
  8
AM_0
100
AcDbSpline
210
0.0
220
0.0
230
1.0
 70
     8
 71
     3
 72
     8
 73
     4
 74
     0
 42
0.0000000001
 43
0.0000000001
 40
5.360156850992435
 40
5.360156850992435
 40
5.360156850992435
 40
5.360156850992435
 40
14.48999654934396
 40
14.48999654934396
 40
14.48999654934396
 40
14.48999654934396
 10
-40.00000000000046
 20
7.380430058976377
 30
0.0
 10
-34.77416697703305
 20
5.67070923760068
 30
0.0
 10
-29.75071985215306
 20
2.835354618800431
 30
0.0
 10
-24.72727272727306
 20
0.0000000000001918
 30
0.0
  0
SPLINE
  5
1B73
330
1F
100
AcDbEntity
  8
AM_0
100
AcDbSpline
210
0.0
220
0.0
230
1.0
 70
     8
 71
     3
 72
     8
 73
     4
 74
     0
 42
0.0000000001
 43
0.0000000001
 40
0.0
 40
0.0
 40
0.0
 40
0.0
 40
9.068166399416787
 40
9.068166399416787
 40
9.068166399416787
 40
9.068166399416787
 10
-24.72727272727343
 20
-8.999999999999808
 30
0.0
 10
-30.22313115116239
 20
-8.999999999999824
 30
0.0
 10
-35.40210723602935
 20
-7.23755768568373
 30
0.0
 10
-40.46251309116303
 20
-4.815649177243666
 30
0.0
  0
LINE
  5
1B74
330
1F
100
AcDbEntity
  8
AM_11
100
AcDbLine
 10
-0.0000000000017621
 20
9.0
 30
0.0
 11
-40.00000000000026
 21
8.999999999999964
 31
0.0
  0
LINE
  5
1B75
330
1F
100
AcDbEntity
  8
AM_11
100
AcDbLine
 10
-40.00000000000025
 20
-9.000000000000033
 30
0.0
 11
-0.0000000000003553
 21
-9.0
 31
0.0
  0
LINE
  5
1B86
330
1F
100
AcDbEntity
  8
AM_0
100
AcDbLine
 10
-54.00000000000002
 20
-9.999999999999927
 30
0.0
 11
-54.0
 21
9.999999999999975
 31
0.0
  0
LINE
  5
1BAD
330
1F
100
AcDbEntity
  8
AM_0
100
AcDbLine
 10
-54.0
 20
9.999999999999975
 30
0.0
 11
-51.25252258054539
 21
8.999999999999975
 31
0.0
  0
LINE
  5
1BAE
330
1F
100
AcDbEntity
  8
AM_0
100
AcDbLine
 10
-51.25252258054539
 20
8.999999999999975
 30
0.0
 11
-51.25252258054537
 21
-8.999999999999914
 31
0.0
  0
LINE
  5
1BAF
330
1F
100
AcDbEntity
  8
AM_0
100
AcDbLine
 10
-51.25252258054537
 20
-8.999999999999914
 30
0.0
 11
-54.00000000000002
 21
-9.999999999999927
 31
0.0
  0
LINE
  5
1BB0
330
1F
100
AcDbEntity
  8
AM_0
100
AcDbLine
 10
-51.25252258054537
 20
-8.999999999999914
 30
0.0
 11
-48.39735085029391
 21
-9.000000000000024
 31
0.0
  0
LINE
  5
1BB1
330
1F
100
AcDbEntity
  8
AM_0
100
AcDbLine
 10
-51.25252258054539
 20
8.999999999999975
 30
0.0
 11
-45.4899227161892
 21
8.999999999999975
 31
0.0
  0
LINE
  5
1EE9
330
1F
100
AcDbEntity
  8
AM_0
100
AcDbLine
 10
-0.0000000000027634
 20
-0.0000000000159763
 30
0.0
 11
-4.241830015842158
 21
-0.0000000000159763
 31
0.0
  0
LINE
  5
1EEA
330
1F
100
AcDbEntity
  8
AM_0
100
AcDbLine
 10
-4.241830015842158
 20
-1.440000000015996
 30
0.0
 11
-0.2078460969110276
 21
-1.440000000015996
 31
0.0
  0
LINE
  5
1EEB
330
1F
100
AcDbEntity
  8
AM_0
100
AcDbLine
 10
-0.0000000000027634
 20
-1.800000000015976
 30
0.0
 11
-1.039230484544135
 21
-0.000000000015874
 31
0.0
  0
LINE
  5
1EED
330
1F
100
AcDbEntity
  8
AM_0
100
AcDbLine
 10
-4.241830015842158
 20
-0.0000000000159763
 30
0.0
 11
-4.241830015842158
 21
-1.440000000015996
 31
0.0
  0
LINE
  5
1EEE
330
1F
100
AcDbEntity
  8
AM_0
100
AcDbLine
 10
-4.241830015842158
 20
-1.440000000015996
 30
0.0
 11
-1.564469064893391
 21
-2.652578577299777
 31
0.0
  0
LINE
  5
1EEF
330
1F
100
AcDbEntity
  8
AM_0
100
AcDbLine
 10
-0.0000000000027634
 20
-0.0000000000159763
 30
0.0
 11
-0.1599166964619039
 21
-1.523016156770328
 31
0.0
  0
LINE
  5
1EF0
330
1F
100
AcDbEntity
  8
AM_0
100
AcDbLine
 10
-0.189000000002745
 20
-2.38841613822971
 30
0.0
 11
-0.0000000000027634
 21
-1.800000000015976
 31
0.0
  0
VIEWPORT
  5
110
330
101
100
AcDbEntity
 67
     1
  8
0
100
AcDbViewport
 10
420.5
 20
297.0
 30
0.0
 40
948.9782706766916
 41
628.452
 68
     1
 69
     1
1001
ACAD
1000
MVIEW
1002
{
1070
    16
1010
0.0
1020
0.0
1030
0.0
1010
0.0
1020
0.0
1030
1.0
1040
0.0
1040
628.452
1040
420.5
1040
297.0
1040
50.0
1040
0.0
1040
0.0
1070
     0
1070
   100
1070
     1
1070
     1
1070
     0
1070
     0
1070
     0
1070
     0
1040
0.0
1040
0.0
1040
0.0
1040
10.0
1040
10.0
1040
10.0
1040
10.0
1070
     0
1002
{
1002
}
1002
}
  0
ENDSEC
  0
SECTION
  2
OBJECTS
  0
DICTIONARY
  5
C
330
0
100
AcDbDictionary
  3
ACAD_GROUP
350
D
  3
ACAD_LAYOUT
350
1A
  3
ACAD_MLINESTYLE
350
17
  3
ACAD_PLOTSETTINGS
350
19
  3
ACAD_PLOTSTYLENAME
350
E
  3
ACDBVARIABLEDICTIONARY
350
34
  3
ACMDICTIONARY
350
43
  3
AMG
350
2B
  3
AMGSNAPSETTINGS
350
6E
  3
DWGPROPS
350
1F0D
  3
ACDBHEADERROUNDTRIPXREC
350
1F19
  0
DICTIONARY
  5
74
330
1F
100
AcDbDictionary
280
     1
  3
ACAD_INDEX
360
1F0F
  3
ACAD_LAYOUTSELFREF
360
1F3C
  0
DICTIONARY
  5
1F41
330
101
100
AcDbDictionary
280
     1
  3
ACAD_LAYOUTSELFREF
360
1F42
  0
DICTIONARY
  5
D
102
{ACAD_REACTORS
330
C
102
}
330
C
100
AcDbDictionary
  0
DICTIONARY
  5
1A
102
{ACAD_REACTORS
330
C
102
}
330
C
100
AcDbDictionary
  0
DICTIONARY
  5
17
102
{ACAD_REACTORS
330
C
102
}
330
C
100
AcDbDictionary
  3
STANDARD
350
18
  0
DICTIONARY
  5
19
102
{ACAD_REACTORS
330
C
102
}
330
C
100
AcDbDictionary
  0
ACDBDICTIONARYWDFLT
  5
E
102
{ACAD_REACTORS
330
C
102
}
330
C
100
AcDbDictionary
281
     1
  3
Normal
350
F
100
AcDbDictionaryWithDefault
340
F
  0
DICTIONARY
  5
34
102
{ACAD_REACTORS
330
C
102
}
330
C
100
AcDbDictionary
  3
INDEXCTL
350
35
  3
SORTENTS
350
B5E
  0
DICTIONARY
  5
43
102
{ACAD_REACTORS
330
C
102
}
330
C
100
AcDbDictionary
  3
ACMSTDDICTIONARY
350
260
  0
DICTIONARY
  5
2B
102
{ACAD_REACTORS
330
C
102
}
330
C
100
AcDbDictionary
  3
ACMGSETTINGS
350
2C
  0
DICTIONARY
  5
6E
102
{ACAD_REACTORS
330
C
102
}
330
C
100
AcDbDictionary
  0
XRECORD
  5
1F0D
102
{ACAD_REACTORS
330
C
102
}
330
C
100
AcDbXrecord
  1
DWGPROPS COOKIE
  2

  3

  4

  6

  7

  8

  9

300
AmdtFileType=82
301
=
302
=
303
=
304
=
305
=
306
=
307
=
308
=
309
=
 40
0.0499821064814815
 41
2452836.771637361
 42
2452845.706755637
  1

 90
        1
  0
DICTIONARY
  5
1F19
102
{ACAD_REACTORS
330
C
102
}
330
C
100
AcDbDictionary
  3
TSTACKALIGN
350
1F1A
  3
TSTACKSIZE
350
1F1B
  3
HYPERLINKBASE
350
1F1C
  3
STYLESHEET
350
1F1D
  3
LAYOUTDICT
350
1F1E
  3
PLOTSETDICT
350
1F1F
  3
PLOTSTYLNAMDICT
350
1F20
  3
LWETCUNION
350
1F21
  3
INSUNITS
350
1F22
  3
CEPSNTYPE
350
1F23
  3
FINGERPRINTGUID
350
1F24
  3
VERSIONGUID
350
1F25
  3
PSVPSCALE
350
1F26
  3
DIMSTYLEDATA
350
1F27
  3
PUCSORTHOREF
350
1F28
  3
PUCSORTHOVIEW
350
1F29
  3
PUCSBASE
350
1F2A
  3
PUCSORGTOP
350
1F2B
  3
PUCSORGBOTTOM
350
1F2C
  3
PUCSORGLEFT
350
1F2D
  3
PUCSORGRIGHT
350
1F2E
  3
PUCSORGFRONT
350
1F2F
  3
PUCSORGBACK
350
1F30
  3
UCSORTHOREF
350
1F31
  3
UCSORTHOVIEW
350
1F32
  3
UCSBASE
350
1F33
  3
UCSORGTOP
350
1F34
  3
UCSORGBOTTOM
350
1F35
  3
UCSORGLEFT
350
1F36
  3
UCSORGRIGHT
350
1F37
  3
UCSORGFRONT
350
1F38
  3
UCSORGBACK
350
1F39
  0
DICTIONARY
  5
1F0F
102
{ACAD_REACTORS
330
74
102
}
330
74
100
AcDbDictionary
  3
*A1
350
1F10
  0
XRECORD
  5
1F3C
102
{ACAD_REACTORS
330
74
102
}
330
74
100
AcDbXrecord
340
1F
  0
XRECORD
  5
1F42
102
{ACAD_REACTORS
330
1F41
102
}
330
1F41
100
AcDbXrecord
340
101
  0
MLINESTYLE
  5
18
102
{ACAD_REACTORS
330
17
102
}
330
17
100
AcDbMlineStyle
  2
STANDARD
 70
     0
  3

 62
   256
 51
90.0
 52
90.0
 71
     2
 49
0.5
 62
   256
  6
BYLAYER
 49
-0.5
 62
   256
  6
BYLAYER
  0
ACDBPLACEHOLDER
  5
F
102
{ACAD_REACTORS
330
E
102
}
330
E
100
AcDbPlaceHolder
280
     0
  0
DICTIONARYVAR
  5
35
102
{ACAD_REACTORS
330
34
102
}
330
34
100
DictionaryVariables
280
     0
  1
1
  0
DICTIONARYVAR
  5
B5E
102
{ACAD_REACTORS
330
34
102
}
330
34
100
DictionaryVariables
280
     0
  1
96
  0
DICTIONARY
  5
260
102
{ACAD_REACTORS
330
43
102
}
330
43
100
AcDbDictionary
  0
DICTIONARY
  5
2C
102
{ACAD_REACTORS
330
2B
102
}
330
2B
100
AcDbDictionary
  3
DWGSETTINGS
350
2D
  0
XRECORD
  5
1F1A
102
{ACAD_REACTORS
330
1F19
102
}
330
1F19
100
AcDbXrecord
 90
        1
  0
XRECORD
  5
1F1B
102
{ACAD_REACTORS
330
1F19
102
}
330
1F19
100
AcDbXrecord
 90
       70
  0
XRECORD
  5
1F1C
102
{ACAD_REACTORS
330
1F19
102
}
330
1F19
100
AcDbXrecord
  1

  0
XRECORD
  5
1F1D
102
{ACAD_REACTORS
330
1F19
102
}
330
1F19
100
AcDbXrecord
  1
ASAMI.ctb
  0
XRECORD
  5
1F1E
102
{ACAD_REACTORS
330
1F19
102
}
330
1F19
100
AcDbXrecord
340
1A
  0
XRECORD
  5
1F1F
102
{ACAD_REACTORS
330
1F19
102
}
330
1F19
100
AcDbXrecord
340
19
  0
XRECORD
  5
1F20
102
{ACAD_REACTORS
330
1F19
102
}
330
1F19
100
AcDbXrecord
340
E
  0
XRECORD
  5
1F21
102
{ACAD_REACTORS
330
1F19
102
}
330
1F19
100
AcDbXrecord
 90
    10781
  0
XRECORD
  5
1F22
102
{ACAD_REACTORS
330
1F19
102
}
330
1F19
100
AcDbXrecord
 90
        4
  0
XRECORD
  5
1F23
102
{ACAD_REACTORS
330
1F19
102
}
330
1F19
100
AcDbXrecord
 90
        0
  0
XRECORD
  5
1F24
102
{ACAD_REACTORS
330
1F19
102
}
330
1F19
100
AcDbXrecord
  1
{AFB28963-8C59-40AE-9337-C84526B81ACE}
  0
XRECORD
  5
1F25
102
{ACAD_REACTORS
330
1F19
102
}
330
1F19
100
AcDbXrecord
  1
{79D0ACAC-D9AD-4C43-AAA5-C15E5764A1A7}
  0
XRECORD
  5
1F26
102
{ACAD_REACTORS
330
1F19
102
}
330
1F19
100
AcDbXrecord
 40
0.0
  0
XRECORD
  5
1F27
102
{ACAD_REACTORS
330
1F19
102
}
330
1F19
100
AcDbXrecord
1000
DSTYLE
1002
{
1070
    79
 70
     2
1070
   341
340
59
1070
   342
340
59
1070
   371
 70
    -1
1070
   372
 70
    -1
1002
}
  0
XRECORD
  5
1F28
102
{ACAD_REACTORS
330
1F19
102
}
330
1F19
100
AcDbXrecord
340
0
  0
XRECORD
  5
1F29
102
{ACAD_REACTORS
330
1F19
102
}
330
1F19
100
AcDbXrecord
 70
     0
  0
XRECORD
  5
1F2A
102
{ACAD_REACTORS
330
1F19
102
}
330
1F19
100
AcDbXrecord
340
0
  0
XRECORD
  5
1F2B
102
{ACAD_REACTORS
330
1F19
102
}
330
1F19
100
AcDbXrecord
 10
0.0
 20
0.0
 30
0.0
  0
XRECORD
  5
1F2C
102
{ACAD_REACTORS
330
1F19
102
}
330
1F19
100
AcDbXrecord
 10
0.0
 20
0.0
 30
0.0
  0
XRECORD
  5
1F2D
102
{ACAD_REACTORS
330
1F19
102
}
330
1F19
100
AcDbXrecord
 10
0.0
 20
0.0
 30
0.0
  0
XRECORD
  5
1F2E
102
{ACAD_REACTORS
330
1F19
102
}
330
1F19
100
AcDbXrecord
 10
0.0
 20
0.0
 30
0.0
  0
XRECORD
  5
1F2F
102
{ACAD_REACTORS
330
1F19
102
}
330
1F19
100
AcDbXrecord
 10
0.0
 20
0.0
 30
0.0
  0
XRECORD
  5
1F30
102
{ACAD_REACTORS
330
1F19
102
}
330
1F19
100
AcDbXrecord
 10
0.0
 20
0.0
 30
0.0
  0
XRECORD
  5
1F31
102
{ACAD_REACTORS
330
1F19
102
}
330
1F19
100
AcDbXrecord
340
0
  0
XRECORD
  5
1F32
102
{ACAD_REACTORS
330
1F19
102
}
330
1F19
100
AcDbXrecord
 70
     0
  0
XRECORD
  5
1F33
102
{ACAD_REACTORS
330
1F19
102
}
330
1F19
100
AcDbXrecord
340
0
  0
XRECORD
  5
1F34
102
{ACAD_REACTORS
330
1F19
102
}
330
1F19
100
AcDbXrecord
 10
0.0
 20
0.0
 30
0.0
  0
XRECORD
  5
1F35
102
{ACAD_REACTORS
330
1F19
102
}
330
1F19
100
AcDbXrecord
 10
0.0
 20
0.0
 30
0.0
  0
XRECORD
  5
1F36
102
{ACAD_REACTORS
330
1F19
102
}
330
1F19
100
AcDbXrecord
 10
0.0
 20
0.0
 30
0.0
  0
XRECORD
  5
1F37
102
{ACAD_REACTORS
330
1F19
102
}
330
1F19
100
AcDbXrecord
 10
0.0
 20
0.0
 30
0.0
  0
XRECORD
  5
1F38
102
{ACAD_REACTORS
330
1F19
102
}
330
1F19
100
AcDbXrecord
 10
0.0
 20
0.0
 30
0.0
  0
XRECORD
  5
1F39
102
{ACAD_REACTORS
330
1F19
102
}
330
1F19
100
AcDbXrecord
 10
0.0
 20
0.0
 30
0.0
  0
LAYER_INDEX
  5
1F10
102
{ACAD_REACTORS
330
1F0F
102
}
330
1F0F
100
AcDbIndex
 40
2453151.80142074
100
AcDbLayerIndex
  8
0
360
1F11
 90
        0
  8
AM_0
360
1F12
 90
       55
  8
AM_11
360
1F13
 90
        3
  8
AM_7
360
1F14
 90
        1
  8
AM_5
360
1F15
 90
        4
  8
Defpoints
360
1F16
 90
        0
  8
AM_6
360
1F17
 90
        1
  0
XRECORD
  5
2D
102
{ACAD_REACTORS
330
2C
102
}
330
2C
100
AcDbXrecord
  1
VERSION
140
15.0
  1
PRODUCT
  2
AutoCAD Mechanical 2000
  0
IDBUFFER
  5
1F11
330
0
100
AcDbIdBuffer
  0
IDBUFFER
  5
1F12
330
0
100
AcDbIdBuffer
330
1EE9
330
1EEA
330
1EEB
330
1EED
330
1EEE
330
1EEF
330
1EF0
330
1AA6
330
1AA7
330
1AA8
330
1AB8
330
1AC4
330
1AC7
330
1B32
330
1B33
330
1B34
330
1B35
330
1B36
330
1B37
330
1B38
330
1B39
330
1B3B
330
1B3C
330
1B3D
330
1B3E
330
1B3F
330
1B40
330
1B41
330
1B42
330
1B43
330
1B44
330
1B45
330
1B46
330
1B47
330
1B48
330
1B49
330
1B4A
330
1B4B
330
1B5B
330
1B6A
330
1B6B
330
1B6C
330
1B6D
330
1B6E
330
1B6F
330
1B70
330
1B71
330
1B72
330
1B73
330
1B86
330
1BAD
330
1BAE
330
1BAF
330
1BB0
330
1BB1
  0
IDBUFFER
  5
1F13
330
0
100
AcDbIdBuffer
330
1B5A
330
1B74
330
1B75
  0
IDBUFFER
  5
1F14
330
0
100
AcDbIdBuffer
330
D74
  0
IDBUFFER
  5
1F15
330
0
100
AcDbIdBuffer
330
D71
330
D7A
330
1AAB
330
1B25
  0
IDBUFFER
  5
1F16
330
0
100
AcDbIdBuffer
  0
IDBUFFER
  5
1F17
330
0
100
AcDbIdBuffer
330
E5A
  0
ENDSEC
  0
EOF
